  0
SECTION
  2
HEADER
  9
$ACADVER
  1
AC1024
  9
$ACADMAINTVER
 70
   226
  9
$DWGCODEPAGE
  3
ANSI_1252
  9
$LASTSAVEDBY
  1
mprenger
  9
$INSBASE
 10
0.0
 20
0.0
 30
0.0
  9
$EXTMIN
 10
96.43790009230464
 20
50.52502533027482
 30
0.0
  9
$EXTMAX
 10
127.9533885737786
 20
79.89815818573633
 30
0.0
  9
$LIMMIN
 10
0.0
 20
0.0
  9
$LIMMAX
 10
32.0
 20
20.0
  9
$ORTHOMODE
 70
     0
  9
$REGENMODE
 70
     1
  9
$FILLMODE
 70
     1
  9
$QTEXTMODE
 70
     0
  9
$MIRRTEXT
 70
     1
  9
$LTSCALE
 40
1.0
  9
$ATTMODE
 70
     1
  9
$TEXTSIZE
 40
0.4
  9
$TRACEWID
 40
0.05
  9
$TEXTSTYLE
  7
Semi-Bold
  9
$CLAYER
  8
DIM
  9
$CELTYPE
  6
BYLAYER
  9
$CECOLOR
 62
   256
  9
$CELTSCALE
 40
1.0
  9
$DISPSILH
 70
     0
  9
$DIMSCALE
 40
4.0
  9
$DIMASZ
 40
0.1
  9
$DIMEXO
 40
0.125
  9
$DIMDLI
 40
0.38
  9
$DIMRND
 40
0.0
  9
$DIMDLE
 40
0.0
  9
$DIMEXE
 40
0.1
  9
$DIMTP
 40
0.0
  9
$DIMTM
 40
0.0
  9
$DIMTXT
 40
0.1
  9
$DIMCEN
 40
0.09
  9
$DIMTSZ
 40
0.0
  9
$DIMTOL
 70
     0
  9
$DIMLIM
 70
     0
  9
$DIMTIH
 70
     1
  9
$DIMTOH
 70
     1
  9
$DIMSE1
 70
     0
  9
$DIMSE2
 70
     0
  9
$DIMTAD
 70
     0
  9
$DIMZIN
 70
     0
  9
$DIMBLK
  1

  9
$DIMASO
 70
     1
  9
$DIMSHO
 70
     1
  9
$DIMPOST
  1
"
  9
$DIMAPOST
  1

  9
$DIMALT
 70
     0
  9
$DIMALTD
 70
     2
  9
$DIMALTF
 40
25.4
  9
$DIMLFAC
 40
1.0
  9
$DIMTOFL
 70
     0
  9
$DIMTVP
 40
0.0
  9
$DIMTIX
 70
     0
  9
$DIMSOXD
 70
     0
  9
$DIMSAH
 70
     0
  9
$DIMBLK1
  1

  9
$DIMBLK2
  1

  9
$DIMSTYLE
  2
STANDARD
  9
$DIMCLRD
 70
   256
  9
$DIMCLRE
 70
   256
  9
$DIMCLRT
 70
   256
  9
$DIMTFAC
 40
1.0
  9
$DIMGAP
 40
0.09
  9
$DIMJUST
 70
     0
  9
$DIMSD1
 70
     0
  9
$DIMSD2
 70
     0
  9
$DIMTOLJ
 70
     1
  9
$DIMTZIN
 70
     0
  9
$DIMALTZ
 70
     0
  9
$DIMALTTZ
 70
     0
  9
$DIMUPT
 70
     0
  9
$DIMDEC
 70
     3
  9
$DIMTDEC
 70
     3
  9
$DIMALTU
 70
     2
  9
$DIMALTTD
 70
     2
  9
$DIMTXSTY
  7
STANDARD
  9
$DIMAUNIT
 70
     0
  9
$DIMADEC
 70
     0
  9
$DIMALTRND
 40
0.0
  9
$DIMAZIN
 70
     0
  9
$DIMDSEP
 70
    46
  9
$DIMATFIT
 70
     3
  9
$DIMFRAC
 70
     1
  9
$DIMLDRBLK
  1

  9
$DIMLUNIT
 70
     5
  9
$DIMLWD
 70
    -1
  9
$DIMLWE
 70
    -1
  9
$DIMTMOVE
 70
     0
  9
$DIMFXL
 40
1.0
  9
$DIMFXLON
 70
     0
  9
$DIMJOGANG
 40
0.7853981633974483
  9
$DIMTFILL
 70
     0
  9
$DIMTFILLCLR
 70
     0
  9
$DIMARCSYM
 70
     0
  9
$DIMLTYPE
  6
BYLAYER
  9
$DIMLTEX1
  6
BYLAYER
  9
$DIMLTEX2
  6
BYLAYER
  9
$DIMTXTDIRECTION
 70
     0
  9
$LUNITS
 70
     2
  9
$LUPREC
 70
     3
  9
$SKETCHINC
 40
0.1
  9
$FILLETRAD
 40
0.2
  9
$AUNITS
 70
     0
  9
$AUPREC
 70
     0
  9
$MENU
  1
.
  9
$ELEVATION
 40
0.0
  9
$PELEVATION
 40
0.0
  9
$THICKNESS
 40
0.0
  9
$LIMCHECK
 70
     0
  9
$CHAMFERA
 40
0.0
  9
$CHAMFERB
 40
0.0
  9
$CHAMFERC
 40
1.0
  9
$CHAMFERD
 40
0.0
  9
$SKPOLY
 70
     0
  9
$TDCREATE
 40
2457791.587835648
  9
$TDUCREATE
 40
2457791.921177697
  9
$TDUPDATE
 40
2458572.292106481
  9
$TDUUPDATE
 40
2458572.583773149
  9
$TDINDWG
 40
1.0919673148
  9
$TDUSRTIMER
 40
1.0919672569
  9
$USRTIMER
 70
     1
  9
$ANGBASE
 50
0.0
  9
$ANGDIR
 70
     0
  9
$PDMODE
 70
     0
  9
$PDSIZE
 40
0.0
  9
$PLINEWID
 40
0.0
  9
$SPLFRAME
 70
     0
  9
$SPLINETYPE
 70
     6
  9
$SPLINESEGS
 70
     8
  9
$HANDSEED
  5
4B962
  9
$SURFTAB1
 70
     6
  9
$SURFTAB2
 70
     6
  9
$SURFTYPE
 70
     6
  9
$SURFU
 70
     6
  9
$SURFV
 70
     6
  9
$UCSBASE
  2

  9
$UCSNAME
  2

  9
$UCSORG
 10
0.0
 20
0.0
 30
0.0
  9
$UCSXDIR
 10
1.0
 20
0.0
 30
0.0
  9
$UCSYDIR
 10
0.0
 20
1.0
 30
0.0
  9
$UCSORTHOREF
  2

  9
$UCSORTHOVIEW
 70
     0
  9
$UCSORGTOP
 10
0.0
 20
0.0
 30
0.0
  9
$UCSORGBOTTOM
 10
0.0
 20
0.0
 30
0.0
  9
$UCSORGLEFT
 10
0.0
 20
0.0
 30
0.0
  9
$UCSORGRIGHT
 10
0.0
 20
0.0
 30
0.0
  9
$UCSORGFRONT
 10
0.0
 20
0.0
 30
0.0
  9
$UCSORGBACK
 10
0.0
 20
0.0
 30
0.0
  9
$PUCSBASE
  2

  9
$PUCSNAME
  2

  9
$PUCSORG
 10
0.0
 20
0.0
 30
0.0
  9
$PUCSXDIR
 10
1.0
 20
0.0
 30
0.0
  9
$PUCSYDIR
 10
0.0
 20
1.0
 30
0.0
  9
$PUCSORTHOREF
  2

  9
$PUCSORTHOVIEW
 70
     0
  9
$PUCSORGTOP
 10
0.0
 20
0.0
 30
0.0
  9
$PUCSORGBOTTOM
 10
0.0
 20
0.0
 30
0.0
  9
$PUCSORGLEFT
 10
0.0
 20
0.0
 30
0.0
  9
$PUCSORGRIGHT
 10
0.0
 20
0.0
 30
0.0
  9
$PUCSORGFRONT
 10
0.0
 20
0.0
 30
0.0
  9
$PUCSORGBACK
 10
0.0
 20
0.0
 30
0.0
  9
$USERI1
 70
     0
  9
$USERI2
 70
     0
  9
$USERI3
 70
     0
  9
$USERI4
 70
     0
  9
$USERI5
 70
     0
  9
$USERR1
 40
0.0
  9
$USERR2
 40
0.0
  9
$USERR3
 40
0.0
  9
$USERR4
 40
0.0
  9
$USERR5
 40
0.0
  9
$WORLDVIEW
 70
     1
  9
$SHADEDGE
 70
     3
  9
$SHADEDIF
 70
    70
  9
$TILEMODE
 70
     0
  9
$MAXACTVP
 70
    64
  9
$PINSBASE
 10
0.0
 20
0.0
 30
0.0
  9
$PLIMCHECK
 70
     0
  9
$PEXTMIN
 10
0.1748716133057535
 20
0.08010700465399
 30
0.0
  9
$PEXTMAX
 10
16.705454049802
 20
10.62446536068711
 30
0.0
  9
$PLIMMIN
 10
-0.0483389501661827
 20
-0.1467972568498593
  9
$PLIMMAX
 10
16.95166056924202
 20
10.85320250285425
  9
$UNITMODE
 70
     0
  9
$VISRETAIN
 70
     1
  9
$PLINEGEN
 70
     0
  9
$PSLTSCALE
 70
     1
  9
$TREEDEPTH
 70
  3020
  9
$CMLSTYLE
  2
STANDARD
  9
$CMLJUST
 70
     0
  9
$CMLSCALE
 40
1.0
  9
$PROXYGRAPHICS
 70
     1
  9
$MEASUREMENT
 70
     0
  9
$CELWEIGHT
370
    -1
  9
$ENDCAPS
280
     0
  9
$JOINSTYLE
280
     0
  9
$LWDISPLAY
290
     0
  9
$INSUNITS
 70
     1
  9
$HYPERLINKBASE
  1

  9
$STYLESHEET
  1

  9
$XEDIT
290
     1
  9
$CEPSNTYPE
380
     0
  9
$PSTYLEMODE
290
     1
  9
$FINGERPRINTGUID
  2
{E90A0893-256A-4567-B09F-A575F22BC635}
  9
$VERSIONGUID
  2
{D38C791E-D568-F64B-A471-304393A925F0}
  9
$EXTNAMES
290
     1
  9
$PSVPSCALE
 40
0.0
  9
$OLESTARTUP
290
     0
  9
$SORTENTS
280
    96
  9
$INDEXCTL
280
     0
  9
$HIDETEXT
280
     0
  9
$XCLIPFRAME
280
     0
  9
$HALOGAP
280
     0
  9
$OBSCOLOR
 70
   257
  9
$OBSLTYPE
280
     0
  9
$INTERSECTIONDISPLAY
280
     0
  9
$INTERSECTIONCOLOR
 70
   257
  9
$DIMASSOC
280
     1
  9
$PROJECTNAME
  1

  9
$CAMERADISPLAY
290
     0
  9
$LENSLENGTH
 40
50.0
  9
$CAMERAHEIGHT
 40
0.0
  9
$STEPSPERSEC
 40
2.0
  9
$STEPSIZE
 40
6.0
  9
$3DDWFPREC
 40
2.0
  9
$PSOLWIDTH
 40
0.25
  9
$PSOLHEIGHT
 40
4.0
  9
$LOFTANG1
 40
1.570796326794896
  9
$LOFTANG2
 40
1.570796326794896
  9
$LOFTMAG1
 40
0.0
  9
$LOFTMAG2
 40
0.0
  9
$LOFTPARAM
 70
     7
  9
$LOFTNORMALS
280
     1
  9
$LATITUDE
 40
37.795
  9
$LONGITUDE
 40
-122.394
  9
$NORTHDIRECTION
 40
0.0
  9
$TIMEZONE
 70
 -8000
  9
$LIGHTGLYPHDISPLAY
280
     1
  9
$TILEMODELIGHTSYNCH
280
     1
  9
$CMATERIAL
347
1FD1
  9
$SOLIDHIST
280
     0
  9
$SHOWHIST
280
     1
  9
$DWFFRAME
280
     2
  9
$DGNFRAME
280
     0
  9
$REALWORLDSCALE
290
     1
  9
$INTERFERECOLOR
 62
     1
  9
$INTERFEREOBJVS
345
1FF3
  9
$INTERFEREVPVS
346
20C9
  9
$CSHADOW
280
     0
  9
$SHADOWPLANELOCATION
 40
0.0
  0
ENDSEC
  0
SECTION
  2
CLASSES
  0
CLASS
  1
ACDBDICTIONARYWDFLT
  2
AcDbDictionaryWithDefault
  3
ObjectDBX Classes
 90
        0
 91
        1
280
     0
281
     0
  0
CLASS
  1
DICTIONARYVAR
  2
AcDbDictionaryVar
  3
ObjectDBX Classes
 90
        0
 91
       26
280
     0
281
     0
  0
CLASS
  1
MATERIAL
  2
AcDbMaterial
  3
ObjectDBX Classes
 90
     1153
 91
        3
280
     0
281
     0
  0
CLASS
  1
VISUALSTYLE
  2
AcDbVisualStyle
  3
ObjectDBX Classes
 90
     4095
 91
       26
280
     0
281
     0
  0
CLASS
  1
TABLESTYLE
  2
AcDbTableStyle
  3
ObjectDBX Classes
 90
     4095
 91
        1
280
     0
281
     0
  0
CLASS
  1
SCALE
  2
AcDbScale
  3
ObjectDBX Classes
 90
     1153
 91
       33
280
     0
281
     0
  0
CLASS
  1
MLEADERSTYLE
  2
AcDbMLeaderStyle
  3
ACDB_MLEADERSTYLE_CLASS
 90
     4095
 91
        1
280
     0
281
     0
  0
CLASS
  1
CELLSTYLEMAP
  2
AcDbCellStyleMap
  3
ObjectDBX Classes
 90
     1152
 91
        2
280
     0
281
     0
  0
CLASS
  1
ACDBSECTIONVIEWSTYLE
  2
AcDbSectionViewStyle
  3
ObjectDBX Classes
 90
     1025
 91
        1
280
     0
281
     0
  0
CLASS
  1
ACDBDETAILVIEWSTYLE
  2
AcDbDetailViewStyle
  3
ObjectDBX Classes
 90
     1025
 91
        1
280
     0
281
     0
  0
CLASS
  1
SORTENTSTABLE
  2
AcDbSortentsTable
  3
ObjectDBX Classes
 90
        0
 91
        1
280
     0
281
     0
  0
CLASS
  1
RASTERVARIABLES
  2
AcDbRasterVariables
  3
ISM
 90
        0
 91
        1
280
     0
281
     0
  0
CLASS
  1
WIPEOUTVARIABLES
  2
AcDbWipeoutVariables
  3
"WipeOut|Product Desc:     WipeOut Dbx Application|Company:          Autodesk, Inc.|WEB Address:      www.autodesk.com"
 90
        0
 91
        1
280
     0
281
     0
  0
ENDSEC
  0
SECTION
  2
TABLES
  0
TABLE
  2
VPORT
  5
8
330
0
100
AcDbSymbolTable
 70
     1
  0
VPORT
  5
1FC7
330
8
100
AcDbSymbolTableRecord
100
AcDbViewportTableRecord
  2
*Active
 70
     0
 10
0.0
 20
0.0
 11
1.0
 21
1.0
 12
108.4294242604397
 22
64.43028008403866
 13
0.0
 23
0.0
 14
0.1
 24
0.1
 15
10.0
 25
10.0
 16
0.0
 26
0.0
 36
1.0
 17
0.0
 27
0.0
 37
0.0
 40
47.52410468043549
 41
2.251925192519252
 42
50.0
 43
0.0
 44
0.0
 50
0.0
 51
0.0
 71
     0
 72
   100
 73
     1
 74
     3
 75
     0
 76
     0
 77
     0
 78
     0
281
     0
 65
     1
110
0.0
120
0.0
130
0.0
111
1.0
121
0.0
131
0.0
112
0.0
122
1.0
132
0.0
 79
     0
146
0.0
348
1FEF
 60
     3
 61
     5
292
     1
282
     1
141
0.0
142
0.0
 63
   250
421
  3355443
1001
ACAD_NAV_VCDISPLAY
1070
     3
  0
ENDTAB
  0
TABLE
  2
LTYPE
  5
5
330
0
100
AcDbSymbolTable
 70
     2
  0
LTYPE
  5
14
330
5
100
AcDbSymbolTableRecord
100
AcDbLinetypeTableRecord
  2
BYBLOCK
 70
     0
  3

 72
    65
 73
     0
 40
0.0
  0
LTYPE
  5
15
330
5
100
AcDbSymbolTableRecord
100
AcDbLinetypeTableRecord
  2
BYLAYER
 70
     0
  3

 72
    65
 73
     0
 40
0.0
  0
LTYPE
  5
16
330
5
100
AcDbSymbolTableRecord
100
AcDbLinetypeTableRecord
  2
CONTINUOUS
 70
     0
  3
Solid line
 72
    65
 73
     0
 40
0.0
  0
ENDTAB
  0
TABLE
  2
LAYER
  5
2
102
{ACAD_XDICTIONARY
360
2048
102
}
330
0
100
AcDbSymbolTable
 70
     9
  0
LAYER
  5
10
102
{ACAD_XDICTIONARY
360
2022
102
}
330
2
100
AcDbSymbolTableRecord
100
AcDbLayerTableRecord
  2
0
 70
     0
 62
     7
  6
CONTINUOUS
370
    -3
390
1BB4
347
1FE1
  0
LAYER
  5
2C
102
{ACAD_XDICTIONARY
360
2026
102
}
330
2
100
AcDbSymbolTableRecord
100
AcDbLayerTableRecord
  2
TITLE
 70
     0
 62
     7
  6
CONTINUOUS
370
    -3
390
1BB4
347
1FE1
  0
LAYER
  5
2D
102
{ACAD_XDICTIONARY
360
2028
102
}
330
2
100
AcDbSymbolTableRecord
100
AcDbLayerTableRecord
  2
DIM
 70
     0
 62
     7
  6
CONTINUOUS
370
    -3
390
1BB4
347
1FE1
  0
LAYER
  5
B0C
330
2
100
AcDbSymbolTableRecord
100
AcDbLayerTableRecord
  2
DEFPOINTS
 70
     0
 62
     7
  6
CONTINUOUS
290
     0
370
    -3
390
1BB4
347
1FE1
  0
LAYER
  5
1664
102
{ACAD_XDICTIONARY
360
202A
102
}
330
2
100
AcDbSymbolTableRecord
100
AcDbLayerTableRecord
  2
VIEWPORT
 70
     0
 62
    -7
  6
CONTINUOUS
370
    -3
390
1BB4
347
1FE1
  0
LAYER
  5
22D5
102
{ACAD_XDICTIONARY
360
4B793
102
}
330
2
100
AcDbSymbolTableRecord
100
AcDbLayerTableRecord
  2
Part
 70
     0
 62
     7
  6
CONTINUOUS
370
    35
390
1BB4
347
1FE1
1001
AcAecLayerStandard
1000

1000

1001
AcCmTransparency
1071
        0
  0
LAYER
  5
22D8
102
{ACAD_XDICTIONARY
360
4B795
102
}
330
2
100
AcDbSymbolTableRecord
100
AcDbLayerTableRecord
  2
Precision Part
 70
     0
 62
     7
  6
CONTINUOUS
370
    -3
390
1BB4
347
1FE1
1001
AcAecLayerStandard
1000

1000

1001
AcCmTransparency
1071
        0
  0
LAYER
  5
22DA
102
{ACAD_XDICTIONARY
360
4B797
102
}
330
2
100
AcDbSymbolTableRecord
100
AcDbLayerTableRecord
  2
Text
 70
     0
 62
     7
  6
CONTINUOUS
370
    -3
390
1BB4
347
1FE1
1001
AcAecLayerStandard
1000

1000

1001
AcCmTransparency
1071
        0
  0
LAYER
  5
22FF
102
{ACAD_XDICTIONARY
360
4B799
102
}
330
2
100
AcDbSymbolTableRecord
100
AcDbLayerTableRecord
  2
PEN1
 70
     0
 62
    -7
  6
CONTINUOUS
370
    -3
390
1BB4
347
1FE1
  0
ENDTAB
  0
TABLE
  2
STYLE
  5
3
330
0
100
AcDbSymbolTable
 70
     5
  0
STYLE
  5
11
330
3
100
AcDbSymbolTableRecord
100
AcDbTextStyleTableRecord
  2
STANDARD
 70
     0
 40
0.0
 41
1.0
 50
0.0
 71
     0
 42
1.199999999999999
  3
simplex.shx
  4

  0
STYLE
  5
30
330
3
100
AcDbSymbolTableRecord
100
AcDbTextStyleTableRecord
  2
TITLE
 70
     0
 40
0.0
 41
1.0
 50
0.0
 71
     0
 42
0.1
  3
arial.ttf
  4

1001
ACAD
1000
Arial
1071
       34
  0
STYLE
  5
1CD0
330
3
100
AcDbSymbolTableRecord
100
AcDbTextStyleTableRecord
  2
Semi-Bold
 70
     0
 40
0.0
 41
1.0
 50
0.0
 71
     0
 42
0.4
  3
arialbd.ttf
  4

1001
ACAD
1000
Arial
1071
 33554466
  0
STYLE
  5
213A
330
3
100
AcDbSymbolTableRecord
100
AcDbTextStyleTableRecord
  2
Title Bold
 70
     0
 40
0.0
 41
1.0
 50
0.0
 71
     0
 42
0.09
  3
arialbd.ttf
  4

1001
ACAD
1000
Arial
1071
 33554466
  0
STYLE
  5
213B
330
3
100
AcDbSymbolTableRecord
100
AcDbTextStyleTableRecord
  2
Title light
 70
     0
 40
0.0
 41
1.0
 50
0.0
 71
     0
 42
0.2
  3
simplex.shx
  4

  0
ENDTAB
  0
TABLE
  2
VIEW
  5
6
330
0
100
AcDbSymbolTable
 70
     2
  0
ENDTAB
  0
TABLE
  2
UCS
  5
7
330
0
100
AcDbSymbolTable
 70
     0
  0
ENDTAB
  0
TABLE
  2
APPID
  5
9
330
0
100
AcDbSymbolTable
 70
    15
  0
APPID
  5
12
330
9
100
AcDbSymbolTableRecord
100
AcDbRegAppTableRecord
  2
ACAD
 70
     0
  0
APPID
  5
2021
330
9
100
AcDbSymbolTableRecord
100
AcDbRegAppTableRecord
  2
ACAD_MLEADERVER
 70
     0
  0
APPID
  5
2050
330
9
100
AcDbSymbolTableRecord
100
AcDbRegAppTableRecord
  2
ACAD_DSTYLE_DIMJAG
 70
     0
  0
APPID
  5
2051
330
9
100
AcDbSymbolTableRecord
100
AcDbRegAppTableRecord
  2
ACAD_DSTYLE_DIMTALN
 70
     0
  0
APPID
  5
2053
330
9
100
AcDbSymbolTableRecord
100
AcDbRegAppTableRecord
  2
ACAD_EXEMPT_FROM_CAD_STANDARDS
 70
     0
  0
APPID
  5
20B0
330
9
100
AcDbSymbolTableRecord
100
AcDbRegAppTableRecord
  2
ACAD_DSTYLE_DIM_LINETYPE
 70
     0
  0
APPID
  5
20B1
330
9
100
AcDbSymbolTableRecord
100
AcDbRegAppTableRecord
  2
ACAD_DSTYLE_DIM_EXT1_LINETYPE
 70
     0
  0
APPID
  5
20B2
330
9
100
AcDbSymbolTableRecord
100
AcDbRegAppTableRecord
  2
ACAD_DSTYLE_DIM_EXT2_LINETYPE
 70
     0
  0
APPID
  5
213C
330
9
100
AcDbSymbolTableRecord
100
AcDbRegAppTableRecord
  2
ACAD_PSEXT
 70
     0
  0
APPID
  5
213D
330
9
100
AcDbSymbolTableRecord
100
AcDbRegAppTableRecord
  2
ACAD_NAV_VCDISPLAY
 70
     0
  0
APPID
  5
213E
330
9
100
AcDbSymbolTableRecord
100
AcDbRegAppTableRecord
  2
AcDbBlockRepETag
 70
     0
  0
APPID
  5
213F
330
9
100
AcDbSymbolTableRecord
100
AcDbRegAppTableRecord
  2
ACAD_DSTYLE_DIMBREAK
 70
     0
  0
APPID
  5
22B7
330
9
100
AcDbSymbolTableRecord
100
AcDbRegAppTableRecord
  2
AcadAnnoPO
 70
     0
  0
APPID
  5
22D6
330
9
100
AcDbSymbolTableRecord
100
AcDbRegAppTableRecord
  2
AcAecLayerStandard
 70
     0
  0
APPID
  5
22D7
330
9
100
AcDbSymbolTableRecord
100
AcDbRegAppTableRecord
  2
AcCmTransparency
 70
     0
  0
ENDTAB
  0
TABLE
  2
DIMSTYLE
  5
A
330
0
100
AcDbSymbolTable
 70
     1
100
AcDbDimStyleTable
 71
     1
340
27
  0
DIMSTYLE
105
27
102
{ACAD_REACTORS
330
4B5F6
330
4B694
330
4B6FA
330
4B70B
330
4B719
102
}
330
A
100
AcDbSymbolTableRecord
100
AcDbDimStyleTableRecord
  2
STANDARD
 70
     0
  3
"
 40
4.0
 41
0.1
 42
0.125
 44
0.1
140
0.1
176
   256
177
   256
178
   256
271
     3
272
     3
276
     1
277
     5
340
11
345
15
346
15
347
15
371
    -1
372
    -1
1001
ACAD_DSTYLE_DIMJAG
1070
   388
1040
1.5
1001
ACAD_DSTYLE_DIMTALN
1070
   392
1070
     0
  0
ENDTAB
  0
TABLE
  2
BLOCK_RECORD
  5
1
330
0
100
AcDbSymbolTable
 70
     7
  0
BLOCK_RECORD
  5
1F
102
{ACAD_XDICTIONARY
360
1BAA
102
}
330
1
100
AcDbSymbolTableRecord
100
AcDbBlockTableRecord
  2
*MODEL_SPACE
340
1BB5
 70
     0
280
     1
281
     0
  0
BLOCK_RECORD
  5
1B
102
{ACAD_XDICTIONARY
360
1BA8
102
}
330
1
100
AcDbSymbolTableRecord
100
AcDbBlockTableRecord
  2
*PAPER_SPACE
340
1BB6
 70
     0
280
     1
281
     0
  0
BLOCK_RECORD
  5
20ED
330
1
100
AcDbSymbolTableRecord
100
AcDbBlockTableRecord
  2
bega
340
0
310
2800000020000000200000000100080000000000000400000000000000000000000000000000000000000000000080000080000000808000800000008000800080800000C0C0C000C0DCC000F0CAA6000020400000206000002080000020A0000020C0000020E00000400000004020000040400000406000004080000040A0
310
000040C0000040E00000600000006020000060400000606000006080000060A0000060C0000060E00000800000008020000080400000806000008080000080A0000080C0000080E00000A0000000A0200000A0400000A0600000A0800000A0A00000A0C00000A0E00000C0000000C0200000C0400000C0600000C0800000C0
310
A00000C0C00000C0E00000E0000000E0200000E0400000E0600000E0800000E0A00000E0C00000E0E00040000000400020004000400040006000400080004000A0004000C0004000E00040200000402020004020400040206000402080004020A0004020C0004020E000404000004040200040404000404060004040800040
310
40A0004040C0004040E00040600000406020004060400040606000406080004060A0004060C0004060E00040800000408020004080400040806000408080004080A0004080C0004080E00040A0000040A0200040A0400040A0600040A0800040A0A00040A0C00040A0E00040C0000040C0200040C0400040C0600040C08000
310
40C0A00040C0C00040C0E00040E0000040E0200040E0400040E0600040E0800040E0A00040E0C00040E0E00080000000800020008000400080006000800080008000A0008000C0008000E00080200000802020008020400080206000802080008020A0008020C0008020E00080400000804020008040400080406000804080
310
008040A0008040C0008040E00080600000806020008060400080606000806080008060A0008060C0008060E00080800000808020008080400080806000808080008080A0008080C0008080E00080A0000080A0200080A0400080A0600080A0800080A0A00080A0C00080A0E00080C0000080C0200080C0400080C0600080C0
310
800080C0A00080C0C00080C0E00080E0000080E0200080E0400080E0600080E0800080E0A00080E0C00080E0E000C0000000C0002000C0004000C0006000C0008000C000A000C000C000C000E000C0200000C0202000C0204000C0206000C0208000C020A000C020C000C020E000C0400000C0402000C0404000C0406000C0
310
408000C040A000C040C000C040E000C0600000C0602000C0604000C0606000C0608000C060A000C060C000C060E000C0800000C0802000C0804000C0806000C0808000C080A000C080C000C080E000C0A00000C0A02000C0A04000C0A06000C0A08000C0A0A000C0A0C000C0A0E000C0C00000C0C02000C0C04000C0C06000
310
C0C08000C0C0A000F0FBFF00A4A0A000808080000000FF0000FF000000FFFF00FF000000FF00FF00FFFF0000FFFFFF0000000000000000000000000000000000000000000000000000000000000000000000000000000000000000000000000000000000000000000000000000000000000000000000000000000000000000
310
00000000000000000000000000000000000000000000000000000000000000000000000000000000000000000000000000000000000000000000000000000000000000000000000000000000000000000000000000000000000000000000000000000000000000000000000000000000000000000000000000000000000000
310
00000000000000000000000000000000000000000000000000000000000000000000000000000000000000000000000000000000000000000000000000000000000000000000000000000000000000000000000000000000000000000000000000000000000000000000000000000000000000000000000000000000000000
310
000000000000000000000000000000000000000000000000000000000000000000000000FFFFFF00000000000000000000000000FFFFFFFFFFFFFFFFFFFFFFFFFFFF00FFFFFFFFFFFFFFFFFF000000FFFFFF0000FFFFFFFFFFFFFFFFFFFFFFFFFFFFFFFFFFFFFFFFFFFFFFFFFFFFFFFFFFFF0000FFFFFF0000FFFFFFFFFF00
310
000000FFFFFF0000FFFFFFFFFFFFFFFFFFFF000000FFFFFFFFFFFFFFFFFFFFFFFFFFFFFFFF00FFFFFFFFFFFFFFFFFFFFFFFF000000FFFFFFFFFFFFFFFFFFFFFFFFFFFFFFFF00FFFFFFFFFF00FFFF00FFFF00000000FFFFFF00FFFFFFFFFFFF00000000FFFFFF0000FFFFFF00FFFFFFFFFF00000000FFFFFFFFFFFFFFFFFFFF
310
FFFFFFFFFFFFFFFFFFFFFF000000FFFFFF0000000000FFFFFFFFFFFFFFFFFFFFFFFFFFFF00FFFFFFFFFFFF000000FFFFFF000000000000000000000000000000000000000000FFFFFF000000000000000000000000000000000000000000000000000000000000000000000000000000000000000000000000000000000000
310
00000000000000000000000000000000000000000000000000000000000000000000000000000000000000000000000000000000000000000000000000000000000000000000000000000000000000000000000000000000000000000000000000000000000000000000000000000000000000000000000000000000000000
310
00000000000000000000000000000000000000000000000000000000000000000000000000000000000000000000000000000000000000000000000000000000000000000000000000000000000000000000000000000000000000000000000000000000000000000000000000000000000000000000000000000000000000
310
0000000000000000000000000000000000000000000000000000000000000000000000000000000000000000000000000000000000000000
102
{BLKREFS
331
2138
102
}
 70
     1
280
     1
281
     0
  0
BLOCK_RECORD
  5
2134
102
{ACAD_XDICTIONARY
360
2135
102
}
330
1
100
AcDbSymbolTableRecord
100
AcDbBlockTableRecord
  2
bega logo
340
0
102
{BLKREFS
331
219E
102
}
 70
     1
280
     1
281
     0
  0
BLOCK_RECORD
  5
4B5F7
330
1
100
AcDbSymbolTableRecord
100
AcDbBlockTableRecord
  2
*D2
340
0
 70
     0
280
     1
281
     0
  0
BLOCK_RECORD
  5
4B695
330
1
100
AcDbSymbolTableRecord
100
AcDbBlockTableRecord
  2
*D3
340
0
 70
     0
280
     1
281
     0
  0
BLOCK_RECORD
  5
4B6FB
330
1
100
AcDbSymbolTableRecord
100
AcDbBlockTableRecord
  2
*D4
340
0
 70
     0
280
     1
281
     0
  0
BLOCK_RECORD
  5
4B70C
330
1
100
AcDbSymbolTableRecord
100
AcDbBlockTableRecord
  2
*D5
340
0
 70
     0
280
     1
281
     0
  0
BLOCK_RECORD
  5
4B71A
330
1
100
AcDbSymbolTableRecord
100
AcDbBlockTableRecord
  2
*D6
340
0
 70
     0
280
     1
281
     0
  0
ENDTAB
  0
ENDSEC
  0
SECTION
  2
BLOCKS
  0
BLOCK
  5
20
330
1F
100
AcDbEntity
  8
0
100
AcDbBlockBegin
  2
*MODEL_SPACE
 70
     0
 10
0.0
 20
0.0
 30
0.0
  3
*MODEL_SPACE
  1

  0
ENDBLK
  5
21
330
1F
100
AcDbEntity
  8
0
100
AcDbBlockEnd
  0
BLOCK
  5
1C
330
1B
100
AcDbEntity
 67
     1
  8
0
100
AcDbBlockBegin
  2
*PAPER_SPACE
 70
     0
 10
0.0
 20
0.0
 30
0.0
  3
*PAPER_SPACE
  1

  0
ENDBLK
  5
1D
330
1B
100
AcDbEntity
 67
     1
  8
0
100
AcDbBlockEnd
  0
BLOCK
  5
20EE
330
20ED
100
AcDbEntity
  8
0
100
AcDbBlockBegin
  2
bega
 70
     0
 10
0.0
 20
0.0
 30
0.0
  3
bega
  1

  0
HATCH
  5
20EF
330
20ED
100
AcDbEntity
  8
0
100
AcDbHatch
 10
0.0
 20
0.0
 30
0.0
210
0.0
220
0.0
230
1.0
  2
SOLID
 70
     1
 71
     1
 91
       17
 92
        1
 93
       15
 72
     4
 94
        3
 73
     0
 74
     0
 95
        8
 96
        4
 40
0.0
 40
0.0
 40
0.0
 40
0.0
 40
11.8016654154607
 40
11.8016654154607
 40
11.8016654154607
 40
11.8016654154607
 10
7.035577472388887
 20
-2.481201227998744
 10
7.03544731696475
 20
-2.515837259605794
 10
7.057892042171959
 20
-2.536879190038558
 10
7.085416479737973
 20
-2.536946076400318
 97
        0
 72
     4
 94
        3
 73
     0
 74
     0
 95
        8
 96
        4
 40
0.0
 40
0.0
 40
0.0
 40
0.0
 40
4.629221768901988
 40
4.629221768901988
 40
4.629221768901988
 40
4.629221768901988
 10
7.085416479737973
 20
-2.536946076400318
 10
7.097963906578137
 20
-2.536974998711921
 10
7.108408947015837
 20
-2.530141796392404
 10
7.11448471464611
 20
-2.520470461122103
 97
        0
 72
     1
 10
7.114484698988838
 20
-2.520470459082845
 11
7.115377742088837
 21
-2.534389948782845
 72
     1
 10
7.115377742088837
 20
-2.534389948782845
 11
7.132486064388837
 21
-2.534389948782845
 72
     1
 10
7.132486064388837
 20
-2.534389948782845
 11
7.132486064388837
 21
-2.477715932982845
 72
     1
 10
7.132486064388837
 20
-2.477715932982845
 11
7.087956329888837
 21
-2.477715932982845
 72
     1
 10
7.087956329888837
 20
-2.477715932982845
 11
7.087958138788838
 21
-2.494699516782845
 72
     1
 10
7.087958138788838
 20
-2.494699516782845
 11
7.113098177288837
 21
-2.494695898982845
 72
     4
 94
        3
 73
     0
 74
     0
 95
        8
 96
        4
 40
0.0
 40
0.0
 40
0.0
 40
0.0
 40
5.368284882327459
 40
5.368284882327459
 40
5.368284882327459
 40
5.368284882327459
 10
7.113098188924324
 20
-2.494695903011865
 10
7.11051313902058
 20
-2.50987357154594
 10
7.099232931340701
 20
-2.518830852691102
 10
7.086763235643485
 20
-2.518830853589292
 97
        0
 72
     4
 94
        3
 73
     0
 74
     0
 95
        8
 96
        4
 40
0.0
 40
0.0
 40
0.0
 40
0.0
 40
7.529152638125497
 40
7.529152638125497
 40
7.529152638125497
 40
7.529152638125497
 10
7.086763235643485
 20
-2.518830853589292
 10
7.067988192731542
 20
-2.518830851715375
 10
7.057864927154875
 20
-2.501946693631877
 10
7.057864926982067
 20
-2.481123495794018
 97
        0
 72
     4
 94
        3
 73
     0
 74
     0
 95
        8
 96
        4
 40
0.0
 40
0.0
 40
0.0
 40
0.0
 40
7.504907119165637
 40
7.504907119165637
 40
7.504907119165637
 40
7.504907119165637
 10
7.057864926982067
 20
-2.481123495794018
 10
7.057864927298699
 20
-2.460296682434186
 10
7.068394930943732
 20
-2.443412524496772
 10
7.086763235643485
 20
-2.443412522539423
 97
        0
 72
     4
 94
        3
 73
     0
 74
     0
 95
        8
 96
        4
 40
0.0
 40
0.0
 40
0.0
 40
0.0
 40
4.530982702601268
 40
4.530982702601268
 40
4.530982702601268
 40
4.530982702601268
 10
7.086763235643485
 20
-2.443412522539423
 10
7.09740893442861
 20
-2.443412519965713
 10
7.106062518978284
 20
-2.447807106512711
 10
7.111010265302276
 20
-2.462312298444937
 97
        0
 72
     1
 10
7.111010254688837
 20
-2.462312297582845
 11
7.132261911388837
 21
-2.462310488682845
 72
     4
 94
        3
 73
     0
 74
     0
 95
        8
 96
        4
 40
0.0
 40
0.0
 40
0.0
 40
0.0
 40
8.922377717083382
 40
8.922377717083382
 40
8.922377717083382
 40
8.922377717083382
 10
7.13226189286133
 20
-2.462310490728403
 10
7.125898696395945
 20
-2.436047847076395
 10
7.106955536142994
 20
-2.425476264021082
 10
7.085416479737973
 20
-2.425458187342576
 97
        0
 72
     4
 94
        3
 73
     0
 74
     0
 95
        8
 96
        4
 40
0.0
 40
0.0
 40
0.0
 40
0.0
 40
11.8149668603718
 40
11.8149668603718
 40
11.8149668603718
 40
11.8149668603718
 10
7.085416479737973
 20
-2.425458187342576
 10
7.054224166378205
 20
-2.42542926477272
 10
7.035693167191277
 20
-2.450697657733943
 10
7.035577472388887
 20
-2.481201227998744
 97
        0
 97
       15
330
2126
330
20F1
330
20F0
330
20FF
330
20F9
330
20F7
330
20F8
330
20F6
330
20F4
330
2106
330
2107
330
20FA
330
20FB
330
20FD
330
20FE
 92
       17
 93
        2
 72
     4
 94
        3
 73
     0
 74
     0
 95
        8
 96
        4
 40
0.0
 40
0.0
 40
0.0
 40
0.0
 40
7.529152638125497
 40
7.529152638125497
 40
7.529152638125497
 40
7.529152638125497
 10
7.057864926982067
 20
-2.481123495794018
 10
7.057864927154875
 20
-2.501946693631877
 10
7.067988192731542
 20
-2.518830851715375
 10
7.086763235643485
 20
-2.518830853589292
 97
        0
 72
     4
 94
        3
 73
     0
 74
     0
 95
        8
 96
        4
 40
0.0
 40
0.0
 40
0.0
 40
0.0
 40
7.529152638125497
 40
7.529152638125497
 40
7.529152638125497
 40
7.529152638125497
 10
7.086763235643485
 20
-2.518830853589292
 10
7.067988192731542
 20
-2.518830851715375
 10
7.057864927154875
 20
-2.501946693631877
 10
7.057864926982067
 20
-2.481123495794018
 97
        0
 97
        1
330
2106
 92
       49
 93
        2
 72
     4
 94
        3
 73
     0
 74
     0
 95
        8
 96
        4
 40
0.0
 40
0.0
 40
0.0
 40
0.0
 40
7.504907119165637
 40
7.504907119165637
 40
7.504907119165637
 40
7.504907119165637
 10
7.057864926982067
 20
-2.481123495794018
 10
7.057864927298699
 20
-2.460296682434186
 10
7.068394930943732
 20
-2.443412524496772
 10
7.086763235643485
 20
-2.443412522539423
 97
        0
 72
     4
 94
        3
 73
     0
 74
     0
 95
        8
 96
        4
 40
0.0
 40
0.0
 40
0.0
 40
0.0
 40
7.504907119165637
 40
7.504907119165637
 40
7.504907119165637
 40
7.504907119165637
 10
7.057864926982067
 20
-2.481123495794018
 10
7.057864927298699
 20
-2.460296682434186
 10
7.068394930943732
 20
-2.443412524496772
 10
7.086763235643485
 20
-2.443412522539423
 97
        0
 97
        1
330
2107
 92
       49
 93
        2
 72
     4
 94
        3
 73
     0
 74
     0
 95
        8
 96
        4
 40
0.0
 40
0.0
 40
0.0
 40
0.0
 40
4.530982702601268
 40
4.530982702601268
 40
4.530982702601268
 40
4.530982702601268
 10
7.086763235643485
 20
-2.443412522539423
 10
7.09740893442861
 20
-2.443412519965713
 10
7.106062518978284
 20
-2.447807106512711
 10
7.111010265302276
 20
-2.462312298444937
 97
        0
 72
     4
 94
        3
 73
     0
 74
     0
 95
        8
 96
        4
 40
0.0
 40
0.0
 40
0.0
 40
0.0
 40
4.530982702601268
 40
4.530982702601268
 40
4.530982702601268
 40
4.530982702601268
 10
7.086763235643485
 20
-2.443412522539423
 10
7.09740893442861
 20
-2.443412519965713
 10
7.106062518978284
 20
-2.447807106512711
 10
7.111010265302276
 20
-2.462312298444937
 97
        0
 97
        1
330
20FA
 92
       17
 93
        2
 72
     4
 94
        3
 73
     0
 74
     0
 95
        8
 96
        4
 40
0.0
 40
0.0
 40
0.0
 40
0.0
 40
8.922377717083382
 40
8.922377717083382
 40
8.922377717083382
 40
8.922377717083382
 10
7.085416479737973
 20
-2.425458187342576
 10
7.106955536142994
 20
-2.425476264021082
 10
7.125898696395945
 20
-2.436047847076395
 10
7.13226189286133
 20
-2.462310490728403
 97
        0
 72
     4
 94
        3
 73
     0
 74
     0
 95
        8
 96
        4
 40
0.0
 40
0.0
 40
0.0
 40
0.0
 40
8.922377717083382
 40
8.922377717083382
 40
8.922377717083382
 40
8.922377717083382
 10
7.13226189286133
 20
-2.462310490728403
 10
7.125898696395945
 20
-2.436047847076395
 10
7.106955536142994
 20
-2.425476264021082
 10
7.085416479737973
 20
-2.425458187342576
 97
        0
 97
        1
330
20FD
 92
       49
 93
        2
 72
     4
 94
        3
 73
     0
 74
     0
 95
        8
 96
        4
 40
0.0
 40
0.0
 40
0.0
 40
0.0
 40
5.368284882327459
 40
5.368284882327459
 40
5.368284882327459
 40
5.368284882327459
 10
7.113098188924324
 20
-2.494695903011865
 10
7.11051313902058
 20
-2.50987357154594
 10
7.099232931340701
 20
-2.518830852691102
 10
7.086763235643485
 20
-2.518830853589292
 97
        0
 72
     4
 94
        3
 73
     0
 74
     0
 95
        8
 96
        4
 40
0.0
 40
0.0
 40
0.0
 40
0.0
 40
5.368284882327459
 40
5.368284882327459
 40
5.368284882327459
 40
5.368284882327459
 10
7.113098188924324
 20
-2.494695903011865
 10
7.11051313902058
 20
-2.50987357154594
 10
7.099232931340701
 20
-2.518830852691102
 10
7.086763235643485
 20
-2.518830853589292
 97
        0
 97
        1
330
20F4
 92
       49
 93
        2
 72
     1
 10
7.087958138788838
 20
-2.494699516782845
 11
7.113098177288837
 21
-2.494695898982845
 72
     1
 10
7.087958138788838
 20
-2.494699516782845
 11
7.113098177288837
 21
-2.494695898982845
 97
        1
330
20F6
 92
       49
 93
        2
 72
     1
 10
7.087956329888837
 20
-2.477715932982845
 11
7.087958138788838
 21
-2.494699516782845
 72
     1
 10
7.087956329888837
 20
-2.477715932982845
 11
7.087958138788838
 21
-2.494699516782845
 97
        1
330
20F8
 92
       49
 93
        2
 72
     1
 10
7.132486064388837
 20
-2.477715932982845
 11
7.087956329888837
 21
-2.477715932982845
 72
     1
 10
7.132486064388837
 20
-2.477715932982845
 11
7.087956329888837
 21
-2.477715932982845
 97
        1
330
20F7
 92
       49
 93
        2
 72
     1
 10
7.132486064388837
 20
-2.534389948782845
 11
7.132486064388837
 21
-2.477715932982845
 72
     1
 10
7.132486064388837
 20
-2.534389948782845
 11
7.132486064388837
 21
-2.477715932982845
 97
        1
330
20F9
 92
       49
 93
        2
 72
     1
 10
7.115377742088837
 20
-2.534389948782845
 11
7.132486064388837
 21
-2.534389948782845
 72
     1
 10
7.115377742088837
 20
-2.534389948782845
 11
7.132486064388837
 21
-2.534389948782845
 97
        1
330
20FF
 92
       49
 93
        2
 72
     1
 10
7.114484698988838
 20
-2.520470459082845
 11
7.115377742088837
 21
-2.534389948782845
 72
     1
 10
7.114484698988838
 20
-2.520470459082845
 11
7.115377742088837
 21
-2.534389948782845
 97
        1
330
20F0
 92
       49
 93
        2
 72
     4
 94
        3
 73
     0
 74
     0
 95
        8
 96
        4
 40
0.0
 40
0.0
 40
0.0
 40
0.0
 40
4.629221768901988
 40
4.629221768901988
 40
4.629221768901988
 40
4.629221768901988
 10
7.085416479737973
 20
-2.536946076400318
 10
7.097963906578137
 20
-2.536974998711921
 10
7.108408947015837
 20
-2.530141796392404
 10
7.11448471464611
 20
-2.520470461122103
 97
        0
 72
     4
 94
        3
 73
     0
 74
     0
 95
        8
 96
        4
 40
0.0
 40
0.0
 40
0.0
 40
0.0
 40
4.629221768901988
 40
4.629221768901988
 40
4.629221768901988
 40
4.629221768901988
 10
7.085416479737973
 20
-2.536946076400318
 10
7.097963906578137
 20
-2.536974998711921
 10
7.108408947015837
 20
-2.530141796392404
 10
7.11448471464611
 20
-2.520470461122103
 97
        0
 97
        1
330
20F1
 92
       49
 93
        2
 72
     4
 94
        3
 73
     0
 74
     0
 95
        8
 96
        4
 40
0.0
 40
0.0
 40
0.0
 40
0.0
 40
11.8016654154607
 40
11.8016654154607
 40
11.8016654154607
 40
11.8016654154607
 10
7.035577472388887
 20
-2.481201227998744
 10
7.03544731696475
 20
-2.515837259605794
 10
7.057892042171959
 20
-2.536879190038558
 10
7.085416479737973
 20
-2.536946076400318
 97
        0
 72
     4
 94
        3
 73
     0
 74
     0
 95
        8
 96
        4
 40
0.0
 40
0.0
 40
0.0
 40
0.0
 40
11.8016654154607
 40
11.8016654154607
 40
11.8016654154607
 40
11.8016654154607
 10
7.035577472388887
 20
-2.481201227998744
 10
7.03544731696475
 20
-2.515837259605794
 10
7.057892042171959
 20
-2.536879190038558
 10
7.085416479737973
 20
-2.536946076400318
 97
        0
 97
        1
330
2126
 92
       49
 93
        2
 72
     4
 94
        3
 73
     0
 74
     0
 95
        8
 96
        4
 40
0.0
 40
0.0
 40
0.0
 40
0.0
 40
11.8149668603718
 40
11.8149668603718
 40
11.8149668603718
 40
11.8149668603718
 10
7.085416479737973
 20
-2.425458187342576
 10
7.054224166378205
 20
-2.42542926477272
 10
7.035693167191277
 20
-2.450697657733943
 10
7.035577472388887
 20
-2.481201227998744
 97
        0
 72
     4
 94
        3
 73
     0
 74
     0
 95
        8
 96
        4
 40
0.0
 40
0.0
 40
0.0
 40
0.0
 40
11.8149668603718
 40
11.8149668603718
 40
11.8149668603718
 40
11.8149668603718
 10
7.085416479737973
 20
-2.425458187342576
 10
7.054224166378205
 20
-2.42542926477272
 10
7.035693167191277
 20
-2.450697657733943
 10
7.035577472388887
 20
-2.481201227998744
 97
        0
 97
        1
330
20FE
 92
       48
 93
        2
 72
     1
 10
7.111010254688837
 20
-2.462312297582845
 11
7.132261911388837
 21
-2.462310488682845
 72
     1
 10
7.111010254688837
 20
-2.462312297582845
 11
7.132261911388837
 21
-2.462310488682845
 97
        1
330
20FB
 92
       48
 93
        1
 72
     1
 10
7.085416385888837
 20
-2.425562919882845
 11
7.085416483688838
 21
-2.425458188882845
 97
        4
330
20FB
330
20FB
330
20FB
330
20FC
 75
     0
 76
     1
 98
        1
 10
0.0
 20
0.0
450
        0
451
        0
460
0.0
461
0.0
452
        1
462
1.0
453
        2
463
0.0
 63
     5
421
      255
463
1.0
 63
    51
421
 16777113
470
LINEAR
1001
ACAD
1010
0.0
1020
0.0
1030
0.0
  0
LINE
  5
20F0
102
{ACAD_REACTORS
330
20EF
102
}
330
20ED
100
AcDbEntity
  8
0
  6
Continuous
 62
     7
370
    15
100
AcDbLine
 10
7.114484698988838
 20
-2.520470459082845
 30
0.0
 11
7.115377742088837
 21
-2.534389948782845
 31
0.0
  0
SPLINE
  5
20F1
102
{ACAD_REACTORS
330
20EF
102
}
330
20ED
100
AcDbEntity
  8
0
  6
Continuous
 62
     7
370
    15
100
AcDbSpline
210
0.0
220
0.0
230
1.0
 70
     8
 71
     3
 72
     8
 73
     4
 74
     0
 42
0.000000001
 43
0.0000000001
 40
0.0
 40
0.0
 40
0.0
 40
0.0
 40
4.629221768901988
 40
4.629221768901988
 40
4.629221768901988
 40
4.629221768901988
 10
7.085416479737973
 20
-2.536946076400318
 30
0.0
 10
7.097963906578137
 20
-2.536974998711921
 30
0.0
 10
7.108408947015837
 20
-2.530141796392404
 30
0.0
 10
7.11448471464611
 20
-2.520470461122103
 30
0.0
  0
HATCH
  5
20F2
330
20ED
100
AcDbEntity
  8
0
100
AcDbHatch
 10
0.0
 20
0.0
 30
0.0
210
0.0
220
0.0
230
1.0
  2
SOLID
 70
     1
 71
     1
 91
        3
 92
       16
 93
        8
 72
     1
 10
6.876636387927156
 20
-2.446783116982845
 11
6.876636387927156
 21
-2.470859895482845
 72
     1
 10
6.876636387927156
 20
-2.470859895482845
 11
6.899094999627157
 21
-2.470859895482845
 72
     2
 10
6.899095014227156
 20
-2.449481463082845
 40
0.021378434297707
 50
270.0000000507
 51
302.7538327093
 73
     1
 72
     2
 10
6.905897067027157
 20
-2.459258813382845
 40
0.0094853188547192
 50
300.1513158430999
 51
360.8238440749
 73
     1
 72
     1
 10
6.915381362527152
 20
-2.459122432182845
 11
6.915366891627156
 21
-2.458110981682845
 72
     4
 94
        3
 73
     0
 74
     0
 95
        8
 96
        4
 40
0.0
 40
0.0
 40
0.0
 40
0.0
 40
1.234817782031019
 40
1.234817782031019
 40
1.234817782031019
 40
1.234817782031019
 10
6.915366860976281
 20
-2.458110979461423
 10
6.915260831578787
 20
-2.45496133154696
 10
6.913756238899043
 20
-2.451889956249106
 10
6.911329683810924
 20
-2.449879146679267
 97
        0
 72
     2
 10
6.901452276727156
 20
-2.464087284082844
 40
0.0173041711593509
 50
55.19321811040001
 51
89.99999999280001
 73
     1
 72
     1
 10
6.901452296827157
 20
-2.446783116982845
 11
6.876636387927156
 21
-2.446783116982845
 97
        8
330
2132
330
2125
330
212C
330
212D
330
20F5
330
20F3
330
2130
330
2131
 92
       16
 93
        8
 72
     1
 10
6.876636387927156
 20
-2.516801268082845
 11
6.900384184727156
 21
-2.516801268082845
 72
     2
 10
6.900384175127157
 20
-2.493727653982845
 40
0.0230736156625213
 50
270.0000000021
 51
299.6729218121
 73
     1
 72
     2
 10
6.905084866927158
 20
-2.503065769382845
 40
0.0126444541283982
 50
302.1139766277
 51
357.5033071323001
 73
     1
 72
     4
 94
        3
 73
     0
 74
     0
 95
        8
 96
        4
 40
0.0
 40
0.0
 40
0.0
 40
0.0
 40
1.0
 40
1.0
 40
1.0
 40
1.0
 10
6.917717318165067
 20
-2.503616583572982
 10
6.917765569072273
 20
-2.502509988822556
 10
6.917734181256207
 20
-2.501405648970588
 10
6.917623430238558
 20
-2.500303536250148
 97
        0
 72
     4
 94
        3
 73
     0
 74
     0
 95
       10
 96
        6
 40
0.0
 40
0.0
 40
0.0
 40
0.0
 40
0.5
 40
0.5
 40
1.0
 40
1.0
 40
1.0
 40
1.0
 10
6.917623430238558
 20
-2.500303536250148
 10
6.917405671676237
 20
-2.49813656654854
 10
6.916659848823567
 20
-2.49602188163258
 10
6.914280738359588
 20
-2.492370764145272
 10
6.912647447353577
 20
-2.490834326364914
 10
6.910753031288428
 20
-2.489759943258022
 97
        0
 72
     2
 10
6.900262396127157
 20
-2.510424799282845
 40
0.023175195852144
 50
63.08510597700003
 51
89.99999999290002
 73
     1
 72
     1
 10
6.900262355027152
 20
-2.487249608382845
 11
6.876636387927156
 21
-2.487249608382845
 72
     1
 10
6.876636387927156
 20
-2.487249608382845
 11
6.876636387927156
 21
-2.516801268082845
 97
        8
330
212B
330
2116
330
2117
330
2118
330
2127
330
2128
330
2129
330
212A
 92
        1
 93
        9
 72
     2
 10
6.911145075327156
 20
-2.503482871582844
 40
0.0281849953663461
 50
358.2750093542999
 51
429.1859787467999
 73
     1
 72
     2
 10
6.910344636927157
 20
-2.454425532082845
 40
0.025155504803769
 50
295.4642982438
 51
359.8582049783
 73
     1
 72
     2
 10
6.910101396227156
 20
-2.454545993682845
 40
0.0253987350977654
 50
0.13130661799998
 51
52.56383084060001
 73
     1
 72
     2
 10
6.907353580927157
 20
-2.464020839782845
 40
0.0347769093137198
 50
58.46861031739998
 51
93.09517018550002
 73
     1
 72
     1
 10
6.905475805927157
 20
-2.429294663382845
 11
6.855860219027157
 21
-2.429294663382845
 72
     1
 10
6.855860219027157
 20
-2.429294663382845
 11
6.855860219027157
 21
-2.534285101682845
 72
     1
 10
6.855860219027157
 20
-2.534285101682845
 11
6.906167477927156
 21
-2.534285101682845
 72
     2
 10
6.906153707627155
 20
-2.490937190982845
 40
0.0433479148632238
 50
270.0181584594
 51
289.8507158831
 73
     1
 72
     2
 10
6.911384295927157
 20
-2.505415203482844
 40
0.0279540238095668
 50
289.8435790134
 51
362.222167714
 73
     1
 97
        9
330
2115
330
210D
330
210E
330
210F
330
2110
330
2111
330
2112
330
2113
330
2114
 75
     0
 76
     1
 98
        1
 10
0.0
 20
0.0
450
        0
451
        0
460
0.0
461
0.0
452
        1
462
1.0
453
        2
463
0.0
 63
     5
421
      255
463
1.0
 63
    51
421
 16777113
470
LINEAR
1001
ACAD
1010
0.0
1020
0.0
1030
0.0
  0
SPLINE
  5
20F3
102
{ACAD_REACTORS
330
20F2
102
}
330
20ED
100
AcDbEntity
  8
0
  6
Continuous
 62
     7
370
    15
100
AcDbSpline
210
0.0
220
0.0
230
1.0
 70
     8
 71
     3
 72
     8
 73
     4
 74
     0
 42
0.000000001
 43
0.0000000001
 40
0.0
 40
0.0
 40
0.0
 40
0.0
 40
1.234817782031019
 40
1.234817782031019
 40
1.234817782031019
 40
1.234817782031019
 10
6.915366860976281
 20
-2.458110979461423
 30
0.0
 10
6.915260831578787
 20
-2.45496133154696
 30
0.0
 10
6.913756238899043
 20
-2.451889956249106
 30
0.0
 10
6.911329683810924
 20
-2.449879146679267
 30
0.0
  0
SPLINE
  5
20F4
102
{ACAD_REACTORS
330
20EF
102
}
330
20ED
100
AcDbEntity
  8
0
  6
Continuous
 62
     7
370
    15
100
AcDbSpline
210
0.0
220
0.0
230
1.0
 70
     8
 71
     3
 72
     8
 73
     4
 74
     0
 42
0.000000001
 43
0.0000000001
 40
0.0
 40
0.0
 40
0.0
 40
0.0
 40
5.368284882327459
 40
5.368284882327459
 40
5.368284882327459
 40
5.368284882327459
 10
7.113098188924324
 20
-2.494695903011865
 30
0.0
 10
7.11051313902058
 20
-2.50987357154594
 30
0.0
 10
7.099232931340701
 20
-2.518830852691102
 30
0.0
 10
7.086763235643485
 20
-2.518830853589292
 30
0.0
  0
LINE
  5
20F5
102
{ACAD_REACTORS
330
20F2
102
}
330
20ED
100
AcDbEntity
  8
0
  6
Continuous
 62
     7
370
    15
100
AcDbLine
 10
6.915381362527152
 20
-2.459122432182845
 30
0.0
 11
6.915366891627156
 21
-2.458110981682845
 31
0.0
  0
LINE
  5
20F6
102
{ACAD_REACTORS
330
20EF
102
}
330
20ED
100
AcDbEntity
  8
0
  6
Continuous
 62
     7
370
    15
100
AcDbLine
 10
7.087958138788838
 20
-2.494699516782845
 30
0.0
 11
7.113098177288837
 21
-2.494695898982845
 31
0.0
  0
LINE
  5
20F7
102
{ACAD_REACTORS
330
20EF
102
}
330
20ED
100
AcDbEntity
  8
0
  6
Continuous
 62
     7
370
    15
100
AcDbLine
 10
7.132486064388837
 20
-2.477715932982845
 30
0.0
 11
7.087956329888837
 21
-2.477715932982845
 31
0.0
  0
LINE
  5
20F8
102
{ACAD_REACTORS
330
20EF
102
}
330
20ED
100
AcDbEntity
  8
0
  6
Continuous
 62
     7
370
    15
100
AcDbLine
 10
7.087956329888837
 20
-2.477715932982845
 30
0.0
 11
7.087958138788838
 21
-2.494699516782845
 31
0.0
  0
LINE
  5
20F9
102
{ACAD_REACTORS
330
20EF
102
}
330
20ED
100
AcDbEntity
  8
0
  6
Continuous
 62
     7
370
    15
100
AcDbLine
 10
7.132486064388837
 20
-2.534389948782845
 30
0.0
 11
7.132486064388837
 21
-2.477715932982845
 31
0.0
  0
SPLINE
  5
20FA
102
{ACAD_REACTORS
330
20EF
102
}
330
20ED
100
AcDbEntity
  8
0
  6
Continuous
 62
     7
370
    15
100
AcDbSpline
210
0.0
220
0.0
230
1.0
 70
     8
 71
     3
 72
     8
 73
     4
 74
     0
 42
0.000000001
 43
0.0000000001
 40
0.0
 40
0.0
 40
0.0
 40
0.0
 40
4.530982702601268
 40
4.530982702601268
 40
4.530982702601268
 40
4.530982702601268
 10
7.086763235643485
 20
-2.443412522539423
 30
0.0
 10
7.09740893442861
 20
-2.443412519965713
 30
0.0
 10
7.106062518978284
 20
-2.447807106512711
 30
0.0
 10
7.111010265302276
 20
-2.462312298444937
 30
0.0
  0
LINE
  5
20FB
102
{ACAD_REACTORS
330
20EF
102
}
330
20ED
100
AcDbEntity
  8
0
  6
Continuous
 62
     7
370
    15
100
AcDbLine
 10
7.111010254688837
 20
-2.462312297582845
 30
0.0
 11
7.132261911388837
 21
-2.462310488682845
 31
0.0
  0
LINE
  5
20FC
102
{ACAD_REACTORS
330
20EF
102
}
330
20ED
100
AcDbEntity
  8
0
  6
Continuous
 62
     7
370
    15
100
AcDbLine
 10
7.085416385888837
 20
-2.425562919882845
 30
0.0
 11
7.085416483688838
 21
-2.425458188882845
 31
0.0
  0
SPLINE
  5
20FD
102
{ACAD_REACTORS
330
20EF
102
}
330
20ED
100
AcDbEntity
  8
0
  6
Continuous
 62
     7
370
    15
100
AcDbSpline
210
0.0
220
0.0
230
1.0
 70
     8
 71
     3
 72
     8
 73
     4
 74
     0
 42
0.000000001
 43
0.0000000001
 40
0.0
 40
0.0
 40
0.0
 40
0.0
 40
8.922377717083382
 40
8.922377717083382
 40
8.922377717083382
 40
8.922377717083382
 10
7.13226189286133
 20
-2.462310490728403
 30
0.0
 10
7.125898696395945
 20
-2.436047847076395
 30
0.0
 10
7.106955536142994
 20
-2.425476264021082
 30
0.0
 10
7.085416479737973
 20
-2.425458187342576
 30
0.0
  0
SPLINE
  5
20FE
102
{ACAD_REACTORS
330
20EF
102
}
330
20ED
100
AcDbEntity
  8
0
  6
Continuous
 62
     7
370
    15
100
AcDbSpline
210
0.0
220
0.0
230
1.0
 70
     8
 71
     3
 72
     8
 73
     4
 74
     0
 42
0.000000001
 43
0.0000000001
 40
0.0
 40
0.0
 40
0.0
 40
0.0
 40
11.8149668603718
 40
11.8149668603718
 40
11.8149668603718
 40
11.8149668603718
 10
7.085416479737973
 20
-2.425458187342576
 30
0.0
 10
7.054224166378205
 20
-2.42542926477272
 30
0.0
 10
7.035693167191277
 20
-2.450697657733943
 30
0.0
 10
7.035577472388887
 20
-2.481201227998744
 30
0.0
  0
LINE
  5
20FF
102
{ACAD_REACTORS
330
20EF
102
}
330
20ED
100
AcDbEntity
  8
0
  6
Continuous
 62
     7
370
    15
100
AcDbLine
 10
7.115377742088837
 20
-2.534389948782845
 30
0.0
 11
7.132486064388837
 21
-2.534389948782845
 31
0.0
  0
HATCH
  5
2100
330
20ED
100
AcDbEntity
  8
0
100
AcDbHatch
 10
0.0
 20
0.0
 30
0.0
210
0.0
220
0.0
230
1.0
  2
SOLID
 70
     1
 71
     1
 91
        1
 92
        1
 93
       12
 72
     1
 10
6.973973432327157
 20
-2.486165240882845
 11
7.023188770527157
 21
-2.486165240882845
 72
     1
 10
7.023188770527157
 20
-2.486165240882845
 11
7.023188770527157
 21
-2.468666459682845
 72
     1
 10
7.023188770527157
 20
-2.468666459682845
 11
6.973973432327157
 21
-2.468666459682845
 72
     1
 10
6.973973432327157
 20
-2.468666459682845
 11
6.973973432327157
 21
-2.446794776782845
 72
     1
 10
6.973973432327157
 20
-2.446794776782845
 11
7.029747236927157
 21
-2.446794776782845
 72
     1
 10
7.029747236927157
 20
-2.446794776782845
 11
7.029747236927157
 21
-2.429294186782845
 72
     1
 10
7.029747236927157
 20
-2.429294186782845
 11
6.952099965027157
 21
-2.429294186782845
 72
     1
 10
6.952099965027157
 20
-2.429294186782845
 11
6.952099965027157
 21
-2.534285107782844
 72
     1
 10
6.952099965027157
 20
-2.534285107782844
 11
7.029747236927157
 21
-2.534285107782844
 72
     1
 10
7.029747236927157
 20
-2.534285107782844
 11
7.029747236927157
 21
-2.516788129382845
 72
     1
 10
7.029747236927157
 20
-2.516788129382845
 11
6.973973432327157
 21
-2.516788129382845
 72
     1
 10
6.973973432327157
 20
-2.516788129382845
 11
6.973973432327157
 21
-2.486165240882845
 97
       12
330
2121
330
2108
330
2109
330
210A
330
210B
330
210C
330
2101
330
2102
330
2103
330
2104
330
2105
330
2120
 75
     0
 76
     1
 98
        1
 10
0.0
 20
0.0
450
        0
451
        0
460
0.0
461
0.0
452
        1
462
1.0
453
        2
463
0.0
 63
     5
421
      255
463
1.0
 63
    51
421
 16777113
470
LINEAR
1001
ACAD
1010
0.0
1020
0.0
1030
0.0
  0
LINE
  5
2101
102
{ACAD_REACTORS
330
2100
102
}
330
20ED
100
AcDbEntity
  8
0
  6
Continuous
 62
     7
370
    15
100
AcDbLine
 10
7.029747236927157
 20
-2.429294186782845
 30
0.0
 11
6.952099965027157
 21
-2.429294186782845
 31
0.0
  0
LINE
  5
2102
102
{ACAD_REACTORS
330
2100
102
}
330
20ED
100
AcDbEntity
  8
0
  6
Continuous
 62
     7
370
    15
100
AcDbLine
 10
6.952099965027157
 20
-2.429294186782845
 30
0.0
 11
6.952099965027157
 21
-2.534285107782844
 31
0.0
  0
LINE
  5
2103
102
{ACAD_REACTORS
330
2100
102
}
330
20ED
100
AcDbEntity
  8
0
  6
Continuous
 62
     7
370
    15
100
AcDbLine
 10
6.952099965027157
 20
-2.534285107782844
 30
0.0
 11
7.029747236927157
 21
-2.534285107782844
 31
0.0
  0
LINE
  5
2104
102
{ACAD_REACTORS
330
2100
102
}
330
20ED
100
AcDbEntity
  8
0
  6
Continuous
 62
     7
370
    15
100
AcDbLine
 10
7.029747236927157
 20
-2.534285107782844
 30
0.0
 11
7.029747236927157
 21
-2.516788129382845
 31
0.0
  0
LINE
  5
2105
102
{ACAD_REACTORS
330
2100
102
}
330
20ED
100
AcDbEntity
  8
0
  6
Continuous
 62
     7
370
    15
100
AcDbLine
 10
7.029747236927157
 20
-2.516788129382845
 30
0.0
 11
6.973973432327157
 21
-2.516788129382845
 31
0.0
  0
SPLINE
  5
2106
102
{ACAD_REACTORS
330
20EF
102
}
330
20ED
100
AcDbEntity
  8
0
  6
Continuous
 62
     7
370
    15
100
AcDbSpline
210
0.0
220
0.0
230
1.0
 70
     8
 71
     3
 72
     8
 73
     4
 74
     0
 42
0.000000001
 43
0.0000000001
 40
0.0
 40
0.0
 40
0.0
 40
0.0
 40
7.529152638125497
 40
7.529152638125497
 40
7.529152638125497
 40
7.529152638125497
 10
7.086763235643485
 20
-2.518830853589292
 30
0.0
 10
7.067988192731542
 20
-2.518830851715375
 30
0.0
 10
7.057864927154875
 20
-2.501946693631877
 30
0.0
 10
7.057864926982067
 20
-2.481123495794018
 30
0.0
  0
SPLINE
  5
2107
102
{ACAD_REACTORS
330
20EF
102
}
330
20ED
100
AcDbEntity
  8
0
  6
Continuous
 62
     7
370
    15
100
AcDbSpline
210
0.0
220
0.0
230
1.0
 70
     8
 71
     3
 72
     8
 73
     4
 74
     0
 42
0.000000001
 43
0.0000000001
 40
0.0
 40
0.0
 40
0.0
 40
0.0
 40
7.504907119165637
 40
7.504907119165637
 40
7.504907119165637
 40
7.504907119165637
 10
7.057864926982067
 20
-2.481123495794018
 30
0.0
 10
7.057864927298699
 20
-2.460296682434186
 30
0.0
 10
7.068394930943732
 20
-2.443412524496772
 30
0.0
 10
7.086763235643485
 20
-2.443412522539423
 30
0.0
  0
LINE
  5
2108
102
{ACAD_REACTORS
330
2100
102
}
330
20ED
100
AcDbEntity
  8
0
  6
Continuous
 62
     7
370
    15
100
AcDbLine
 10
7.023188770527157
 20
-2.486165240882845
 30
0.0
 11
7.023188770527157
 21
-2.468666459682845
 31
0.0
  0
LINE
  5
2109
102
{ACAD_REACTORS
330
2100
102
}
330
20ED
100
AcDbEntity
  8
0
  6
Continuous
 62
     7
370
    15
100
AcDbLine
 10
7.023188770527157
 20
-2.468666459682845
 30
0.0
 11
6.973973432327157
 21
-2.468666459682845
 31
0.0
  0
LINE
  5
210A
102
{ACAD_REACTORS
330
2100
102
}
330
20ED
100
AcDbEntity
  8
0
  6
Continuous
 62
     7
370
    15
100
AcDbLine
 10
6.973973432327157
 20
-2.468666459682845
 30
0.0
 11
6.973973432327157
 21
-2.446794776782845
 31
0.0
  0
LINE
  5
210B
102
{ACAD_REACTORS
330
2100
102
}
330
20ED
100
AcDbEntity
  8
0
  6
Continuous
 62
     7
370
    15
100
AcDbLine
 10
6.973973432327157
 20
-2.446794776782845
 30
0.0
 11
7.029747236927157
 21
-2.446794776782845
 31
0.0
  0
LINE
  5
210C
102
{ACAD_REACTORS
330
2100
102
}
330
20ED
100
AcDbEntity
  8
0
  6
Continuous
 62
     7
370
    15
100
AcDbLine
 10
7.029747236927157
 20
-2.446794776782845
 30
0.0
 11
7.029747236927157
 21
-2.429294186782845
 31
0.0
  0
ARC
  5
210D
102
{ACAD_REACTORS
330
20F2
102
}
330
20ED
100
AcDbEntity
  8
0
  6
Continuous
 62
     7
370
    15
100
AcDbCircle
 10
6.910344636927157
 20
-2.454425532082845
 30
0.0
 40
0.025155504803769
100
AcDbArc
 50
295.4642982438
 51
359.8582049783
  0
ARC
  5
210E
102
{ACAD_REACTORS
330
20F2
102
}
330
20ED
100
AcDbEntity
  8
0
  6
Continuous
 62
     7
370
    15
100
AcDbCircle
 10
6.910101396227156
 20
-2.454545993682845
 30
0.0
 40
0.0253987350977654
100
AcDbArc
 50
0.13130661799998
 51
52.56383084060001
  0
ARC
  5
210F
102
{ACAD_REACTORS
330
20F2
102
}
330
20ED
100
AcDbEntity
  8
0
  6
Continuous
 62
     7
370
    15
100
AcDbCircle
 10
6.907353580927157
 20
-2.464020839782845
 30
0.0
 40
0.0347769093137198
100
AcDbArc
 50
58.46861031739998
 51
93.09517018550002
  0
LINE
  5
2110
102
{ACAD_REACTORS
330
20F2
102
}
330
20ED
100
AcDbEntity
  8
0
  6
Continuous
 62
     7
370
    15
100
AcDbLine
 10
6.905475805927157
 20
-2.429294663382845
 30
0.0
 11
6.855860219027157
 21
-2.429294663382845
 31
0.0
  0
LINE
  5
2111
102
{ACAD_REACTORS
330
20F2
102
}
330
20ED
100
AcDbEntity
  8
0
  6
Continuous
 62
     7
370
    15
100
AcDbLine
 10
6.855860219027157
 20
-2.429294663382845
 30
0.0
 11
6.855860219027157
 21
-2.534285101682845
 31
0.0
  0
LINE
  5
2112
102
{ACAD_REACTORS
330
20F2
102
}
330
20ED
100
AcDbEntity
  8
0
  6
Continuous
 62
     7
370
    15
100
AcDbLine
 10
6.855860219027157
 20
-2.534285101682845
 30
0.0
 11
6.906167477927156
 21
-2.534285101682845
 31
0.0
  0
ARC
  5
2113
102
{ACAD_REACTORS
330
20F2
102
}
330
20ED
100
AcDbEntity
  8
0
  6
Continuous
 62
     7
370
    15
100
AcDbCircle
 10
6.906153707627155
 20
-2.490937190982845
 30
0.0
 40
0.0433479148632238
100
AcDbArc
 50
270.0181584594
 51
289.8507158831
  0
ARC
  5
2114
102
{ACAD_REACTORS
330
20F2
102
}
330
20ED
100
AcDbEntity
  8
0
  6
Continuous
 62
     7
370
    15
100
AcDbCircle
 10
6.911384295927157
 20
-2.505415203482844
 30
0.0
 40
0.0279540238095668
100
AcDbArc
 50
289.8435790134
 51
2.222167713999982
  0
ARC
  5
2115
102
{ACAD_REACTORS
330
20F2
102
}
330
20ED
100
AcDbEntity
  8
0
  6
Continuous
 62
     7
370
    15
100
AcDbCircle
 10
6.911145075327156
 20
-2.503482871582844
 30
0.0
 40
0.0281849953663461
100
AcDbArc
 50
358.2750093542999
 51
69.1859787468
  0
ARC
  5
2116
102
{ACAD_REACTORS
330
20F2
102
}
330
20ED
100
AcDbEntity
  8
0
  6
Continuous
 62
     7
370
    15
100
AcDbCircle
 10
6.900384175127157
 20
-2.493727653982845
 30
0.0
 40
0.0230736156625213
100
AcDbArc
 50
270.0000000021
 51
299.6729218121
  0
ARC
  5
2117
102
{ACAD_REACTORS
330
20F2
102
}
330
20ED
100
AcDbEntity
  8
0
  6
Continuous
 62
     7
370
    15
100
AcDbCircle
 10
6.905084866927158
 20
-2.503065769382845
 30
0.0
 40
0.0126444541283982
100
AcDbArc
 50
302.1139766277
 51
357.5033071323001
  0
SPLINE
  5
2118
102
{ACAD_REACTORS
330
20F2
102
}
330
20ED
100
AcDbEntity
  8
0
  6
Continuous
 62
     7
370
    15
100
AcDbSpline
210
0.0
220
0.0
230
1.0
 70
     8
 71
     3
 72
     8
 73
     4
 74
     0
 42
0.000000001
 43
0.0000000001
 40
0.0
 40
0.0
 40
0.0
 40
0.0
 40
1.0
 40
1.0
 40
1.0
 40
1.0
 10
6.917717318165067
 20
-2.503616583572982
 30
0.0
 10
6.917765569072273
 20
-2.502509988822556
 30
0.0
 10
6.917734181256207
 20
-2.501405648970588
 30
0.0
 10
6.917623430238558
 20
-2.500303536250148
 30
0.0
  0
HATCH
  5
2119
330
20ED
100
AcDbEntity
  8
0
100
AcDbHatch
 10
0.0
 20
0.0
 30
0.0
210
0.0
220
0.0
230
1.0
  2
SOLID
 70
     1
 71
     1
 91
        2
 92
        1
 93
        8
 72
     1
 10
7.219521596025813
 20
-2.534285107782844
 11
7.242488792925811
 21
-2.534285107782844
 72
     1
 10
7.242488792925811
 20
-2.534285107782844
 11
7.205305653525812
 21
-2.429294186782845
 72
     1
 10
7.205305653525812
 20
-2.429294186782845
 11
7.181246633725812
 21
-2.429294186782845
 72
     1
 10
7.181246633725812
 20
-2.429294186782845
 11
7.144061685525811
 21
-2.534285107782844
 72
     1
 10
7.144061685525811
 20
-2.534285107782844
 11
7.167027073525813
 21
-2.534285107782844
 72
     1
 10
7.167027073525813
 20
-2.534285107782844
 11
7.174684598425812
 21
-2.511317941482845
 72
     1
 10
7.174684598425812
 20
-2.511317941482845
 11
7.211213318625812
 21
-2.511317941482845
 72
     1
 10
7.211213318625812
 20
-2.511317941482845
 11
7.219521596025813
 21
-2.534285107782844
 97
        8
330
212F
330
211A
330
211B
330
211C
330
211D
330
211E
330
211F
330
212E
 92
       16
 93
        3
 72
     1
 10
7.193275263625812
 20
-2.451167666282845
 11
7.180152953025811
 21
-2.494916446482845
 72
     1
 10
7.180152953025811
 20
-2.494916446482845
 11
7.206401143125813
 21
-2.494916446482845
 72
     1
 10
7.206401143125813
 20
-2.494916446482845
 11
7.193275263625812
 21
-2.451167666282845
 97
        3
330
2124
330
2122
330
2123
 75
     0
 76
     1
 98
        1
 10
0.0
 20
0.0
450
        0
451
        0
460
0.0
461
0.0
452
        1
462
1.0
453
        2
463
0.0
 63
     5
421
      255
463
1.0
 63
    51
421
 16777113
470
LINEAR
1001
ACAD
1010
0.0
1020
0.0
1030
0.0
  0
LINE
  5
211A
102
{ACAD_REACTORS
330
2119
102
}
330
20ED
100
AcDbEntity
  8
0
  6
Continuous
 62
     7
370
    15
100
AcDbLine
 10
7.242488792925811
 20
-2.534285107782844
 30
0.0
 11
7.205305653525812
 21
-2.429294186782845
 31
0.0
  0
LINE
  5
211B
102
{ACAD_REACTORS
330
2119
102
}
330
20ED
100
AcDbEntity
  8
0
  6
Continuous
 62
     7
370
    15
100
AcDbLine
 10
7.205305653525812
 20
-2.429294186782845
 30
0.0
 11
7.181246633725812
 21
-2.429294186782845
 31
0.0
  0
LINE
  5
211C
102
{ACAD_REACTORS
330
2119
102
}
330
20ED
100
AcDbEntity
  8
0
  6
Continuous
 62
     7
370
    15
100
AcDbLine
 10
7.181246633725812
 20
-2.429294186782845
 30
0.0
 11
7.144061685525811
 21
-2.534285107782844
 31
0.0
  0
LINE
  5
211D
102
{ACAD_REACTORS
330
2119
102
}
330
20ED
100
AcDbEntity
  8
0
  6
Continuous
 62
     7
370
    15
100
AcDbLine
 10
7.144061685525811
 20
-2.534285107782844
 30
0.0
 11
7.167027073525813
 21
-2.534285107782844
 31
0.0
  0
LINE
  5
211E
102
{ACAD_REACTORS
330
2119
102
}
330
20ED
100
AcDbEntity
  8
0
  6
Continuous
 62
     7
370
    15
100
AcDbLine
 10
7.167027073525813
 20
-2.534285107782844
 30
0.0
 11
7.174684598425812
 21
-2.511317941482845
 31
0.0
  0
LINE
  5
211F
102
{ACAD_REACTORS
330
2119
102
}
330
20ED
100
AcDbEntity
  8
0
  6
Continuous
 62
     7
370
    15
100
AcDbLine
 10
7.174684598425812
 20
-2.511317941482845
 30
0.0
 11
7.211213318625812
 21
-2.511317941482845
 31
0.0
  0
LINE
  5
2120
102
{ACAD_REACTORS
330
2100
102
}
330
20ED
100
AcDbEntity
  8
0
  6
Continuous
 62
     7
370
    15
100
AcDbLine
 10
6.973973432327157
 20
-2.516788129382845
 30
0.0
 11
6.973973432327157
 21
-2.486165240882845
 31
0.0
  0
LINE
  5
2121
102
{ACAD_REACTORS
330
2100
102
}
330
20ED
100
AcDbEntity
  8
0
  6
Continuous
 62
     7
370
    15
100
AcDbLine
 10
6.973973432327157
 20
-2.486165240882845
 30
0.0
 11
7.023188770527157
 21
-2.486165240882845
 31
0.0
  0
LINE
  5
2122
102
{ACAD_REACTORS
330
2119
102
}
330
20ED
100
AcDbEntity
  8
0
  6
Continuous
 62
     7
370
    15
100
AcDbLine
 10
7.180152953025811
 20
-2.494916446482845
 30
0.0
 11
7.206401143125813
 21
-2.494916446482845
 31
0.0
  0
LINE
  5
2123
102
{ACAD_REACTORS
330
2119
102
}
330
20ED
100
AcDbEntity
  8
0
  6
Continuous
 62
     7
370
    15
100
AcDbLine
 10
7.206401143125813
 20
-2.494916446482845
 30
0.0
 11
7.193275263625812
 21
-2.451167666282845
 31
0.0
  0
LINE
  5
2124
102
{ACAD_REACTORS
330
2119
102
}
330
20ED
100
AcDbEntity
  8
0
  6
Continuous
 62
     7
370
    15
100
AcDbLine
 10
7.193275263625812
 20
-2.451167666282845
 30
0.0
 11
7.180152953025811
 21
-2.494916446482845
 31
0.0
  0
LINE
  5
2125
102
{ACAD_REACTORS
330
20F2
102
}
330
20ED
100
AcDbEntity
  8
0
  6
Continuous
 62
     7
370
    15
100
AcDbLine
 10
6.876636387927156
 20
-2.470859895482845
 30
0.0
 11
6.899094999627157
 21
-2.470859895482845
 31
0.0
  0
SPLINE
  5
2126
102
{ACAD_REACTORS
330
20EF
102
}
330
20ED
100
AcDbEntity
  8
0
  6
Continuous
 62
     7
370
    15
100
AcDbSpline
210
0.0
220
0.0
230
1.0
 70
     8
 71
     3
 72
     8
 73
     4
 74
     0
 42
0.000000001
 43
0.0000000001
 40
0.0
 40
0.0
 40
0.0
 40
0.0
 40
11.8016654154607
 40
11.8016654154607
 40
11.8016654154607
 40
11.8016654154607
 10
7.035577472388887
 20
-2.481201227998744
 30
0.0
 10
7.03544731696475
 20
-2.515837259605794
 30
0.0
 10
7.057892042171959
 20
-2.536879190038558
 30
0.0
 10
7.085416479737973
 20
-2.536946076400318
 30
0.0
  0
SPLINE
  5
2127
102
{ACAD_REACTORS
330
20F2
102
}
330
20ED
100
AcDbEntity
  8
0
  6
Continuous
 62
     7
370
    15
100
AcDbSpline
210
0.0
220
0.0
230
1.0
 70
     8
 71
     3
 72
    10
 73
     6
 74
     0
 42
0.000000001
 43
0.0000000001
 40
0.0
 40
0.0
 40
0.0
 40
0.0
 40
0.5
 40
0.5
 40
1.0
 40
1.0
 40
1.0
 40
1.0
 10
6.917623430238558
 20
-2.500303536250148
 30
0.0
 10
6.917405671676237
 20
-2.49813656654854
 30
0.0
 10
6.916659848823567
 20
-2.49602188163258
 30
0.0
 10
6.914280738359588
 20
-2.492370764145272
 30
0.0
 10
6.912647447353577
 20
-2.490834326364914
 30
0.0
 10
6.910753031288428
 20
-2.489759943258022
 30
0.0
  0
ARC
  5
2128
102
{ACAD_REACTORS
330
20F2
102
}
330
20ED
100
AcDbEntity
  8
0
  6
Continuous
 62
     7
370
    15
100
AcDbCircle
 10
6.900262396127157
 20
-2.510424799282845
 30
0.0
 40
0.023175195852144
100
AcDbArc
 50
63.08510597700003
 51
89.99999999290002
  0
LINE
  5
2129
102
{ACAD_REACTORS
330
20F2
102
}
330
20ED
100
AcDbEntity
  8
0
  6
Continuous
 62
     7
370
    15
100
AcDbLine
 10
6.900262355027152
 20
-2.487249608382845
 30
0.0
 11
6.876636387927156
 21
-2.487249608382845
 31
0.0
  0
LINE
  5
212A
102
{ACAD_REACTORS
330
20F2
102
}
330
20ED
100
AcDbEntity
  8
0
  6
Continuous
 62
     7
370
    15
100
AcDbLine
 10
6.876636387927156
 20
-2.487249608382845
 30
0.0
 11
6.876636387927156
 21
-2.516801268082845
 31
0.0
  0
LINE
  5
212B
102
{ACAD_REACTORS
330
20F2
102
}
330
20ED
100
AcDbEntity
  8
0
  6
Continuous
 62
     7
370
    15
100
AcDbLine
 10
6.876636387927156
 20
-2.516801268082845
 30
0.0
 11
6.900384184727156
 21
-2.516801268082845
 31
0.0
  0
ARC
  5
212C
102
{ACAD_REACTORS
330
20F2
102
}
330
20ED
100
AcDbEntity
  8
0
  6
Continuous
 62
     7
370
    15
100
AcDbCircle
 10
6.899095014227156
 20
-2.449481463082845
 30
0.0
 40
0.021378434297707
100
AcDbArc
 50
270.0000000507
 51
302.7538327093
  0
ARC
  5
212D
102
{ACAD_REACTORS
330
20F2
102
}
330
20ED
100
AcDbEntity
  8
0
  6
Continuous
 62
     7
370
    15
100
AcDbCircle
 10
6.905897067027157
 20
-2.459258813382845
 30
0.0
 40
0.0094853188547192
100
AcDbArc
 50
300.1513158430999
 51
0.8238440749000069
  0
LINE
  5
212E
102
{ACAD_REACTORS
330
2119
102
}
330
20ED
100
AcDbEntity
  8
0
  6
Continuous
 62
     7
370
    15
100
AcDbLine
 10
7.211213318625812
 20
-2.511317941482845
 30
0.0
 11
7.219521596025813
 21
-2.534285107782844
 31
0.0
  0
LINE
  5
212F
102
{ACAD_REACTORS
330
2119
102
}
330
20ED
100
AcDbEntity
  8
0
  6
Continuous
 62
     7
370
    15
100
AcDbLine
 10
7.219521596025813
 20
-2.534285107782844
 30
0.0
 11
7.242488792925811
 21
-2.534285107782844
 31
0.0
  0
ARC
  5
2130
102
{ACAD_REACTORS
330
20F2
102
}
330
20ED
100
AcDbEntity
  8
0
  6
Continuous
 62
     7
370
    15
100
AcDbCircle
 10
6.901452276727156
 20
-2.464087284082844
 30
0.0
 40
0.0173041711593509
100
AcDbArc
 50
55.19321811040001
 51
89.99999999280001
  0
LINE
  5
2131
102
{ACAD_REACTORS
330
20F2
102
}
330
20ED
100
AcDbEntity
  8
0
  6
Continuous
 62
     7
370
    15
100
AcDbLine
 10
6.901452296827157
 20
-2.446783116982845
 30
0.0
 11
6.876636387927156
 21
-2.446783116982845
 31
0.0
  0
LINE
  5
2132
102
{ACAD_REACTORS
330
20F2
102
}
330
20ED
100
AcDbEntity
  8
0
  6
Continuous
 62
     7
370
    15
100
AcDbLine
 10
6.876636387927156
 20
-2.446783116982845
 30
0.0
 11
6.876636387927156
 21
-2.470859895482845
 31
0.0
  0
ENDBLK
  5
2133
330
20ED
100
AcDbEntity
  8
0
100
AcDbBlockEnd
  0
BLOCK
  5
2137
330
2134
100
AcDbEntity
  8
0
100
AcDbBlockBegin
  2
bega logo
 70
     0
 10
0.0
 20
0.0
 30
0.0
  3
bega logo
  1

  0
INSERT
  5
2138
330
2134
100
AcDbEntity
  8
0
100
AcDbBlockReference
  2
bega
 10
-138.8202300585621
 20
53.61275461362001
 30
0.0
 41
20.43278469033529
 42
20.43278469033529
 43
20.43278469033529
  0
ENDBLK
  5
2139
330
2134
100
AcDbEntity
  8
0
100
AcDbBlockEnd
  0
BLOCK
  5
4B5F8
330
4B5F7
100
AcDbEntity
  8
0
100
AcDbBlockBegin
  2
*D2
 70
     1
 10
0.0
 20
0.0
 30
0.0
  3
*D2
  1

  0
LINE
  5
4B8D2
330
4B5F7
100
AcDbEntity
  8
DIM
440
 16777216
100
AcDbLine
 10
105.2548706218202
 20
76.13001313846599
 30
0.0
 11
105.2548706218202
 21
73.47172128177478
 31
0.0
  0
LINE
  5
4B8D3
330
4B5F7
100
AcDbEntity
  8
DIM
440
 16777216
100
AcDbLine
 10
125.8120215218202
 20
76.13001313846599
 30
0.0
 11
125.8120215218202
 21
73.47172128177478
 31
0.0
  0
LINE
  5
4B8D4
330
4B5F7
100
AcDbEntity
  8
DIM
440
 16777216
100
AcDbLine
 10
105.6548706218202
 20
73.87172128177478
 30
0.0
 11
114.4115413099155
 21
73.87172128177478
 31
0.0
  0
LINE
  5
4B8D5
330
4B5F7
100
AcDbEntity
  8
DIM
440
 16777216
100
AcDbLine
 10
125.4120215218202
 20
73.87172128177478
 30
0.0
 11
116.655350833725
 21
73.87172128177478
 31
0.0
  0
SOLID
  5
4B8D6
330
4B5F7
100
AcDbEntity
  8
DIM
440
 16777216
100
AcDbTrace
 10
105.6548706218202
 20
73.93838794844144
 30
0.0
 11
105.6548706218202
 21
73.80505461510812
 31
0.0
 12
105.2548706218202
 22
73.87172128177478
 32
0.0
 13
105.2548706218202
 23
73.87172128177478
 33
0.0
  0
SOLID
  5
4B8D7
330
4B5F7
100
AcDbEntity
  8
DIM
440
 16777216
100
AcDbTrace
 10
125.4120215218202
 20
73.93838794844144
 30
0.0
 11
125.4120215218202
 21
73.80505461510812
 31
0.0
 12
125.8120215218202
 22
73.87172128177478
 32
0.0
 13
125.8120215218202
 23
73.87172128177478
 33
0.0
  0
MTEXT
  5
4B8D8
330
4B5F7
100
AcDbEntity
  8
DIM
440
 16777216
100
AcDbMText
 10
115.5334460718203
 20
73.87172128177478
 30
0.0
 40
0.4
 41
0.0
 46
0.0
 71
     5
 72
     1
  1
\A1;20{\H1x;\S1#2;}"
 73
     1
 44
1.0
  0
POINT
  5
4B8D9
330
4B5F7
100
AcDbEntity
  8
DEFPOINTS
 62
     0
440
 16777216
100
AcDbPoint
 10
105.2548706218202
 20
76.63001313846598
 30
0.0
  0
POINT
  5
4B8DA
330
4B5F7
100
AcDbEntity
  8
DEFPOINTS
 62
     0
440
 16777216
100
AcDbPoint
 10
125.8120215218202
 20
76.63001313846598
 30
0.0
  0
POINT
  5
4B8DB
330
4B5F7
100
AcDbEntity
  8
DEFPOINTS
 62
     0
440
 16777216
100
AcDbPoint
 10
125.8120215218202
 20
73.87172128177478
 30
0.0
  0
ENDBLK
  5
4B5F9
330
4B5F7
100
AcDbEntity
  8
0
100
AcDbBlockEnd
  0
BLOCK
  5
4B696
330
4B695
100
AcDbEntity
  8
0
100
AcDbBlockBegin
  2
*D3
 70
     1
 10
0.0
 20
0.0
 30
0.0
  3
*D3
  1

  0
LINE
  5
4B8DC
330
4B695
100
AcDbEntity
  8
DIM
440
 16777216
100
AcDbLine
 10
107.9368809593202
 20
76.03538873846595
 30
0.0
 11
107.9368809593202
 21
75.14828945570723
 31
0.0
  0
LINE
  5
4B8DD
330
4B695
100
AcDbEntity
  8
DIM
440
 16777216
100
AcDbLine
 10
123.1359252093202
 20
76.03538873846595
 30
0.0
 11
123.1359252093202
 21
75.14828945570723
 31
0.0
  0
LINE
  5
4B8DE
330
4B695
100
AcDbEntity
  8
DIM
440
 16777216
100
AcDbLine
 10
108.3368809593202
 20
75.54828945570723
 30
0.0
 11
114.4430697509868
 21
75.54828945570723
 31
0.0
  0
LINE
  5
4B8DF
330
4B695
100
AcDbEntity
  8
DIM
440
 16777216
100
AcDbLine
 10
122.7359252093202
 20
75.54828945570723
 30
0.0
 11
116.6297364176535
 21
75.54828945570723
 31
0.0
  0
SOLID
  5
4B8E0
330
4B695
100
AcDbEntity
  8
DIM
440
 16777216
100
AcDbTrace
 10
108.3368809593202
 20
75.6149561223739
 30
0.0
 11
108.3368809593202
 21
75.48162278904057
 31
0.0
 12
107.9368809593202
 22
75.54828945570723
 32
0.0
 13
107.9368809593202
 23
75.54828945570723
 33
0.0
  0
SOLID
  5
4B8E1
330
4B695
100
AcDbEntity
  8
DIM
440
 16777216
100
AcDbTrace
 10
122.7359252093202
 20
75.6149561223739
 30
0.0
 11
122.7359252093202
 21
75.48162278904057
 31
0.0
 12
123.1359252093202
 22
75.54828945570723
 32
0.0
 13
123.1359252093202
 23
75.54828945570723
 33
0.0
  0
MTEXT
  5
4B8E2
330
4B695
100
AcDbEntity
  8
DIM
440
 16777216
100
AcDbMText
 10
115.5364030843202
 20
75.54828945570723
 30
0.0
 40
0.4
 41
0.0
 46
0.0
 71
     5
 72
     1
  1
\A1;15{\H1x;\S1#4;}"
 73
     1
 44
1.0
  0
POINT
  5
4B8E3
330
4B695
100
AcDbEntity
  8
DEFPOINTS
 62
     0
440
 16777216
100
AcDbPoint
 10
107.9368809593202
 20
76.53538873846596
 30
0.0
  0
POINT
  5
4B8E4
330
4B695
100
AcDbEntity
  8
DEFPOINTS
 62
     0
440
 16777216
100
AcDbPoint
 10
123.1359252093202
 20
76.53538873846596
 30
0.0
  0
POINT
  5
4B8E5
330
4B695
100
AcDbEntity
  8
DEFPOINTS
 62
     0
440
 16777216
100
AcDbPoint
 10
123.1359252093202
 20
75.54828945570723
 30
0.0
  0
ENDBLK
  5
4B697
330
4B695
100
AcDbEntity
  8
0
100
AcDbBlockEnd
  0
BLOCK
  5
4B6FC
330
4B6FB
100
AcDbEntity
  8
0
100
AcDbBlockBegin
  2
*D4
 70
     1
 10
0.0
 20
0.0
 30
0.0
  3
*D4
  1

  0
LINE
  5
4B8E6
330
4B6FB
100
AcDbEntity
  8
DIM
440
 16777216
100
AcDbLine
 10
107.6559647718202
 20
56.97686657394502
 30
0.0
 11
107.6559647718202
 21
54.52133488307614
 31
0.0
  0
LINE
  5
4B8E7
330
4B6FB
100
AcDbEntity
  8
DIM
440
 16777216
100
AcDbLine
 10
123.4109273718202
 20
56.97686657394502
 30
0.0
 11
123.4109273718202
 21
54.52133488307614
 31
0.0
  0
LINE
  5
4B8E8
330
4B6FB
100
AcDbEntity
  8
DIM
440
 16777216
100
AcDbLine
 10
108.0559647718202
 20
54.92133488307614
 30
0.0
 11
114.3543984527726
 21
54.92133488307614
 31
0.0
  0
LINE
  5
4B8E9
330
4B6FB
100
AcDbEntity
  8
DIM
440
 16777216
100
AcDbLine
 10
123.0109273718202
 20
54.92133488307614
 30
0.0
 11
116.7124936908679
 21
54.92133488307614
 31
0.0
  0
SOLID
  5
4B8EA
330
4B6FB
100
AcDbEntity
  8
DIM
440
 16777216
100
AcDbTrace
 10
108.0559647718202
 20
54.98800154974281
 30
0.0
 11
108.0559647718202
 21
54.85466821640947
 31
0.0
 12
107.6559647718202
 22
54.92133488307614
 32
0.0
 13
107.6559647718202
 23
54.92133488307614
 33
0.0
  0
SOLID
  5
4B8EB
330
4B6FB
100
AcDbEntity
  8
DIM
440
 16777216
100
AcDbTrace
 10
123.0109273718202
 20
54.98800154974281
 30
0.0
 11
123.0109273718202
 21
54.85466821640947
 31
0.0
 12
123.4109273718202
 22
54.92133488307614
 32
0.0
 13
123.4109273718202
 23
54.92133488307614
 33
0.0
  0
MTEXT
  5
4B8EC
330
4B6FB
100
AcDbEntity
  8
DIM
440
 16777216
100
AcDbMText
 10
115.5334460718203
 20
54.92133488307614
 30
0.0
 40
0.4
 41
0.0
 46
0.0
 71
     5
 72
     1
  1
\A1;15{\H1x;\S3#4;}"
 73
     1
 44
1.0
  0
POINT
  5
4B8ED
330
4B6FB
100
AcDbEntity
  8
DEFPOINTS
 62
     0
440
 16777216
100
AcDbPoint
 10
107.6559647718202
 20
57.47686657394503
 30
0.0
  0
POINT
  5
4B8EE
330
4B6FB
100
AcDbEntity
  8
DEFPOINTS
 62
     0
440
 16777216
100
AcDbPoint
 10
123.4109273718202
 20
57.47686657394503
 30
0.0
  0
POINT
  5
4B8EF
330
4B6FB
100
AcDbEntity
  8
DEFPOINTS
 62
     0
440
 16777216
100
AcDbPoint
 10
123.4109273718202
 20
54.92133488307614
 30
0.0
  0
ENDBLK
  5
4B6FD
330
4B6FB
100
AcDbEntity
  8
0
100
AcDbBlockEnd
  0
BLOCK
  5
4B70D
330
4B70C
100
AcDbEntity
  8
0
100
AcDbBlockBegin
  2
*D5
 70
     1
 10
0.0
 20
0.0
 30
0.0
  3
*D5
  1

  0
LINE
  5
4B8F0
330
4B70C
100
AcDbEntity
  8
DIM
440
 16777216
100
AcDbLine
 10
126.3120215218202
 20
68.85584398238073
 30
0.0
 11
127.7819600023501
 21
68.85584398238073
 31
0.0
  0
LINE
  5
4B8F1
330
4B70C
100
AcDbEntity
  8
DIM
440
 16777216
100
AcDbLine
 10
126.3120215218202
 20
64.39666913238074
 30
0.0
 11
127.7819600023501
 21
64.39666913238074
 31
0.0
  0
LINE
  5
4B8F2
330
4B70C
100
AcDbEntity
  8
DIM
440
 16777216
100
AcDbLine
 10
127.3819600023501
 20
68.45584398238073
 30
0.0
 11
127.3819600023501
 21
67.38625655738073
 31
0.0
  0
LINE
  5
4B8F3
330
4B70C
100
AcDbEntity
  8
DIM
440
 16777216
100
AcDbLine
 10
127.3819600023501
 20
64.79666913238074
 30
0.0
 11
127.3819600023501
 21
65.86625655738072
 31
0.0
  0
SOLID
  5
4B8F4
330
4B70C
100
AcDbEntity
  8
DIM
440
 16777216
100
AcDbTrace
 10
127.3152933356834
 20
68.45584398238073
 30
0.0
 11
127.4486266690168
 21
68.45584398238073
 31
0.0
 12
127.3819600023501
 22
68.85584398238073
 32
0.0
 13
127.3819600023501
 23
68.85584398238073
 33
0.0
  0
SOLID
  5
4B8F5
330
4B70C
100
AcDbEntity
  8
DIM
440
 16777216
100
AcDbTrace
 10
127.3152933356834
 20
64.79666913238074
 30
0.0
 11
127.4486266690168
 21
64.79666913238074
 31
0.0
 12
127.3819600023501
 22
64.39666913238074
 32
0.0
 13
127.3819600023501
 23
64.39666913238074
 33
0.0
  0
MTEXT
  5
4B8F6
330
4B70C
100
AcDbEntity
  8
DIM
440
 16777216
100
AcDbMText
 10
127.3819600023501
 20
66.62625655738067
 30
0.0
 40
0.4
 41
0.0
 46
0.0
 71
     5
 72
     1
  1
\A1;4{\H1x;\S1#2;}"
 73
     1
 44
1.0
  0
POINT
  5
4B8F7
330
4B70C
100
AcDbEntity
  8
DEFPOINTS
 62
     0
440
 16777216
100
AcDbPoint
 10
125.8120215218202
 20
68.85584398238073
 30
0.0
  0
POINT
  5
4B8F8
330
4B70C
100
AcDbEntity
  8
DEFPOINTS
 62
     0
440
 16777216
100
AcDbPoint
 10
125.8120215218202
 20
64.39666913238074
 30
0.0
  0
POINT
  5
4B8F9
330
4B70C
100
AcDbEntity
  8
DEFPOINTS
 62
     0
440
 16777216
100
AcDbPoint
 10
127.3819600023501
 20
64.39666913238074
 30
0.0
  0
ENDBLK
  5
4B70E
330
4B70C
100
AcDbEntity
  8
0
100
AcDbBlockEnd
  0
BLOCK
  5
4B71B
330
4B71A
100
AcDbEntity
  8
0
100
AcDbBlockBegin
  2
*D6
 70
     1
 10
0.0
 20
0.0
 30
0.0
  3
*D6
  1

  0
LINE
  5
4B8FA
330
4B71A
100
AcDbEntity
  8
DIM
440
 16777216
100
AcDbLine
 10
97.23790009230462
 20
63.89666913238071
 30
0.0
 11
97.23790009230462
 21
62.7200857933434
 31
0.0
  0
LINE
  5
4B8FB
330
4B71A
100
AcDbEntity
  8
DIM
440
 16777216
100
AcDbLine
 10
99.52101856179837
 20
63.89666913238071
 30
0.0
 11
99.52101856179837
 21
62.7200857933434
 31
0.0
  0
LINE
  5
4B8FC
330
4B71A
100
AcDbEntity
  8
DIM
440
 16777216
100
AcDbLine
 10
96.83790009230463
 20
63.12008579334339
 30
0.0
 11
96.43790009230464
 21
63.12008579334339
 31
0.0
  0
LINE
  5
4B8FD
330
4B71A
100
AcDbEntity
  8
DIM
440
 16777216
100
AcDbLine
 10
99.92101856179836
 20
63.12008579334339
 30
0.0
 11
100.3210185617983
 21
63.12008579334339
 31
0.0
  0
SOLID
  5
4B8FE
330
4B71A
100
AcDbEntity
  8
DIM
440
 16777216
100
AcDbTrace
 10
96.83790009230463
 20
63.18675246001006
 30
0.0
 11
96.83790009230463
 21
63.05341912667672
 31
0.0
 12
97.23790009230462
 22
63.12008579334339
 32
0.0
 13
97.23790009230462
 23
63.12008579334339
 33
0.0
  0
SOLID
  5
4B8FF
330
4B71A
100
AcDbEntity
  8
DIM
440
 16777216
100
AcDbTrace
 10
99.92101856179836
 20
63.18675246001006
 30
0.0
 11
99.92101856179836
 21
63.05341912667672
 31
0.0
 12
99.52101856179837
 22
63.12008579334339
 32
0.0
 13
99.52101856179837
 23
63.12008579334339
 33
0.0
  0
MTEXT
  5
4B900
330
4B71A
100
AcDbEntity
  8
DIM
440
 16777216
100
AcDbMText
 10
98.37945932705149
 20
63.12008579334339
 30
0.0
 40
0.4
 41
0.0
 46
0.0
 71
     5
 72
     1
  1
\A1;2{\H1x;\S1#4;}"
 73
     1
 44
1.0
  0
POINT
  5
4B901
330
4B71A
100
AcDbEntity
  8
DEFPOINTS
 62
     0
440
 16777216
100
AcDbPoint
 10
97.23790009230462
 20
64.3966691323807
 30
0.0
  0
POINT
  5
4B902
330
4B71A
100
AcDbEntity
  8
DEFPOINTS
 62
     0
440
 16777216
100
AcDbPoint
 10
99.52101856179837
 20
64.3966691323807
 30
0.0
  0
POINT
  5
4B903
330
4B71A
100
AcDbEntity
  8
DEFPOINTS
 62
     0
440
 16777216
100
AcDbPoint
 10
99.52101856179837
 20
63.12008579334339
 30
0.0
  0
ENDBLK
  5
4B71C
330
4B71A
100
AcDbEntity
  8
0
100
AcDbBlockEnd
  0
ENDSEC
  0
SECTION
  2
ENTITIES
  0
LINE
  5
4B506
330
1F
100
AcDbEntity
  8
Part
100
AcDbLine
 10
105.2548706218202
 20
68.8558439823807
 30
0.0
 11
105.6274541968202
 21
68.8558439823807
 31
0.0
  0
LINE
  5
4B507
330
1F
100
AcDbEntity
  8
Part
100
AcDbLine
 10
105.6274541968202
 20
68.8558439823807
 30
0.0
 11
105.6333682218202
 21
68.84992995738071
 31
0.0
  0
LINE
  5
4B508
330
1F
100
AcDbEntity
  8
Part
100
AcDbLine
 10
105.6865944468202
 20
68.8558439823807
 30
0.0
 11
125.3802976968202
 21
68.8558439823807
 31
0.0
  0
LINE
  5
4B509
330
1F
100
AcDbEntity
  8
Part
100
AcDbLine
 10
125.3802976968202
 20
68.8558439823807
 30
0.0
 11
125.3802976968202
 21
65.76280890738072
 31
0.0
  0
LINE
  5
4B50E
330
1F
100
AcDbEntity
  8
Part
100
AcDbLine
 10
125.3802976968202
 20
68.82035983238072
 30
0.0
 11
125.4335239218202
 21
68.84992995738071
 31
0.0
  0
LINE
  5
4B50F
330
1F
100
AcDbEntity
  8
Part
100
AcDbLine
 10
125.4335239218202
 20
68.84992995738071
 30
0.0
 11
125.4453519718202
 21
68.8558439823807
 31
0.0
  0
LINE
  5
4B510
330
1F
100
AcDbEntity
  8
Part
100
AcDbLine
 10
125.4453519718202
 20
68.8558439823807
 30
0.0
 11
125.8120215218202
 21
68.8558439823807
 31
0.0
  0
LINE
  5
4B511
330
1F
100
AcDbEntity
  8
Part
100
AcDbLine
 10
125.8120215218202
 20
68.8558439823807
 30
0.0
 11
125.8120215218202
 21
64.54451975738071
 31
0.0
  0
LINE
  5
4B512
330
1F
100
AcDbEntity
  8
Part
100
AcDbLine
 10
125.8120215218202
 20
64.54451975738071
 30
0.0
 11
125.5754605218202
 21
64.54451975738071
 31
0.0
  0
LINE
  5
4B513
330
1F
100
AcDbEntity
  8
Part
100
AcDbLine
 10
125.6523428468202
 20
64.54451975738071
 30
0.0
 11
125.6523428468202
 21
65.76280890738072
 31
0.0
  0
LINE
  5
4B514
330
1F
100
AcDbEntity
  8
Part
100
AcDbLine
 10
125.8120215218202
 20
65.76280890738072
 30
0.0
 11
105.2548706218202
 21
65.76280890738072
 31
0.0
  0
LINE
  5
4B518
330
1F
100
AcDbEntity
  8
Part
100
AcDbLine
 10
105.2548706218202
 20
64.54451975738071
 30
0.0
 11
105.2548706218202
 21
68.8558439823807
 31
0.0
  0
LINE
  5
4B519
330
1F
100
AcDbEntity
  8
Part
100
AcDbLine
 10
105.2548706218202
 20
64.78699478238072
 30
0.0
 11
105.4145492968202
 21
64.78699478238072
 31
0.0
  0
LINE
  5
4B51A
330
1F
100
AcDbEntity
  8
Part
100
AcDbLine
 10
105.2548706218202
 20
64.54451975738071
 30
0.0
 11
105.4914316218202
 21
64.54451975738071
 31
0.0
  0
LINE
  5
4B51B
330
1F
100
AcDbEntity
  8
Part
100
AcDbLine
 10
105.4145492968202
 20
64.54451975738071
 30
0.0
 11
105.4145492968202
 21
65.76280890738072
 31
0.0
  0
LINE
  5
4B51C
330
1F
100
AcDbEntity
  8
Part
100
AcDbLine
 10
105.4914316218202
 20
64.3966691323807
 30
0.0
 11
105.4914316218202
 21
64.76333868238072
 31
0.0
  0
LINE
  5
4B51D
330
1F
100
AcDbEntity
  8
Part
100
AcDbLine
 10
105.4914316218202
 20
64.76333868238072
 30
0.0
 11
125.5754605218202
 21
64.76333868238072
 31
0.0
  0
LINE
  5
4B51E
330
1F
100
AcDbEntity
  8
Part
100
AcDbLine
 10
125.5754605218202
 20
64.76333868238072
 30
0.0
 11
125.5754605218202
 21
64.3966691323807
 31
0.0
  0
LINE
  5
4B51F
330
1F
100
AcDbEntity
  8
Part
100
AcDbLine
 10
125.5754605218202
 20
64.3966691323807
 30
0.0
 11
105.4914316218202
 21
64.3966691323807
 31
0.0
  0
LINE
  5
4B520
330
1F
100
AcDbEntity
  8
Part
100
AcDbLine
 10
125.8120215218202
 20
64.78699478238072
 30
0.0
 11
125.6523428468202
 21
64.78699478238072
 31
0.0
  0
LINE
  5
4B521
330
1F
100
AcDbEntity
  8
Part
100
AcDbLine
 10
105.6865944468202
 20
65.76280890738072
 30
0.0
 11
105.6865944468202
 21
68.8558439823807
 31
0.0
  0
LINE
  5
4B522
330
1F
100
AcDbEntity
  8
Part
100
AcDbLine
 10
105.6865944468202
 20
68.82035983238072
 30
0.0
 11
105.6333682218202
 21
68.84992995738071
 31
0.0
  0
LINE
  5
4B523
330
1F
100
AcDbEntity
  8
Part
100
AcDbLine
 10
105.6333682218202
 20
68.84992995738071
 30
0.0
 11
105.6274541968202
 21
68.83810190738071
 31
0.0
  0
LINE
  5
4B524
330
1F
100
AcDbEntity
  8
Part
100
AcDbLine
 10
105.6274541968202
 20
68.83810190738071
 30
0.0
 11
105.6274541968202
 21
65.78646500738071
 31
0.0
  0
LINE
  5
4B525
330
1F
100
AcDbEntity
  8
Part
100
AcDbLine
 10
105.6274541968202
 20
65.78646500738071
 30
0.0
 11
105.6333682218202
 21
65.76872293238071
 31
0.0
  0
LINE
  5
4B526
330
1F
100
AcDbEntity
  8
Part
100
AcDbLine
 10
105.6333682218202
 20
65.76872293238071
 30
0.0
 11
105.6274541968202
 21
65.76280890738072
 31
0.0
  0
LINE
  5
4B52A
330
1F
100
AcDbEntity
  8
Part
100
AcDbLine
 10
125.3802976968202
 20
65.80420708238071
 30
0.0
 11
125.4335239218202
 21
65.76872293238071
 31
0.0
  0
LINE
  5
4B52B
330
1F
100
AcDbEntity
  8
Part
100
AcDbLine
 10
125.4335239218202
 20
65.76872293238071
 30
0.0
 11
125.4453519718202
 21
65.78646500738071
 31
0.0
  0
LINE
  5
4B52C
330
1F
100
AcDbEntity
  8
Part
100
AcDbLine
 10
125.4453519718202
 20
65.78646500738071
 30
0.0
 11
125.4453519718202
 21
68.83810190738071
 31
0.0
  0
LINE
  5
4B52D
330
1F
100
AcDbEntity
  8
Part
100
AcDbLine
 10
125.4453519718202
 20
68.83810190738071
 30
0.0
 11
125.4335239218202
 21
68.84992995738071
 31
0.0
  0
LINE
  5
4B52E
330
1F
100
AcDbEntity
  8
Part
100
AcDbLine
 10
105.6333682218202
 20
65.76872293238071
 30
0.0
 11
105.6865944468202
 21
65.80420708238071
 31
0.0
  0
LINE
  5
4B52F
330
1F
100
AcDbEntity
  8
Part
100
AcDbLine
 10
125.4335239218202
 20
65.76872293238071
 30
0.0
 11
125.4409164530702
 21
65.76502666675572
 31
0.0
  0
LINE
  5
4B530
330
1F
100
AcDbEntity
  8
Part
100
AcDbLine
 10
125.4409164530702
 20
65.76502666675572
 30
0.0
 11
125.4453519718202
 21
65.76280890738072
 31
0.0
  0
LINE
  5
4B531
330
1F
100
AcDbEntity
  8
Precision Part
100
AcDbLine
 10
123.1329681968202
 20
65.59721620738071
 30
0.0
 11
123.1861944218202
 21
65.57356010738072
 31
0.0
  0
LINE
  5
4B532
330
1F
100
AcDbEntity
  8
Precision Part
100
AcDbLine
 10
123.1861944218202
 20
65.57356010738072
 30
0.0
 11
123.2039364968202
 21
65.52033388238071
 31
0.0
  0
LINE
  5
4B533
330
1F
100
AcDbEntity
  8
Precision Part
100
AcDbLine
 10
123.2039364968202
 20
65.52033388238071
 30
0.0
 11
123.1743663718202
 21
65.47302168238072
 31
0.0
  0
LINE
  5
4B534
330
1F
100
AcDbEntity
  8
Precision Part
100
AcDbLine
 10
123.1743663718202
 20
65.47302168238072
 30
0.0
 11
123.1211401468202
 21
65.46119363238071
 31
0.0
  0
LINE
  5
4B535
330
1F
100
AcDbEntity
  8
Precision Part
100
AcDbLine
 10
123.1211401468202
 20
65.46119363238071
 30
0.0
 11
123.0738279468202
 21
65.49667778238071
 31
0.0
  0
LINE
  5
4B536
330
1F
100
AcDbEntity
  8
Precision Part
100
AcDbLine
 10
123.0738279468202
 20
65.49667778238071
 30
0.0
 11
123.0738279468202
 21
65.56173205738071
 31
0.0
  0
LINE
  5
4B537
330
1F
100
AcDbEntity
  8
Precision Part
100
AcDbLine
 10
123.0738279468202
 20
65.56173205738071
 30
0.0
 11
123.1329681968202
 21
65.59721620738071
 31
0.0
  0
CIRCLE
  5
4B538
330
1F
100
AcDbEntity
  8
Precision Part
100
AcDbCircle
 10
123.1329681968202
 20
65.52624790738072
 30
0.0
 40
0.1571440928571377
  0
CIRCLE
  5
4B53F
330
1F
100
AcDbEntity
  8
Precision Part
100
AcDbCircle
 10
107.9339239468202
 20
65.52624790738072
 30
0.0
 40
0.1571440928571377
  0
LINE
  5
4B543
330
1F
100
AcDbEntity
  8
Precision Part
100
AcDbLine
 10
107.8806977218202
 20
65.57356010738072
 30
0.0
 11
107.9339239468202
 21
65.59721620738071
 31
0.0
  0
LINE
  5
4B544
330
1F
100
AcDbEntity
  8
Precision Part
100
AcDbLine
 10
107.9339239468202
 20
65.59721620738071
 30
0.0
 11
107.9871501718202
 21
65.57356010738072
 31
0.0
  0
LINE
  5
4B545
330
1F
100
AcDbEntity
  8
Precision Part
100
AcDbLine
 10
107.9871501718202
 20
65.57356010738072
 30
0.0
 11
107.9989782218202
 21
65.52033388238071
 31
0.0
  0
LINE
  5
4B546
330
1F
100
AcDbEntity
  8
Precision Part
100
AcDbLine
 10
107.9989782218202
 20
65.52033388238071
 30
0.0
 11
107.9753221218202
 21
65.47302168238072
 31
0.0
  0
LINE
  5
4B547
330
1F
100
AcDbEntity
  8
Precision Part
100
AcDbLine
 10
107.9753221218202
 20
65.47302168238072
 30
0.0
 11
107.9220958968202
 21
65.46119363238071
 31
0.0
  0
LINE
  5
4B548
330
1F
100
AcDbEntity
  8
Precision Part
100
AcDbLine
 10
107.9220958968202
 20
65.46119363238071
 30
0.0
 11
107.8747836968202
 21
65.49667778238071
 31
0.0
  0
LINE
  5
4B549
330
1F
100
AcDbEntity
  8
Precision Part
100
AcDbLine
 10
107.8747836968202
 20
65.49667778238071
 30
0.0
 11
107.8747836968202
 21
65.56173205738071
 31
0.0
  0
LINE
  5
4B54A
330
1F
100
AcDbEntity
  8
Precision Part
100
AcDbLine
 10
107.8747836968202
 20
65.56173205738071
 30
0.0
 11
107.9339239468202
 21
65.59721620738071
 31
0.0
  0
LINE
  5
4B55C
330
1F
100
AcDbEntity
  8
Part
100
AcDbLine
 10
105.2548706218202
 20
58.61827339894503
 30
0.0
 11
125.8120215218202
 21
58.61827339894503
 31
0.0
  0
LINE
  5
4B55D
330
1F
100
AcDbEntity
  8
Part
100
AcDbLine
 10
125.8120215218202
 20
58.61827339894503
 30
0.0
 11
125.8120215218202
 21
56.33545974894502
 31
0.0
  0
LINE
  5
4B55E
330
1F
100
AcDbEntity
  8
Part
100
AcDbLine
 10
125.8120215218202
 20
56.33545974894502
 30
0.0
 11
105.2548706218202
 21
56.33545974894502
 31
0.0
  0
LINE
  5
4B55F
330
1F
100
AcDbEntity
  8
Part
100
AcDbLine
 10
105.2548706218202
 20
56.33545974894502
 30
0.0
 11
105.2548706218202
 21
58.61827339894503
 31
0.0
  0
LINE
  5
4B560
330
1F
100
AcDbEntity
  8
Part
100
AcDbLine
 10
105.4145492968202
 20
58.61827339894503
 30
0.0
 11
105.4145492968202
 21
56.33545974894502
 31
0.0
  0
LINE
  5
4B561
330
1F
100
AcDbEntity
  8
Part
100
AcDbLine
 10
105.4914316218202
 20
56.33545974894502
 30
0.0
 11
105.4914316218202
 21
58.61827339894503
 31
0.0
  0
LINE
  5
4B562
330
1F
100
AcDbEntity
  8
Part
100
AcDbLine
 10
105.4914316218202
 20
58.51182094894504
 30
0.0
 11
125.5754605218202
 21
58.51182094894504
 31
0.0
  0
LINE
  5
4B563
330
1F
100
AcDbEntity
  8
Part
100
AcDbLine
 10
125.5754605218202
 20
58.61827339894503
 30
0.0
 11
125.5754605218202
 21
56.33545974894502
 31
0.0
  0
LINE
  5
4B564
330
1F
100
AcDbEntity
  8
Part
100
AcDbLine
 10
125.6523428468202
 20
56.33545974894502
 30
0.0
 11
125.6523428468202
 21
58.61827339894503
 31
0.0
  0
LINE
  5
4B565
330
1F
100
AcDbEntity
  8
Part
100
AcDbLine
 10
105.4914316218202
 20
56.44191219894501
 30
0.0
 11
125.5754605218202
 21
56.44191219894501
 31
0.0
  0
LINE
  5
4B566
330
1F
100
AcDbEntity
  8
Part
100
AcDbLine
 10
105.4914316218202
 20
57.08654092394502
 30
0.0
 11
125.5754605218202
 21
57.08654092394502
 31
0.0
  0
LINE
  5
4B567
330
1F
100
AcDbEntity
  8
Part
100
AcDbLine
 10
125.5754605218202
 20
57.87310624894502
 30
0.0
 11
105.4914316218202
 21
57.87310624894502
 31
0.0
  0
LINE
  5
4B568
330
1F
100
AcDbEntity
  8
Precision Part
100
AcDbLine
 10
107.7801592968202
 20
58.61827339894503
 30
0.0
 11
107.7801592968202
 21
58.706983773945
 31
0.0
  0
LINE
  5
4B569
330
1F
100
AcDbEntity
  8
Precision Part
100
AcDbLine
 10
107.7801592968202
 20
58.706983773945
 30
0.0
 11
107.7919873468202
 21
58.71881182394504
 31
0.0
  0
LINE
  5
4B56A
330
1F
100
AcDbEntity
  8
Precision Part
100
AcDbLine
 10
107.7919873468202
 20
58.71881182394504
 30
0.0
 11
108.0758605468202
 21
58.71881182394504
 31
0.0
  0
LINE
  5
4B56B
330
1F
100
AcDbEntity
  8
Precision Part
100
AcDbLine
 10
108.0758605468202
 20
58.71881182394504
 30
0.0
 11
108.0876885968202
 21
58.706983773945
 31
0.0
  0
LINE
  5
4B56C
330
1F
100
AcDbEntity
  8
Precision Part
100
AcDbLine
 10
108.0876885968202
 20
58.706983773945
 30
0.0
 11
108.0876885968202
 21
58.61827339894503
 31
0.0
  0
LINE
  5
4B56D
330
1F
100
AcDbEntity
  8
Precision Part
100
AcDbLine
 10
107.7801592968202
 20
58.706983773945
 30
0.0
 11
108.0876885968202
 21
58.706983773945
 31
0.0
  0
LINE
  5
4B56E
330
1F
100
AcDbEntity
  8
Precision Part
100
AcDbLine
 10
122.9792035468202
 20
58.61827339894503
 30
0.0
 11
122.9792035468202
 21
58.706983773945
 31
0.0
  0
LINE
  5
4B56F
330
1F
100
AcDbEntity
  8
Precision Part
100
AcDbLine
 10
122.9792035468202
 20
58.706983773945
 30
0.0
 11
122.9910315968202
 21
58.71881182394504
 31
0.0
  0
LINE
  5
4B570
330
1F
100
AcDbEntity
  8
Precision Part
100
AcDbLine
 10
122.9910315968202
 20
58.71881182394504
 30
0.0
 11
123.2808188218202
 21
58.71881182394504
 31
0.0
  0
LINE
  5
4B571
330
1F
100
AcDbEntity
  8
Precision Part
100
AcDbLine
 10
123.2808188218202
 20
58.71881182394504
 30
0.0
 11
123.2926468718202
 21
58.706983773945
 31
0.0
  0
LINE
  5
4B572
330
1F
100
AcDbEntity
  8
Precision Part
100
AcDbLine
 10
123.2926468718202
 20
58.706983773945
 30
0.0
 11
123.2926468718202
 21
58.61827339894503
 31
0.0
  0
LINE
  5
4B573
330
1F
100
AcDbEntity
  8
Precision Part
100
AcDbLine
 10
122.9792035468202
 20
58.706983773945
 30
0.0
 11
123.2926468718202
 21
58.706983773945
 31
0.0
  0
CIRCLE
  5
4B574
330
1F
100
AcDbEntity
  8
Precision Part
100
AcDbCircle
 10
115.5334460718202
 20
57.47686657394503
 30
0.0
 40
0.2928998697368428
  0
CIRCLE
  5
4B575
330
1F
100
AcDbEntity
  8
Precision Part
100
AcDbCircle
 10
123.4109273718202
 20
57.47686657394503
 30
0.0
 40
0.1360225749999842
  0
LINE
  5
4B576
330
1F
100
AcDbEntity
  8
Precision Part
100
AcDbLine
 10
124.9485738718202
 20
57.589233048945
 30
0.0
 11
125.0195421718202
 21
57.589233048945
 31
0.0
  0
LINE
  5
4B577
330
1F
100
AcDbEntity
  8
Precision Part
100
AcDbLine
 10
125.0195421718202
 20
57.589233048945
 30
0.0
 11
125.0786824218202
 21
57.54783487394503
 31
0.0
  0
LINE
  5
4B578
330
1F
100
AcDbEntity
  8
Precision Part
100
AcDbLine
 10
125.0786824218202
 20
57.54783487394503
 30
0.0
 11
125.1023385218202
 21
57.47686657394503
 31
0.0
  0
LINE
  5
4B579
330
1F
100
AcDbEntity
  8
Precision Part
100
AcDbLine
 10
125.1023385218202
 20
57.47686657394503
 30
0.0
 11
125.0845964468202
 21
57.41772632394503
 31
0.0
  0
LINE
  5
4B57A
330
1F
100
AcDbEntity
  8
Precision Part
100
AcDbLine
 10
125.0845964468202
 20
57.41772632394503
 30
0.0
 11
125.0254561968202
 21
57.37041412394503
 31
0.0
  0
LINE
  5
4B57B
330
1F
100
AcDbEntity
  8
Precision Part
100
AcDbLine
 10
125.0254561968202
 20
57.37041412394503
 30
0.0
 11
124.9544878968202
 21
57.36450009894504
 31
0.0
  0
LINE
  5
4B57C
330
1F
100
AcDbEntity
  8
Precision Part
100
AcDbLine
 10
124.9544878968202
 20
57.36450009894504
 30
0.0
 11
124.8953476468202
 21
57.40589827394501
 31
0.0
  0
LINE
  5
4B57D
330
1F
100
AcDbEntity
  8
Precision Part
100
AcDbLine
 10
124.8953476468202
 20
57.40589827394501
 30
0.0
 11
124.8657775218202
 21
57.47095254894503
 31
0.0
  0
LINE
  5
4B57E
330
1F
100
AcDbEntity
  8
Precision Part
100
AcDbLine
 10
124.8657775218202
 20
57.47095254894503
 30
0.0
 11
124.8894336218202
 21
57.54192084894502
 31
0.0
  0
LINE
  5
4B57F
330
1F
100
AcDbEntity
  8
Precision Part
100
AcDbLine
 10
124.8894336218202
 20
57.54192084894502
 30
0.0
 11
124.9485738718202
 21
57.589233048945
 31
0.0
  0
CIRCLE
  5
4B583
330
1F
100
AcDbEntity
  8
Precision Part
100
AcDbCircle
 10
124.9840580218202
 20
57.47686657394503
 30
0.0
 40
0.1565245283333354
  0
CIRCLE
  5
4B584
330
1F
100
AcDbEntity
  8
Precision Part
100
AcDbCircle
 10
107.6559647718202
 20
57.47686657394503
 30
0.0
 40
0.1360225749999842
  0
CIRCLE
  5
4B585
330
1F
100
AcDbEntity
  8
Precision Part
100
AcDbCircle
 10
106.0828341218202
 20
57.47686657394503
 30
0.0
 40
0.1565245283333354
  0
LINE
  5
4B586
330
1F
100
AcDbEntity
  8
Precision Part
100
AcDbLine
 10
106.0414359468202
 20
57.589233048945
 30
0.0
 11
106.1124042468202
 21
57.589233048945
 31
0.0
  0
LINE
  5
4B587
330
1F
100
AcDbEntity
  8
Precision Part
100
AcDbLine
 10
106.1124042468202
 20
57.589233048945
 30
0.0
 11
106.1774585218202
 21
57.553748898945
 31
0.0
  0
LINE
  5
4B588
330
1F
100
AcDbEntity
  8
Precision Part
100
AcDbLine
 10
106.1774585218202
 20
57.553748898945
 30
0.0
 11
106.2011146218202
 21
57.48278059894502
 31
0.0
  0
LINE
  5
4B589
330
1F
100
AcDbEntity
  8
Precision Part
100
AcDbLine
 10
106.2011146218202
 20
57.48278059894502
 30
0.0
 11
106.1833725468202
 21
57.41181229894503
 31
0.0
  0
LINE
  5
4B58A
330
1F
100
AcDbEntity
  8
Precision Part
100
AcDbLine
 10
106.1833725468202
 20
57.41181229894503
 30
0.0
 11
106.1242322968202
 21
57.36450009894504
 31
0.0
  0
LINE
  5
4B58B
330
1F
100
AcDbEntity
  8
Precision Part
100
AcDbLine
 10
106.1242322968202
 20
57.36450009894504
 30
0.0
 11
106.0473499718202
 21
57.36450009894504
 31
0.0
  0
LINE
  5
4B58C
330
1F
100
AcDbEntity
  8
Precision Part
100
AcDbLine
 10
106.0473499718202
 20
57.36450009894504
 30
0.0
 11
105.9882097218202
 21
57.40589827394501
 31
0.0
  0
LINE
  5
4B58D
330
1F
100
AcDbEntity
  8
Precision Part
100
AcDbLine
 10
105.9882097218202
 20
57.40589827394501
 30
0.0
 11
105.9645536218202
 21
57.47686657394503
 31
0.0
  0
LINE
  5
4B58E
330
1F
100
AcDbEntity
  8
Precision Part
100
AcDbLine
 10
105.9645536218202
 20
57.47686657394503
 30
0.0
 11
105.9822956968202
 21
57.54192084894502
 31
0.0
  0
LINE
  5
4B58F
330
1F
100
AcDbEntity
  8
Precision Part
100
AcDbLine
 10
105.9822956968202
 20
57.54192084894502
 30
0.0
 11
106.0414359468202
 21
57.589233048945
 31
0.0
  0
LINE
  5
4B593
330
1F
100
AcDbEntity
  8
Part
100
AcDbLine
 10
125.8120215218202
 20
76.63001313846598
 30
0.0
 11
125.8120215218202
 21
78.91282678846597
 31
0.0
  0
LINE
  5
4B594
330
1F
100
AcDbEntity
  8
Part
100
AcDbLine
 10
105.2548706218202
 20
76.63001313846598
 30
0.0
 11
125.8120215218202
 21
76.63001313846598
 31
0.0
  0
LINE
  5
4B595
330
1F
100
AcDbEntity
  8
Part
100
AcDbLine
 10
125.8120215218202
 20
78.91282678846597
 30
0.0
 11
105.2548706218202
 21
78.91282678846597
 31
0.0
  0
LINE
  5
4B596
330
1F
100
AcDbEntity
  8
Part
100
AcDbLine
 10
105.2548706218202
 20
78.91282678846597
 30
0.0
 11
105.2548706218202
 21
76.63001313846598
 31
0.0
  0
LINE
  5
4B597
330
1F
100
AcDbEntity
  8
Part
100
AcDbLine
 10
105.6925084718202
 20
78.91282678846597
 30
0.0
 11
105.6925084718202
 21
78.82411641346597
 31
0.0
  0
LINE
  5
4B598
330
1F
100
AcDbEntity
  8
Part
100
AcDbLine
 10
105.6925084718202
 20
78.82411641346597
 30
0.0
 11
105.6274541968202
 21
78.77089018846598
 31
0.0
  0
LINE
  5
4B599
330
1F
100
AcDbEntity
  8
Part
100
AcDbLine
 10
105.6274541968202
 20
78.77089018846598
 30
0.0
 11
105.6037980968203
 21
78.69992188846598
 31
0.0
  0
LINE
  5
4B59A
330
1F
100
AcDbEntity
  8
Part
100
AcDbLine
 10
105.6037980968203
 20
78.69992188846598
 30
0.0
 11
105.6037980968203
 21
76.84883206346599
 31
0.0
  0
LINE
  5
4B59B
330
1F
100
AcDbEntity
  8
Part
100
AcDbLine
 10
105.6037980968203
 20
76.84883206346599
 30
0.0
 11
105.6274541968202
 21
76.77194973846599
 31
0.0
  0
LINE
  5
4B59C
330
1F
100
AcDbEntity
  8
Part
100
AcDbLine
 10
105.6274541968202
 20
76.77194973846599
 30
0.0
 11
105.6925084718202
 21
76.71872351346596
 31
0.0
  0
LINE
  5
4B59D
330
1F
100
AcDbEntity
  8
Part
100
AcDbLine
 10
105.6274541968202
 20
78.77089018846598
 30
0.0
 11
105.6274541968202
 21
78.89508471346599
 31
0.0
  0
LINE
  5
4B5A4
330
1F
100
AcDbEntity
  8
Part
100
AcDbLine
 10
105.6925084718202
 20
78.82411641346597
 30
0.0
 11
105.7398206718202
 21
78.83003043846598
 31
0.0
  0
LINE
  5
4B5A5
330
1F
100
AcDbEntity
  8
Part
100
AcDbLine
 10
105.7398206718202
 20
78.83003043846598
 30
0.0
 11
125.3329854968202
 21
78.83003043846598
 31
0.0
  0
LINE
  5
4B5A6
330
1F
100
AcDbEntity
  8
Part
100
AcDbLine
 10
125.3329854968202
 20
78.83003043846598
 30
0.0
 11
125.3802976968202
 21
78.82411641346597
 31
0.0
  0
LINE
  5
4B5A7
330
1F
100
AcDbEntity
  8
Part
100
AcDbLine
 10
125.3802976968202
 20
78.82411641346597
 30
0.0
 11
125.3802976968202
 21
78.91282678846597
 31
0.0
  0
LINE
  5
4B5AD
330
1F
100
AcDbEntity
  8
Part
100
AcDbLine
 10
125.3802976968202
 20
78.82411641346597
 30
0.0
 11
125.4453519718202
 21
78.77089018846598
 31
0.0
  0
LINE
  5
4B5AE
330
1F
100
AcDbEntity
  8
Part
100
AcDbLine
 10
125.4453519718202
 20
78.77089018846598
 30
0.0
 11
125.4453519718202
 21
78.89508471346599
 31
0.0
  0
LINE
  5
4B5B0
330
1F
100
AcDbEntity
  8
Part
100
AcDbLine
 10
125.4453519718202
 20
78.77089018846598
 30
0.0
 11
125.4690080718202
 21
78.69400786346599
 31
0.0
  0
LINE
  5
4B5B1
330
1F
100
AcDbEntity
  8
Part
100
AcDbLine
 10
125.4690080718202
 20
78.69400786346599
 30
0.0
 11
125.4690080718202
 21
76.84291803846598
 31
0.0
  0
LINE
  5
4B5B2
330
1F
100
AcDbEntity
  8
Part
100
AcDbLine
 10
125.4690080718202
 20
76.84291803846598
 30
0.0
 11
125.4453519718202
 21
76.77194973846599
 31
0.0
  0
LINE
  5
4B5B3
330
1F
100
AcDbEntity
  8
Part
100
AcDbLine
 10
125.4453519718202
 20
76.77194973846599
 30
0.0
 11
125.3802976968202
 21
76.71872351346596
 31
0.0
  0
LINE
  5
4B5B5
330
1F
100
AcDbEntity
  8
Part
100
AcDbLine
 10
125.3802976968202
 20
76.71872351346596
 30
0.0
 11
125.3329854968202
 21
76.70689546346598
 31
0.0
  0
LINE
  5
4B5B6
330
1F
100
AcDbEntity
  8
Part
100
AcDbLine
 10
125.3329854968202
 20
76.70689546346598
 30
0.0
 11
105.7398206718202
 21
76.70689546346598
 31
0.0
  0
LINE
  5
4B5B7
330
1F
100
AcDbEntity
  8
Part
100
AcDbLine
 10
105.7398206718202
 20
76.70689546346598
 30
0.0
 11
105.6925084718202
 21
76.71872351346596
 31
0.0
  0
LINE
  5
4B5BA
330
1F
100
AcDbEntity
  8
Part
100
AcDbLine
 10
105.6925084718202
 20
76.71872351346596
 30
0.0
 11
105.6925084718202
 21
76.63001313846598
 31
0.0
  0
LINE
  5
4B5BB
330
1F
100
AcDbEntity
  8
Part
100
AcDbLine
 10
105.6274541968202
 20
76.77194973846599
 30
0.0
 11
105.6274541968202
 21
76.64775521346598
 31
0.0
  0
LINE
  5
4B5C2
330
1F
100
AcDbEntity
  8
Part
100
AcDbLine
 10
105.6629383468202
 20
78.70583591346599
 30
0.0
 11
105.6925084718202
 21
78.75906213846596
 31
0.0
  0
LINE
  5
4B5C3
330
1F
100
AcDbEntity
  8
Part
100
AcDbLine
 10
105.6925084718202
 20
78.75906213846596
 30
0.0
 11
105.6984224968202
 21
78.76497616346599
 31
0.0
  0
LINE
  5
4B5C4
330
1F
100
AcDbEntity
  8
Part
100
AcDbLine
 10
105.6984224968202
 20
78.76497616346599
 30
0.0
 11
105.7398206718202
 21
78.77680421346598
 31
0.0
  0
LINE
  5
4B5C5
330
1F
100
AcDbEntity
  8
Part
100
AcDbLine
 10
105.7398206718202
 20
78.77680421346598
 30
0.0
 11
125.3329854968202
 21
78.77680421346598
 31
0.0
  0
LINE
  5
4B5C6
330
1F
100
AcDbEntity
  8
Part
100
AcDbLine
 10
125.3329854968202
 20
78.77680421346598
 30
0.0
 11
125.3684696468202
 21
78.76497616346599
 31
0.0
  0
LINE
  5
4B5C7
330
1F
100
AcDbEntity
  8
Part
100
AcDbLine
 10
125.3684696468202
 20
78.76497616346599
 30
0.0
 11
125.3802976968202
 21
78.753148113466
 31
0.0
  0
LINE
  5
4B5C8
330
1F
100
AcDbEntity
  8
Part
100
AcDbLine
 10
125.3802976968202
 20
78.753148113466
 30
0.0
 11
125.4098678218202
 21
78.69400786346599
 31
0.0
  0
LINE
  5
4B5C9
330
1F
100
AcDbEntity
  8
Part
100
AcDbLine
 10
125.4098678218202
 20
78.69400786346599
 30
0.0
 11
125.4098678218202
 21
76.83700401346598
 31
0.0
  0
LINE
  5
4B5CB
330
1F
100
AcDbEntity
  8
Part
100
AcDbLine
 10
125.3329854968202
 20
76.76603571346598
 30
0.0
 11
125.3684696468202
 21
76.77786376346599
 31
0.0
  0
LINE
  5
4B5CC
330
1F
100
AcDbEntity
  8
Part
100
AcDbLine
 10
125.3684696468202
 20
76.77786376346599
 30
0.0
 11
125.3802976968202
 21
76.78969181346599
 31
0.0
  0
LINE
  5
4B5CD
330
1F
100
AcDbEntity
  8
Part
100
AcDbLine
 10
125.3802976968202
 20
76.78969181346599
 30
0.0
 11
125.4098678218202
 21
76.83700401346598
 31
0.0
  0
LINE
  5
4B5CE
330
1F
100
AcDbEntity
  8
Part
100
AcDbLine
 10
125.3329854968202
 20
76.76603571346598
 30
0.0
 11
105.7398206718202
 21
76.76603571346598
 31
0.0
  0
LINE
  5
4B5CF
330
1F
100
AcDbEntity
  8
Part
100
AcDbLine
 10
105.7398206718202
 20
76.76603571346598
 30
0.0
 11
105.7043365218202
 21
76.77786376346599
 31
0.0
  0
LINE
  5
4B5D0
330
1F
100
AcDbEntity
  8
Part
100
AcDbLine
 10
105.7043365218202
 20
76.77786376346599
 30
0.0
 11
105.6629383468202
 21
76.84883206346599
 31
0.0
  0
LINE
  5
4B5D1
330
1F
100
AcDbEntity
  8
Part
100
AcDbLine
 10
105.6629383468202
 20
76.84883206346599
 30
0.0
 11
105.6629383468202
 21
78.70583591346599
 31
0.0
  0
LINE
  5
4B5D5
330
1F
100
AcDbEntity
  8
Part
100
AcDbLine
 10
125.3802976968202
 20
76.63001313846598
 30
0.0
 11
125.3802976968202
 21
76.71280948846599
 31
0.0
  0
LINE
  5
4B5D6
330
1F
100
AcDbEntity
  8
Part
100
AcDbLine
 10
125.3802976968202
 20
76.71280948846599
 30
0.0
 11
125.3802976968202
 21
76.71872351346596
 31
0.0
  0
LINE
  5
4B5D7
330
1F
100
AcDbEntity
  8
Part
100
AcDbLine
 10
125.4453519718202
 20
76.77194973846599
 30
0.0
 11
125.4453519718202
 21
76.64775521346598
 31
0.0
  0
LINE
  5
4B5D8
330
1F
100
AcDbEntity
  8
Part
100
AcDbLine
 10
125.4453519718202
 20
76.64775521346598
 30
0.0
 11
125.4453519718202
 21
76.63001313846598
 31
0.0
  0
LINE
  5
4B5D9
330
1F
100
AcDbEntity
  8
Part
100
AcDbLine
 10
125.4453519718202
 20
78.89508471346599
 30
0.0
 11
125.4453519718202
 21
78.91282678846597
 31
0.0
  0
LINE
  5
4B5DA
330
1F
100
AcDbEntity
  8
Part
100
AcDbLine
 10
105.6274541968202
 20
78.89508471346599
 30
0.0
 11
105.6274541968202
 21
78.91282678846597
 31
0.0
  0
LINE
  5
4B5DB
330
1F
100
AcDbEntity
  8
Part
100
AcDbLine
 10
105.6274541968202
 20
76.64775521346598
 30
0.0
 11
105.6274541968202
 21
76.63001313846598
 31
0.0
  0
LINE
  5
4B5DC
330
1F
100
AcDbEntity
  8
Precision Part
100
AcDbLine
 10
107.7801592968202
 20
76.63001313846597
 30
0.0
 11
107.7801592968202
 21
76.54721678846597
 31
0.0
  0
LINE
  5
4B5DD
330
1F
100
AcDbEntity
  8
Precision Part
100
AcDbLine
 10
107.7801592968202
 20
76.54721678846597
 30
0.0
 11
107.7919873468202
 21
76.53538873846596
 31
0.0
  0
LINE
  5
4B5DE
330
1F
100
AcDbEntity
  8
Precision Part
100
AcDbLine
 10
107.7919873468202
 20
76.53538873846596
 30
0.0
 11
108.0817745718202
 21
76.53538873846596
 31
0.0
  0
LINE
  5
4B5DF
330
1F
100
AcDbEntity
  8
Precision Part
100
AcDbLine
 10
108.0817745718202
 20
76.53538873846596
 30
0.0
 11
108.0936026218202
 21
76.54721678846597
 31
0.0
  0
LINE
  5
4B5E0
330
1F
100
AcDbEntity
  8
Precision Part
100
AcDbLine
 10
108.0936026218202
 20
76.54721678846597
 30
0.0
 11
108.0936026218202
 21
76.63001313846597
 31
0.0
  0
LINE
  5
4B5E1
330
1F
100
AcDbEntity
  8
Precision Part
100
AcDbLine
 10
107.7801592968202
 20
76.54721678846597
 30
0.0
 11
108.0936026218202
 21
76.54721678846597
 31
0.0
  0
LINE
  5
4B5E2
330
1F
100
AcDbEntity
  8
Precision Part
100
AcDbLine
 10
122.9792035468202
 20
76.63001313846597
 30
0.0
 11
122.9792035468202
 21
76.54721678846597
 31
0.0
  0
LINE
  5
4B5E3
330
1F
100
AcDbEntity
  8
Precision Part
100
AcDbLine
 10
122.9792035468202
 20
76.54721678846597
 30
0.0
 11
122.9910315968202
 21
76.53538873846596
 31
0.0
  0
LINE
  5
4B5E4
330
1F
100
AcDbEntity
  8
Precision Part
100
AcDbLine
 10
122.9910315968202
 20
76.53538873846596
 30
0.0
 11
123.2808188218202
 21
76.53538873846596
 31
0.0
  0
LINE
  5
4B5E5
330
1F
100
AcDbEntity
  8
Precision Part
100
AcDbLine
 10
123.2808188218202
 20
76.53538873846596
 30
0.0
 11
123.2926468718202
 21
76.54721678846597
 31
0.0
  0
LINE
  5
4B5E6
330
1F
100
AcDbEntity
  8
Precision Part
100
AcDbLine
 10
123.2926468718202
 20
76.54721678846597
 30
0.0
 11
123.2926468718202
 21
76.63001313846597
 31
0.0
  0
LINE
  5
4B5E7
330
1F
100
AcDbEntity
  8
Precision Part
100
AcDbLine
 10
122.9792035468202
 20
76.54721678846597
 30
0.0
 11
123.2926468718202
 21
76.54721678846597
 31
0.0
  0
DIMENSION
  5
4B5F6
330
1F
100
AcDbEntity
  8
DIM
100
AcDbDimension
280
     0
  2
*D2
 10
125.8120215218202
 20
73.87172128177478
 30
0.0
 11
115.5334460718203
 21
73.87172128177478
 31
0.0
 70
   160
 71
     5
 42
20.5571509
 73
     0
 74
     0
 75
     0
  3
STANDARD
100
AcDbAlignedDimension
 13
105.2548706218202
 23
76.63001313846598
 33
0.0
 14
125.8120215218202
 24
76.63001313846598
 34
0.0
100
AcDbRotatedDimension
  0
LINE
  5
4B607
330
1F
100
AcDbEntity
  8
Part
100
AcDbLine
 10
97.23790009230462
 20
68.83486232631463
 30
0.0
 11
97.24183989984473
 21
68.848651652705
 31
0.0
  0
LINE
  5
4B608
330
1F
100
AcDbEntity
  8
Part
100
AcDbLine
 10
97.24183989984473
 20
68.848651652705
 30
0.0
 11
97.25759913000516
 21
68.85456136401517
 31
0.0
  0
LINE
  5
4B609
330
1F
100
AcDbEntity
  8
Part
100
AcDbLine
 10
97.25759913000516
 20
68.85456136401517
 30
0.0
 11
99.50131952409781
 21
68.85456136401517
 31
0.0
  0
LINE
  5
4B60A
330
1F
100
AcDbEntity
  8
Part
100
AcDbLine
 10
99.50131952409781
 20
68.85456136401517
 30
0.0
 11
99.51313894671812
 21
68.85062155647506
 31
0.0
  0
LINE
  5
4B60B
330
1F
100
AcDbEntity
  8
Part
100
AcDbLine
 10
99.51313894671812
 20
68.85062155647506
 30
0.0
 11
99.52101856179837
 21
68.83486232631463
 31
0.0
  0
LINE
  5
4B60C
330
1F
100
AcDbEntity
  8
Part
100
AcDbLine
 10
99.52101856179837
 20
68.83486232631463
 30
0.0
 11
99.52101856179837
 21
65.78545129026949
 31
0.0
  0
LINE
  5
4B60D
330
1F
100
AcDbEntity
  8
Part
100
AcDbLine
 10
99.52101856179837
 20
65.78545129026949
 30
0.0
 11
99.51707875425825
 21
65.77363186764916
 31
0.0
  0
LINE
  5
4B60E
330
1F
100
AcDbEntity
  8
Part
100
AcDbLine
 10
99.51707875425825
 20
65.77363186764916
 30
0.0
 11
99.50131952409781
 21
65.76575225256894
 31
0.0
  0
LINE
  5
4B60F
330
1F
100
AcDbEntity
  8
Part
100
AcDbLine
 10
99.50131952409781
 20
65.76575225256894
 30
0.0
 11
97.25759913000516
 21
65.76575225256894
 31
0.0
  0
LINE
  5
4B610
330
1F
100
AcDbEntity
  8
Part
100
AcDbLine
 10
97.25759913000516
 20
65.76575225256894
 30
0.0
 11
97.24577970738485
 21
65.76969206010904
 31
0.0
  0
LINE
  5
4B611
330
1F
100
AcDbEntity
  8
Part
100
AcDbLine
 10
97.24577970738485
 20
65.76969206010904
 30
0.0
 11
97.23790009230462
 21
65.78545129026949
 31
0.0
  0
LINE
  5
4B612
330
1F
100
AcDbEntity
  8
Part
100
AcDbLine
 10
97.23790009230462
 20
65.78545129026949
 30
0.0
 11
97.23790009230462
 21
68.83486232631463
 31
0.0
  0
LINE
  5
4B613
330
1F
100
AcDbEntity
  8
Part
100
AcDbLine
 10
97.23790009230462
 20
65.76575225256894
 30
0.0
 11
97.25759913000516
 21
65.76575225256894
 31
0.0
  0
LINE
  5
4B614
330
1F
100
AcDbEntity
  8
Part
100
AcDbLine
 10
97.23790009230462
 20
65.76575225256894
 30
0.0
 11
97.23790009230462
 21
64.79064988639172
 31
0.0
  0
LINE
  5
4B615
330
1F
100
AcDbEntity
  8
Part
100
AcDbLine
 10
97.23790009230462
 20
65.68498619799668
 30
0.0
 11
97.15319423019224
 21
65.68498619799668
 31
0.0
  0
LINE
  5
4B616
330
1F
100
AcDbEntity
  8
Part
100
AcDbLine
 10
97.15319423019224
 20
65.68498619799668
 30
0.0
 11
97.14137480757193
 21
65.67316677537636
 31
0.0
  0
LINE
  5
4B617
330
1F
100
AcDbEntity
  8
Part
100
AcDbLine
 10
97.14137480757193
 20
65.67316677537636
 30
0.0
 11
97.14137480757193
 21
65.38556082494832
 31
0.0
  0
LINE
  5
4B618
330
1F
100
AcDbEntity
  8
Part
100
AcDbLine
 10
97.14137480757193
 20
65.38556082494832
 30
0.0
 11
97.15319423019224
 21
65.37374140232799
 31
0.0
  0
LINE
  5
4B619
330
1F
100
AcDbEntity
  8
Part
100
AcDbLine
 10
97.15319423019224
 20
65.37374140232799
 30
0.0
 11
97.23790009230462
 21
65.37374140232799
 31
0.0
  0
LINE
  5
4B61A
330
1F
100
AcDbEntity
  8
Part
100
AcDbLine
 10
98.12435678882936
 20
65.76575225256894
 30
0.0
 11
98.12435678882936
 21
65.56876187556344
 31
0.0
  0
LINE
  5
4B61B
330
1F
100
AcDbEntity
  8
Part
100
AcDbLine
 10
98.12435678882936
 20
65.56876187556344
 30
0.0
 11
98.13223640390958
 21
65.50572495492168
 31
0.0
  0
LINE
  5
4B61C
330
1F
100
AcDbEntity
  8
Part
100
AcDbLine
 10
98.13223640390958
 20
65.50572495492168
 30
0.0
 11
98.15390534538019
 21
65.44662784182003
 31
0.0
  0
LINE
  5
4B61D
330
1F
100
AcDbEntity
  8
Part
100
AcDbLine
 10
98.15390534538019
 20
65.44662784182003
 30
0.0
 11
98.19133351701125
 21
65.3954103437986
 31
0.0
  0
LINE
  5
4B61E
330
1F
100
AcDbEntity
  8
Part
100
AcDbLine
 10
98.19133351701125
 20
65.3954103437986
 30
0.0
 11
98.24058111126262
 21
65.35601226839751
 31
0.0
  0
LINE
  5
4B61F
330
1F
100
AcDbEntity
  8
Part
100
AcDbLine
 10
98.24058111126262
 20
65.35601226839751
 30
0.0
 11
98.29573841682416
 21
65.32646371184667
 31
0.0
  0
LINE
  5
4B620
330
1F
100
AcDbEntity
  8
Part
100
AcDbLine
 10
98.29573841682416
 20
65.32646371184667
 30
0.0
 11
98.35877533746591
 21
65.31464428922635
 31
0.0
  0
LINE
  5
4B621
330
1F
100
AcDbEntity
  8
Part
100
AcDbLine
 10
98.35877533746591
 20
65.31464428922635
 30
0.0
 11
98.42181225810769
 21
65.3166141929964
 31
0.0
  0
LINE
  5
4B622
330
1F
100
AcDbEntity
  8
Part
100
AcDbLine
 10
98.42181225810769
 20
65.3166141929964
 30
0.0
 11
98.48287927497937
 21
65.33631323069696
 31
0.0
  0
LINE
  5
4B623
330
1F
100
AcDbEntity
  8
Part
100
AcDbLine
 10
98.48287927497937
 20
65.33631323069696
 30
0.0
 11
98.53606667677086
 21
65.36783169101783
 31
0.0
  0
LINE
  5
4B624
330
1F
100
AcDbEntity
  8
Part
100
AcDbLine
 10
98.53606667677086
 20
65.36783169101783
 30
0.0
 11
98.58137446348214
 21
65.41313947772909
 31
0.0
  0
LINE
  5
4B625
330
1F
100
AcDbEntity
  8
Part
100
AcDbLine
 10
98.58137446348214
 20
65.41313947772909
 30
0.0
 11
98.612892923803
 21
65.46829678329064
 31
0.0
  0
LINE
  5
4B626
330
1F
100
AcDbEntity
  8
Part
100
AcDbLine
 10
98.612892923803
 20
65.46829678329064
 30
0.0
 11
98.63259196150357
 21
65.52739389639228
 31
0.0
  0
LINE
  5
4B627
330
1F
100
AcDbEntity
  8
Part
100
AcDbLine
 10
98.63259196150357
 20
65.52739389639228
 30
0.0
 11
98.6345618652736
 21
65.56876187556344
 31
0.0
  0
LINE
  5
4B628
330
1F
100
AcDbEntity
  8
Part
100
AcDbLine
 10
98.6345618652736
 20
65.56876187556344
 30
0.0
 11
98.6345618652736
 21
65.76575225256894
 31
0.0
  0
LINE
  5
4B629
330
1F
100
AcDbEntity
  8
Part
100
AcDbLine
 10
99.50131952409781
 20
65.76575225256894
 30
0.0
 11
99.52101856179837
 21
65.76575225256894
 31
0.0
  0
LINE
  5
4B62A
330
1F
100
AcDbEntity
  8
Part
100
AcDbLine
 10
99.52101856179837
 20
65.76575225256894
 30
0.0
 11
99.52101856179837
 21
64.79064988639172
 31
0.0
  0
LINE
  5
4B62B
330
1F
100
AcDbEntity
  8
Part
100
AcDbLine
 10
97.23790009230462
 20
64.3966691323807
 30
0.0
 11
97.34427489588759
 21
64.3966691323807
 31
0.0
  0
LINE
  5
4B62C
330
1F
100
AcDbEntity
  8
Part
100
AcDbLine
 10
97.34427489588759
 20
64.3966691323807
 30
0.0
 11
97.34427489588759
 21
64.59168960561616
 31
0.0
  0
LINE
  5
4B62D
330
1F
100
AcDbEntity
  8
Part
100
AcDbLine
 10
97.34427489588759
 20
64.59168960561616
 30
0.0
 11
97.35412441473783
 21
64.60744883577659
 31
0.0
  0
LINE
  5
4B62E
330
1F
100
AcDbEntity
  8
Part
100
AcDbLine
 10
97.35412441473783
 20
64.60744883577659
 30
0.0
 11
97.3698836448983
 21
64.60744883577659
 31
0.0
  0
LINE
  5
4B62F
330
1F
100
AcDbEntity
  8
Part
100
AcDbLine
 10
97.3698836448983
 20
64.60744883577659
 30
0.0
 11
97.57475363698404
 21
64.5424420113648
 31
0.0
  0
LINE
  5
4B630
330
1F
100
AcDbEntity
  8
Part
100
AcDbLine
 10
97.57475363698404
 20
64.5424420113648
 30
0.0
 11
97.7815935328398
 21
64.4892546095733
 31
0.0
  0
LINE
  5
4B631
330
1F
100
AcDbEntity
  8
Part
100
AcDbLine
 10
97.7815935328398
 20
64.4892546095733
 30
0.0
 11
97.96873439099501
 21
64.45773614925241
 31
0.0
  0
LINE
  5
4B632
330
1F
100
AcDbEntity
  8
Part
100
AcDbLine
 10
97.96873439099501
 20
64.45773614925241
 30
0.0
 11
97.97858390984528
 21
64.45379634171231
 31
0.0
  0
LINE
  5
4B633
330
1F
100
AcDbEntity
  8
Part
100
AcDbLine
 10
97.97858390984528
 20
64.45379634171231
 30
0.0
 11
97.98646352492552
 21
64.43803711155187
 31
0.0
  0
LINE
  5
4B634
330
1F
100
AcDbEntity
  8
Part
100
AcDbLine
 10
97.98646352492552
 20
64.43803711155187
 30
0.0
 11
97.98646352492552
 21
64.42424778516147
 31
0.0
  0
LINE
  5
4B635
330
1F
100
AcDbEntity
  8
Part
100
AcDbLine
 10
97.98646352492552
 20
64.42424778516147
 30
0.0
 11
97.9923732362357
 21
64.40848855500104
 31
0.0
  0
LINE
  5
4B636
330
1F
100
AcDbEntity
  8
Part
100
AcDbLine
 10
97.9923732362357
 20
64.40848855500104
 30
0.0
 11
98.00616256262607
 21
64.40454874746094
 31
0.0
  0
LINE
  5
4B637
330
1F
100
AcDbEntity
  8
Part
100
AcDbLine
 10
98.00616256262607
 20
64.40454874746094
 30
0.0
 11
98.75275609147692
 21
64.40454874746094
 31
0.0
  0
LINE
  5
4B638
330
1F
100
AcDbEntity
  8
Part
100
AcDbLine
 10
98.75275609147692
 20
64.40454874746094
 30
0.0
 11
98.76851532163732
 21
64.41242836254115
 31
0.0
  0
LINE
  5
4B639
330
1F
100
AcDbEntity
  8
Part
100
AcDbLine
 10
98.76851532163732
 20
64.41242836254115
 30
0.0
 11
98.77245512917744
 21
64.42424778516147
 31
0.0
  0
LINE
  5
4B63A
330
1F
100
AcDbEntity
  8
Part
100
AcDbLine
 10
98.77245512917744
 20
64.42424778516147
 30
0.0
 11
98.77245512917744
 21
64.43803711155187
 31
0.0
  0
LINE
  5
4B63B
330
1F
100
AcDbEntity
  8
Part
100
AcDbLine
 10
98.77245512917744
 20
64.43803711155187
 30
0.0
 11
98.77639493671757
 21
64.44788663040213
 31
0.0
  0
LINE
  5
4B63C
330
1F
100
AcDbEntity
  8
Part
100
AcDbLine
 10
98.77639493671757
 20
64.44788663040213
 30
0.0
 11
98.79018426310793
 21
64.45773614925241
 31
0.0
  0
LINE
  5
4B63D
330
1F
100
AcDbEntity
  8
Part
100
AcDbLine
 10
98.79018426310793
 20
64.45773614925241
 30
0.0
 11
99.00096396650384
 21
64.49516432088346
 31
0.0
  0
LINE
  5
4B63E
330
1F
100
AcDbEntity
  8
Part
100
AcDbLine
 10
99.00096396650384
 20
64.49516432088346
 30
0.0
 11
99.20780386235961
 21
64.54835172267493
 31
0.0
  0
LINE
  5
4B63F
330
1F
100
AcDbEntity
  8
Part
100
AcDbLine
 10
99.20780386235961
 20
64.54835172267493
 30
0.0
 11
99.38706510543459
 21
64.60744883577659
 31
0.0
  0
LINE
  5
4B640
330
1F
100
AcDbEntity
  8
Part
100
AcDbLine
 10
99.38706510543459
 20
64.60744883577659
 30
0.0
 11
99.38903500920469
 21
64.60941873954666
 31
0.0
  0
LINE
  5
4B641
330
1F
100
AcDbEntity
  8
Part
100
AcDbLine
 10
99.38903500920469
 20
64.60941873954666
 30
0.0
 11
99.40676414313514
 21
64.60547893200653
 31
0.0
  0
LINE
  5
4B642
330
1F
100
AcDbEntity
  8
Part
100
AcDbLine
 10
99.40676414313514
 20
64.60547893200653
 30
0.0
 11
99.4146437582154
 21
64.5897197018461
 31
0.0
  0
LINE
  5
4B643
330
1F
100
AcDbEntity
  8
Part
100
AcDbLine
 10
99.4146437582154
 20
64.5897197018461
 30
0.0
 11
99.4146437582154
 21
64.3966691323807
 31
0.0
  0
LINE
  5
4B644
330
1F
100
AcDbEntity
  8
Part
100
AcDbLine
 10
99.4146437582154
 20
64.3966691323807
 30
0.0
 11
99.52101856179837
 21
64.3966691323807
 31
0.0
  0
LINE
  5
4B645
330
1F
100
AcDbEntity
  8
Part
100
AcDbLine
 10
99.52101856179837
 20
64.3966691323807
 30
0.0
 11
99.52101856179837
 21
64.74731200345051
 31
0.0
  0
LINE
  5
4B646
330
1F
100
AcDbEntity
  8
Part
100
AcDbLine
 10
99.52101856179837
 20
64.74731200345051
 30
0.0
 11
99.51313894671814
 21
64.76307123361093
 31
0.0
  0
LINE
  5
4B647
330
1F
100
AcDbEntity
  8
Part
100
AcDbLine
 10
99.51313894671814
 20
64.76307123361093
 30
0.0
 11
99.49540981278765
 21
64.76504113738099
 31
0.0
  0
LINE
  5
4B648
330
1F
100
AcDbEntity
  8
Part
100
AcDbLine
 10
99.49540981278765
 20
64.76504113738099
 30
0.0
 11
99.49343990901759
 21
64.76504113738099
 31
0.0
  0
LINE
  5
4B649
330
1F
100
AcDbEntity
  8
Part
100
AcDbLine
 10
99.49343990901759
 20
64.76504113738099
 30
0.0
 11
99.42843308460577
 21
64.73746248460023
 31
0.0
  0
LINE
  5
4B64A
330
1F
100
AcDbEntity
  8
Part
100
AcDbLine
 10
99.42843308460577
 20
64.73746248460023
 30
0.0
 11
99.23144270760026
 21
64.66654594887825
 31
0.0
  0
LINE
  5
4B64B
330
1F
100
AcDbEntity
  8
Part
100
AcDbLine
 10
99.23144270760026
 20
64.66654594887825
 30
0.0
 11
99.0285426192846
 21
64.6113886433167
 31
0.0
  0
LINE
  5
4B64C
330
1F
100
AcDbEntity
  8
Part
100
AcDbLine
 10
99.0285426192846
 20
64.6113886433167
 30
0.0
 11
98.82170272342882
 21
64.57002066414553
 31
0.0
  0
LINE
  5
4B64D
330
1F
100
AcDbEntity
  8
Part
100
AcDbLine
 10
98.82170272342882
 20
64.57002066414553
 30
0.0
 11
98.81382310834862
 21
64.5719905679156
 31
0.0
  0
LINE
  5
4B64E
330
1F
100
AcDbEntity
  8
Part
100
AcDbLine
 10
98.81382310834862
 20
64.5719905679156
 30
0.0
 11
98.80200368572829
 21
64.57790027922577
 31
0.0
  0
LINE
  5
4B650
330
1F
100
AcDbEntity
  8
Part
100
AcDbLine
 10
98.80200368572829
 20
64.57790027922577
 30
0.0
 11
98.79762612179485
 21
64.58008906119251
 31
0.0
  0
LINE
  5
4B651
330
1F
100
AcDbEntity
  8
Part
100
AcDbLine
 10
97.23790009230462
 20
64.3966691323807
 30
0.0
 11
97.23790009230462
 21
64.75125181099061
 31
0.0
  0
LINE
  5
4B652
330
1F
100
AcDbEntity
  8
Part
100
AcDbLine
 10
97.23790009230462
 20
64.75125181099061
 30
0.0
 11
97.24774961115489
 21
64.76504113738099
 31
0.0
  0
LINE
  5
4B653
330
1F
100
AcDbEntity
  8
Part
100
AcDbLine
 10
97.24774961115489
 20
64.76504113738099
 30
0.0
 11
97.26547874508542
 21
64.76504113738099
 31
0.0
  0
LINE
  5
4B654
330
1F
100
AcDbEntity
  8
Part
100
AcDbLine
 10
97.26547874508542
 20
64.76504113738099
 30
0.0
 11
97.46246912209088
 21
64.68821489034886
 31
0.0
  0
LINE
  5
4B655
330
1F
100
AcDbEntity
  8
Part
100
AcDbLine
 10
97.46246912209088
 20
64.68821489034886
 30
0.0
 11
97.66339930663649
 21
64.62714787347714
 31
0.0
  0
LINE
  5
4B656
330
1F
100
AcDbEntity
  8
Part
100
AcDbLine
 10
97.66339930663649
 20
64.62714787347714
 30
0.0
 11
97.86826929872221
 21
64.58184008676588
 31
0.0
  0
LINE
  5
4B657
330
1F
100
AcDbEntity
  8
Part
100
AcDbLine
 10
97.86826929872221
 20
64.58184008676588
 30
0.0
 11
97.93524602690409
 21
64.57002066414553
 31
0.0
  0
LINE
  5
4B658
330
1F
100
AcDbEntity
  8
Part
100
AcDbLine
 10
97.93524602690409
 20
64.57002066414553
 30
0.0
 11
97.94312564198431
 21
64.5719905679156
 31
0.0
  0
LINE
  5
4B659
330
1F
100
AcDbEntity
  8
Part
100
AcDbLine
 10
97.94312564198431
 20
64.5719905679156
 30
0.0
 11
97.9569149683747
 21
64.57790027922577
 31
0.0
  0
LINE
  5
4B65D
330
1F
100
AcDbEntity
  8
Part
100
AcDbLine
 10
97.9569149683747
 20
64.57790027922577
 30
0.0
 11
97.9606641400661
 21
64.5795070670935
 31
0.0
  0
LINE
  5
4B65E
330
1F
100
AcDbEntity
  8
Part
100
AcDbLine
 10
97.23790009230462
 20
64.79064988639172
 30
0.0
 11
97.36200402981793
 21
64.74050688133582
 31
0.0
  0
LINE
  5
4B65F
330
1F
100
AcDbEntity
  8
Part
100
AcDbLine
 10
97.36200402981793
 20
64.74050688133582
 30
0.0
 11
97.43292056554007
 21
64.7118537355895
 31
0.0
  0
LINE
  5
4B660
330
1F
100
AcDbEntity
  8
Part
100
AcDbLine
 10
97.43292056554007
 20
64.7118537355895
 30
0.0
 11
97.44221053973973
 21
64.70891037742724
 31
0.0
  0
LINE
  5
4B663
330
1F
100
AcDbEntity
  8
Part
100
AcDbLine
 10
97.63188084631559
 20
64.64881681494775
 30
0.0
 11
97.44221053973973
 21
64.70891037742723
 31
0.0
  0
LINE
  5
4B664
330
1F
100
AcDbEntity
  8
Part
100
AcDbLine
 10
97.63188084631559
 20
64.64881681494775
 30
0.0
 11
97.83675083840131
 21
64.59956922069638
 31
0.0
  0
LINE
  5
4B665
330
1F
100
AcDbEntity
  8
Part
100
AcDbLine
 10
97.83675083840131
 20
64.59956922069638
 30
0.0
 11
98.04359073425713
 21
64.56608085660544
 31
0.0
  0
LINE
  5
4B666
330
1F
100
AcDbEntity
  8
Part
100
AcDbLine
 10
98.04359073425713
 20
64.56608085660544
 30
0.0
 11
98.25240053388291
 21
64.54835172267493
 31
0.0
  0
LINE
  5
4B667
330
1F
100
AcDbEntity
  8
Part
100
AcDbLine
 10
98.25240053388291
 20
64.54835172267493
 30
0.0
 11
98.46318023727882
 21
64.54835172267493
 31
0.0
  0
LINE
  5
4B668
330
1F
100
AcDbEntity
  8
Part
100
AcDbLine
 10
98.46318023727882
 20
64.54835172267493
 30
0.0
 11
98.67199003690465
 21
64.56214104906533
 31
0.0
  0
LINE
  5
4B669
330
1F
100
AcDbEntity
  8
Part
100
AcDbLine
 10
98.67199003690465
 20
64.56214104906533
 30
0.0
 11
98.87882993276043
 21
64.59168960561616
 31
0.0
  0
LINE
  5
4B66A
330
1F
100
AcDbEntity
  8
Part
100
AcDbLine
 10
98.87882993276043
 20
64.59168960561616
 30
0.0
 11
99.08369992484615
 21
64.63699739232743
 31
0.0
  0
LINE
  5
4B66B
330
1F
100
AcDbEntity
  8
Part
100
AcDbLine
 10
99.08369992484615
 20
64.63699739232743
 30
0.0
 11
99.19992424727938
 21
64.6724556601884
 31
0.0
  0
LINE
  5
4B66C
330
1F
100
AcDbEntity
  8
Part
100
AcDbLine
 10
99.19992424727938
 20
64.6724556601884
 30
0.0
 11
99.24297943332421
 21
64.68540587039427
 31
0.0
  0
LINE
  5
4B66D
330
1F
100
AcDbEntity
  8
Part
100
AcDbLine
 10
99.24297943332421
 20
64.68540587039427
 30
0.0
 11
99.33766598012413
 21
64.71821804007742
 31
0.0
  0
LINE
  5
4B66E
330
1F
100
AcDbEntity
  8
Part
100
AcDbLine
 10
99.33766598012415
 20
64.71821804007743
 30
0.0
 11
99.39888452805497
 21
64.74140229214033
 31
0.0
  0
LINE
  5
4B66F
330
1F
100
AcDbEntity
  8
Part
100
AcDbLine
 10
99.39888452805497
 20
64.74140229214033
 30
0.0
 11
99.4655863859433
 21
64.76682779428871
 31
0.0
  0
LINE
  5
4B671
330
1F
100
AcDbEntity
  8
Part
100
AcDbLine
 10
99.52101856179837
 20
64.79064988639172
 30
0.0
 11
99.48162048639726
 21
64.77292075246122
 31
0.0
  0
LINE
  5
4B672
330
1F
100
AcDbEntity
  8
Part
100
AcDbLine
 10
99.48162048639726
 20
64.77292075246122
 30
0.0
 11
99.46558638594149
 21
64.76682779428802
 31
0.0
  0
DIMENSION
  5
4B694
330
1F
100
AcDbEntity
  8
DIM
100
AcDbDimension
280
     0
  2
*D3
 10
123.1359252093202
 20
75.54828945570723
 30
0.0
 11
115.5364030843202
 21
75.54828945570723
 31
0.0
 70
   160
 71
     5
 42
15.19904425
 73
     0
 74
     0
 75
     0
  3
STANDARD
100
AcDbAlignedDimension
 13
107.9368809593202
 23
76.53538873846596
 33
0.0
 14
123.1359252093202
 24
76.53538873846596
 34
0.0
100
AcDbRotatedDimension
  0
DIMENSION
  5
4B6FA
330
1F
100
AcDbEntity
  8
DIM
100
AcDbDimension
280
     0
  2
*D4
 10
123.4109273718202
 20
54.92133488307614
 30
0.0
 11
115.5334460718203
 21
54.92133488307614
 31
0.0
 70
   160
 71
     5
 42
15.7549626
 73
     0
 74
     0
 75
     0
  3
STANDARD
100
AcDbAlignedDimension
 13
107.6559647718202
 23
57.47686657394503
 33
0.0
 14
123.4109273718202
 24
57.47686657394503
 34
0.0
100
AcDbRotatedDimension
  0
DIMENSION
  5
4B70B
330
1F
100
AcDbEntity
  8
DIM
100
AcDbDimension
280
     0
  2
*D5
 10
127.3819600023501
 20
64.39666913238074
 30
0.0
 11
127.3819600023501
 21
66.62625655738067
 31
0.0
 70
    32
 71
     5
 42
4.459174849999996
 73
     0
 74
     0
 75
     0
  3
STANDARD
100
AcDbAlignedDimension
 13
125.8120215218202
 23
68.8558439823807
 33
0.0
 14
125.8120215218202
 24
64.3966691323807
 34
0.0
 50
90.0
100
AcDbRotatedDimension
  0
DIMENSION
  5
4B719
330
1F
100
AcDbEntity
  8
DIM
100
AcDbDimension
280
     0
  2
*D6
 10
99.52101856179837
 20
63.12008579334339
 30
0.0
 11
98.37945932705149
 21
63.12008579334339
 31
0.0
 70
    32
 71
     5
 42
2.283118469493729
 73
     0
 74
     0
 75
     0
  3
STANDARD
100
AcDbAlignedDimension
 13
97.23790009230462
 23
64.3966691323807
 33
0.0
 14
99.52101856179837
 24
64.3966691323807
 34
0.0
100
AcDbRotatedDimension
  0
MTEXT
  5
4B729
330
1F
100
AcDbEntity
  8
Text
100
AcDbMText
 10
113.1522426582355
 20
54.04566164642837
 30
0.0
 40
0.36
 41
5.014905178863216
 46
0.0
 71
     1
 72
     5
  1
MOUNTING HOLES
 73
     1
 44
1.0
1001
ACAD
1000
ACAD_MTEXT_COLUMN_INFO_BEGIN
1070
    75
1070
     2
1070
    79
1070
     0
1070
    76
1070
     1
1070
    78
1070
     0
1070
    48
1040
5.014905178863216
1070
    49
1040
2.0
1070
    50
1070
     1
1040
0.0
1000
ACAD_MTEXT_COLUMN_INFO_END
  0
MTEXT
  5
4B734
330
1F
100
AcDbEntity
  8
Text
100
AcDbMText
 10
113.869585045024
 20
59.92122900859108
 30
0.0
 40
0.36
 41
3.988996096762433
 46
0.0
 71
     1
 72
     5
  1
BOTTOM VIEW
 73
     1
 44
1.0
1001
ACAD
1000
ACAD_MTEXT_COLUMN_INFO_BEGIN
1070
    75
1070
     2
1070
    79
1070
     0
1070
    76
1070
     1
1070
    78
1070
     0
1070
    48
1040
3.988996096762433
1070
    49
1040
2.0
1070
    50
1070
     1
1040
0.0
1000
ACAD_MTEXT_COLUMN_INFO_END
  0
MTEXT
  5
4B735
330
1F
100
AcDbEntity
  8
Text
100
AcDbMText
 10
114.286610114724
 20
69.71327058182025
 30
0.0
 40
0.36
 41
5.014905178863216
 46
0.0
 71
     1
 72
     5
  1
SIDE VIEW
 73
     1
 44
1.0
1001
ACAD
1000
ACAD_MTEXT_COLUMN_INFO_BEGIN
1070
    75
1070
     2
1070
    79
1070
     0
1070
    76
1070
     1
1070
    78
1070
     0
1070
    48
1040
5.014905178863216
1070
    49
1040
2.0
1070
    50
1070
     1
1040
0.0
1000
ACAD_MTEXT_COLUMN_INFO_END
  0
MTEXT
  5
4B736
330
1F
100
AcDbEntity
  8
Text
100
AcDbMText
 10
114.2783080588672
 20
79.89815818573633
 30
0.0
 40
0.36
 41
5.014905178863216
 46
0.0
 71
     1
 72
     5
  1
TOP VIEW
 73
     1
 44
1.0
1001
ACAD
1000
ACAD_MTEXT_COLUMN_INFO_BEGIN
1070
    75
1070
     2
1070
    79
1070
     0
1070
    76
1070
     1
1070
    78
1070
     0
1070
    48
1040
5.014905178863216
1070
    49
1040
2.0
1070
    50
1070
     1
1040
0.0
1000
ACAD_MTEXT_COLUMN_INFO_END
  0
MTEXT
  5
4B73E
330
1F
100
AcDbEntity
  8
Text
100
AcDbMText
 10
97.23790009230462
 20
52.08502533027491
 30
0.0
 40
0.36
 41
14.80613482637844
 46
0.0
 71
     1
 72
     5
  1
NOTES:\P\P1. LUMINAIRE 84 375 - SEE SPECIFICATIONS
 73
     1
 44
1.0
1001
ACAD
1000
ACAD_MTEXT_COLUMN_INFO_BEGIN
1070
    75
1070
     2
1070
    79
1070
     0
1070
    76
1070
     1
1070
    78
1070
     0
1070
    48
1040
14.80613482637844
1070
    49
1040
2.0
1070
    50
1070
     1
1040
4.333000056602287
1000
ACAD_MTEXT_COLUMN_INFO_END
  0
LINE
  5
4B748
330
1F
100
AcDbEntity
  8
Precision Part
100
AcDbLine
 10
109.2372236929331
 20
77.4205574343119
 30
0.0
 11
110.3753969088002
 21
78.18811526765178
 31
0.0
  0
LINE
  5
4B749
330
1F
100
AcDbEntity
  8
Precision Part
100
AcDbLine
 10
109.3778568312493
 20
77.99013784462984
 30
0.0
 11
109.9932608666902
 21
78.40515216888781
 31
0.0
  0
LINE
  5
4B74A
330
1F
100
AcDbEntity
  8
Precision Part
100
AcDbLine
 10
109.817996542479
 20
77.33747662641083
 30
0.0
 11
110.4334005779191
 21
77.75249095066881
 31
0.0
  0
VIEWPORT
  5
BB5
330
1B
100
AcDbEntity
 67
     1
  8
0
100
AcDbViewport
 10
11.25354951460054
 20
5.256097514900058
 30
0.0
 40
25.19858327222278
 41
11.18979589372276
 68
     1
 69
     1
 12
11.25354951460054
 22
5.256097514900058
 13
0.0
 23
0.0
 14
0.5
 24
0.5
 15
0.5
 25
0.5
 16
0.0
 26
0.0
 36
1.0
 17
0.0
 27
0.0
 37
0.0
 42
50.0
 43
0.0
 44
0.0
 45
11.18979589372276
 50
0.0
 51
0.0
 72
   100
 90
    32800
  1

281
     0
 71
     1
 74
     0
110
0.0
120
0.0
130
0.0
111
1.0
121
0.0
131
0.0
112
0.0
122
1.0
132
0.0
 79
     0
146
0.0
170
     0
 61
     5
348
1FEF
292
     1
282
     1
141
0.0
142
0.0
 63
   250
421
  3355443
  0
VIEWPORT
  5
165C
330
1B
100
AcDbEntity
 67
     1
  8
VIEWPORT
100
AcDbViewport
 10
7.444689766267286
 20
5.352286182670544
 30
0.0
 40
14.53963630592303
 41
10.54435835603311
 68
     2
 69
     2
 12
113.0791662159883
 22
65.09905049607064
 13
0.0
 23
0.0
 14
0.1
 24
0.1
 15
0.5
 25
0.5
 16
0.0
 26
0.0
 36
1.0
 17
0.0
 27
0.0
 37
0.0
 42
50.0
 43
0.0
 44
0.0
 45
35.01912391502328
 50
0.0
 51
0.0
 72
   100
 90
    32864
  1

281
     0
 71
     1
 74
     0
110
0.0
120
0.0
130
0.0
111
1.0
121
0.0
131
0.0
112
0.0
122
1.0
132
0.0
 79
     0
146
0.0
170
     0
 61
     5
348
1FEF
292
     1
282
     1
141
0.0
142
0.0
 63
   250
421
  3355443
  0
LINE
  5
2178
330
1B
100
AcDbEntity
 67
     1
  8
TITLE
  6
Continuous
100
AcDbLine
 10
16.70545404980198
 20
0.0832243866895084
 30
0.0
 11
0.1748716133057542
 21
0.0832243866895084
 31
0.0
1001
AcDbBlockRepETag
1070
     1
1071
        0
1005
2178
  0
LINE
  5
2179
330
1B
100
AcDbEntity
 67
     1
  8
TITLE
  6
Continuous
100
AcDbLine
 10
15.94278783063233
 20
5.009004537941585
 30
0.0
 11
15.94278783063234
 21
9.022316519468724
 31
0.0
1001
AcDbBlockRepETag
1070
     1
1071
        2
1005
2179
  0
LINE
  5
217A
330
1B
100
AcDbEntity
 67
     1
  8
TITLE
  6
Continuous
100
AcDbLine
 10
15.70703233873926
 20
5.011953298537345
 30
0.0
 11
15.70703233873927
 21
9.022316519468724
 31
0.0
1001
AcDbBlockRepETag
1070
     1
1071
        3
1005
217A
  0
LINE
  5
217B
330
1B
100
AcDbEntity
 67
     1
  8
TITLE
  6
Continuous
100
AcDbLine
 10
15.45747644446848
 20
4.887175351401958
 30
0.0
 11
15.45747644446848
 21
9.022316519468727
 31
0.0
1001
AcDbBlockRepETag
1070
     1
1071
        4
1005
217B
  0
LINE
  5
217C
330
1B
100
AcDbEntity
 67
     1
  8
TITLE
  6
Continuous
100
AcDbLine
 10
15.19314533052109
 20
10.62446536068711
 30
0.0
 11
15.19314533052109
 21
0.0832243866895084
 31
0.0
1001
AcDbBlockRepETag
1070
     1
1071
        5
1005
217C
  0
LINE
  5
217D
330
1B
100
AcDbEntity
 67
     1
  8
TITLE
  6
Continuous
100
AcDbLine
 10
15.65482373492202
 20
1.457310667104706
 30
0.0
 11
15.65482373492202
 21
3.890033081558071
 31
0.0
1001
AcDbBlockRepETag
1070
     1
1071
        6
1005
217D
  0
TEXT
  5
217E
330
1B
100
AcDbEntity
 67
     1
  8
TITLE
  6
Continuous
100
AcDbText
 10
15.42524928269677
 20
0.7308099461895458
 30
0.0
 40
0.149733536562466
  1
SUBMITTAL APPROVAL
 50
90.0
 41
1.199999999999999
  7
Title Bold
100
AcDbText
1001
AcDbBlockRepETag
1070
     1
1071
        7
1005
217E
  0
TEXT
  5
217F
330
1B
100
AcDbEntity
 67
     1
  8
TITLE
  6
Continuous
100
AcDbText
 10
16.26923034661668
 20
1.518170778746473
 30
0.0
 40
0.0935834603515413
  1
DESCRIPTION
 50
90.0
  7
TITLE
100
AcDbText
1001
AcDbBlockRepETag
1070
     1
1071
        8
1005
217F
  0
LINE
  5
2180
330
1B
100
AcDbEntity
 67
     1
  8
TITLE
  6
Continuous
100
AcDbLine
 10
16.1289799340365
 20
0.0832243866895084
 30
0.0
 11
16.1289799340365
 21
4.200896642157321
 31
0.0
1001
AcDbBlockRepETag
1070
     1
1071
        9
1005
2180
  0
LINE
  5
2181
330
1B
100
AcDbEntity
 67
     1
  8
TITLE
  6
Continuous
100
AcDbLine
 10
15.94181301333342
 20
0.0832243866895084
 30
0.0
 11
15.94181301333341
 21
4.200896642157321
 31
0.0
1001
AcDbBlockRepETag
1070
     1
1071
       10
1005
2181
  0
TEXT
  5
2182
330
1B
100
AcDbEntity
 67
     1
  8
TITLE
  6
Continuous
100
AcDbText
 10
15.85446845033865
 20
0.3360912272734493
 30
0.0
 40
0.0898401219374796
  1
SIGNED:
 50
90.0
  7
TITLE
100
AcDbText
1001
AcDbBlockRepETag
1070
     1
1071
       11
1005
2182
  0
TEXT
  5
2183
330
1B
100
AcDbEntity
 67
     1
  8
TITLE
  6
Continuous
100
AcDbText
 10
15.6164033992916
 20
0.4624902281601154
 30
0.0
 40
0.0898401219374796
  1
APPROVED BY:
 50
90.0
  7
TITLE
100
AcDbText
1001
AcDbBlockRepETag
1070
     1
1071
       12
1005
2183
  0
TEXT
  5
2184
330
1B
100
AcDbEntity
 67
     1
  8
TITLE
  6
Continuous
100
AcDbText
 10
16.26923034661668
 20
0.1456133602572029
 30
0.0
 40
0.0935834603515413
  1
REV.
 50
90.0
  7
TITLE
100
AcDbText
1001
AcDbBlockRepETag
1070
     1
1071
       13
1005
2184
  0
TEXT
  5
2185
330
1B
100
AcDbEntity
 67
     1
  8
TITLE
  6
Continuous
100
AcDbText
 10
16.26923034661668
 20
0.644725148798756
 30
0.0
 40
0.0935834603515413
  1
DATE
 50
90.0
  7
TITLE
100
AcDbText
1001
AcDbBlockRepETag
1070
     1
1071
       14
1005
2185
  0
LINE
  5
2186
330
1B
100
AcDbEntity
 67
     1
  8
TITLE
  6
Continuous
100
AcDbLine
 10
16.31614685473958
 20
0.5823361752310615
 30
0.0
 11
15.94181301333342
 21
0.5823361752310615
 31
0.0
1001
AcDbBlockRepETag
1070
     1
1071
       15
1005
2186
  0
LINE
  5
2187
330
1B
100
AcDbEntity
 67
     1
  8
TITLE
  6
Continuous
100
AcDbLine
 10
16.31614685473958
 20
1.455781805178779
 30
0.0
 11
15.94181301333342
 21
1.455781805178779
 31
0.0
1001
AcDbBlockRepETag
1070
     1
1071
       16
1005
2187
  0
TEXT
  5
2188
330
1B
100
AcDbEntity
 67
     1
  8
TITLE
  6
Continuous
100
AcDbText
 10
15.92309632126311
 20
4.263285615725017
 30
0.0
 40
0.0935834603515413
  1
LOCATION:
 50
90.0
  7
TITLE
100
AcDbText
1001
AcDbBlockRepETag
1070
     1
1071
       17
1005
2188
  0
LINE
  5
2189
330
1B
100
AcDbEntity
 67
     1
  8
TITLE
  6
Continuous
100
AcDbLine
 10
16.31614685473958
 20
4.200896642157321
 30
0.0
 11
15.19314533052109
 21
4.200896642157321
 31
0.0
1001
AcDbBlockRepETag
1070
     1
1071
       18
1005
2189
  0
TEXT
  5
218A
330
1B
100
AcDbEntity
 67
     1
  8
TITLE
  6
Continuous
100
AcDbText
 10
15.85446845033865
 20
2.794601340686283
 30
0.0
 40
0.0898401219374796
  1
DATE:
 50
90.0
  7
TITLE
100
AcDbText
1001
AcDbBlockRepETag
1070
     1
1071
       19
1005
218A
  0
TEXT
  5
218B
330
1B
100
AcDbEntity
 67
     1
  8
TITLE
  6
Continuous
100
AcDbText
 10
15.67977932434911
 20
4.263285615725017
 30
0.0
 40
0.0935834603515413
  1
PROJECT: 
 50
90.0
  7
TITLE
100
AcDbText
1001
AcDbBlockRepETag
1070
     1
1071
       20
1005
218B
  0
TEXT
  5
218C
330
1B
100
AcDbEntity
 67
     1
  8
TITLE
  6
Continuous
100
AcDbText
 10
15.4364623274351
 20
4.263285615725017
 30
0.0
 40
0.0935834603515413
  1
CAT NO.:
 50
90.0
  7
TITLE
100
AcDbText
1001
AcDbBlockRepETag
1070
     1
1071
       21
1005
218C
  0
TEXT
  5
218D
330
1B
100
AcDbEntity
 67
     1
  8
TITLE
  6
Continuous
100
AcDbText
 10
16.16641231995354
 20
4.263285615725017
 30
0.0
 40
0.0935834603515413
  1
DRAWN:
 50
90.0
  7
TITLE
100
AcDbText
1001
AcDbBlockRepETag
1070
     1
1071
       22
1005
218D
  0
POLYLINE
  5
218E
330
1B
100
AcDbEntity
 67
     1
  8
TITLE
  6
Continuous
100
AcDb3dPolyline
 66
     1
 10
0.0
 20
0.0
 30
0.0
 70
     8
1001
AcDbBlockRepETag
1070
     1
1071
       23
1005
218E
  0
VERTEX
  5
218F
330
218E
100
AcDbEntity
 67
     1
  8
TITLE
  6
Continuous
100
AcDbVertex
100
AcDb3dPolylineVertex
 10
15.79207947677093
 20
10.61947424280168
 30
0.0
 70
    32
  0
VERTEX
  5
2190
330
218E
100
AcDbEntity
 67
     1
  8
TITLE
  6
Continuous
100
AcDbVertex
100
AcDb3dPolylineVertex
 10
15.79207947677093
 20
9.022316519468724
 30
0.0
 70
    32
  0
SEQEND
  5
2191
330
218E
100
AcDbEntity
 67
     1
  8
TITLE
  6
Continuous
  0
LINE
  5
2192
330
1B
100
AcDbEntity
 67
     1
  8
TITLE
  6
Continuous
100
AcDbLine
 10
15.19314533052108
 20
9.022316519468724
 30
0.0
 11
16.30581110040365
 21
9.022316519468724
 31
0.0
1001
AcDbBlockRepETag
1070
     1
1071
       24
1005
2192
  0
LINE
  5
2193
330
1B
100
AcDbEntity
 67
     1
  8
TITLE
  6
Continuous
100
AcDbLine
 10
16.22880129352124
 20
5.772912532172698
 30
0.0
 11
16.22880129352124
 21
4.811670784601071
 31
0.0
1001
AcDbBlockRepETag
1070
     1
1071
       26
1005
2193
  0
TEXT
  5
2194
330
1B
100
AcDbEntity
 67
     1
  8
TITLE
  6
Continuous
100
AcDbText
 10
15.93693075668636
 20
9.312928905110545
 30
0.0
 40
0.0998223577083107
  1
1000 Bega Way
 50
90.0
  7
TITLE
100
AcDbText
1001
AcDbBlockRepETag
1070
     1
1071
       28
1005
2194
  0
TEXT
  5
2195
330
1B
100
AcDbEntity
 67
     1
  8
TITLE
  6
Continuous
100
AcDbText
 10
16.09728659052203
 20
9.153315364666037
 30
0.0
 40
0.0998223577083107
  1
Carpinteria, Ca. 93013
 50
90.0
  7
TITLE
100
AcDbText
1001
AcDbBlockRepETag
1070
     1
1071
       29
1005
2195
  0
TEXT
  5
2196
330
1B
100
AcDbEntity
 67
     1
  8
TITLE
  6
Continuous
100
AcDbText
 10
16.25764242435769
 20
9.33288058771879
 30
0.0
 40
0.0998223577083107
  1
(805) 684-0533
 50
90.0
  7
TITLE
100
AcDbText
1001
AcDbBlockRepETag
1070
     1
1071
       30
1005
2196
  0
LINE
  5
2197
330
1B
100
AcDbEntity
 67
     1
  8
TITLE
100
AcDbLine
 10
16.31614685473958
 20
0.0832243866895084
 30
0.0
 11
16.31614685473958
 21
10.62446536068711
 31
0.0
1001
AcDbBlockRepETag
1070
     1
1071
       31
1005
2197
  0
TEXT
  5
2198
330
1B
100
AcDbEntity
 67
     1
  8
TITLE
100
AcDbText
 10
16.47898497950144
 20
0.9923785673304827
 30
0.0
 40
0.0898401219374796
  1
This print contains confidential information which is the property of BEGA U.S.  By acception this information,
 50
90.0
 41
1.1
  7
Title light
100
AcDbText
1001
AcDbBlockRepETag
1070
     1
1071
       32
1005
2198
  0
TEXT
  5
2199
330
1B
100
AcDbEntity
 67
     1
  8
TITLE
100
AcDbText
 10
15.02300274915655
 20
0.2794620885647938
 30
0.0
 40
0.1996447154166213
  1
TYPE:
 50
90.0
  7
Title Bold
100
AcDbText
1001
AcDbBlockRepETag
1070
     1
1071
       33
1005
2199
  0
LINE
  5
219A
330
1B
100
AcDbEntity
 67
     1
  8
0
100
AcDbLine
 10
15.07003932933198
 20
1.206790919633017
 30
0.0
 11
15.07003932933198
 21
3.129750687368586
 31
0.0
1001
AcDbBlockRepETag
1070
     1
1071
       34
1005
219A
  0
LINE
  5
219B
330
1B
100
AcDbEntity
 67
     1
  8
TITLE
  6
Continuous
100
AcDbLine
 10
16.22847035397874
 20
7.940202517110999
 30
0.0
 11
16.22847035397874
 21
8.887935677060902
 31
0.0
1001
AcDbBlockRepETag
1070
     1
1071
       37
1005
219B
  0
TEXT
  5
219C
330
1B
100
AcDbEntity
 67
     1
  8
TITLE
100
AcDbText
 10
16.63059850113051
 20
1.182624976378231
 30
0.0
 40
0.0898401219374796
  1
the borrower agrees that it will not be used for any other purpose other than that which is was loaned.
 50
90.0
 41
1.1
  7
Title light
100
AcDbText
1001
AcDbBlockRepETag
1070
     1
1071
       38
1005
219C
  0
LINE
  5
219D
330
1B
100
AcDbEntity
 67
     1
  8
TITLE
  6
Continuous
100
AcDbLine
 10
16.70545404980198
 20
0.0832243866895084
 30
0.0
 11
16.705454049802
 21
10.6244653606871
 31
0.0
1001
AcDbBlockRepETag
1070
     1
1071
       39
1005
219D
  0
INSERT
  5
219E
330
1B
100
AcDbEntity
 67
     1
  8
0
100
AcDbBlockReference
  2
bega logo
 10
15.87223782430944
 20
9.152164539521207
 30
0.0
 41
0.1286772579833691
 42
0.1286772579833691
 43
0.1286772579833691
 50
90.0
1001
AcDbBlockRepETag
1070
     1
1071
       40
1005
219E
  0
TEXT
  5
219F
330
1B
100
AcDbEntity
 67
     1
  8
TITLE
100
AcDbText
 10
15.38829173764463
 20
5.098805296596951
 30
0.0
 40
0.12
  1
84 375
 50
90.0
  7
TITLE
100
AcDbText
  0
TEXT
  5
21A0
330
1B
100
AcDbEntity
 67
     1
  8
TITLE
100
AcDbText
 10
15.63460232666123
 20
5.187443776964761
 30
0.0
 40
0.0998223577083107
  1
-
 50
90.0
  7
TITLE
100
AcDbText
  0
TEXT
  5
21A1
330
1B
100
AcDbEntity
 67
     1
  8
TITLE
100
AcDbText
 10
15.88165270678691
 20
5.187443776964761
 30
0.0
 40
0.0998223577083107
  1
-
 50
90.0
  7
TITLE
100
AcDbText
  0
TEXT
  5
21A2
330
1B
100
AcDbEntity
 67
     1
  8
TITLE
100
AcDbText
 10
16.16092699286313
 20
5.10158185736909
 30
0.0
 40
0.0998223577083107
  1
MP
 50
90.0
  7
Title light
100
AcDbText
  0
TEXT
  5
21A3
330
1B
100
AcDbEntity
 67
     1
  8
TITLE
100
AcDbText
 10
16.15031773380847
 20
8.051970163442071
 30
0.0
 40
0.0998223577083107
  1
84375.dxf
 50
90.0
100
AcDbText
  0
LINE
  5
21A5
330
1B
100
AcDbEntity
 67
     1
  8
TITLE
  6
Continuous
100
AcDbLine
 10
16.705454049802
 20
10.6244653606871
 30
0.0
 11
0.1748716133057718
 21
10.6244653606871
 31
0.0
1001
AcDbBlockRepETag
1070
     1
1071
        0
1005
2178
  0
LINE
  5
21A6
330
1B
100
AcDbEntity
 67
     1
  8
TITLE
  6
Continuous
100
AcDbLine
 10
0.1748716133057535
 20
0.0832243866895084
 30
0.0
 11
0.1748716133057712
 21
10.6244653606871
 31
0.0
1001
AcDbBlockRepETag
1070
     1
1071
       39
1005
219D
  0
TEXT
  5
21A8
330
1B
100
AcDbEntity
 67
     1
  8
TITLE
  6
Continuous
100
AcDbText
 10
16.16641231995354
 20
5.88729824886154
 30
0.0
 40
0.0935834603515413
  1
DATE:
 50
90.0
  7
TITLE
100
AcDbText
1001
AcDbBlockRepETag
1070
     1
1071
       22
1005
218D
  0
LINE
  5
21A9
330
1B
100
AcDbEntity
 67
     1
  8
TITLE
  6
Continuous
100
AcDbLine
 10
16.22880129352124
 20
7.092611942873427
 30
0.0
 11
16.22880129352124
 21
6.310449427746523
 31
0.0
1001
AcDbBlockRepETag
1070
     1
1071
       26
1005
2193
  0
TEXT
  5
21AA
330
1B
100
AcDbEntity
 67
     1
  8
TITLE
100
AcDbText
 10
16.16092699286313
 20
6.368208555409804
 30
0.0
 40
0.0998223577083107
  1
3/29/2019
 50
90.0
 41
0.9
  7
Title light
100
AcDbText
  0
TEXT
  5
21B5
330
1B
100
AcDbEntity
 67
     1
  8
TITLE
  6
Continuous
100
AcDbText
 10
16.16641231995354
 20
7.162337425981231
 30
0.0
 40
0.0935834603515413
  1
FILE NAME:
 50
90.0
  7
TITLE
100
AcDbText
1001
AcDbBlockRepETag
1070
     1
1071
       22
1005
218D
  0
ENDSEC
  0
SECTION
  2
OBJECTS
  0
DICTIONARY
  5
C
330
0
100
AcDbDictionary
281
     1
  3
ACAD_CIP_PREVIOUS_PRODUCT_INFO
350
20D8
  3
ACAD_COLOR
350
1FFA
  3
ACAD_DETAILVIEWSTYLE
350
20D5
  3
ACAD_GROUP
350
D
  3
ACAD_IMAGE_VARS
350
221F
  3
ACAD_LAYOUT
350
1A
  3
ACAD_MATERIAL
350
1FD0
  3
ACAD_MLEADERSTYLE
350
201F
  3
ACAD_MLINESTYLE
350
17
  3
ACAD_PLOTSETTINGS
350
19
  3
ACAD_PLOTSTYLENAME
350
1BB3
  3
ACAD_SCALELIST
350
1FFD
  3
ACAD_SECTIONVIEWSTYLE
350
20D3
  3
ACAD_TABLESTYLE
350
1FFB
  3
ACAD_VISUALSTYLE
350
1FE9
  3
ACAD_WIPEOUT_VARS
350
221D
  3
AcadDim
350
1BDA
  3
ACDB_RECOMPOSE_DATA
350
4B921
  3
AcDbVariableDictionary
350
4B916
  3
AcDsDecomposeData
350
4B927
  0
DICTIONARY
  5
2048
330
2
100
AcDbDictionary
280
     1
281
     1
  3
ACAD_LAYERSTATES
360
2049
  0
DICTIONARY
  5
2022
330
10
100
AcDbDictionary
280
     1
281
     1
  3
ADSK_XREC_LAYER_RECONCILED
360
4B78F
  0
DICTIONARY
  5
2026
330
2C
100
AcDbDictionary
280
     1
281
     1
  3
ADSK_XREC_LAYER_RECONCILED
360
4B790
  0
DICTIONARY
  5
2028
330
2D
100
AcDbDictionary
280
     1
281
     1
  3
ADSK_XREC_LAYER_RECONCILED
360
4B791
  0
DICTIONARY
  5
202A
330
1664
100
AcDbDictionary
280
     1
281
     1
  3
ADSK_XREC_LAYER_RECONCILED
360
4B792
  0
DICTIONARY
  5
4B793
330
22D5
100
AcDbDictionary
280
     1
281
     1
  3
ADSK_XREC_LAYER_RECONCILED
360
4B794
  0
DICTIONARY
  5
4B795
330
22D8
100
AcDbDictionary
280
     1
281
     1
  3
ADSK_XREC_LAYER_RECONCILED
360
4B796
  0
DICTIONARY
  5
4B797
330
22DA
100
AcDbDictionary
280
     1
281
     1
  3
ADSK_XREC_LAYER_RECONCILED
360
4B798
  0
DICTIONARY
  5
4B799
330
22FF
100
AcDbDictionary
280
     1
281
     1
  3
ADSK_XREC_LAYER_RECONCILED
360
4B79A
  0
DICTIONARY
  5
1BAA
330
1F
100
AcDbDictionary
280
     1
281
     1
  3
ACAD_LAYOUTSELFREF
360
1BAB
  0
DICTIONARY
  5
1BA8
330
1B
100
AcDbDictionary
280
     1
281
     1
  3
ACAD_LAYOUTSELFREF
360
1BA9
  0
DICTIONARY
  5
2135
330
2134
100
AcDbDictionary
280
     1
281
     1
  3
ACAD_SORTENTS
360
2136
  0
XRECORD
  5
20D8
102
{ACAD_REACTORS
330
C
102
}
330
C
100
AcDbXrecord
280
     1
300
ACDLT
300
2018
300
ACDLT_F_S
  0
DICTIONARY
  5
1FFA
102
{ACAD_REACTORS
330
C
102
}
330
C
100
AcDbDictionary
281
     1
  0
DICTIONARY
  5
20D5
102
{ACAD_REACTORS
330
C
102
}
330
C
100
AcDbDictionary
281
     1
  3
Imperial24
350
20D6
  0
DICTIONARY
  5
D
102
{ACAD_REACTORS
330
C
102
}
330
C
100
AcDbDictionary
281
     1
  0
RASTERVARIABLES
  5
221F
102
{ACAD_REACTORS
330
C
102
}
330
C
100
AcDbRasterVariables
 90
        0
 70
     3
 71
     1
 72
     5
  0
DICTIONARY
  5
1A
102
{ACAD_REACTORS
330
C
102
}
330
C
100
AcDbDictionary
281
     1
  3
Layout1
350
1BB6
  3
Model
350
1BB5
  0
DICTIONARY
  5
1FD0
102
{ACAD_REACTORS
330
C
102
}
330
C
100
AcDbDictionary
281
     1
  3
ByBlock
350
1FD9
  3
ByLayer
350
1FD1
  3
Global
350
1FE1
  0
DICTIONARY
  5
201F
102
{ACAD_REACTORS
330
C
102
}
330
C
100
AcDbDictionary
281
     1
  3
Standard
350
2020
  0
DICTIONARY
  5
17
102
{ACAD_REACTORS
330
C
102
}
330
C
100
AcDbDictionary
281
     1
  3
STANDARD
350
18
  0
DICTIONARY
  5
19
102
{ACAD_REACTORS
330
C
102
}
330
C
100
AcDbDictionary
281
     1
  0
ACDBDICTIONARYWDFLT
  5
1BB3
102
{ACAD_REACTORS
330
C
102
}
330
C
100
AcDbDictionary
281
     1
  3
Normal
350
1BB4
100
AcDbDictionaryWithDefault
340
1BB4
  0
DICTIONARY
  5
1FFD
102
{ACAD_REACTORS
330
C
102
}
330
C
100
AcDbDictionary
281
     1
  3
A0
350
1FFE
  3
A1
350
1FFF
  3
A2
350
2000
  3
A3
350
2001
  3
A4
350
2002
  3
A5
350
2003
  3
A6
350
2004
  3
A7
350
2005
  3
A8
350
2006
  3
A9
350
2007
  3
B0
350
2008
  3
B1
350
2009
  3
B2
350
200A
  3
B3
350
200B
  3
B4
350
200C
  3
B5
350
200D
  3
B6
350
200E
  3
B7
350
200F
  3
B8
350
2010
  3
B9
350
2011
  3
C0
350
2012
  3
C1
350
2013
  3
C2
350
2014
  3
C3
350
2015
  3
C4
350
2016
  3
C5
350
2017
  3
C6
350
2018
  3
C7
350
2019
  3
C8
350
201A
  3
C9
350
201B
  3
D0
350
201C
  3
D1
350
201D
  3
D2
350
201E
  0
DICTIONARY
  5
20D3
102
{ACAD_REACTORS
330
C
102
}
330
C
100
AcDbDictionary
281
     1
  3
Imperial24
350
20D4
  0
DICTIONARY
  5
1FFB
102
{ACAD_REACTORS
330
C
102
}
330
C
100
AcDbDictionary
281
     1
  3
Standard
350
1FFC
  0
DICTIONARY
  5
1FE9
102
{ACAD_REACTORS
330
C
102
}
330
C
100
AcDbDictionary
281
     1
  3
2dWireframe
350
1FEF
  3
3D Hidden
350
1FF1
  3
3dWireframe
350
1FF0
  3
Basic
350
1FEE
  3
Brighten
350
1FF5
  3
ColorChange
350
1FF9
  3
Conceptual
350
1FF2
  3
Dim
350
1FF4
  3
EdgeColorOff
350
20D2
  3
Facepattern
350
1FF8
  3
Flat
350
1FEA
  3
FlatWithEdges
350
1FEB
  3
Gouraud
350
1FEC
  3
GouraudWithEdges
350
1FED
  3
Hidden
350
20CA
  3
JitterOff
350
20D0
  3
Linepattern
350
1FF7
  3
OverhangOff
350
20D1
  3
Realistic
350
1FF3
  3
Shaded
350
20CF
  3
Shaded with edges
350
20CE
  3
Shades of Gray
350
20CB
  3
Sketchy
350
20CC
  3
Thicken
350
1FF6
  3
Wireframe
350
20C9
  3
X-Ray
350
20CD
  0
WIPEOUTVARIABLES
  5
221D
102
{ACAD_REACTORS
330
C
102
}
330
C
100
AcDbWipeoutVariables
 70
     1
  0
XRECORD
  5
1BDA
102
{ACAD_REACTORS
330
C
102
}
330
C
100
AcDbXrecord
280
     1
 90
   990106
  3

 60
     4
 61
     0
 62
     1
 63
     3
 64
     0
 65
     0
 66
     0
 67
     3
 68
     1
 69
     0
 70
     0
 71
     0
 72
     0
 40
0.0
170
     0
  0
XRECORD
  5
4B921
102
{ACAD_REACTORS
330
C
102
}
330
C
100
AcDbXrecord
280
     1
 90
        1
330
1FFC
330
4B729
330
4B734
330
4B735
330
4B736
330
4B73E
  0
DICTIONARY
  5
4B916
102
{ACAD_REACTORS
330
C
102
}
330
C
100
AcDbDictionary
281
     1
  3
CANNOSCALE
350
4B91C
  3
CMLEADERSTYLE
350
4B918
  3
CTABLESTYLE
350
4B917
  3
CVIEWDETAILSTYLE
350
4B919
  3
CVIEWSECTIONSTYLE
350
4B91A
  3
LAYEREVAL
350
4B91E
  3
LAYERNOTIFY
350
4B91F
  3
LIGHTINGUNITS
350
4B91D
  3
MSLTSCALE
350
4B91B
  0
DICTIONARY
  5
4B927
102
{ACAD_REACTORS
330
C
102
}
330
C
100
AcDbDictionary
281
     1
  3
AcDsRecords
350
4B929
  3
AcDsSchemas
350
4B928
1001
ACAD
1070
     2
  0
DICTIONARY
  5
2049
102
{ACAD_REACTORS
330
2048
102
}
330
2048
100
AcDbDictionary
281
     1
  0
XRECORD
  5
4B78F
102
{ACAD_REACTORS
330
2022
102
}
330
2022
100
AcDbXrecord
280
     1
290
     1
  0
XRECORD
  5
4B790
102
{ACAD_REACTORS
330
2026
102
}
330
2026
100
AcDbXrecord
280
     1
290
     1
  0
XRECORD
  5
4B791
102
{ACAD_REACTORS
330
2028
102
}
330
2028
100
AcDbXrecord
280
     1
290
     1
  0
XRECORD
  5
4B792
102
{ACAD_REACTORS
330
202A
102
}
330
202A
100
AcDbXrecord
280
     1
290
     1
  0
XRECORD
  5
4B794
102
{ACAD_REACTORS
330
4B793
102
}
330
4B793
100
AcDbXrecord
280
     1
290
     1
  0
XRECORD
  5
4B796
102
{ACAD_REACTORS
330
4B795
102
}
330
4B795
100
AcDbXrecord
280
     1
290
     1
  0
XRECORD
  5
4B798
102
{ACAD_REACTORS
330
4B797
102
}
330
4B797
100
AcDbXrecord
280
     1
290
     1
  0
XRECORD
  5
4B79A
102
{ACAD_REACTORS
330
4B799
102
}
330
4B799
100
AcDbXrecord
280
     1
290
     1
  0
XRECORD
  5
1BAB
102
{ACAD_REACTORS
330
1BAA
102
}
330
1BAA
100
AcDbXrecord
280
     1
340
1F
  0
XRECORD
  5
1BA9
102
{ACAD_REACTORS
330
1BA8
102
}
330
1BA8
100
AcDbXrecord
280
     1
340
1B
  0
SORTENTSTABLE
  5
2136
102
{ACAD_REACTORS
330
2135
102
}
330
2135
100
AcDbSortentsTable
330
2134
  0
ACDBDETAILVIEWSTYLE
  5
20D6
102
{ACAD_XDICTIONARY
360
4B960
102
}
102
{ACAD_REACTORS
330
20D5
102
}
330
20D5
100
AcDbModelDocViewStyle
 70
     0
  3
Imperial24
290
     0
100
AcDbDetailViewStyle
 70
     0
 71
     0
 90
        3
 71
     1
340
11
 62
   256
 40
0.24
340
0
 62
   256
 40
0.24
300

 40
0.36
280
     3
 71
     2
340
16
 90
       25
 62
   256
 71
     3
340
11
 62
   256
 40
0.24
 90
        1
 40
0.75
 90
        1
300
%<\AcVar ViewType \f "%tc1">% %<\AcVar ViewDetailId>%\PSCALE %<\AcVar ViewScale \f "%sn">%
 71
     4
340
16
 90
       25
 62
   256
340
16
 90
       25
 62
   256
280
     0
  0
LAYOUT
  5
1BB6
102
{ACAD_XDICTIONARY
360
204D
102
}
102
{ACAD_REACTORS
330
1A
102
}
330
1A
100
AcDbPlotSettings
  1

  2
\\BEGA-APPS\Canon iR8500-M1 PS Ver 1.1
  4
Tabloid
  6

 40
5.746749877929687
 41
5.746737957000732
 42
5.365753173828125
 43
5.365753173828125
 44
279.3999938964843
 45
431.7999877929685
 46
0.0
 47
0.0
 48
0.0
 49
0.0
140
0.0
141
0.0
142
1.0
143
1.0
 70
   688
 72
     0
 73
     1
 74
     5
  7

 75
     0
147
1.0
 76
     0
 77
     2
 78
   300
148
-4.137943839607086
149
-2.018099553943262
100
AcDbLayout
  1
Layout1
 70
     1
 71
     1
 10
-0.0483389501661827
 20
-0.1467972568498593
 11
16.95166056924202
 21
10.85320250285425
 12
0.0
 22
0.0
 32
0.0
 14
0.1748716133057535
 24
0.08010700465399
 34
0.0
 15
16.705454049802
 25
10.62446536068711
 35
0.0
146
0.0
 13
0.0
 23
0.0
 33
0.0
 16
1.0
 26
0.0
 36
0.0
 17
0.0
 27
1.0
 37
0.0
 76
     0
330
1B
331
BB5
  0
LAYOUT
  5
1BB5
102
{ACAD_REACTORS
330
1A
102
}
330
1A
100
AcDbPlotSettings
  1

  2
\\BEGA-APPS\Canon iR8500-M1 PS Ver 1.1
  4

  6

 40
0.0
 41
0.0
 42
0.0
 43
0.0
 44
0.0
 45
0.0
 46
0.0
 47
0.0
 48
0.0
 49
0.0
140
0.0
141
0.0
142
1.0
143
1.0
 70
  1712
 72
     0
 73
     0
 74
     0
  7

 75
     0
147
1.0
 76
     0
 77
     2
 78
   300
148
0.0
149
0.0
100
AcDbLayout
  1
Model
 70
     1
 71
     0
 10
0.0
 20
0.0
 11
12.0
 21
9.0
 12
0.0
 22
0.0
 32
0.0
 14
0.0
 24
0.0
 34
0.0
 15
0.0
 25
0.0
 35
0.0
146
0.0
 13
0.0
 23
0.0
 33
0.0
 16
1.0
 26
0.0
 36
0.0
 17
0.0
 27
1.0
 37
0.0
 76
     0
330
1F
331
1FC7
  0
MATERIAL
  5
1FD9
102
{ACAD_XDICTIONARY
360
1FDA
102
}
102
{ACAD_REACTORS
330
1FD0
102
}
330
1FD0
100
AcDbMaterial
  1
ByBlock
 72
     0
 43
0.0208333333333333
 43
0.0
 43
0.0
 43
0.0
 43
0.0
 43
0.0208333333333333
 43
0.0
 43
0.0
 43
0.0
 43
0.0
 43
1.0
 43
0.0
 43
0.0
 43
0.0
 43
0.0
 43
1.0
 77
     0
 47
0.0208333333333333
 47
0.0
 47
0.0
 47
0.0
 47
0.0
 47
0.0208333333333333
 47
0.0
 47
0.0
 47
0.0
 47
0.0
 47
1.0
 47
0.0
 47
0.0
 47
0.0
 47
0.0
 47
1.0
171
     0
 49
0.0208333333333333
 49
0.0
 49
0.0
 49
0.0
 49
0.0
 49
0.0208333333333333
 49
0.0
 49
0.0
 49
0.0
 49
0.0
 49
1.0
 49
0.0
 49
0.0
 49
0.0
 49
0.0
 49
1.0
175
     0
142
0.0208333333333333
142
0.0
142
0.0
142
0.0
142
0.0
142
0.0208333333333333
142
0.0
142
0.0
142
0.0
142
0.0
142
1.0
142
0.0
142
0.0
142
0.0
142
0.0
142
1.0
179
     0
144
0.0208333333333333
144
0.0
144
0.0
144
0.0
144
0.0
144
0.0208333333333333
144
0.0
144
0.0
144
0.0
144
0.0
144
1.0
144
0.0
144
0.0
144
0.0
144
0.0
144
1.0
147
0.0208333333333333
147
0.0
147
0.0
147
0.0
147
0.0
147
0.0208333333333333
147
0.0
147
0.0
147
0.0
147
0.0
147
1.0
147
0.0
147
0.0
147
0.0
147
0.0
147
1.0
  0
MATERIAL
  5
1FD1
102
{ACAD_XDICTIONARY
360
1FD2
102
}
102
{ACAD_REACTORS
330
1FD0
102
}
330
1FD0
100
AcDbMaterial
  1
ByLayer
 72
     0
 43
0.0208333333333333
 43
0.0
 43
0.0
 43
0.0
 43
0.0
 43
0.0208333333333333
 43
0.0
 43
0.0
 43
0.0
 43
0.0
 43
1.0
 43
0.0
 43
0.0
 43
0.0
 43
0.0
 43
1.0
 77
     0
 47
0.0208333333333333
 47
0.0
 47
0.0
 47
0.0
 47
0.0
 47
0.0208333333333333
 47
0.0
 47
0.0
 47
0.0
 47
0.0
 47
1.0
 47
0.0
 47
0.0
 47
0.0
 47
0.0
 47
1.0
171
     0
 49
0.0208333333333333
 49
0.0
 49
0.0
 49
0.0
 49
0.0
 49
0.0208333333333333
 49
0.0
 49
0.0
 49
0.0
 49
0.0
 49
1.0
 49
0.0
 49
0.0
 49
0.0
 49
0.0
 49
1.0
175
     0
142
0.0208333333333333
142
0.0
142
0.0
142
0.0
142
0.0
142
0.0208333333333333
142
0.0
142
0.0
142
0.0
142
0.0
142
1.0
142
0.0
142
0.0
142
0.0
142
0.0
142
1.0
179
     0
144
0.0208333333333333
144
0.0
144
0.0
144
0.0
144
0.0
144
0.0208333333333333
144
0.0
144
0.0
144
0.0
144
0.0
144
1.0
144
0.0
144
0.0
144
0.0
144
0.0
144
1.0
147
0.0208333333333333
147
0.0
147
0.0
147
0.0
147
0.0
147
0.0208333333333333
147
0.0
147
0.0
147
0.0
147
0.0
147
1.0
147
0.0
147
0.0
147
0.0
147
0.0
147
1.0
  0
MATERIAL
  5
1FE1
102
{ACAD_XDICTIONARY
360
1FE2
102
}
102
{ACAD_REACTORS
330
1FD0
102
}
330
1FD0
100
AcDbMaterial
  1
Global
 72
     0
 43
0.0208333333333333
 43
0.0
 43
0.0
 43
0.0
 43
0.0
 43
0.0208333333333333
 43
0.0
 43
0.0
 43
0.0
 43
0.0
 43
1.0
 43
0.0
 43
0.0
 43
0.0
 43
0.0
 43
1.0
 77
     0
 47
0.0208333333333333
 47
0.0
 47
0.0
 47
0.0
 47
0.0
 47
0.0208333333333333
 47
0.0
 47
0.0
 47
0.0
 47
0.0
 47
1.0
 47
0.0
 47
0.0
 47
0.0
 47
0.0
 47
1.0
171
     0
 49
0.0208333333333333
 49
0.0
 49
0.0
 49
0.0
 49
0.0
 49
0.0208333333333333
 49
0.0
 49
0.0
 49
0.0
 49
0.0
 49
1.0
 49
0.0
 49
0.0
 49
0.0
 49
0.0
 49
1.0
175
     0
142
0.0208333333333333
142
0.0
142
0.0
142
0.0
142
0.0
142
0.0208333333333333
142
0.0
142
0.0
142
0.0
142
0.0
142
1.0
142
0.0
142
0.0
142
0.0
142
0.0
142
1.0
179
     0
144
0.0208333333333333
144
0.0
144
0.0
144
0.0
144
0.0
144
0.0208333333333333
144
0.0
144
0.0
144
0.0
144
0.0
144
1.0
144
0.0
144
0.0
144
0.0
144
0.0
144
1.0
147
0.0208333333333333
147
0.0
147
0.0
147
0.0
147
0.0
147
0.0208333333333333
147
0.0
147
0.0
147
0.0
147
0.0
147
1.0
147
0.0
147
0.0
147
0.0
147
0.0
147
1.0
  0
MLEADERSTYLE
  5
2020
102
{ACAD_REACTORS
330
201F
102
}
330
201F
100
AcDbMLeaderStyle
179
     2
170
     2
171
     1
172
     0
 90
        2
 40
0.0
 41
0.0
173
     1
 91
-1056964608
340
14
 92
       -2
290
     1
 42
0.09
291
     1
 43
0.36
  3
Standard
 44
0.18
300

342
11
174
     1
178
     6
175
     1
176
     0
 93
-1056964608
 45
0.18
292
     0
297
     0
 46
0.18
 94
-1056964608
 47
1.0
 49
1.0
140
1.0
293
     1
141
0.0
294
     1
177
     0
142
1.0
295
     0
296
     0
143
0.125
271
     0
272
     9
273
     9
1001
ACAD_MLEADERVER
1070
     2
  0
MLINESTYLE
  5
18
102
{ACAD_REACTORS
330
17
102
}
330
17
100
AcDbMlineStyle
  2
STANDARD
 70
     0
  3

 62
   256
 51
90.0
 52
90.0
 71
     2
 49
0.5
 62
   256
  6
BYLAYER
 49
-0.5
 62
   256
  6
BYLAYER
  0
ACDBPLACEHOLDER
  5
1BB4
102
{ACAD_REACTORS
330
1BB3
102
}
330
1BB3
  0
SCALE
  5
1FFE
102
{ACAD_REACTORS
330
1FFD
102
}
330
1FFD
100
AcDbScale
 70
     0
300
1:1
140
1.0
141
1.0
290
     1
  0
SCALE
  5
1FFF
102
{ACAD_REACTORS
330
1FFD
102
}
330
1FFD
100
AcDbScale
 70
     0
300
1:2
140
1.0
141
2.0
290
     0
  0
SCALE
  5
2000
102
{ACAD_REACTORS
330
1FFD
102
}
330
1FFD
100
AcDbScale
 70
     0
300
1:4
140
1.0
141
4.0
290
     0
  0
SCALE
  5
2001
102
{ACAD_REACTORS
330
1FFD
102
}
330
1FFD
100
AcDbScale
 70
     0
300
1:5
140
1.0
141
5.0
290
     0
  0
SCALE
  5
2002
102
{ACAD_REACTORS
330
1FFD
102
}
330
1FFD
100
AcDbScale
 70
     0
300
1:8
140
1.0
141
8.0
290
     0
  0
SCALE
  5
2003
102
{ACAD_REACTORS
330
1FFD
102
}
330
1FFD
100
AcDbScale
 70
     0
300
1:10
140
1.0
141
10.0
290
     0
  0
SCALE
  5
2004
102
{ACAD_REACTORS
330
1FFD
102
}
330
1FFD
100
AcDbScale
 70
     0
300
1:16
140
1.0
141
16.0
290
     0
  0
SCALE
  5
2005
102
{ACAD_REACTORS
330
1FFD
102
}
330
1FFD
100
AcDbScale
 70
     0
300
1:20
140
1.0
141
20.0
290
     0
  0
SCALE
  5
2006
102
{ACAD_REACTORS
330
1FFD
102
}
330
1FFD
100
AcDbScale
 70
     0
300
1:30
140
1.0
141
30.0
290
     0
  0
SCALE
  5
2007
102
{ACAD_REACTORS
330
1FFD
102
}
330
1FFD
100
AcDbScale
 70
     0
300
1:40
140
1.0
141
40.0
290
     0
  0
SCALE
  5
2008
102
{ACAD_REACTORS
330
1FFD
102
}
330
1FFD
100
AcDbScale
 70
     0
300
1:50
140
1.0
141
50.0
290
     0
  0
SCALE
  5
2009
102
{ACAD_REACTORS
330
1FFD
102
}
330
1FFD
100
AcDbScale
 70
     0
300
1:100
140
1.0
141
100.0
290
     0
  0
SCALE
  5
200A
102
{ACAD_REACTORS
330
1FFD
102
}
330
1FFD
100
AcDbScale
 70
     0
300
2:1
140
2.0
141
1.0
290
     0
  0
SCALE
  5
200B
102
{ACAD_REACTORS
330
1FFD
102
}
330
1FFD
100
AcDbScale
 70
     0
300
4:1
140
4.0
141
1.0
290
     0
  0
SCALE
  5
200C
102
{ACAD_REACTORS
330
1FFD
102
}
330
1FFD
100
AcDbScale
 70
     0
300
8:1
140
8.0
141
1.0
290
     0
  0
SCALE
  5
200D
102
{ACAD_REACTORS
330
1FFD
102
}
330
1FFD
100
AcDbScale
 70
     0
300
10:1
140
10.0
141
1.0
290
     0
  0
SCALE
  5
200E
102
{ACAD_REACTORS
330
1FFD
102
}
330
1FFD
100
AcDbScale
 70
     0
300
100:1
140
100.0
141
1.0
290
     0
  0
SCALE
  5
200F
102
{ACAD_REACTORS
330
1FFD
102
}
330
1FFD
100
AcDbScale
 70
     0
300
1/128" = 1'-0"
140
0.0078125
141
12.0
290
     0
  0
SCALE
  5
2010
102
{ACAD_REACTORS
330
1FFD
102
}
330
1FFD
100
AcDbScale
 70
     0
300
1/64" = 1'-0"
140
0.015625
141
12.0
290
     0
  0
SCALE
  5
2011
102
{ACAD_REACTORS
330
1FFD
102
}
330
1FFD
100
AcDbScale
 70
     0
300
1/32" = 1'-0"
140
0.03125
141
12.0
290
     0
  0
SCALE
  5
2012
102
{ACAD_REACTORS
330
1FFD
102
}
330
1FFD
100
AcDbScale
 70
     0
300
1/16" = 1'-0"
140
0.0625
141
12.0
290
     0
  0
SCALE
  5
2013
102
{ACAD_REACTORS
330
1FFD
102
}
330
1FFD
100
AcDbScale
 70
     0
300
3/32" = 1'-0"
140
0.09375
141
12.0
290
     0
  0
SCALE
  5
2014
102
{ACAD_REACTORS
330
1FFD
102
}
330
1FFD
100
AcDbScale
 70
     0
300
1/8" = 1'-0"
140
0.125
141
12.0
290
     0
  0
SCALE
  5
2015
102
{ACAD_REACTORS
330
1FFD
102
}
330
1FFD
100
AcDbScale
 70
     0
300
3/16" = 1'-0"
140
0.1875
141
12.0
290
     0
  0
SCALE
  5
2016
102
{ACAD_REACTORS
330
1FFD
102
}
330
1FFD
100
AcDbScale
 70
     0
300
1/4" = 1'-0"
140
0.25
141
12.0
290
     0
  0
SCALE
  5
2017
102
{ACAD_REACTORS
330
1FFD
102
}
330
1FFD
100
AcDbScale
 70
     0
300
3/8" = 1'-0"
140
0.375
141
12.0
290
     0
  0
SCALE
  5
2018
102
{ACAD_REACTORS
330
1FFD
102
}
330
1FFD
100
AcDbScale
 70
     0
300
1/2" = 1'-0"
140
0.5
141
12.0
290
     0
  0
SCALE
  5
2019
102
{ACAD_REACTORS
330
1FFD
102
}
330
1FFD
100
AcDbScale
 70
     0
300
3/4" = 1'-0"
140
0.75
141
12.0
290
     0
  0
SCALE
  5
201A
102
{ACAD_REACTORS
330
1FFD
102
}
330
1FFD
100
AcDbScale
 70
     0
300
1" = 1'-0"
140
1.0
141
12.0
290
     0
  0
SCALE
  5
201B
102
{ACAD_REACTORS
330
1FFD
102
}
330
1FFD
100
AcDbScale
 70
     0
300
1-1/2" = 1'-0"
140
1.5
141
12.0
290
     0
  0
SCALE
  5
201C
102
{ACAD_REACTORS
330
1FFD
102
}
330
1FFD
100
AcDbScale
 70
     0
300
3" = 1'-0"
140
3.0
141
12.0
290
     0
  0
SCALE
  5
201D
102
{ACAD_REACTORS
330
1FFD
102
}
330
1FFD
100
AcDbScale
 70
     0
300
6" = 1'-0"
140
6.0
141
12.0
290
     0
  0
SCALE
  5
201E
102
{ACAD_REACTORS
330
1FFD
102
}
330
1FFD
100
AcDbScale
 70
     0
300
1'-0" = 1'-0"
140
12.0
141
12.0
290
     0
  0
ACDBSECTIONVIEWSTYLE
  5
20D4
102
{ACAD_XDICTIONARY
360
4B95E
102
}
102
{ACAD_REACTORS
330
20D3
102
}
330
20D3
100
AcDbModelDocViewStyle
 70
     0
  3
Imperial24
290
     0
100
AcDbSectionViewStyle
 70
     0
 71
     0
 90
       78
 71
     1
340
11
 62
   256
 40
0.24
340
0
340
0
 62
   256
 40
0.24
300
I, O, Q, S, X, Z
 40
0.48
 90
        3
 40
0.18
 90
        1
 71
     2
340
16
 90
       25
 62
   256
340
16
 90
       50
 62
   256
 40
0.24
 40
0.0
 40
0.24
 71
     3
340
11
 62
   256
 40
0.24
 90
        1
 40
0.75
 90
        1
300
%<\AcVar ViewType \f "%tc1">% %<\AcVar ViewSectionStartId>%-%<\AcVar ViewSectionEndId>%\PSCALE %<\AcVar ViewScale \f "%sn">%
 71
     4
 62
   256
 62
   257
300
ANSI31
 40
1.0
 90
        0
290
     0
290
     0
 90
        6
 40
0.0
 40
1.570796326794896
 40
0.2617993877991494
 40
1.308996938995747
 40
-0.2617993877991494
 40
1.832595714594045
  0
TABLESTYLE
  5
1FFC
102
{ACAD_XDICTIONARY
360
20A8
102
}
102
{ACAD_REACTORS
330
1FFB
102
}
330
1FFB
100
AcDbTableStyle
280
     0
  3
Standard
 70
     0
 71
     0
 40
0.06
 41
0.06
280
     0
281
     0
  7
STANDARD
140
0.18
170
     2
 62
     0
 63
     7
283
     0
 90
      512
 91
        0
  1

274
    -2
284
     1
 64
     0
275
    -2
285
     1
 65
     0
276
    -2
286
     1
 66
     0
277
    -2
287
     1
 67
     0
278
    -2
288
     1
 68
     0
279
    -2
289
     1
 69
     0
  7
STANDARD
140
0.25
170
     5
 62
     0
 63
     7
283
     0
 90
      512
 91
        0
  1

274
    -2
284
     1
 64
     0
275
    -2
285
     1
 65
     0
276
    -2
286
     1
 66
     0
277
    -2
287
     1
 67
     0
278
    -2
288
     1
 68
     0
279
    -2
289
     1
 69
     0
  7
STANDARD
140
0.18
170
     5
 62
     0
 63
     7
283
     0
 90
      512
 91
        0
  1

274
    -2
284
     1
 64
     0
275
    -2
285
     1
 65
     0
276
    -2
286
     1
 66
     0
277
    -2
287
     1
 67
     0
278
    -2
288
     1
 68
     0
279
    -2
289
     1
 69
     0
  0
VISUALSTYLE
  5
1FEF
102
{ACAD_XDICTIONARY
360
4B934
102
}
102
{ACAD_REACTORS
330
1FE9
102
}
330
1FE9
100
AcDbVisualStyle
  2

 70
     4
177
     2
291
     0
 71
     0
176
     1
 72
     2
176
     1
 73
     0
176
     1
 90
        0
176
     1
 40
0.6
176
     1
 41
30.0
176
     1
 63
     7
176
     1
 74
     1
176
     1
 91
        4
176
     1
 64
     7
176
     1
 65
   257
176
     1
 75
     1
176
     1
175
     1
176
     1
 42
1.0
176
     1
 92
        0
176
     1
 66
   257
176
     1
 43
1.0
176
     1
 76
     1
176
     1
 77
     6
176
     1
 78
     2
176
     1
 67
     7
176
     1
 79
     5
176
     1
170
     0
176
     1
171
     0
176
     1
290
     0
176
     1
 93
        1
176
     1
 44
0.0
176
     1
173
     0
176
     1
1001
ACAD
1000
AcDbSavedByObjectVersion
1070
     0
  0
VISUALSTYLE
  5
1FF1
102
{ACAD_XDICTIONARY
360
4B938
102
}
102
{ACAD_REACTORS
330
1FE9
102
}
330
1FE9
100
AcDbVisualStyle
  2

 70
     6
177
     2
291
     0
 71
     1
176
     1
 72
     2
176
     1
 73
     2
176
     1
 90
        0
176
     1
 40
0.6
176
     1
 41
30.0
176
     1
 63
     7
176
     1
 74
     2
176
     1
 91
        2
176
     1
 64
     7
176
     1
 65
   257
176
     1
 75
     2
176
     1
175
     1
176
     1
 42
40.0
176
     1
 92
        0
176
     1
 66
   257
176
     1
 43
1.0
176
     1
 76
     1
176
     1
 77
     6
176
     1
 78
     2
176
     1
 67
     7
176
     1
 79
     3
176
     1
170
     0
176
     1
171
     0
176
     1
290
     0
176
     1
 93
        1
176
     1
 44
0.0
176
     1
173
     0
176
     1
1001
ACAD
1000
AcDbSavedByObjectVersion
1070
     0
  0
VISUALSTYLE
  5
1FF0
102
{ACAD_XDICTIONARY
360
4B936
102
}
102
{ACAD_REACTORS
330
1FE9
102
}
330
1FE9
100
AcDbVisualStyle
  2

 70
     5
177
     2
291
     0
 71
     0
176
     1
 72
     2
176
     1
 73
     0
176
     1
 90
        0
176
     1
 40
0.6
176
     1
 41
30.0
176
     1
 63
     7
176
     1
 74
     1
176
     1
 91
        4
176
     1
 64
     7
176
     1
 65
   257
176
     1
 75
     1
176
     1
175
     1
176
     1
 42
1.0
176
     1
 92
        0
176
     1
 66
   257
176
     1
 43
1.0
176
     1
 76
     1
176
     1
 77
     6
176
     1
 78
     2
176
     1
 67
     7
176
     1
 79
     5
176
     1
170
     0
176
     1
171
     0
176
     1
290
     0
176
     1
 93
        1
176
     1
 44
0.0
176
     1
173
     0
176
     1
1001
ACAD
1000
AcDbSavedByObjectVersion
1070
     0
  0
VISUALSTYLE
  5
1FEE
102
{ACAD_XDICTIONARY
360
4B932
102
}
102
{ACAD_REACTORS
330
1FE9
102
}
330
1FE9
100
AcDbVisualStyle
  2

 70
     7
177
     2
291
     1
 71
     1
176
     1
 72
     0
176
     1
 73
     1
176
     1
 90
        0
176
     1
 40
0.6
176
     1
 41
30.0
176
     1
 63
     7
176
     1
 74
     0
176
     1
 91
        4
176
     1
 64
     7
176
     1
 65
   257
176
     1
 75
     1
176
     1
175
     1
176
     1
 42
1.0
176
     1
 92
        8
176
     1
 66
     7
176
     1
 43
1.0
176
     1
 76
     1
176
     1
 77
     6
176
     1
 78
     2
176
     1
 67
     7
176
     1
 79
     5
176
     1
170
     0
176
     1
171
     0
176
     1
290
     0
176
     1
 93
        1
176
     1
 44
0.0
176
     1
173
     0
176
     1
1001
ACAD
1000
AcDbSavedByObjectVersion
1070
     0
  0
VISUALSTYLE
  5
1FF5
102
{ACAD_XDICTIONARY
360
4B940
102
}
102
{ACAD_REACTORS
330
1FE9
102
}
330
1FE9
100
AcDbVisualStyle
  2

 70
    12
177
     2
291
     1
 71
     2
176
     1
 72
     2
176
     1
 73
     0
176
     1
 90
        0
176
     1
 40
0.6
176
     1
 41
30.0
176
     1
 63
     7
176
     1
 74
     1
176
     1
 91
        4
176
     1
 64
     7
176
     1
 65
   257
176
     1
 75
     1
176
     1
175
     1
176
     1
 42
1.0
176
     1
 92
        8
176
     1
 66
     7
176
     1
 43
1.0
176
     1
 76
     1
176
     1
 77
     6
176
     1
 78
     2
176
     1
 67
     7
176
     1
 79
     5
176
     1
170
     0
176
     1
171
     0
176
     1
290
     0
176
     1
 93
        1
176
     1
 44
50.0
176
     1
173
     0
176
     1
1001
ACAD
1000
AcDbSavedByObjectVersion
1070
     0
  0
VISUALSTYLE
  5
1FF9
102
{ACAD_XDICTIONARY
360
4B948
102
}
102
{ACAD_REACTORS
330
1FE9
102
}
330
1FE9
100
AcDbVisualStyle
  2

 70
    16
177
     2
291
     1
 71
     2
176
     1
 72
     2
176
     1
 73
     3
176
     1
 90
        0
176
     1
 40
0.6
176
     1
 41
30.0
176
     1
 63
     8
176
     1
 74
     1
176
     1
 91
        4
176
     1
 64
     7
176
     1
 65
   257
176
     1
 75
     1
176
     1
175
     1
176
     1
 42
1.0
176
     1
 92
        8
176
     1
 66
     8
176
     1
 43
1.0
176
     1
 76
     1
176
     1
 77
     6
176
     1
 78
     2
176
     1
 67
     7
176
     1
 79
     5
176
     1
170
     0
176
     1
171
     0
176
     1
290
     0
176
     1
 93
        1
176
     1
 44
0.0
176
     1
173
     0
176
     1
1001
ACAD
1000
AcDbSavedByObjectVersion
1070
     0
  0
VISUALSTYLE
  5
1FF2
102
{ACAD_XDICTIONARY
360
4B93A
102
}
102
{ACAD_REACTORS
330
1FE9
102
}
330
1FE9
100
AcDbVisualStyle
  2

 70
     9
177
     2
291
     0
 71
     3
176
     1
 72
     2
176
     1
 73
     0
176
     1
 90
        0
176
     1
 40
0.6
176
     1
 41
30.0
176
     1
 63
     7
176
     1
 74
     2
176
     1
 91
        2
176
     1
 64
     7
176
     1
 65
   257
176
     1
 75
     1
176
     1
175
     1
176
     1
 42
40.0
176
     1
 92
        8
176
     1
 66
     7
176
     1
 43
1.0
176
     1
 76
     1
176
     1
 77
     6
176
     1
 78
     2
176
     1
 67
     7
176
     1
 79
     3
176
     1
170
     0
176
     1
171
     0
176
     1
290
     0
176
     1
 93
        1
176
     1
 44
0.0
176
     1
173
     0
176
     1
1001
ACAD
1000
AcDbSavedByObjectVersion
1070
     0
  0
VISUALSTYLE
  5
1FF4
102
{ACAD_XDICTIONARY
360
4B93E
102
}
102
{ACAD_REACTORS
330
1FE9
102
}
330
1FE9
100
AcDbVisualStyle
  2

 70
    11
177
     2
291
     1
 71
     2
176
     1
 72
     2
176
     1
 73
     0
176
     1
 90
        0
176
     1
 40
0.6
176
     1
 41
30.0
176
     1
 63
     7
176
     1
 74
     1
176
     1
 91
        4
176
     1
 64
     7
176
     1
 65
   257
176
     1
 75
     1
176
     1
175
     1
176
     1
 42
1.0
176
     1
 92
        8
176
     1
 66
     7
176
     1
 43
1.0
176
     1
 76
     1
176
     1
 77
     6
176
     1
 78
     2
176
     1
 67
     7
176
     1
 79
     5
176
     1
170
     0
176
     1
171
     0
176
     1
290
     0
176
     1
 93
        1
176
     1
 44
-50.0
176
     1
173
     0
176
     1
1001
ACAD
1000
AcDbSavedByObjectVersion
1070
     0
  0
VISUALSTYLE
  5
20D2
102
{ACAD_XDICTIONARY
360
4B95C
102
}
102
{ACAD_REACTORS
330
1FE9
102
}
330
1FE9
100
AcDbVisualStyle
  2

 70
    22
177
     2
291
     1
 71
     2
176
     0
 72
     2
176
     0
 73
     0
176
     0
 90
        0
176
     0
 40
0.6
176
     0
 41
30.0
176
     0
 63
     7
421
 16777215
176
     0
 74
     1
176
     0
 91
        4
176
     0
 64
     7
176
     0
 65
   257
176
     0
 75
     1
176
     0
175
     1
176
     0
 42
1.0
176
     0
 92
        8
176
     2
 66
     7
176
     0
 43
1.0
176
     0
 76
     1
176
     0
 77
     6
176
     0
 78
     2
176
     0
 67
     7
176
     0
 79
     5
176
     0
170
     0
176
     0
171
     0
176
     0
290
     0
176
     0
 93
        1
176
     0
 44
0.0
176
     0
173
     0
176
     0
1001
ACAD
1000
AcDbSavedByObjectVersion
1070
     0
  0
VISUALSTYLE
  5
1FF8
102
{ACAD_XDICTIONARY
360
4B946
102
}
102
{ACAD_REACTORS
330
1FE9
102
}
330
1FE9
100
AcDbVisualStyle
  2

 70
    15
177
     2
291
     1
 71
     2
176
     1
 72
     2
176
     1
 73
     0
176
     1
 90
        0
176
     1
 40
0.6
176
     1
 41
30.0
176
     1
 63
     7
176
     1
 74
     1
176
     1
 91
        4
176
     1
 64
     7
176
     1
 65
   257
176
     1
 75
     1
176
     1
175
     1
176
     1
 42
1.0
176
     1
 92
        8
176
     1
 66
     7
176
     1
 43
1.0
176
     1
 76
     1
176
     1
 77
     6
176
     1
 78
     2
176
     1
 67
     7
176
     1
 79
     5
176
     1
170
     0
176
     1
171
     0
176
     1
290
     0
176
     1
 93
        1
176
     1
 44
0.0
176
     1
173
     0
176
     1
1001
ACAD
1000
AcDbSavedByObjectVersion
1070
     0
  0
VISUALSTYLE
  5
1FEA
102
{ACAD_XDICTIONARY
360
4B92A
102
}
102
{ACAD_REACTORS
330
1FE9
102
}
330
1FE9
100
AcDbVisualStyle
  2

 70
     0
177
     2
291
     1
 71
     2
176
     1
 72
     1
176
     1
 73
     1
176
     1
 90
        2
176
     1
 40
0.6
176
     1
 41
30.0
176
     1
 63
     7
176
     1
 74
     0
176
     1
 91
        4
176
     1
 64
     7
176
     1
 65
   257
176
     1
 75
     1
176
     1
175
     1
176
     1
 42
1.0
176
     1
 92
        8
176
     1
 66
     7
176
     1
 43
1.0
176
     1
 76
     1
176
     1
 77
     6
176
     1
 78
     2
176
     1
 67
     7
176
     1
 79
     5
176
     1
170
     0
176
     1
171
     0
176
     1
290
     0
176
     1
 93
       13
176
     1
 44
0.0
176
     1
173
     0
176
     1
1001
ACAD
1000
AcDbSavedByObjectVersion
1070
     0
  0
VISUALSTYLE
  5
1FEB
102
{ACAD_XDICTIONARY
360
4B92C
102
}
102
{ACAD_REACTORS
330
1FE9
102
}
330
1FE9
100
AcDbVisualStyle
  2

 70
     1
177
     2
291
     1
 71
     2
176
     1
 72
     1
176
     1
 73
     1
176
     1
 90
        2
176
     1
 40
0.6
176
     1
 41
30.0
176
     1
 63
     7
176
     1
 74
     1
176
     1
 91
        4
176
     1
 64
     7
176
     1
 65
   257
176
     1
 75
     1
176
     1
175
     1
176
     1
 42
1.0
176
     1
 92
        0
176
     1
 66
   257
176
     1
 43
1.0
176
     1
 76
     1
176
     1
 77
     6
176
     1
 78
     2
176
     1
 67
     7
176
     1
 79
     5
176
     1
170
     0
176
     1
171
     0
176
     1
290
     0
176
     1
 93
       13
176
     1
 44
0.0
176
     1
173
     0
176
     1
1001
ACAD
1000
AcDbSavedByObjectVersion
1070
     0
  0
VISUALSTYLE
  5
1FEC
102
{ACAD_XDICTIONARY
360
4B92E
102
}
102
{ACAD_REACTORS
330
1FE9
102
}
330
1FE9
100
AcDbVisualStyle
  2

 70
     2
177
     2
291
     1
 71
     2
176
     1
 72
     2
176
     1
 73
     1
176
     1
 90
        2
176
     1
 40
0.6
176
     1
 41
30.0
176
     1
 63
     7
176
     1
 74
     0
176
     1
 91
        4
176
     1
 64
     7
176
     1
 65
   257
176
     1
 75
     1
176
     1
175
     1
176
     1
 42
1.0
176
     1
 92
        0
176
     1
 66
     7
176
     1
 43
1.0
176
     1
 76
     1
176
     1
 77
     6
176
     1
 78
     2
176
     1
 67
     7
176
     1
 79
     5
176
     1
170
     0
176
     1
171
     0
176
     1
290
     0
176
     1
 93
       13
176
     1
 44
0.0
176
     1
173
     0
176
     1
1001
ACAD
1000
AcDbSavedByObjectVersion
1070
     0
  0
VISUALSTYLE
  5
1FED
102
{ACAD_XDICTIONARY
360
4B930
102
}
102
{ACAD_REACTORS
330
1FE9
102
}
330
1FE9
100
AcDbVisualStyle
  2

 70
     3
177
     2
291
     1
 71
     2
176
     1
 72
     2
176
     1
 73
     1
176
     1
 90
        2
176
     1
 40
0.6
176
     1
 41
30.0
176
     1
 63
     7
176
     1
 74
     1
176
     1
 91
        4
176
     1
 64
     7
176
     1
 65
   257
176
     1
 75
     1
176
     1
175
     1
176
     1
 42
1.0
176
     1
 92
        0
176
     1
 66
   257
176
     1
 43
1.0
176
     1
 76
     1
176
     1
 77
     6
176
     1
 78
     2
176
     1
 67
     7
176
     1
 79
     5
176
     1
170
     0
176
     1
171
     0
176
     1
290
     0
176
     1
 93
       13
176
     1
 44
0.0
176
     1
173
     0
176
     1
1001
ACAD
1000
AcDbSavedByObjectVersion
1070
     0
  0
VISUALSTYLE
  5
20CA
102
{ACAD_XDICTIONARY
360
4B94C
102
}
102
{ACAD_REACTORS
330
1FE9
102
}
330
1FE9
100
AcDbVisualStyle
  2

 70
     6
177
     2
291
     0
 71
     1
176
     1
 72
     2
176
     1
 73
     2
176
     1
 90
        0
176
     1
 40
0.6
176
     1
 41
30.0
176
     1
 63
     7
421
 16777215
176
     1
 74
     2
176
     1
 91
        2
176
     1
 64
     7
176
     1
 65
   257
176
     1
 75
     2
176
     1
175
     1
176
     1
 42
40.0
176
     1
 92
        0
176
     1
 66
   257
176
     1
 43
1.0
176
     1
 76
     1
176
     1
 77
     6
176
     1
 78
     2
176
     1
 67
     7
176
     1
 79
     3
176
     1
170
     0
176
     1
171
     0
176
     1
290
     0
176
     1
 93
        1
176
     1
 44
0.0
176
     1
173
     0
176
     1
1001
ACAD
1000
AcDbSavedByObjectVersion
1070
     0
  0
VISUALSTYLE
  5
20D0
102
{ACAD_XDICTIONARY
360
4B958
102
}
102
{ACAD_REACTORS
330
1FE9
102
}
330
1FE9
100
AcDbVisualStyle
  2

 70
    20
177
     2
291
     1
 71
     2
176
     0
 72
     2
176
     0
 73
     0
176
     0
 90
        0
176
     0
 40
0.6
176
     0
 41
30.0
176
     0
 63
     7
421
 16777215
176
     0
 74
     1
176
     0
 91
        4
176
     0
 64
     7
176
     0
 65
   257
176
     0
 75
     1
176
     0
175
     1
176
     0
 42
1.0
176
     0
 92
       10
176
     2
 66
     7
176
     0
 43
1.0
176
     0
 76
     1
176
     0
 77
     6
176
     0
 78
     2
176
     0
 67
     7
176
     0
 79
     5
176
     0
170
     0
176
     0
171
     0
176
     0
290
     0
176
     0
 93
        1
176
     0
 44
0.0
176
     0
173
     0
176
     0
1001
ACAD
1000
AcDbSavedByObjectVersion
1070
     0
  0
VISUALSTYLE
  5
1FF7
102
{ACAD_XDICTIONARY
360
4B944
102
}
102
{ACAD_REACTORS
330
1FE9
102
}
330
1FE9
100
AcDbVisualStyle
  2

 70
    14
177
     2
291
     1
 71
     2
176
     1
 72
     2
176
     1
 73
     0
176
     1
 90
        0
176
     1
 40
0.6
176
     1
 41
30.0
176
     1
 63
     7
176
     1
 74
     1
176
     1
 91
        4
176
     1
 64
     7
176
     1
 65
   257
176
     1
 75
     7
176
     1
175
     7
176
     1
 42
1.0
176
     1
 92
        8
176
     1
 66
     7
176
     1
 43
1.0
176
     1
 76
     1
176
     1
 77
     6
176
     1
 78
     2
176
     1
 67
     7
176
     1
 79
     5
176
     1
170
     0
176
     1
171
     0
176
     1
290
     0
176
     1
 93
        1
176
     1
 44
0.0
176
     1
173
     0
176
     1
1001
ACAD
1000
AcDbSavedByObjectVersion
1070
     0
  0
VISUALSTYLE
  5
20D1
102
{ACAD_XDICTIONARY
360
4B95A
102
}
102
{ACAD_REACTORS
330
1FE9
102
}
330
1FE9
100
AcDbVisualStyle
  2

 70
    21
177
     2
291
     1
 71
     2
176
     0
 72
     2
176
     0
 73
     0
176
     0
 90
        0
176
     0
 40
0.6
176
     0
 41
30.0
176
     0
 63
     7
421
 16777215
176
     0
 74
     1
176
     0
 91
        4
176
     0
 64
     7
176
     0
 65
   257
176
     0
 75
     1
176
     0
175
     1
176
     0
 42
1.0
176
     0
 92
        9
176
     2
 66
     7
176
     0
 43
1.0
176
     0
 76
     1
176
     0
 77
     6
176
     0
 78
     2
176
     0
 67
     7
176
     0
 79
     5
176
     0
170
     0
176
     0
171
     0
176
     0
290
     0
176
     0
 93
        1
176
     0
 44
0.0
176
     0
173
     0
176
     0
1001
ACAD
1000
AcDbSavedByObjectVersion
1070
     0
  0
VISUALSTYLE
  5
1FF3
102
{ACAD_XDICTIONARY
360
4B93C
102
}
102
{ACAD_REACTORS
330
1FE9
102
}
330
1FE9
100
AcDbVisualStyle
  2

 70
     8
177
     2
291
     0
 71
     2
176
     1
 72
     2
176
     1
 73
     0
176
     1
 90
        0
176
     1
 40
0.6
176
     1
 41
30.0
176
     1
 63
     7
176
     1
 74
     1
176
     1
 91
        0
176
     1
 64
     7
176
     1
 65
   257
176
     1
 75
     1
176
     1
175
     1
176
     1
 42
1.0
176
     1
 92
        8
176
     1
 66
     8
176
     1
 43
1.0
176
     1
 76
     1
176
     1
 77
     6
176
     1
 78
     2
176
     1
 67
     7
176
     1
 79
     5
176
     1
170
     0
176
     1
171
     0
176
     1
290
     0
176
     1
 93
       13
176
     1
 44
0.0
176
     1
173
     0
176
     1
1001
ACAD
1000
AcDbSavedByObjectVersion
1070
     0
  0
VISUALSTYLE
  5
20CF
102
{ACAD_XDICTIONARY
360
4B956
102
}
102
{ACAD_REACTORS
330
1FE9
102
}
330
1FE9
100
AcDbVisualStyle
  2

 70
    27
177
     2
291
     0
 71
     2
176
     1
 72
     2
176
     1
 73
     1
176
     1
 90
        2
176
     1
 40
0.6
176
     1
 41
30.0
176
     1
 63
     7
421
 16777215
176
     1
 74
     0
176
     1
 91
        4
176
     1
 64
     7
176
     1
 65
   257
176
     1
 75
     1
176
     1
175
     1
176
     1
 42
1.0
176
     1
 92
        8
176
     1
 66
   257
176
     1
 43
1.0
176
     1
 76
     1
176
     1
 77
     6
176
     1
 78
     2
176
     1
 67
     8
425
  7895160
176
     1
 79
     3
176
     1
170
     0
176
     1
171
     0
176
     1
290
     0
176
     1
 93
        5
176
     1
 44
0.0
176
     1
173
     0
176
     1
1001
ACAD
1000
AcDbSavedByObjectVersion
1070
     0
  0
VISUALSTYLE
  5
20CE
102
{ACAD_XDICTIONARY
360
4B954
102
}
102
{ACAD_REACTORS
330
1FE9
102
}
330
1FE9
100
AcDbVisualStyle
  2

 70
    26
177
     2
291
     0
 71
     2
176
     1
 72
     2
176
     1
 73
     1
176
     1
 90
        2
176
     1
 40
0.6
176
     1
 41
30.0
176
     1
 63
     7
421
 16777215
176
     1
 74
     1
176
     1
 91
       10
176
     1
 64
     7
176
     1
 65
   257
176
     1
 75
     2
176
     1
175
     1
176
     1
 42
1.0
176
     1
 92
        8
176
     1
 66
   257
176
     1
 43
1.0
176
     1
 76
     1
176
     1
 77
     6
176
     1
 78
     2
176
     1
 67
     7
176
     1
 79
     3
176
     1
170
     0
176
     1
171
     0
176
     1
290
     0
176
     1
 93
        5
176
     1
 44
0.0
176
     1
173
     0
176
     1
1001
ACAD
1000
AcDbSavedByObjectVersion
1070
     0
  0
VISUALSTYLE
  5
20CB
102
{ACAD_XDICTIONARY
360
4B94E
102
}
102
{ACAD_REACTORS
330
1FE9
102
}
330
1FE9
100
AcDbVisualStyle
  2

 70
    23
177
     2
291
     0
 71
     2
176
     1
 72
     2
176
     1
 73
     3
176
     1
 90
        0
176
     1
 40
0.6
176
     1
 41
30.0
176
     1
 63
     7
421
 16777215
176
     1
 74
     2
176
     1
 91
        2
176
     1
 64
     7
176
     1
 65
     7
176
     1
 75
     1
176
     1
175
     1
176
     1
 42
40.0
176
     1
 92
        8
176
     1
 66
     7
176
     1
 43
1.0
176
     1
 76
     1
176
     1
 77
     6
176
     1
 78
     2
176
     1
 67
     7
176
     1
 79
     3
176
     1
170
     0
176
     1
171
     0
176
     1
290
     0
176
     1
 93
        1
176
     1
 44
0.0
176
     1
173
     0
176
     1
1001
ACAD
1000
AcDbSavedByObjectVersion
1070
     0
  0
VISUALSTYLE
  5
20CC
102
{ACAD_XDICTIONARY
360
4B950
102
}
102
{ACAD_REACTORS
330
1FE9
102
}
330
1FE9
100
AcDbVisualStyle
  2

 70
    24
177
     2
291
     0
 71
     1
176
     1
 72
     2
176
     1
 73
     2
176
     1
 90
        0
176
     1
 40
0.6
176
     1
 41
30.0
176
     1
 63
     7
421
 16777215
176
     1
 74
     2
176
     1
 91
        2
176
     1
 64
     7
176
     1
 65
     7
176
     1
 75
     1
176
     1
175
     1
176
     1
 42
40.0
176
     1
 92
       11
176
     1
 66
     7
176
     1
 43
1.0
176
     1
 76
     1
176
     1
 77
     6
176
     1
 78
     2
176
     1
 67
     7
176
     1
 79
     6
176
     1
170
     0
176
     1
171
     0
176
     1
290
     0
176
     1
 93
        1
176
     1
 44
0.0
176
     1
173
     0
176
     1
1001
ACAD
1000
AcDbSavedByObjectVersion
1070
     0
  0
VISUALSTYLE
  5
1FF6
102
{ACAD_XDICTIONARY
360
4B942
102
}
102
{ACAD_REACTORS
330
1FE9
102
}
330
1FE9
100
AcDbVisualStyle
  2

 70
    13
177
     2
291
     1
 71
     2
176
     1
 72
     2
176
     1
 73
     0
176
     1
 90
        0
176
     1
 40
0.6
176
     1
 41
30.0
176
     1
 63
     7
176
     1
 74
     1
176
     1
 91
        4
176
     1
 64
     7
176
     1
 65
   257
176
     1
 75
     1
176
     1
175
     1
176
     1
 42
1.0
176
     1
 92
       12
176
     1
 66
     7
176
     1
 43
1.0
176
     1
 76
     1
176
     1
 77
     6
176
     1
 78
     2
176
     1
 67
     7
176
     1
 79
     5
176
     1
170
     0
176
     1
171
     0
176
     1
290
     0
176
     1
 93
        1
176
     1
 44
0.0
176
     1
173
     0
176
     1
1001
ACAD
1000
AcDbSavedByObjectVersion
1070
     0
  0
VISUALSTYLE
  5
20C9
102
{ACAD_XDICTIONARY
360
4B94A
102
}
102
{ACAD_REACTORS
330
1FE9
102
}
330
1FE9
100
AcDbVisualStyle
  2

 70
     5
177
     2
291
     0
 71
     0
176
     1
 72
     2
176
     1
 73
     0
176
     1
 90
        0
176
     1
 40
0.6
176
     1
 41
30.0
176
     1
 63
     7
421
 16777215
176
     1
 74
     1
176
     1
 91
        4
176
     1
 64
     7
176
     1
 65
   257
176
     1
 75
     1
176
     1
175
     1
176
     1
 42
1.0
176
     1
 92
        0
176
     1
 66
   257
176
     1
 43
1.0
176
     1
 76
     1
176
     1
 77
     6
176
     1
 78
     2
176
     1
 67
     7
176
     1
 79
     3
176
     1
170
     0
176
     1
171
     0
176
     1
290
     0
176
     1
 93
        1
176
     1
 44
0.0
176
     1
173
     0
176
     1
1001
ACAD
1000
AcDbSavedByObjectVersion
1070
     0
  0
VISUALSTYLE
  5
20CD
102
{ACAD_XDICTIONARY
360
4B952
102
}
102
{ACAD_REACTORS
330
1FE9
102
}
330
1FE9
100
AcDbVisualStyle
  2

 70
    25
177
     2
291
     0
 71
     2
176
     1
 72
     2
176
     1
 73
     1
176
     1
 90
        1
176
     1
 40
0.5
176
     1
 41
30.0
176
     1
 63
     7
421
 16777215
176
     1
 74
     1
176
     1
 91
        0
176
     1
 64
     7
176
     1
 65
   257
176
     1
 75
     1
176
     1
175
     1
176
     1
 42
1.0
176
     1
 92
        8
176
     1
 66
     7
176
     1
 43
1.0
176
     1
 76
     1
176
     1
 77
     6
176
     1
 78
     2
176
     1
 67
     7
176
     1
 79
     3
176
     1
170
     0
176
     1
171
     0
176
     1
290
     0
176
     1
 93
       13
176
     1
 44
0.0
176
     1
173
     0
176
     1
1001
ACAD
1000
AcDbSavedByObjectVersion
1070
     0
  0
DICTIONARYVAR
  5
4B91C
102
{ACAD_REACTORS
330
4B916
102
}
330
4B916
100
DictionaryVariables
280
     0
  1
1:1
  0
DICTIONARYVAR
  5
4B918
102
{ACAD_REACTORS
330
4B916
102
}
330
4B916
100
DictionaryVariables
280
     0
  1
STANDARD
  0
DICTIONARYVAR
  5
4B917
102
{ACAD_REACTORS
330
4B916
102
}
330
4B916
100
DictionaryVariables
280
     0
  1
STANDARD
  0
DICTIONARYVAR
  5
4B919
102
{ACAD_REACTORS
330
4B916
102
}
330
4B916
100
DictionaryVariables
280
     0
  1
Imperial24
  0
DICTIONARYVAR
  5
4B91A
102
{ACAD_REACTORS
330
4B916
102
}
330
4B916
100
DictionaryVariables
280
     0
  1
Imperial24
  0
DICTIONARYVAR
  5
4B91E
102
{ACAD_REACTORS
330
4B916
102
}
330
4B916
100
DictionaryVariables
280
     0
  1
1
  0
DICTIONARYVAR
  5
4B91F
102
{ACAD_REACTORS
330
4B916
102
}
330
4B916
100
DictionaryVariables
280
     0
  1
15
  0
DICTIONARYVAR
  5
4B91D
102
{ACAD_REACTORS
330
4B916
102
}
330
4B916
100
DictionaryVariables
280
     0
  1
0
  0
DICTIONARYVAR
  5
4B91B
102
{ACAD_REACTORS
330
4B916
102
}
330
4B916
100
DictionaryVariables
280
     0
  1
0
  0
DICTIONARY
  5
4B929
102
{ACAD_REACTORS
330
4B927
102
}
330
4B927
100
AcDbDictionary
281
     1
  0
DICTIONARY
  5
4B928
102
{ACAD_REACTORS
330
4B927
102
}
330
4B927
100
AcDbDictionary
281
     1
  3
2034161887904
350
4B922
  3
2034161887920
350
4B923
  3
2034161887936
350
4B924
  3
2034161887952
350
4B925
  3
2034161887968
350
4B926
  0
DICTIONARY
  5
4B960
330
20D6
100
AcDbDictionary
280
     1
281
     1
  3
ACAD_XREC_ROUNDTRIP
360
4B961
  0
DICTIONARY
  5
204D
330
1BB6
100
AcDbDictionary
280
     1
281
     1
  0
DICTIONARY
  5
1FDA
330
1FD9
100
AcDbDictionary
280
     1
281
     1
  3
ACAD_XREC_ROUNDTRIP
360
20BD
  3
BUMPTILE
360
1FDC
  3
DIFFUSETILE
360
1FDB
  3
OPACITYTILE
360
1FDF
  3
REFLECTIONTILE
360
1FDE
  3
REFRACTIONTILE
360
1FE0
  3
SPECULARTILE
360
1FDD
  0
DICTIONARY
  5
1FD2
330
1FD1
100
AcDbDictionary
280
     1
281
     1
  3
ACAD_XREC_ROUNDTRIP
360
20BC
  3
BUMPTILE
360
1FD4
  3
DIFFUSETILE
360
1FD3
  3
OPACITYTILE
360
1FD7
  3
REFLECTIONTILE
360
1FD6
  3
REFRACTIONTILE
360
1FD8
  3
SPECULARTILE
360
1FD5
  0
DICTIONARY
  5
1FE2
330
1FE1
100
AcDbDictionary
280
     1
281
     1
  3
ACAD_XREC_ROUNDTRIP
360
20BE
  3
BUMPTILE
360
1FE4
  3
DIFFUSETILE
360
1FE3
  3
FBXASSET
360
20D9
  3
OPACITYTILE
360
1FE7
  3
REFLECTIONTILE
360
1FE6
  3
REFRACTIONTILE
360
1FE8
  3
SPECULARTILE
360
1FE5
  0
DICTIONARY
  5
4B95E
330
20D4
100
AcDbDictionary
280
     1
281
     1
  3
ACAD_XREC_ROUNDTRIP
360
4B95F
  0
DICTIONARY
  5
20A8
330
1FFC
100
AcDbDictionary
280
     1
281
     1
  3
ACAD_ROUNDTRIP_2008_TABLESTYLE_CELLSTYLEMAP
360
4B920
  0
DICTIONARY
  5
4B934
330
1FEF
100
AcDbDictionary
280
     1
281
     1
  3
ACAD_XREC_ROUNDTRIP
360
4B935
  0
DICTIONARY
  5
4B938
330
1FF1
100
AcDbDictionary
280
     1
281
     1
  3
ACAD_XREC_ROUNDTRIP
360
4B939
  0
DICTIONARY
  5
4B936
330
1FF0
100
AcDbDictionary
280
     1
281
     1
  3
ACAD_XREC_ROUNDTRIP
360
4B937
  0
DICTIONARY
  5
4B932
330
1FEE
100
AcDbDictionary
280
     1
281
     1
  3
ACAD_XREC_ROUNDTRIP
360
4B933
  0
DICTIONARY
  5
4B940
330
1FF5
100
AcDbDictionary
280
     1
281
     1
  3
ACAD_XREC_ROUNDTRIP
360
4B941
  0
DICTIONARY
  5
4B948
330
1FF9
100
AcDbDictionary
280
     1
281
     1
  3
ACAD_XREC_ROUNDTRIP
360
4B949
  0
DICTIONARY
  5
4B93A
330
1FF2
100
AcDbDictionary
280
     1
281
     1
  3
ACAD_XREC_ROUNDTRIP
360
4B93B
  0
DICTIONARY
  5
4B93E
330
1FF4
100
AcDbDictionary
280
     1
281
     1
  3
ACAD_XREC_ROUNDTRIP
360
4B93F
  0
DICTIONARY
  5
4B95C
330
20D2
100
AcDbDictionary
280
     1
281
     1
  3
ACAD_XREC_ROUNDTRIP
360
4B95D
  0
DICTIONARY
  5
4B946
330
1FF8
100
AcDbDictionary
280
     1
281
     1
  3
ACAD_XREC_ROUNDTRIP
360
4B947
  0
DICTIONARY
  5
4B92A
330
1FEA
100
AcDbDictionary
280
     1
281
     1
  3
ACAD_XREC_ROUNDTRIP
360
4B92B
  0
DICTIONARY
  5
4B92C
330
1FEB
100
AcDbDictionary
280
     1
281
     1
  3
ACAD_XREC_ROUNDTRIP
360
4B92D
  0
DICTIONARY
  5
4B92E
330
1FEC
100
AcDbDictionary
280
     1
281
     1
  3
ACAD_XREC_ROUNDTRIP
360
4B92F
  0
DICTIONARY
  5
4B930
330
1FED
100
AcDbDictionary
280
     1
281
     1
  3
ACAD_XREC_ROUNDTRIP
360
4B931
  0
DICTIONARY
  5
4B94C
330
20CA
100
AcDbDictionary
280
     1
281
     1
  3
ACAD_XREC_ROUNDTRIP
360
4B94D
  0
DICTIONARY
  5
4B958
330
20D0
100
AcDbDictionary
280
     1
281
     1
  3
ACAD_XREC_ROUNDTRIP
360
4B959
  0
DICTIONARY
  5
4B944
330
1FF7
100
AcDbDictionary
280
     1
281
     1
  3
ACAD_XREC_ROUNDTRIP
360
4B945
  0
DICTIONARY
  5
4B95A
330
20D1
100
AcDbDictionary
280
     1
281
     1
  3
ACAD_XREC_ROUNDTRIP
360
4B95B
  0
DICTIONARY
  5
4B93C
330
1FF3
100
AcDbDictionary
280
     1
281
     1
  3
ACAD_XREC_ROUNDTRIP
360
4B93D
  0
DICTIONARY
  5
4B956
330
20CF
100
AcDbDictionary
280
     1
281
     1
  3
ACAD_XREC_ROUNDTRIP
360
4B957
  0
DICTIONARY
  5
4B954
330
20CE
100
AcDbDictionary
280
     1
281
     1
  3
ACAD_XREC_ROUNDTRIP
360
4B955
  0
DICTIONARY
  5
4B94E
330
20CB
100
AcDbDictionary
280
     1
281
     1
  3
ACAD_XREC_ROUNDTRIP
360
4B94F
  0
DICTIONARY
  5
4B950
330
20CC
100
AcDbDictionary
280
     1
281
     1
  3
ACAD_XREC_ROUNDTRIP
360
4B951
  0
DICTIONARY
  5
4B942
330
1FF6
100
AcDbDictionary
280
     1
281
     1
  3
ACAD_XREC_ROUNDTRIP
360
4B943
  0
DICTIONARY
  5
4B94A
330
20C9
100
AcDbDictionary
280
     1
281
     1
  3
ACAD_XREC_ROUNDTRIP
360
4B94B
  0
DICTIONARY
  5
4B952
330
20CD
100
AcDbDictionary
280
     1
281
     1
  3
ACAD_XREC_ROUNDTRIP
360
4B953
  0
XRECORD
  5
4B922
102
{ACAD_REACTORS
330
4B928
102
}
330
4B928
100
AcDbXrecord
280
     1
  1
AcDb_Thumbnail_Schema
102
{ATTRRECORD
341
4B923
  2
AcDbDs::TreatedAsObjectData
280
     1
291
     1
102
ATTRRECORD}
102
{ATTRRECORD
341
4B924
  2
AcDbDs::Legacy
280
     1
291
     1
102
ATTRRECORD}
  2
AcDbDs::ID
280
    10
 91
        8
102
{ATTRRECORD
341
4B925
  2
AcDs:Indexable
280
     1
291
     1
102
ATTRRECORD}
102
{ATTRRECORD
341
4B926
  2
AcDbDs::HandleAttribute
280
     7
282
     1
102
ATTRRECORD}
  2
Thumbnail_Data
280
    15
 91
        0
  0
XRECORD
  5
4B923
102
{ACAD_REACTORS
330
4B928
102
}
330
4B928
100
AcDbXrecord
280
     1
  1
AcDbDs::TreatedAsObjectDataSchema
  2
AcDbDs::TreatedAsObjectData
280
     1
 91
        0
  0
XRECORD
  5
4B924
102
{ACAD_REACTORS
330
4B928
102
}
330
4B928
100
AcDbXrecord
280
     1
  1
AcDbDs::LegacySchema
  2
AcDbDs::Legacy
280
     1
 91
        0
  0
XRECORD
  5
4B925
102
{ACAD_REACTORS
330
4B928
102
}
330
4B928
100
AcDbXrecord
280
     1
  1
AcDbDs::IndexedPropertySchema
  2
AcDs:Indexable
280
     1
 91
        0
  0
XRECORD
  5
4B926
102
{ACAD_REACTORS
330
4B928
102
}
330
4B928
100
AcDbXrecord
280
     1
  1
AcDbDs::HandleAttributeSchema
  2
AcDbDs::HandleAttribute
280
     7
 91
        1
284
     1
  0
XRECORD
  5
4B961
102
{ACAD_REACTORS
330
4B960
102
}
330
4B960
100
AcDbXrecord
280
     1
102
DISPLAYNAME
  1
Imperial24
102
FLAGS
 90
        0
  0
XRECORD
  5
20BD
102
{ACAD_REACTORS
330
1FDA
102
}
330
1FDA
100
AcDbXrecord
280
     1
102
MATERIAL
148
0.0
149
0.0
149
0.0
 93
        0
 94
      127
282
     0
 72
     0
 77
     0
171
     0
175
     0
179
     0
273
     0
  0
XRECORD
  5
1FDC
102
{ACAD_REACTORS
330
1FDA
102
}
330
1FDA
100
AcDbXrecord
280
     1
270
     1
271
     1
  0
XRECORD
  5
1FDB
102
{ACAD_REACTORS
330
1FDA
102
}
330
1FDA
100
AcDbXrecord
280
     1
270
     1
271
     1
  0
XRECORD
  5
1FDF
102
{ACAD_REACTORS
330
1FDA
102
}
330
1FDA
100
AcDbXrecord
280
     1
270
     1
271
     1
  0
XRECORD
  5
1FDE
102
{ACAD_REACTORS
330
1FDA
102
}
330
1FDA
100
AcDbXrecord
280
     1
270
     1
271
     1
  0
XRECORD
  5
1FE0
102
{ACAD_REACTORS
330
1FDA
102
}
330
1FDA
100
AcDbXrecord
280
     1
270
     1
271
     1
  0
XRECORD
  5
1FDD
102
{ACAD_REACTORS
330
1FDA
102
}
330
1FDA
100
AcDbXrecord
280
     1
270
     1
271
     1
  0
XRECORD
  5
20BC
102
{ACAD_REACTORS
330
1FD2
102
}
330
1FD2
100
AcDbXrecord
280
     1
102
MATERIAL
148
0.0
149
0.0
149
0.0
 93
        0
 94
      127
282
     0
 72
     0
 77
     0
171
     0
175
     0
179
     0
273
     0
  0
XRECORD
  5
1FD4
102
{ACAD_REACTORS
330
1FD2
102
}
330
1FD2
100
AcDbXrecord
280
     1
270
     1
271
     1
  0
XRECORD
  5
1FD3
102
{ACAD_REACTORS
330
1FD2
102
}
330
1FD2
100
AcDbXrecord
280
     1
270
     1
271
     1
  0
XRECORD
  5
1FD7
102
{ACAD_REACTORS
330
1FD2
102
}
330
1FD2
100
AcDbXrecord
280
     1
270
     1
271
     1
  0
XRECORD
  5
1FD6
102
{ACAD_REACTORS
330
1FD2
102
}
330
1FD2
100
AcDbXrecord
280
     1
270
     1
271
     1
  0
XRECORD
  5
1FD8
102
{ACAD_REACTORS
330
1FD2
102
}
330
1FD2
100
AcDbXrecord
280
     1
270
     1
271
     1
  0
XRECORD
  5
1FD5
102
{ACAD_REACTORS
330
1FD2
102
}
330
1FD2
100
AcDbXrecord
280
     1
270
     1
271
     1
  0
XRECORD
  5
20BE
102
{ACAD_REACTORS
330
1FE2
102
}
330
1FE2
100
AcDbXrecord
280
     1
102
MATERIAL
148
0.0
149
0.0
149
0.0
 93
        0
 94
      127
282
     0
 72
     0
 77
     0
171
     0
175
     0
179
     0
273
     0
  0
XRECORD
  5
1FE4
102
{ACAD_REACTORS
330
1FE2
102
}
330
1FE2
100
AcDbXrecord
280
     1
270
     1
271
     1
  0
XRECORD
  5
1FE3
102
{ACAD_REACTORS
330
1FE2
102
}
330
1FE2
100
AcDbXrecord
280
     1
270
     1
271
     1
  0
XRECORD
  5
20D9
102
{ACAD_REACTORS
330
1FE2
102
}
330
1FE2
100
AcDbXrecord
280
     1
 70
     1
 90
652598616
 71
     1
  1
440DDF3B-6287-443C-A877-7D36EF0704ED
311
504B0304140006080800E57A97465B5FDAECD7000000200100004F00000046313935373239332D383946412D343136432D413132332D3936383645393146384345302F4173736574446174612F446566696E6974696F6E4974657261746F7250726F706572746965732E62696E454EBB4E0331103414200A0AFE801F30B6CF
311
C60F0442213E53D140478336C7929CE4BB8B629F6829F96BB04550569ADDD9E7EC3721E4676F8592A382AFE2CF4B7CC411777DF7D26D700072522B715A413C3DF48E0BADA9C70F9863AE5B4F7DEA304618719AD3C561F472805CCE41BCAA4B6705FF85542FACFFC4AAFE67417DA94678DFDEDC434A98EF5810EEDA344E52EB
311
C2822AA19774211A499DB6BA7522D865CBD933A669DE75989852DCFB201FA86EACA14AC9326E8DA1C64BDD066EB86A3DCB9B79588DD047C6D9FE85B7EDB816E2F596E57EC05F504B0304140006080800E57A974682E6DC1D26010000300200004500000046313935373239332D383946412D343136432D413132332D393638
311
3645393146384345302F4173736574446174612F496E7374616E636550726F706572746965732E62696E6D51BD4EC330103E7E2416407D880E65B094E6DCB899D2264E7980AE2C511BAB0C74A890583BB231DFA3B032DFC803F0085D98CD392D0D283DE9FCDD7DF77D67C97E05007F0829E14C722BE78DE07DBDAE378F8BF9
311
62553F557D21B48EAC9D61AE92786C94D658A8E9D818652C26E52C32912EED556B0C161C6A5BC6A3548D44AE74120F553ECBAD1A1A8C8AA428D269998AACB917EE1EDE3EBE079F99E0B9705BC9DFBE41E92576D95E0DD09B40AFA19AA33F69EB939518F7712C4ECA843C0A7617D26D250FD6AF035E0BD58DF08EEDE4B8A423
311
5CBE4F3ADC3FA26B0DAB077F34BBEC52BAF05BB792F397EA79B152F9A65A2FEB659820B123266226F6E4813C9277E4893C93F70CC0800C8E811898C1330223323A162B32A36707EC909D0B9B1CB31327FC00504B0304140006080800E57A974688E57597CD3F0000904100006B00000046313935373239332D383946412D34
311
3136432D413132332D3936383645393146384345302F5265736F75726365732F34343044444633422D363238372D343433432D413837372D3744333645463037303445442F7468756D626E61696C2F302F67656E657269635F706E67355B773CD4FF1FBF73E71C0E67EF7576C9DEF3EC995D46C6A1EC5046649CBDF79E1929
311
42562825CE965D8A868C2842C8DE9FDFD1F7E7F138F7078FCF6B3F5FCFD7EBFDFEC41B196891913091804020321D6D7513FC77D8C5070EC3FFEE51B21F068154CC75D455CC028A3EA68992803810109FDDE5D5CEC5521B28A1B422BF80741695D5B529DA1C2D058AD2388BDA9F476F7C2CADC939304173DBF48A452BF8A700
311
C0C70C3D121C1AA15A5270C22E2B9E28763651F7DA0D12CE11077B2ECD0D560B5E3DE2368B1E65C5E1C87384A4CC5F2D9FB8BE39E9B77C753783A37998F5CEF1B4FEE553463245C9712270880DF339E0B882A6BA713D865F6F384C842D440934EF264F4A304F8DE4EEFA1E2BF5E2D91F5ADD9613D6E31DDB33ED31DB1D7916
311
CAF091286EA3D31B9CFECB78BB0060245B943C4C040119FF780A74DD308BA9D028678674EB5504ECF284EE814DAED07440BAF649BE4B55DA2890F4D73E2D489A59EE54FDB0A85B59F2F52C4858A02705C4815A792B0C4A996A2023ECB195073E115E3E3647F64243A8338F2000BCB58DA5692C7E7C3D413F963FEDF3CF00FB
311
B0F831A9D51360FECA43819F527B89FA260EB63C5DA676830AA3626A3693B23F1A17A0DFFCE3EE164E31B5365EDF0C89EF64D8E38AB0BA9A1117D7C3A0EC44F44F4023095E80BA610DE336D0F99593A88BFC5306E72DF98F7FD132ED95878DF2964EA7E43071359FD83B2BDF9C6B5BDF768F0F3C0FC351199526F53D9460A3
311
4511F75D1B63E488178569472C91A94497807A3FD4A390C6558F26D416365C3656DE6E769DA9D8FC73774E1709812842DD8EF96AED1960F79D21B395CDDFE6F92CB4EB962A4668C76990E2EF29798C8941D67DA50F4A5F947872460F1F6FDB794E8A29FD7AC0C0D6E0714339CE258FB17AE8535221E3464A10F29A0BE5EEEC
311
EFC5675926A89F49EB14E5711894F6586DB5754EB4D5DA9C6437EBA57DB97A24F8B8A8DB295FFD73266CF57E82694DF5166DDF93573AFE9C9C5EB05F8FEF8E89E0A8917B0B3724DB7BEBB53252581EFC3E38166BA131A3A5B42FE2AD00A769BBFA4458D2DE7822F8C4F63D0B8E21B285AE13325F3410A435C648C9D91FDEB1
311
09E73CEDA7BC796961AF79175E1A3CE4C5E8B0D009B0C9E29EFD98BC8E97554E3D8D838424E270F7685226E5AC268E021EDE3522D583E8F20C0BDE2959EF5BBFEEDAB32FE9A3ED0E39F211A86AA9DEBFC68182EDED132AB8BB794442D2D7EA9F4D8BFF52BC4D55BB165124EE90A42D101E67BBBB292FFB4F66DE5BF2300E44
311
546757DA7CEF8932BFC9F92A0707953491A55C5A5ACEDABD9FA1AEA01BAC3DC5A24E22E7C47213493996EFBC369D086ED9397C9BA6C7F9855C7BD5E15BFC8C53DB3D2A4C5901A57ACD2FBDF4D1676E95338B2C2BCE65FDA4C64F5FEFDC7D9CA5AA1FCF11E193F2FDABF0F4916BF13FB916A224380E6462A9815F2300DC49CC
311
4DF8D055CEF76462F4B7A7ACA7365C2707891370BC1D0AA6203C44CCAB47084FEC057F27FFCD57F89B8B9852459798A675C66BD7CE572CAF71FF7E6D7ECF7BF62CAB7B3F1107DCD04DC55A3F9961700286141C94A4F771FEB2BCDA2DDEE0CB0BAE402FF1DB0100F8E475DFFFC074DDB4498AB7D186A7654DDB1CB680D703D4
311
7CEB4E72F8CB13D86A4AA68116E26387B93FD6738779B34FEDB8E517EDF2BAF28D9BE93A1D3A164320E07D42E514725C29515FF361754213EDE06B079A2E99EB1CA82A02019EADEEB87B9AF005BD04BBCECB14AACD6B24EFBE482194A97DD32400685FF1FEF1544D1B14EFB1E7F08E6D2CD2AF52DE757F35F5E62332EE88EA
311
26417AD5C3E0E319D68F25414E6D672BD4522B278C57D18F0113921C71D96527E091F00CEB15AE23D24667369BD3CEFA10C7549D930890BA4366F4EBC55F01F746109F98ABCDD5A3EE06619C6AD78AB33E48E4C9BD21BF7478B385EC05C4F8987E2C1BFA0A60EBEDAA0AE0B015C2720ECE180FB6F2DEFBEB822D96338C9B63
311
822183BBF52FB664A7AE57003AABCE512BF77E7E31BDA2E739AC4C131657DDFE5225E900FB56CC01CDE808FA4A9C9DA16AC679656BB64796283D89812B8F91136AE18EE5EBBAF47A73BE3C153EB5D4CD491B4BFB4FE690A4CF9ABA08C0D8AA64220C438C96EA6CA80B58FE5761E697B3A292EB9FBDA502FA863E49FE694ADD
311
FFF9D62C520BDD1A22014147A0903A05B9B729F54272EF83931FEEC057BFF8C8055C279EAC5C0011804828734024F6CFA319C9CC6867C727184465CD9BB7ED386AFFD96B294A85E3802FAE47244602D8273615952B98C4F23F7EAE4463D9D638EEE374A20959E0FE519C4CFB0FBFE5DD80C2AA3F9DB961D1BDE57E67C9BB47
311
B77FDD74EE3094F5DBBE3EBC1FBDB7393F5116263009E2EFE1AF9A221B2AE234C902BF70E9F280ED23E73908361565964333A3F01D0B006AF32FB21AA1316744B489D5A198E85299241735BE559675130955C902A8ED761FC0DBE337A9F91919AF5CE32AF902ADF9AB2615E00E8A94586BA1A90839B61832FF1BFB76D2EFAD
311
E6DB1BA04CCAD3DA649E7E2A0219F592E22F2AD54847EEA8E42271011E9074F8F3DD9FBA6CDF88FFC9FC7E811AD1CA8F4557CE4AFC7BBEDCF0114A48689F20A584520C74DA8127124B767E2FB91A6B186246727BE63C9445BAE02088D58B8EFDC0F1072407CD9B89A13F6303B4A928F593AD489B58E6869325790ADC406036
311
C591729FE14021F94B7796BB11848D463536A092A26F077F94639F7CEEE2A724C66EC885F4A24F8B8A0AC321F8FD149BA529460FAA34E4663C02D41FDF80BCA222D42F0ABFF8490F4FA74C673807C2051D8E467B47B616072860069A9A303ABA9B319D58404461401B0A0F9BE5E1E151C14BC33B32ABE03DDE91708DFAEB15
311
E7C0D593C86BB7D7EC17BE56E57975F077BFD5525F3A1A361D584A75E08CF29FC7B44B2B3085014F3A5A14517377C3F6B8F37E59514C3B12F8AACDEDDA4DFC49BE5710101534CD6FB6DE15B50F11A09472AABA727F0C49D9CB906B158030065F48EB3625E010CEC1D511D0053474B11E6A4F01C0D6EF1BED3A944FDEC70E0D
311
DCDC756C86545910E0DAE3BE3AA9A404574C2995CD5CAF9549226BC94B4F4F0F5F9086F418F6B32346464610D8BC7391D3C3A3CCF04CFC1FB2A3A3170E369511868F14EEA4E5E438CC73DB1F3248AA94B6B2FF33B222FF3D1E7BF146CAD229770158063BCE4F5391964DF62F7E52A7BE0EEA829C9E13C4C147D6F93FE59E11
311
1DAB5E4594D6F3CD1AD375EE039930EFE5AF2BB2D41C83C7DABD8C659BAFBE8FAB392CA634F3D15C1D945DB4588D2B0824A4EC928AAC565557CA2F0DAA588CA5BE30B3A8004F7BF005E96CBF891D7F18112A3619FDF530DC8AA64954258E1811789B5189B49B4EB53F5F89F7D37523894F3EB57B373763C91E502F52CC99EB
311
7BDDF933FC324C4FFC2561DFFA7339FAFDD0A4BFBE6D3A8FF9ED1FC49898139864602458968913181918F719CCF5A68B2EE9C1FF050E34E63107003B8120FA982C21B30A874E4F5E4B38D5A8290C4B8D9BE48A0BE31EA995BDC37AC6DE90BA17D259DEF53605D55922FEB1855D915B659FBEB350EE0DFB2F9F766E1C84CC89
311
64B75D08667445EAB966015F63A18A9E0A325C1B3DC628C0D3CB60F767FA93CC65F25458BD23C3B312716E5F40E5858AC06EBA9AB14F95DB99147B832069201541D09A0D856E12C629CF32683760EE855537D1901988D5EBC156676C7DD51D7207CF3267AF1D76C2AD867315E44618015313A98B19941C696FED3461CAA9B5
311
415F918556D7802EDACEFD6B2E45853A9735DFC9DBF7E440F9319F8B6805A973BCCDC76C069A9144E51F187EDCC12FC31B5DEAAF0A76137199B106EC84ADA6B6EE697D4E6A96E007417F4E880E8B1E89B4BCE9D81EF611E2ED8F0C1A6C25F620FAFAAB656A7C42D464880E8AFAB0E0FC8EA38CA9A8AEEAEE3E4648BA468027
311
0A89743CDD3E6C6CBF34B7B640EFA285ABC7EA0A1E28F3CC963D114A80123EE66D0AF7D5380EB41909B605AB4765B709B808590458157E69BA1378FEC4B48CAF6A730E3BE3C5EF2DD1A5EAF94B1DDE50CEB55DDFD7EE9A16747FA4B223359FB1FCC69E1194892BABB93A1D5C4E807AC0EA2E30180811E77A2291F6E7F7FAA5
311
E0F60215BC6024E48DE436C511F0628B8CA189982D4D83CCA17D305A7E923C37941CFDFDCD93ACAF735EF5F0E61BBD3E6C41A59B242790D3A3BAC7064DCD89AA2E37214EC839820949D5CAA31E240D2948E48F690298974A96BA9A8432BC90F5071D6537C9666EA4564796B7AFFFA548077BEEA75F63083435074BA182F369
311
9557397F71548383FDA8CA34D99B981E72835ECDA5DDDC151315173D05A21F651AAF8524E88209E2E7A737ED1045800CE3390050BCFB8BE588DF111617874C62575039CA588EEFDEFEFE319B739DE2EDC147092A262611E159650E787917885EF08F1F51B8F2D8A71D60B58B190FEF9541A1BE94BC19FEA50784DA1419FE4B
311
0FB51B8D36B5FF8E1286FD8AF42B91E59A5F1CC4D60174E764045FD8C57B18209B217F89A62252BD20BE0E63E12B8E8F029FE19E0E8D0870F58721A557082250D5424F7909369376E41666C0EE77CD87CB283F661D5FB6D0DA023CB67320A20DC7BE661E9E1BFE5463085C557DA1FF9BE835733766C3D139F2CF9E2208873A
311
D0EB4814DE9E6BF2CAF81614D4D43906ED1C05A3265CABBFE192770FC2F64F940CB6B17B5F166F133C9AEEAD2641807C3E69515171DD74C4A85311513D6EC9530B3B601B6BA3EBFF3B5C3D2F7D69765141E345F75433953D013ADDF8F6AA7DC3F4A7563FE5C7D367937E2900D7EAD0F9FC9A4A1A9B5BDF1FEF08532660C01C
311
5D6DE22199AA774383E306DAB87E301ABB7D213887F9869D4942D0D71E94B27EDF216A318BD488D45DF84529EF575AF3C3938C0AAA0215B01994153E2054A0B894DA5C784980633AAD48576957CF4AEAEAFADC7C587368551C73DBE1E57C58AC713303A8BFC258BD04B51724459FF9E24C03A81E0E0679CEB9B348C0DC998F
311
EB9C6D6EFA77D247CC8F92D3848599ED89A23218D0636465AD1CEEB7DC140D7426F83491C4E8E8281C2FB35240918FFECE880CA2A42D70E8B20B34DF5221C7DB0CF90ECCB9C745B37A47E9B716FF7A97B7A252C1F3814DC7B1E1A7F72B8751D524EF7CAE45B0C73B3BE7D08ED39781B380DDFC9AA4A4749C9493DB5BAD07A6
311
EA6C092FBD0E85DB004DF06B8C9D3089C5320187E4CE1846158C7EA7DDAE8AD9AFFF21AA3A1026BB06A259845E8232DEE62811A4DA9CEAB3A4887320B76E2AE5615EAB7BDF738CBDD01F1E64064BC13D9EC53576751CA8CACD58B3CEB0E6CA585BD089B2A59B9FC101403387AADBDBE70586B93D64BF3AD4453EF9C3B6A938
311
17E8346991798601344F79A83C51F3D50F7BF2683A3605F51A72449489E0EE6169C749C60B1035651103AEE24D24E51A759C840DD3FC6504DA6FE107510E447B43461C79D22970B75DE5E1BD3007D1AFC619A4A4A69B5626AF5E9B8374E20677F77E2F8E73DF868E8BEC7EBA7B6A75EEF7205E1AB9486CB642741D6E03FF13
311
FCCEDB1C4AC129886268B01CDF4B124AF797CF784F3C6DEC97A17D4B558070A0F1C04DA4FF9BDBF34159AEFE958479824B3F58EBD1E19088A2AFDE501B6F2052368A3FD0E650A179EFAB1561E1D27527077136E652676C3670F42DCB3352F48F6BC86D2C3B0051727E41A0A4DC6CE2BE9D47F5CAA2935A3C0539AF08066599
311
7194ABECD723B08129CC5B6B21D2E7D54CD4D12610E7E9FB8306771A89576C7A982002775ED44F3F744CF21EEBB27A631671D921938AAEE3EB0D19CD1E083727F607823E817BF599DCED5394E37EEBC2E88782E638920CA641EF74D4CDFCDEF06F4278ECB18E31E7E9876F2D783C8BF429C75395F57E98C2B495A3DA077EB3
311
AC3C158608B6B57FE3EA48484D9A480096FCEE0DE880950E7E5A5714131C5C41AAA29FD19AE81AC145FA1B9E85C7169A5AB837B213493DF7E9AA4B5FBF9CDEB36EBD21EF1181B7CF7366AB2A951D01E37AF4EB835D1BE8C117CFBE7625D2EBCDB0B20C5A4B45CED0BCDE3EE8DA9DA78C2E21DEAAFFD1197E463C33CC6A80FB
311
785669B856EFF7A8CCCA2841B5A5369173320B1170C368B2748D81062EA0296E5E2D95D7667A4A46D98A6FF475C76AAB0A8C8D45E226FAFC9FE0133EA9F60111F99CA81ACE03A1D14C89E8B0D69079C91464FA1D99E651D0EAF606F345C42A8A1AA9BA391031582B96D5B4176A77AADB01F12FD298A75DEEBB2C82F0B8650E
311
880722F8DDD90C56A7A058E5FDEF1AC93545BA27367C76F5D8F9690CB6F8DAE141EDD7971F0FB548A2AE435F224D6E5954CA155512F7332029D5A1230854B79F258EC5FFDB09F5F6343A8EB193229B7F7E79B3E48F8E183860B38C8269D1B53738FF1E0BACF6AADA6D4869E9DE708E79B5DADCC09B1BC76F649731CFAF59A8
311
3FD8BAE4C749D66FA87A3810D4D62FFE826FA400C0F325D2BC0F3CA35F5847B82A2ACC7961745C823E4D863D54460AF792CE6F79B5C7A33B25C3AEA6CDE15A919B6367D781E9D44F61BF828672594A3E1D9EDD6DF179A81F27EAC05B936575D73E05C209DDD2115CFB705DF9BBF3C911589B3640735E9E618FC9C36A7326C8
311
2B2205E244C55D56FDB9D5DC93CE958D4BF8174D2B3DA54CB3C09F2C2A6DFF73D23B2197355761AD421EC581284A7EF8DE2CE3497C0C804D49B41DFD6A7360844E5BEFFB495CFCDB97A4595911CDBA623274CE852B5E278AF0BEB1770E9D37CD977B2766A7DED0E94B840E1E95E8C77DE5CB6354AF7871427C28ADBEEF7BA0
311
A28E19DE9ACD75F379FE373EAE6DDDAE3834692F9C2B03B4FCA8FCA9ABE8EEEBEBB725B88A7C90941E850682CA04061A7DF0CE82ED49BFAFFD42C309818FAE14755CAAE78B0F73243ECCCAD7DF58FCB9CDFAE7A4D3E6671A613639130D056C8383C8F4FCF4808C331E544DD26E4755D09EA05253B3049A1E32587CC25D72E0
311
73E2CD96D04A71BBCB0038FEC3F53D254199C3CDC67CD66640269431860225392B2CB3ECD0B4498AAE78BA1994246AE1EE78F2EDFB79F6C6CB6B5E279C4D373FBC21CB2698C9ACBBEB6A4BB6B39E16AB0E421CCBFC7654D81ED86022F9BB522146F9F4772E2D0E4FA70120C95A85A417BF5078B232F4754363EB1750B2AC21
311
48EB46B1EA72AD9B4D23ADCBC589D70106C3EC2ABEEED84DFE28E718C6C83502C28E9FDD3B09DA0A6F6F7B72B706A31C9E2A331EE70DA56A083D2177BFD63C55B11D8D949FAFCF90B23A1E24B9B5018B9A17E99F2890EC302F330FE7936E2C23F0D237EC8916F5166AB84B62A21BB0B950146962D754F92CC2C8877BED8FC7
311
B7B25726DD19545392570B3A2C66B58F027BEF412E552D12A588C4A3CC5C3193FCB3485EFFF700D0B9EEC077754A33DC1FB9E25AF814628F91DDFECB667D3F7690803F38D13F8AE39353523BB08FC6760144AFA2CE28236F65EDBB3D5F59A57D612B99E3D7E5F8A851666BF9B5A6658EFC96EEB37A378ABB0EB3FDDF1303AF
311
32C41BD1C8560745D7BD81066B0D6313359CF488563D3BA3F8E2185D1FAA3EBA1397C9D0E3DD232180A4DCADB6AF25DB3AC3CC26589C8239E66E81547BC7E2F328F9884764CA37EB5DBE390DFC03A5246B456A7C3684C4377D0EEF9A350680FA9A077E8B2957B489E09AB1AD41316944C2254B5984830F691C93CAA767EECF
311
976FA5647538830B5E63236A6F0365C1E0F3E327F24FE35EDDBD7360B0F7374837409F7A6311BECC12B7026D4FA1AE204FA3F5FE904B1F420C7A9044AE58E403E7C4848E7DA25DC9EDAC79DD756FAA26B9EA83ACE8A214A2612A22AFA19DAE7DBAC5F8CDE1292A485F98DAC731A29FE01A3966E96BCB9FB5A4C8830E1B9AF0
311
C54B87FBE221A097036E5D28D1F869F810C06A9BB0AC0612F69AEBAF893C6E7AD59460208BAB3A6B09CA4F6BDDAB8CF0D1F84B72487498395A70DCD754796E271099A567A55CF242BBED64696378BB6CF25EF0FCDB589F3A82F1116D010A9AB9FA4358809EE0C973A2B4229BAA876A70B03AB49CBA7FBE71DB1832FFD32F9B
311
F2C8E98075CACAFB36921235D0F552B6A67E94E094097A5D7DF681B40623DA535ADA7A9AD8E9A62407D7C9A5AE51D62A17A83A23728DE86BB56115804D3F2675F2C6B87541A0FC497BF0CA86420F558C9859EBE9FAD62747E323E3AADC03FDCDDFE7407B09DA90B44E3185723C5381EAEF589765E2F7A099BA46695BAD60CE
311
F3491B8A171F5F56444F7CE9455312C3498C74173AEA0214EC029833B34B650CBB5A5508D5091665309642791708ECF27CF11DB3D797D6CFE474453BD4BFADB768094B2147814D81C7CBAF8228DCAF5564B5891F5EF6A860EB2E323CB82AB868D8EA048880D63B0DE5341F1B3D53297B928A11E15F25E5148990F710747C35
311
09ED14909C552EBE3973246FCE55D00564D8310BC3EBC5085D08D806799B77D6C57FDF5E55837F9E934F09C03C729271B64F12D0A9F9E938107CAF7BF1EC8CF1BB9B42363D33070F4CACB425E605DDB0A34A12BB936DE286B9887A4E2E558F0886498BFF49C311D96C277CF6A9FC0D75AD0ECC5226D7E0E3572012E56D7FDE
311
4410CEC7A6D0F997F225A2055B8B92E3956E875AE4993CB3D4C9063AF98FD45E1BAB165640A43439A2C9181A7C355B297C0A0CCFFAE19B6FA3C2BA238A885FBC98B8F6DAF4B94B97304878DF4D8BFF6A4AEDF79E90ED4E68F00CD7299F4E0D83E35601AF0CBEF18C1E870E74758FA91F5131075004DB3CFCF09AE1DABC1195
311
7FD9808C92E8A678CE9DBE40DDA0E0D1D505AAFBCBA208232BFB6FB3704E8985E61ADE53DE74152F5C7DE74B1DEDCD37DC3E8FB30D7EBA8B9EFFC3606BF90B8D438279CB7709FC7C00D327F41817EEA71CD9E49FE9C8C9A81C70915D9F0F15958EC5AA4C3BBFAF46986B90F188BDB24B89DE3C6F29EC3E6F66D84856EE96A3
311
5E657CA41B41EFD8DBFA16AD6E91439EA92B40B21C053249F51AE50EB0B24C770FFAF40DF12C8436366819C48E36547D4E7B72FE2BBF10828583057814A668BDF183F6B2E58DFB151103E56303E63D00F39C27C4661605DB644D19175D02E3F0241E8FC3458D17AAAADB117CE9EEA690D0DB01E634878C04C2C9310B69FCAB
311
831151E3AD293BEF6E46B0ABCECB50F5939B39C613D41E81FAE8D34CAE3C4566B761D37185FE864AC32FCB71AEF39DAA5BAB88609BB980CD2F07A8F941653B529567726E2B2A58D079DD57E1E5E31426CF184A04D7B03B985F276D47406AF276FE32E3328BA866EB1FD39BEF57863A317634AA5FE467409B3873F5069EF0D7
311
1AF00AD189D17BA1974ECDB2D623E9E14086386A6AAB5807825C37B015BFE892AFD154920EC437EB945D958E18622E1E0FE2FA06557CE4BB9BBD05A2D40E774DA2B65473791E314B7D6C886820B2FCFE4AA272B3B8B15E7344A145E8AF919B5454D89D36D413E87211186BF6F645E5EC94DCCE8E1C799022E4EC9BC86D7A0F
311
2AFB1FC4B2CE48F84B3F49ECE65BAD24CADCC07EFF39AB06BE9E6B27A059938EA7208838455383DDBCFCD967DDE4650EF92A14FF933C975DB20BD7FEEBC4487576485963D757D16340D9599FEB362F775F38CA4185A86F74B629C81B133644A3B18FD056E997E0734F9BE26D11C0AAFC669E2AC9FC41D281F8B2E1C35AE27B
311
CE05F3DA295488096688719D974DF1B5D182DB7792288697F8763CFB43562C1CDEE11C4AABD5C22B6E33F6F389CFC3477C5919DC0D533F8A7A1846B7ADB60ABDC26C43D0CFC8910B7C15EE22675BD02702ED39DB77A87A192CA7A543E6205B979B9F5A6B512A3CA799E198B2D5797C0AF8D1D872CA455D4D431A7879D4DD76
311
110B5FF7F4176B54477A9EB5E4A5D11214FDA585F0382751D8E2582BA5D2075053298FEB8F1537304E32CB22C2E2B693DC0A760B1DFCA751BDC445AFDCBB12820ED85F6D5298933C7EF1211E9E057684056CDA3FEF3BB6052355E162DF27C59E965A8DDB7F9437EB72CDDA3A090DE65A5B2F50326247B7EC67B73ACC7047FC
311
9B353D6EE990F772207C6EC52B39DC2F3C0754821DAB559F7C1809C7D0DD5B0499D0442E0A6E391B3D5DB46D11E731E6794EC77523FBDAA242ED67F9FA1FB684255671F63C9BCFE6E7E896D51001A6113EF2298BA494E0B0980D1FA5B9D60796554C02256B1E0345FB7C6186B6A19D2DCA270416262845FA4F42DB5D9B0A0B
311
6F07FCA2E56C242522E001E0CEB734AF310FC8BFB57E38E03AACE93B3326A2197891E68452B26A6307FDABFEE0223D3C03C3C73D2D5BC054C8311F12004CAE488E5C29287F8156A2CAA4AD0D7BE6B97264E4139F437CE73ADF52E5134C52B819777C18B323A5924E4F67AFD13B1CDC3A61793A79FAF5C0CEB718E441071E79
311
7C6DCCB9EFCF7E4A1E9F3DF3C2F9C9E8294E9586868788C972857FB0556D7A26941A7EEB9B580AD78EC40B85DC906B4120A563CA3B87797ED612D3B035962BB75F6515A393F4CB057F564CDF54F2E5A024514E6A1F901DB80C7E70B1FC05E356A7E72FABF4775B3E3FB8F70A2A8E7B6A94542BB304157978CCC999E707A29C
311
C795E67A59CC546A5D47B368954CA7B6E75EC9E1F6FC73CE3B4F71F8CB1A6B15923D61EAAEB14626AAA9D04A26EB9C66CD1BE86CA31A5D8703DE04CD1EBCE4F5CCB62F93909AD11E55799A781A956ED27D3E738F4538CB04ADABC7DAEF20BC35BA6A90BCC1DC61BA05F20D8832FFB9BC9B15E2DB838A0AFBB7E0C82A562127
311
E0446894F427794C3037186F622BF24DE1B00AA10A23BFA47B2A180D6DA5AD6F7326FEB8C100C2D7142EB2A0B2A9D1008A09BA343D70E054AB69E2A7EDB783CBD92537FAF4A44D1296AC2792729104B3276C276C951D0CF3CF3F1E6B017720A7B8505A5FF9589365979678C36F1BAF759EAF57C60F1FF5FE9DCF5F8E764FF2
311
5A2D06CF25117A8FED51884C13B2B750DB0E4F5E3D64124FCF11F0AD8F1CC3B3DA4B38ED22BF1CB2585EE6BFEBBA63FBFD44F9537B9B37BDD6B358720F98A8125AED4349CCFEB0E135F19E208A04CA7E2B10711185D72E381F448036EF57C9F874E54A971CA37A639E986AC0226DC5AA00D5B14FEA9192234B3DE617814FC2
311
21C92F33F1D392F297731B567FD98FD91D989379AF567A65B8ADF177591DB90FBEA99BF4ED11B16E50A0AB1DBF1156D034BBE04D69D08F939D8E92BF525A1DDAFF80ECBC95D8F45D3FDD289FD23F7D8B452F8EBB34EC082DEEE68E18EDDF072060FAD2AB1504DD4879BF67099FC58F6E9DEFBF645D16334A3E9A127C6F1AF6
311
132CF287E433B43A0EE93812B4AA0B194E03EE3FF91EF9C6ED0074A2F6EB18A96A7C9890B1FCDA1F2095E944DB911ED54C60DF16FB74C8CE9BDC7C54C4F14078CF73C2FFF1F1BBCCD7CF64F71407EA1683DBC410D226627F66E509060D5C0AFD611DE681D509DB8DD12FB1265B03C6F5C55FF4C30BD94187FF692B4F152982
311
502F193098A789526A038AB529A52BC0DC4FB6285CBAC10A8B8DB75DCD9BDABBB221E27D1F8DA9F5EE5926A1C8AA9BA9BC09239C6A7F12914EA3B59EFF7AAEC3FFCCE56F1C5C2980AD072793527565E774F4631DB178CEEC691B1F367BEA0CF2907E1D6B854D527065979DDEF002D8B2ACEA7CE21AE297737EDE1D45B31233
311
B73FEA35BCFDD0B09721FDBAF6432681F2FD10C3E9EFB246FD6E854B344ACC9D8A0EEF876A7314B49B6A499FC650B099D650DBFEC7638ADFD245E2B7839DA5AC5F7D5623FC0ECEEC8653FC9B2BDD1AD4D00A566FBA7186DD3C9CD26512551637498CADB950FEC71ADB9A5524285DE328B8EC7EC75D2345AEC6A27C42AF6D9B
311
92155315C80DBFCABBB7DA0FAE425C4FB896B15C9BFAC4FE67DF5A23D30C93DA4D8F36FB15D100050DA6062E22AEC5F4DAC4F6FEEF97AE05DE63C6D38F9E068A20BC5E3B6BCD75320C5090924E7F93640A7735B1A43451C2D91EE62C6238B797349E59890AF3A520DF4A87095F3ABEC2E61F0593416CE46CDCBE0E00E2523F
311
CCD04408588B5B6C9DB6459C786CE378770B54F51DA3A5E1DF2A3349BEAAC234A6CF8993B598B3B25B4B113E353A4D750FA7534749430F3EBF2512E7EA3FD43C6AB9A1F765A58463B306721A15D224FAFE8C6F5E3432D57EE697DA0DD5A9D4866A8BCCAAA9DFF1F06047851408FEC060471D0E3EB86BFAF46E4B5E60311DC3
311
E3CEA147C75CF971BE74689507154FF2D2E92F15CDB2B9182B11459FD8ACAC5A85F174BC94A7F4EE4C4F5CAFA7C02E37BF0BC77B7DCD0C047BC316F562A01A441AFA7931CC84A28CB9F4AA367EB515778F29BFE61195FA671F4352E5E46E3A64773F1F76EE5EB36D7BCE9BCEAD837A4D77F8DB8C92AEEF6711920D7C7D0F76
311
B0FD0EB7AB83724CD35BCA7D36DDDF5FBB7FF6F04A91F3E2BB3B8F1A43CD659639507FF6331C5F697BCC782AE57D757A27D97F1AB9E0AEDB43F92F1B2AACDF5FEC8ADBAF9F814E2027003BA2F9E144B1938A7A04050AE5D953B82C45619165C813A10E76DD6906B3C16438064D14CDA713AEC420034613E1AC7241904A49FB
311
F87409AFB1FCB9B72FE7933A87D8FBEDACECE4EDCF6A4FE9FB94D5DEB74FAB7CFEAE17EE965DF980DCCA2D04134994F9A2E94D2265DA4FE6AA7B7AC15FACAC2B5ABBCD7DFF542C5314FDAB2E1B9D8B65220B8E2B638BE008E8DCA22678C820C5053664D15E89F2D735B51A84955E81A443545E9FF787BE0FA700A76D136C27
311
DA179A7C6E8939E01BE756E19CB292798063D8B97F44E8A27BCF3A614FEB8BE974A718E86F7EC99B53CA35FA24F61F2B07266684623A3D4CF073E511F3A10A8FDAFAF0078C577F4DF9D339FE7862E5FA47CF4344209E5BF76D783B1B48E152AD281B15FCB934DCDA49CEC5706B1EE8B460F435324A5CAD154725E21AB8044B
311
75A557A79F6C807B9340AA3D92503E866F4274412926C8C504E4D5EF8C0E68DD0B028781A6B4054F11CF18941F101C57CCC796773ABC8DED9CD91FE5788806C05E548895354AEAC96546D55B0E94A59F148D061F42AA398D822CDECA4CDE79E13469BDCC44FDC990F366BA5978C15F97ED80CBFD73B0CD9B8B83A4F6845BDF
311
BFAF034019473FB9A63BD55D3A4A7284757071574029A4D016DCCBE95DD679EF3C4880BF169422F8C89B68A988D2B13793CAED4F74DE7486C72DC94DF46B8E93D8E02EFCB1FF9B3BA10C8AE7F653DF94F4AF466CDDCEF5776687F7C4C14B63E4EED1719DC2EC482D7DBCC7AE518CDE3D5FF86D39000EC3673C0044E1D308BF
311
05F74D1B5F033A7D1BE7F74BC55BBE3E4A20F920946CA0271EB17BD2B80E5660ACB8A29A79F5E4BBA49D4D945B6EEF4A7EFEAA65E5555BBB57A7E15D2F83C69F30BBB978D2B39F1F26FC097424D39BB33CA3D87ABF64E307938B685BAD44F71556A30B7E712CA4FE600613C3E554B69ADE949A7CFE214DF1FFF05CB82151EC
311
6FC31950239F94CF7AD39DC473F6EA356E5EC2C4EFA04383CEFE985A127484366FBEE3C0EC4FEA363E4F6632AE781392FD45D67B63FB8DF70E82734F431FD3443172A0E30A83D60982D55FA6A2CF86DBA8382502ACC6CDEF3B907982EED1160E14863FA242F9757347E1544275CCDCF71ECD5F8621CBEA326B8BA884AD7F82
311
5781923E66971F04010D574C541D8427A438A37EEF8AF88240EED7362C953F5A81DE2D56109CDE2524EA0F5D2F87308C0C47BD97AD605878AB8589E17CA83930CB5E0DCCD75853D68B1AB136594926DE426C367428E9334AFAFF90ECE221BB5DC9E5BB53D2CDEF954EAA9CD814F0E5725F1965DD458E5F8487683AD86B9D00
311
76BE3EE91EB1CECC5331A67A3F79D8B27587C12EC2A6A70474749F27B4C0BBAFB94B34189E88DC18964BE4121B9137FD516C7755356E50D6714E31ACD222621EBBCD1CFF81D87479056A9DA0E0B8EA19D24CF937DA89F78E8650CCBDC110AAB6C4E46DCBFD0446BA9E2060E81F314AC2031E88135E5476AC0160EF5C0DD2EE
311
F1B8B5CB2D198BE9A554A9093B5F7D7E4B5407DDFCA1D9C152FD97F55BFFFDFE802954DFEC8995B983E28AC92F1971E28F531DC407A1280EB125F64A72E617EFB27DFBCEDCDA2D6F2BDADA36873EE46B9BE1782998C63DA7182BC383FB6FD15DA472B175D7E8B4FC88F38D6E07FEAA3FA3CBB8F6B449ECF14D2175E5C5CCA3
311
A42ABF24CA6C9395AF74535F4DDB38CB84F56614B0FD32D7E19CA5CF988DB4449C40E23DF2B16772594554579094450F56F253CD25EA7F77366FB1CFE79696C428BB64D5A41E986189427E5E4D7E2DAE3D5BB4972B3DC44EAABDDDD63A2264ECFA5C786EB0EE1FDC5BE34FA0F08376869FD1E61EA06CAE15191135445EE8F0
311
394161C3266A596AA035572BB0C8876180D8B9C77D307DF9DCDF7365ABDA6F3A2366436457A4DFC1F259666569A9E4A79C817BDD5610E5200FCE894A358EC72858D50EF67545DA81C6FACE3D457BAF70367E1E6BDD9A952FB4F56247F58F523B97E640246051A72F79BE42FFA0B3187F63097F91C48B868586F714B0EBD5A0
311
0A8412C1236E1298F60C72BE6C96B82B404CADAA304AE9F303176B14BA53FBC2D5E86377E35542019E24D97B96A49B2C0E5006E7795954DEAF5DA58958839043C6C70BD3B1B33B6DC5C31316D8A6923F142E26F6711A2258AF977DDF1F970ECC4F1F2B434B96D81BEB6E89BF3BBB3C7C8CC80505070723D6D7D7D3C8CA27CA
311
164A26024FED94B12A86031867241DA53D929636DA600F050BC40CE48B8BA03D69224720DEE2ED2127390BDF5E6EA64527BBD4C4C63FA76BB801FEEC0E61218EC98A8A86CD8313781617877E66692839B9468CF4DB8E50A73986E558E309C0D6F676F921BE02F1185454DC75B111572FF9D27D85EA14C05AD7271225B391C4
311
275659CA4A43759D0BA44639BE4C30A84DB7F67A41399FB95CBF923B1B1672ABC807C1590557FB18D811983FA97F5E609516D62281D38B1281F68FC75528C35E4CD7DF0F7DBB5E5DD69C414EBEA2F4A5B241B996BA77AE6C772E367408C633EA3E438B68563EA8BE7667F3A4C4FDEEA52ABD78A2820F443B7914A15F180018
311
D231E64519C56A12F6CA7C8DAE18F06F6B769DBF92329EF6A5D18FBCE600F36BD8E8198DE5CDAA96181F3A756EBA5501CEE58F497EA4F418A2B82565B9BCC611713C0B708CCA1F398B78C5F7D03B3437CC18F13061F55C7BEDADD5ACB1DB0E36D3CE47FF6EA1A563A57E9649EA5D14D1A50EAA457463381C073777EF160060
311
7BAF6428A7DDC079D47A204EF1E1F1F0589FB054D45E02CE623B3823C317C601E589E22B1E88B448524B86A82828E32345EC18AE17214B42F8C41C6D428016D9BA31DDCB47572561E5A402E5BA4FCE55F78AF7268524AA04130F3A20BA5D1E9F9948EA48FC8F5314FDB35E21898198060034ACE5E3E2BBCA34092518F27519
311
0AF65F45867FF0900AA4B81F25427414C372BF51DC29AA855C5428EE1EEDD6B849AD60F6E73475C2D2523F8A2772C840A478DED18A8C5C91B085F255DC4F54EA7AA8947354FD17ECF8FB3B4A0DE7B483CAF3A1165EE05BBA413E5C1FEF3DE1D6B8F2F3F3251C17D9FCAB48A9AAF63AC773A0E413BBC46A9ADF84A566FC920E
311
4D8C52C9769EE3301CADEEEDD92B312E02E2A7E35B7F1E7D203FE5A7D75578B06E99D0E46FFADB8FDA17ED8880390DA29094202D6F645F76F6F96409CDA05495A96E84B04A00D1A6C6C81D7F3DE9376E828CCF144EE50E364ACCE7237EA0BFB5607ED1AC3CFE73794E5B61739D14DF1743441B1AC98F00ECEDE9E7301FA297
311
55FBEFA68C91EF2B314CF510537EF1ABFC9A762496280B546F5EDAAF8A5B387D469FC9A878A92828C88608453ACEC6094DCA54111E7AD5B2663DFE2DD151B7F123B9F4FEF8EE36AB125FD7AD52A59B1B765B3E3F73E3F73DEA93875004D2AFFE3CDE9493B87A9904DD052028949041A91DC0E1BA47BA714343FD5B25E0A6A0
311
9503AFC17C790058A836A324FE31D7893512E28230332F153181C1E018E1124EBE1BA262AA428A518237D1EA7275E48C5C561BD19ED6912EDD8367DA0F31E40EEAE9683DA9257525AEA7B632B97119E17145A90231768A4F3B9120FF32E8319B015E3CBE26F1A754177D8185345817C096B0CE443A955D13AC15E1FB5DEEA0
311
239EC32A3C92241A237B0B02FFCB4F93CF2B02570C8D192E2F2A68CEEB42F12E6F8CEEFF46C251E22B4341C56FB08CCE550E7A9D6F4D6564B9EA52A83D5BF2C6E03FA19D2775E15A8A7ACF30A13C259EE7F5EF2AC3BA354F1500E1A07FC63FB4686E2F12EC69719F9ECF5FE3F35598DF2CE944008CE78F0911BA5BE5D0A34E
311
0098FF038669C26030BA9B300303039852A8F6F496341737CA7E0D2E3AAA36DE0A70AA7D9CA0D54D9AD84B18A44C9E625475E1C97B93BEBB38DCE7D227E67A2D00F531436136355F243D1FC0D712C5765754FA22FCFFAE97919161F46D6E61ACB37D83777B385889770B50765B127768443A5C4D3A4E35A3151111F146B7CA
311
116F918A049F1C272F2CD7976C69A0068773451659A97E0F4A08FE604C3FF6CE7385DB19F4D3ABC8A0D80DA8A42096AC377DB49382B36E270B6FA7570188B4B7D1DDDDA82ACA487CCA5D38BD3BD039ADBAFA4ACFF27809239B722081E2EB9F145320553D183F28471C388BC8814E5045676767AB58A8E72D1CED2CA7313795
311
15D2E533E4CF0B39DFC625F97AC4836831A4DE330E87A8126FA17EBE583D614E71E22A8DBF2825599743E0640037303E8E1B1E8EA4E1ABFA4F62907B5E4E0E5DCFDAB417C36C6848A2B8D15F1E505434C0707E16B1CFC2A1C36A42BBF55734F8F4301DDC2A5110CEE8C0747F69519265012A2174BF4E955ECD4FDE095A3ABC
311
70536B7AD0B9D7892F81287D667C108703C9B66A221E9A0929D030008F77FF6F5D2108EF5706FC87A3069B976F7C9FC3239D13D283CDEA83597461079FEEE049B0F392889898B7D87D31F8D60ED7B56B91823A8E4EDDB36C6172ECEE42BD42B12CD67994FA0F0DFAE9389356F4CD4425A4B8AA55CBF7ECD585C6A2C2316791
311
E43D5C06841ADBB226A87FD61515FFBB0167B74E56BD7F3E90A57A97FEDCBDF483A0D6699A8C0849CAEB4947FAA90D8E332D9DEBD9F4738C37DA0CAF9CF3DAA68BCB67C420459C7A64498D6E848E5CADE92BB6901F607AA331104A67F7CD650EE169B1DAE94D2C31C2F993632259B6957E246EFE4C5481107B071186077000
311
40E5812A2A2A38DA0076875258C753F60E0F2662C748EDD5F3F3686B8FC3BD6FE631ECCAA1E8B1C1E565AD117E54893E79F4672E32F9E46B2A183DFDCF3EECB4D4D077DBEA0DA254D256045109670050129E9B9B1A9E4A11344D61497A992778095151510C4BB7EF2009B63AA4360635312E4CF668B7E0D3D85A8688E2BD83
311
B569439892ADB63461930D428E0DE42E4AC57CE48DA5CC1449530D8BD3D6A0F08DF20C8E8F570F2CFFFCEA286E30969B4654D498A58D9DA782E19FE3F002181838925592C4A1EF0B332D88B61A92C644547BED490D3A42CFFAB70E36D961F694F6307F72FF15A1C79D5B1B5CEFD353D9E2B52566DEC8F8F09CB3E8359C0F68
311
EBBB7898243E34E12A015B2685AB303C04D3A9E00671FF3DFF0A184E4A2ABEB2B666AF5B3A209C73D8EF29DCDB069C9F391EEE9DD0F74C7BCDE16F8F02E3B8816122BBEB50665775B600549D8BB33A54A6BF940C028118BC6878C79958D6784F9DEAA6E26748386FFAF8D0D0101E2847B6563F5D8DC1D78F787BE00E2C941A
311
E12148D4A81599FE8F68D4DA5CDED75530ADE138240300EE13B0FC13A1687FED6774662C05A2B7DFB186732F0D7A93545D8B0A6390AE5054D9CB582DA846D7A061B3358B45E2B52DDE63E114397EDB7E09233A579155D795BE76102CF277F4DF8B188C4F2879BEAE3C08347124BF9ED23B128259FE107D31E34A652F090B30
311
B39E0D9AF917B76A2806135621A8A60681F16AF216514BBD02711585B5B1AE823F4B2D0369EA5B6BCB863072727FFC871CA6C9AB79A814D989057E9470A3D238BC87CBB4A0EA49AFE2B86F22E499793CAA9047080450166BDC357524561E258C77CB697F1ABB32562CF87C3B7AA12F911EF19FB3E5C02222E887D08202A60A
311
17151F5E053A86B437771088B4FEE14D652C43E8D939995D34545E12E2FF93D4E366EAD25F10CB7DED141563C3D0C447AF06078A91135FD4B9611583CB4BF3BD167F2399CEAB0E0100F8FFC305F00F1711717173138B4B48C83022295DE657EFEDD97F238ECA80F528AFB4F8D67AD4E2594B9A3AA86D7487EFC313BA95745C
311
186F0CDD84CC12DC9CB0424B42203D351FD9C0A3AF10CC7F388E0329279087386421F194F4A29464C1DEF7EF8BE515E4A199DCD5B909342598D8FE6A231F71336248D5CEC5454455C7BE383B3BC7B260FED27F703FDC39A170F3827239102F59D4DEE7FEF82EAA1A5E4BA94DCC4CC44E7E2EDE20F24244E4454369D2E87C3F
311
823F193FD4FD27E1C23984B01898D15ABC20711A8A558054951A6AE280096BA36CBA439603B7B0B4C45F248C14B2383B4B5CD8ECECE4FF859AD4A6CA2326D020EF090F4041D28DB66E5256B56232CC52829DE8060BAE6BBF37D4B7469B822454FE93210A3E8D15E69FFCF01123222611C51C4FD0A041A0CFA2471CF6BE38D2
311
B20FA4C3525B5B8B586759475CF80ADFE67A284AC24651E52B8E683D24C2622642F27E7C3C22783BCF63648BC398BD6CD0D9C97E7E7E3EACB6126DB7A6C1FD9F1031302EE67ED96F22B77C7CA0239BB324207559B105E4693EB26EC46182A92C9C0DBD24F29B31C5C5AC1F84300E0E17CEEAC15F5736FA4A98971E2F1423BF
311
CD68D4BBD5F86E74B40A369F39507C88FCDB35D2DD8DEBEA4AF999E23CF2816D204200DF6E611781B9884C1AC8888B4DE397320472959434323A5A36B22A8E1F721A270DF3BD65E4A31C11FF048AFB0D8B7B6881423793963A23CFCE935FC189ED36FAE35C46DA3574C979E4394BE52084F3081837BE033396D2EBD80F1F69
311
1B273F660D2B32FA27A33B1DE4ADA5F0FA4651511102DFA410DDA86E065272CA314D5249DF91B06BB92807B28EFD54F08F7B525252782CD276DD02E6B0319B13DF87B1F6361AD6B28FC0D711CF445429B9E5A433CD493051C49A9E03DDB1B147D880253514A5DED88009018620EE229101C041950E2D8AA8E1F5F5438E0C0C
311
0C60EEDEE9E3E0C051948C69F84BB7B2A48A1F3C8EB9E6864687F4F4F6F6E2FA87608ADAF9C5E117B7C1A737E710769DA1D15ECE6A84502AA855398712D5FB51BE92E4EF824969CE18278798AC303C2C7980DD2500ADF8FB1E6D6C2FAAFF9987178923334A244758BAA01A9A1B70FA5097D01E1CC2A58DAD0EC94CE6430AA9
311
B0C10D75E3C6BAC670EFBADEE1607739CE0FC18A2587E3EC3058562014C64219C69BC269082D5C2F4A659278D585755912176D78A1B641719C2A394CED495A1AC5D583FD2F5EDD93308EA7EAE8A6DD396598BDBD3D4CFED62D18A5BDFDE0DD5C80D1A89BA62697B131AE7CE9A6594138582F1B37D68F1749AC7CB67A70695D
311
48A4A056AC1FBD4E82358CEAE38F54B95A9016F9000F9879C0D9D131768635CA798895F27D6F1614F11F2838A83611AA51C9A3DDB539D42979C29F10465655C17BEC3E2760B80DCBF609198C7B171A531905F3EC218D696025975E986C6B4C666666787271F202805577DD5A3EF0CAFAF91B62DC4B2DB4217A7606282F31D8
311
DDBC290593BAA93EA6353AFA9939B877978481E15CFC9F2755CDC00C538F63A4BA3E80AE009B73CA0185687D339A507D165B74290D6EE46D5C58148F020C3668ABE9EF2F7549170DC80DB41FFC1D678FF19AEB10C7133832B104B80F691B3138F97A92D26E551F1F110400D45AC71A9B9AC41A1A1B1DAEED0B0810638EFFB5
311
11D46B121C6FEA0F38CD00E03CFFEB9713FE1F9C263E4DDEC160D0497FA9A132BA608584057FB15380825DE6C7FC3C667EE947D488A09898D8E939C4953BF4EC9836344D2CC6B2971B2A21A572B06096F4982D2CC7232D46E8EA69DC83722E267754D777F97F96D5DA74E1E75178084D0E70F12AD33E5F71EF2AFA599B2BEB
311
F60A5BE475F444F240CBFE8143C334E7ED9150FEEFEF7EB020C4DBED388DD1D6A167A76F3CBF119B578AE8CFA7736ACAFA4440A1C47185638A0D2F3EB5BDDEFDA958FB13CE4AA4923D5BF840392D45544329525749734866684BF7F8D9D54D892E19BCA9F829A0F8BFCBEEA6CFDFC61D74EA1A645ED7A1FF241739F15694BD
311
835B66FEC5677E40FE69BD3F91AE402F036537218A401CB0828604AD189E575015C6F3F6BBC8AC79CF6C70653847254B31551EFCBEB5978B9DB85D58D0FA41A9DFE9C624834AA04949D24B5AE6D299E072D152D12097920F14AA92C31C3B97E28B6C2E6E9C23D63043ECBBC0A60FDF5BD0C33C127EA8A3308B8B6AFFEB28B4
311
455BF6E7AF4FC6222728357EB8E46E85053E6A8843AB23295BF838ABDA94658FEF3F832F147046B4ACD6F7D48E8FCC9618582961C898D1C7A253C91BFECBDA6BA18A1FCF70755DCCEE2222F41B76D23CA98D0CB3D95F0CF66D57FFF65E2A90F5DF40FC3187621E981BD0BC1D992787212688976B94A8F0C6EF646624B570B7
311
8E068826F87CE27041A95C9A4871FF65CC17FCB1639629AD6A9517000D63AC231F3D741CB8430777E7ECF80CE7A3F73C0F162F7E56AA71F4DA80A33CD6ACEE78E2C11FAC03DAFCE929B106F8F6B3ED2DC71FF994BD9CEF4E9A94896EF1B6E2B7B4978168BCF0847A3D2A4F1B0500B926E634B174548E9FBAD27153FB5FC367
311
99B1E6C7C38A94E1F9E996796D7B485E635D5287A2AE76FBD11A341DB3F8F810385BB7296391973DC6C37C452A9305AEBBE0CDB6C566DB59FE60C8E94B1FD090354BF51439FFD1B48D725228FFA88C84F686F547107A7A235665A4593B7C34D748C1AC8D56DD5DA861EEFBADDECBBD65117E65851F90351AEB65F0EFCFF4BC
311
FEF24CB7A5879699FAC437A7AF9099186CF006BB923A59E37D7A36A29FD8D2CBB914A5E9D0A8FD212FBF796AE9A67958FF1D5D8B85F78F96219D4714EB919929241B6C018AAE0C02069F8D919961EC5DDFBFB7573E3AC8E08BFB7C8534BE6DE045B3CD63DBD71F7638BA2309CAE398EA3A7D8F98BBBC7AEB367EFA5CFA27A9
311
F8F2F52FE878058E6209C026453F8E7E8A237DFC389E9590F6059B397CFD65183BBF936E86896612A5B5FEE49DAC8455D026218AFEBEC12B3523A45B57B82C9C97E02ACFA1184DB18E48CF615DBF39C3CC6F0B4AE6BBEEA2E39D944E290302FA3DE33FA7E40296E2EF7BF1CD855BBECFAD0FD622BEE9746FC4FDFDE545AE6E
311
3BC234CADF83A0FB76DFB145BF3828AE3436368AC24989454F8FF70A177672C711CAA1A76107218CF948CA01F873520E7A2B118EBB161ABAD432932029628B6761590C98AB590C8C8C79798CE9F715BA696E839E9131A4BB68BE923F1747FBFF165331FFDD4D05997ACD168F12CA75348DAC04C7F509FE83898A8B421181AF
311
492861CE81E4A2DD0A30850CFA95E05F097FF70F9E777310D584A75BA7018922E271DAB1D785671157685B7D383D3E074DDB4F1E44EF04B07BAAC75A062077C54B9752C738C9D804D402E02851F3F89605AF189738C18C021D2139EAF72513824E10DDD3047BACC8521ED7E98B257D1166903B1B08FA6F918FD7E162913FEC
311
7D0EF4787E29C35FBA8C6E2C9C20E9AB30AE42CA2A01A090E7D010C1B5BF9CEE2A304BF3A987FB40D836979B79E18D70F257DA61E808472DD85B82761825779D6B90CAEB0F23360C6F80A7D7D77545E95B3DFF0CF96A827F9B5BCECD2C9698718417EF80FEEDEE938AFF55859D0D540B7FE09435583A6F04874A0C7E8CF234
311
DF4879722000167F5872CEC6BF3EF7E5A8CC8121E6A359227C8A29C95212F9F735BC72A887D56B8F309FC525BFB4FD767AAEC4AEFF249CFBBD2DE1AB9969A6155C7D8DABC307E47324C1F916C7BCFF40ABA5644E9FFB9238D19ADADA49D9610F01ABBA57E4DFCBDCCBB2B93C8953206C91DE01B0E2651A6D6C31721915B31F
311
7B7CBCE55466F6D70402788FA91D73BE4ADCBA99A35F17D6B83383704917D6833F0FA3CD45C926ADB8BC17999A4A0AFBCE2541F7B8CF4C2F5FBA611B3E626D64407CB32C122DFF4EF8674D6EDBB86C8F7C6A16D50FA685E2CCA34F8F7D1D8265BB0042E9D7F1F666F7BE5FAA5184DF58E12122A42EF02F461B3F369AC746F9
311
6528AD208512AB56844CF75B97F352DF7995024FB02855385854F3798670D01CAC771AC3E1889EC25F61A20C1F8CAB46898817F9C47E2CDA1F286BF2F358298709FE567C91133E2638C8B53975E753EA8BFD3578B5F7186B7BF084EBA3F77BAC3132A5779902EC22AF2D2E79F42D324E083386DAEE9810D1B44A5DAA54513C
311
7A71E52A4AB9257D975B621308FE4D2141CC3DCFE946C154A3C1DFCCA7629EC69ACFA831634ADDA93C0388D2A9A2DDAFCF957C6995BCE7FBB6DC4EBAE79E63EB08E9A25F52F67076F7093CA545CA3053B5BF576DEAD4E0017143C5F759F32B2D6F145B52B67B48909B7C7FCA6586EE385A2189C16932CB6DDFD9152AE317C4
311
30492A578ED27B72D85D40C7C93C097939E1B50F4D67F05334FE9DC362C30B7FF561B95259138ECFD9274C8D695C31B14D4EAA9F3D7FA8DDF652F8C5DEFA23284C799B7D94416DEE81E05A866302DC70192A5368EA65E1CED8BF107A1E2D3119A71E85DC1A7B0C1E93274CE04DD0F2ABC8AC7C987FDB002B6F81757B43502E
311
F7A0D92E416494FAEEA4C9C090CD9557AA4D532F4996A272B94355C5A0E4974EEA9627476F30809B94D8D8D860062E02204643BEC7D0438AF800FC7E2B26955D595421E83C69E1A07E0E3122285835F014AD538188CF9737CE76D464A353FA55A001AB2526B84E985083693BC76FE211CA1D000679C889E3C009832C87E1AC
311
2EDD05C302557422DF0800E316FCAC86978A371F025A6C7DAA9F333E7BD160403A1A06EA75AA9888FF01504B0304140006080800E57A974628BB58AF800100009E0500003D00000046313935373239332D383946412D343136432D413132332D3936383645393146384345302F536368656D61732F436F6D6D6F6E53636865
311
6D612E786D6CBD544D4FC23018BEFB2B96DE15493C78601010A34B880709DEDFB52FD0D8B54BD70DF6EFED3AC0B12E6442E2716BFB3CEFF3D18E26FB440405EA8C2B1992E1C323095052C5B8DC842437EBFB673219DF8DA659866649B798C078B48AE6410122242F2A4994AC7F93815DF85C049C8564CA0A901499DD886B2E
311
B9B1E02448F358701A9235880C49A0119892A20C89D1B9FD768815CAD268CB5E0355B40B1E47F3E37A2020464BED06AA57CE8FCC20C3C3446D46761A2632A8C1283D07031EFF2AE7CCB1BFEEE916E406DFAC8E36FFD99A9D60A6944090EEDC3B670C7DC13DE86B6B2C5C240D6E503BB85ACD579D513F1B9F9A69DC9CC22AFA
311
80C426D40AF0B21EA168559156B6276F0F726A6BFF04DCD513A87A62CAD41FB24FCB2858B3952E3D852084DA25B9303C15687973CC8E8AAE11DF2836C38C6A9E765E8C1BA1BFB1DC29CDFE518C8B5A7655A4ED7E77291ABEB80DBD82EC866ADE1B8D05AF9E35CF09D7A061F38A986D9EC412B8F0F65E5D81534D9B231D1E5A
311
8FE577A241F3A5FD01504B0304140006080800E57A97462CCEBD668A040000E01200003E00000046313935373239332D383946412D343136432D413132332D3936383645393146384345302F536368656D61732F47656E65726963536368656D612E786D6CD5586D6FDB380CFE7EBF42F0F7A649B70E1B90744856B4970F45
311
0FCD7A5F05459613EDE4174872DADCAF3F522F8ED3B88D2F1D06AC4050DBA2493EE4438AF2F8EB73AEC8466823CB62928C06C384888297A92C5693A4B6D9D9E7E4EBD51FE3A931C22EF85AE4EC6AFC38BF261BA626C9AD288496DC3F4FCEAFC63366845F7A10452AF41DB320C0D44EC26EAB20918735565582695670811A6A
311
49643A49A6E9069FA4604A64B29016DC4B48552F95E4932463CA888468C1D2B250DB4962750DF7CE273069CE8363F1FF4EDB00E0A21999574AE4A2B00C353B93F3BD4777B8A61ED8F604ABFEDD79CE56A2B7BDFBDBC50996E0ADDE16FED26223C5D30956C29BDF4A55EA686E5E58B112DA45CE67F76F4FA27EFA3FB672FD73
311
72FC388FAECDCA5209E693CAD167BADCD272F943701B3812F8A3D852008B1D2E32DB927B2F833C6EA95879925356D254582695095A3CE982924720BE5774A3CB9CDCDB350427D2DF20DA1B5532EBE2D5D6288D75D4F7E4FD9890A0EF8E3D93EBB8F8BA4758158EF6FB90A6F9520281C93DE7AAC6D24607DA296BB96018123F
311
821A7D6A5C5884050C475DA4865442732C8B95684A50165CBB3A32F25F783A4A480ED59AD7F924B968AEA50131F46303223E6A397B0E52976030DC1DCA81D7E7C1EDEEA42C19FF27635C505E2BD5198A599020DF50A2330FCB3AAF28CB0124108429553EF1B228802E2265D8F7CC2401042B155BCC7070F1E5C55F13B4A957
311
7362CCCE46C32174E010C3C378C44841A4BDA00FE3A12006CE11EE6AEC59894D3526DDE1CD59D503ECC324017F8061B7F162162FA62EDD81AE3308617770796DCBDAD2B2625C5AE8A63DE20B2C8AA5E95E76E5730823955956E33E705425A2187C185D36489A1B44D3DCEC2172F6BA2105C3546287A7194B2331768EBBE64F
311
6E70A9930ABE0ADEA89E9E2C38523B810287AD67A54A039C1606EAFE68F8304610BB9093DBDDABC0B2AE4E290DCDA15376D7E39F72B556F0B32EAB5D3D498B4C41ABADEC3A1434C422D87E8025A84BDCB2B1417ED750FAE4DA8976863974C577C7F902D3F156AD354DEA3540DE6BEAE2BEA52F7A2EB4CA43802ECE5BF2CE2E
311
DC9347179FFB023CE412E60BE16DA0BE29B374988A553F561DC04615DD35F7D2C8979F60E5955CE93DF29DED8AFA1EE6642D53418086C03C47C377910F75F7E8F5EF665F70B60FFB22AEDF897D119E8423C773E819A3C1E55E550599EE6EDCA34D0C86FD72057DF2CD46F16A470682471C164E4346D5306BF12D7D12D82CFF
311
673D41636C347443FEB51B50D72EA171A8E4A58623A4A16E0FA2B8B10A0D23268D87C33896EE8FB73305A74BF224EDBADFA0BD674AB354D63DB7BD5D83426761C077DE767728235446A552754EB93B755891C3C4CC6CADE37CF0E912A7BB38DBA010F9DE1282EDF470CA69A9CDA482E334C4A6EA4107987980B17E72F31730
311
EBF88BBD39E7C629F56797A3C0009C2C5AE7951D9A05A02773440F02EEB4DE396A3B6A570C72CCFBCD823B0B8ED3F1D5CEDDFED772FA70236C83FB7D86C385D570B87107535572A60A96035F8F7C6A7192F13007246BBE0521855E6AC46F3E27689CEE7D186A6FD679D98CDCAD13333E04EBE7ED6F55FF01504B0304140006
311
080800E57A97466180134D5F0100006B0300004500000046313935373239332D383946412D343136432D413132332D3936383645393146384345302F536368656D61732F52656E6465724D6174657269616C536368656D612E786D6CA5934D6FC2300C86EFFB1551EEE343DBA41D1A103009551ADAD40EAE28A4A68D942628
311
4961FCFBE5A340113B2071746D3F765EBF4DC6BFB5407BD0862B49F0B037C0082453059725C18DDD3EBFE3F1E829991803366715D474942CD30FB4A782E00C64017A412D684E454CE3FE28995203B162A6EA5AC94B66997D225E109CD63B0135484BAD1B3C07E9080CA35DB3119C11BCA5C200461A68A1A438126C75E3E230
311
D40FF81FB3F03C91D1E3A3A0AF79FE28E25BC39EC3E17E4C2A2D94A0833A51AF55BCCA7D88572FCBAC529C4140B020FC3AAFA886621DCED7EAD7664CC86024E806DC297DA1BB393E4156543457A4537DB8817349A70F8ACBF09B3EEE2CB2F33E91B65D60786E4E3B39B77E3FEEEF5650424525DA657FB8B46BE6BF064646F0
311
A0F7327C0BC1BC1B4CBBC1C419FA3CCB23500007872A2580CAAE5461865565294E4EDB4617B62FF579DF9A5B2F54E834076A597573A020912FED777F9B3F504B0304140006080800E57A9746125CE20751000000570000004700000046313935373239332D383946412D343136432D413132332D3936383645393146384345
311
302F4173736574446174612F41737365745461626C654F66436F6E74656E74732E62696E536160603031317071713376D23533B230D735313176D675B43037D73577313673753330373071751102AACB4D2C492DCA4CCC492C28484D2C4ACC4B4E050A82012F90744FCD03CA26072767A4E6260200504B0304140006080800
311
E57A9746F865834058000000680000004500000046313935373239332D383946412D343136432D413132332D3936383645393146384345302F4173736574446174612F53747265616D56657273696F6E5461626C652E696E66558CBD0A80300C06F73E4B117FB66E451741D041DC5BF98480A492E4FDD18EAEC7DD4555D89E
311
F28DF51A0B1BD8340C4DE7DD848B988C0ACF0649566493F2408C508DDEBB99D5129FF8F1AF8CF5B9503E20FAE5A16B5AF702504B0304140006080800E57A9746BF20B4E8350100009A0400003600000046313935373239332D383946412D343136432D413132332D3936383645393146384345302F4173736574446174612F
311
636E782E786D6CCD94314FC3301085FF4AE43D76925209558E2B044B2790A818D8AECEA5B5EAD8917D41F0EFB1DB0CA022A60E5DCFEFCECF9FFC4EAE3F075B7C6088C6BB96D5BC62053AED3BE3F62D9BA82FEF59B15632784F3F64AC703060CB729929B90F7E1AE752873D4C3657AD71C7B9F81023D21676169FFB47EF081D
311
4556680B31B62CEA030EC06122DF613CF20E0878CD03463F058D69129901E7493A2010764C3555BD2CABBBB2596CEBE5AA59ACEAFA5D8AAC5472E7BD9DF5265D16FC58E8F3AD4C5552E46325A760664D7E0B537F79E43BE3A4484A252385C464EEA0AF3175C0385AA381123AE13521954984304871162B2932835F249EB037
311
CEE4964D3206E4C34BB287810CDE1C91FFBC5E9FCCC64502A7F176795C3ABC3E85D7D30F7A3B07F294985BCBC9A5436E5C7F859488D31A49A1C95B457D03504B0304140006080800E57A9746E3CFE7F4E40000005E0100006700000046313935373239332D383946412D343136432D413132332D3936383645393146384345
311
302F5265736F75726365732F34343044444633422D363238372D343433432D413837372D3744333645463037303445442F7468756D626E61696C2F302F636E782E786D6C4D90C16E03210C447F0571DF65D9345215B1E42772EAA5A2ACB345018CC054EDDF175A0E39D99A79B23CA3AEDFC1B32FC8C561DCB89C17CE205ADC
311
5D3C365EE93EBD7276D52A23D213C659340136DE65AED591B1A621ED7037D577D5BBF818E20111B2B3EF291E9C596F4AD978B19F10CC6C2AE10EE531EF86CC2CE70C056BB6D00E900B300ED80C8660E77A5DE4795A5EA6F57493E7CB7ABA48F9A64427B5FA40F483779120636216DB12DB378B12DDD6AA6637981E81EBA7D7
311
9468A65685724B3F20FA490D322979670DB592045A029A1A042628F10F6B257ADA36FEAA68B337A37F01504B0304140006080800E57A9746A233C2345D000000800000006500000046313935373239332D383946412D343136432D413132332D3936383645393146384345302F5265736F75726365732F3434304444463342
311
2D363238372D343433432D413837372D3744333645463037303445442F7468756D626E61696C2F636E782E786D6C4D8B490E80201004BF42E6EE76F3C0F216234B883063108CCF170C074F95AE5473F5C4C06E932E4F28601967600677D21E9D8092EDB002539227A2FCCB80E1168D80A6417297A89C5D6963B7129A0D1E8F
311
2EE73AA7B62BBEB8B27DE50B504B0304140006080800E57A9746BE89762363000000880000005B00000046313935373239332D383946412D343136432D413132332D3936383645393146384345302F5265736F75726365732F34343044444633422D363238372D343433432D413837372D3744333645463037303445442F63
311
6E782E786D6C4DCC3B0E80201004D0AB90EDFD75167CCE820A4A845D83603CBE602CAC26799919AEEEE0D965E2E908050C6D0FCCE04C8BC355404EB6198129C92351FAD580A10E464065907C8D948F8F166375F655BDC3FDC3B4E530A176BE7057BDC43B2A593FE403504B0304140006080800E57A974608A7E0887E000000
311
A30000003600000046313935373239332D383946412D343136432D413132332D3936383645393146384345302F5265736F75726365732F636E782E786D6C4D8C410EC2201405AF42FE1E45218505D06869EFD158DA1029182C8DC7174C17AE5E327933B2FDAC1EED36BD5D0C0A2E2702C886479C5C5814E46DC60250AB658A
311
71FBBB010AE36A15540C5A2E29E6D781263B8FD957EA5D781E903162CC40EFB8B90A8E19A31DBE09CE3137B4E907C209EB4D31CE5529F3EB95AD79FD05504B0304140006080800E57A97467DA29B5D080100004F0300003400000046313935373239332D383946412D343136432D413132332D393638364539314638434530
311
2F536368656D61732F636E782E786D6CCD93316FC3201484FF0A623718A791AA0893A143A72E6DA76E145E1214CCB30057EDBF2FB80C89D4AD1DB2C1F109DD1D0FB9FF9C3CF980981C86910AD65302C1A075E138D2251FBA7B4AF64A46C47C815112F40423AD3255F21871999B64E1A0175F55EFC2B9890F384D185ECC0926
311
4D89F13AA591A675CBF492D1423A33ABB366824548B84403E586EC26683798083A83A56AE8C5B6EBEFBA61F32AB6BB61B313E24DF24A2AF98EE81BEF42868833315816A1D8E925AFC74A2ED135A666A0EAD21B2B6D485E0825538EA58346E6AFB9907A9EBD333A97AAF80AFE304AF21AF52AF0230488CEDC66E22B73FF16F9
311
198285F8545E293AED6F33F96F1EFF56005F67BF8C40FD0AEA1B504B0304140006080800E57A9746E3603EBE7A000000C20000002C00000046313935373239332D383946412D343136432D413132332D3936383645393146384345302F636E782E786D6C6DCD410EC2201085E1AB90D9DBEACE05D09878023D01A1D34A8419
311
C380F1F82DA68B9AB8FDFEC93C3D7C52546FCC12980C9CBA232824CF63A0D9402DD3E10C6AB03A3397DD192872090D3406ABE7CCF5B5D18893ABB1690CF4DCF02282E5EA8A5BB96FFE536F285CB347F95BEFFE81C9ED5AFF9D5B1FB575BB00504B0304140006080800E57A9746AAC1EB817E000000A300000007000000636E
311
782E786D6C4D8CD10A832018465F45FE7BB7ACCD29A81191EF11CB42663A5C8E1E3F1D5DECEA83C3778E68F7D5A1AF891F1BBC0472A90019FF0C93F58B84B4CD98016A9588216C7F37407E5C8D848241892586F43ED164E631B9429DF5AF136AC2EF8F9A379871DDE11BA13DEE48DD604E191D38D1AC1FAA6C5C8B92E7D7CB
311
5BF2EA00504B0304140006080800E57A9746CA1DF9C9A900000073010000130000005B436F6E74656E745F54797065735D2E786D6CA590410EC2300C04BF12E5DEBA70400835E500FC800F84E0B411AD13252E2ABF27A55740421CEDDDD9B55CEFA7A117778CC979527255565220197F75D42A39B22DB652EC9BFAFC089844
311
F65252B2630E3B80643A1C742A7D40CA8AF571D09CC7D842D0E6A65B8475556DC07862242E78CE904D7D44ABC79EC569CAEBA537E3521C16DF5CA5A40EA17746733E0B6615DE7217475F386F18B9481C510F1F021CD9FF027EA0E1F5C4E609504B0304140006080800E57A97463DEE336E64000000790000001B0000006175
311
746F6465736B2D64657369676E2D7061636B6167652E786D6C35CBC10E83200C00D05F21DCA56CA76D41FC96062B120735B69A7DBE268BB7777961F8D5AF396893C2ADB70FE7ADA196782C2DF776D7A97B5933C430F15651E5469C55D70F80A4992A3ADC954792C525AE70A1E4D6AD9816CC044FEFDF01FE3FDE907802504B
311
0304140006080800E57A97460E217654F9000000960100003700000046313935373239332D383946412D343136432D413132332D3936383645393146384345302F4173736574446174612F636F72652E786D6C8550CB6EC32010FC156BEFD8C68FC48930116DE42FE8A93704C44589C1E251F5F30BB12BB5A79E76353B33BB
311
3BE4F2B53C8A4FE5BCB666045CD6502823ACD4661E21861B1AA0B850E2AC0DBF685018BEA811320C94CCCEC67587843541998C1A2BD50E72EF5580423C523382171F6AE1258F2131FCBD5CB9B8F35995B8DC7894C4A8E52ED532B9E99B560E68DB4D437F786DD1C48E2DEAFA1343EC74ED5173ECEA4333B089E11752653125
311
412F3FDB85533C2809B4A9718FEA0E35ED1BEECF4D7BC6F89D549949890F2EFDBC2FCDDF0165F9EA2B0F9C54DBF48F6B5CE5FFAE519BD036BBEBA6F040713AF239A0A4CA29A5F28C30D59C28FD06504B0304140006080800E57A97463E0521ECF40000008E0100006800000046313935373239332D383946412D343136432D
311
413132332D3936383645393146384345302F5265736F75726365732F34343044444633422D363238372D343433432D413837372D3744333645463037303445442F7468756D626E61696C2F302F636F72652E786D6C8550CB6E833010FC15B47703B621219171445BF1053DF5661987580936F2A3EAE7D70E546A4F3DED6A76
311
667677D8E56B79149FCA796D4D0FB8ACA15046DA499BB98718AEA883E2C299B336FCA24161C4A27AC83070363B1BD71D92D60465326AECA4765078AF0214F2919A1EBCBCA945942286C4F0F77215F22E6655E272E37116A39E76A99E929BBE6AE580D366ECDAC32B45E370A4A8694F031A4E6F2D22C7A63E906E1807FCC2AA
311
2CE62CE8E567BB744A04350127356E51DD2042DF717B26F48CF107AB3293331F5CFA795F9ABF035EB36A43FFB8C575FADF2D6A1328D9DD3685078ED371CF0167554E27956774A9E624F937504B0304140006080800E57A97466EEF4756FA000000960100006600000046313935373239332D383946412D343136432D413132
311
332D3936383645393146384345302F5265736F75726365732F34343044444633422D363238372D343433432D413837372D3744333645463037303445442F7468756D626E61696C2F636F72652E786D6C8550416E833010FC0ADABB011B4848641C9156BCA0A7DE5CDB2156C046D8AEFAFCDA814AEDA9A75DCDCECCEE0EBD7C
311
CD53F6A956A7ADE900E72564CA082BB5193B08FE865AC82E8CAED6FA5F34C80C9F5507090646C7D586658784355E99841A2BD50E72E794874C4CB1E9C089BB9A79CE838F0CF7C8172E1E7C5439CE371EA32168B94BB58C6EFAA6D50AACAA87B639BC5468E88F15AA9B538FFAD36B83C8B12E0FA4ED871E5F6991C48C7A3DFF
311
6C17ABE25E4960A4C40D2A6B44AA37DC9C4975C6F89D1689C9A8F36BFC795F9ABE03E6EF61FE305C4FB4D8A67F5CC322FF770DDAF88AECAE9BC201C3F1C8E780D122A514CB33C25853A2EC1B504B0304140006080800E57A9746203914D50D010000B10100005C00000046313935373239332D383946412D343136432D4131
311
32332D3936383645393146384345302F5265736F75726365732F34343044444633422D363238372D343433432D413837372D3744333645463037303445442F636F72652E786D6C8550416EC32010FC8AC51D1B0C364E84899C387E414FBD219BB828315806AA3EBF90B8527BEA6957B3333BBBC34F5FCB23FB549BD3D6B400
311
E70864CA8C76D2666E41F037D880EC24F866ADFF450399918B6A418281E0F366C3BA43A3355E99841A3BA91D94CE290FB2F1119B16B8F1432D3297C14786BBE7AB1CEF725639CE5F3CC143D0D32ED553DCA66F5A6D40103A34557D2170E81881B43A74B03BF4152C194575D9744387CFBC4862C1BD5E7EDCC74D49AF26204A
311
842B88282CC91BAE8E253962FCCE8BC414DCF92DFEBC9BA6EF80A014F5FD40CE30EE66905272815DC318643DA9AF0362885E7B5EBC847F0CC33AFD6F18B4F1A4DC0D5F0A07048EF73F07821729C0589EE9C69AC216DF504B0304140006080800E57A97469A7D1109FA000000960100003700000046313935373239332D3839
311
46412D343136432D413132332D3936383645393146384345302F5265736F75726365732F636F72652E786D6C8550CB6E833010FC15B47703E69190C838A2ADF880AAA7DE2CB3A156828DFCA8FAF9B50395DA534FBB9A9D99DD1D76F95AEED9275AA78CEE81E62564A8A599949E7B08FE4A3AC82E9C5963FC2F1A645A2CD843
311
8281B3D99AB0EE9034DAA34EA83613EEA0700E3D64F21E9B1E9CFCC045E422F8C870B77C15F22666CC69BEF1380B414DBB544DD14D5D155AE0753376EDE1B926E370AC49D39E06329C5E5A521D9BF25075C338D027562431675E2D3FDBA545E171025E95B4256543AAFA8DB6E7AA3E53FACE8AC4E4CC791B7FDE97A6EF80BF
311
A233C14A74ACD8A67F5CC33AFDEF1A94F675B5BB6E0A079CC6231F03CE8A94522C8F08634D89F26F504B0304140006080800E57A9746D869432DF7000000940100003500000046313935373239332D383946412D343136432D413132332D3936383645393146384345302F536368656D61732F636F72652E786D6C8550CB6E
311
84300CFC15E47B8024B02F85AC682B7EA03DF516852C8D7649501E553FBF0950A93DF5646B3C33B6875DBFE647F1A99CD7D67480CB1A0A65A41DB5993A88E1864E505C3973D6865F34288C9855071906CE2667E3B243D29AA04C468D1DD50E0AEF5580423E52D381971F6A16A5882131FCBD5C84BC8B4995B8DC789CC5A8C7
311
5DAAC7E4A66F5A39E0B4194EEDE199A2A13F52D4B4E71EF5E797169163531FC8A91F7AFCC4AA2CE62CE8F967BB744A04350227356E51DD2042DF707B21F482F13BAB3293331F5CFA795F9ABF03FEBADEE959B5CDFE78C665FCDF336A1328D93D3785078ED389EB80B32A6794CA1A60AA394FFE0D504B0304140006080800E5
311
7A9746A9420A4C02010000D70100002D00000046313935373239332D383946412D343136432D413132332D3936383645393146384345302F636F72652E786D6C95914D6E83301085AF82666FC026A410194751144ED055772E9E102BC146FEA97AFC9A42D576D7AE6C3D7F6FC66F861FDFA747F686CE6B6B3AA07909199AC1
311
2A6DC60E62B89206B2A3E0CEDAF00383CCC8093B5864107C7436CE9B345813D02CAAB10A37517A8F01B2E1912E1DF8E18693CC650C89F0F77C96C35D8E98D37CE5040F7AFAB20E0E6540058295B426E58EB0EA99D607561D287DE1C5420A1EB50915DB9AE1F48A2AB373489140D4BC585F1315B5DA18ADD21FF555A303D1D3
311
B67E626D459AB63F911DDD9FC989B28AB4FB667F6969DF9C2F652A92CC82FBE0D264B622CB0CFE6A5F8DBF92C559FD33D9EAF020E877A86219B3E0C5E70ED2B9AC447C00504B0304140006080800E57A97467D615DD508010000B201000008000000636F72652E786D6C8D50CB6EC32010FC15B4776CE347E24498C86DE52F
311
E8A9376A888B628305386AFFBE1053A9BDF5B468667667187AF95C667497D629A33B20590148EAD108A5A70E367FC52DA00BA3D618FF4B0648F3457610616074B2665B13341AEDA58EA8364226903B273DA0710E8F0EDCF821179EF1CD0785BB652B1F6F7C9219C9761DA35E2D3FABA395DC4B01AC2C48838B1A97D52B69CE
311
657526E48DE651C9E8B62991AC9408EEEAAAA40556D543DB1C9E2B3CF4C70AD7CDA9C7FDE9A5C1E5B12E0E65DB0F3D79A2795C66D4791BFE9C8E849C1E397E8FBE34DF2946DF8D9993208412C8E8F90B5841F348FC09BDADE21FA195F655990EEE1B0E1809811E44308E0D86F1A837CCD836FB06504B010214001400060808
311
00E57A97465B5FDAECD7000000200100004F000000000000000000000000000000000046313935373239332D383946412D343136432D413132332D3936383645393146384345302F4173736574446174612F446566696E6974696F6E4974657261746F7250726F706572746965732E62696E504B01021400140006080800E5
311
7A974682E6DC1D260100003002000045000000000000000000000000004401000046313935373239332D383946412D343136432D413132332D3936383645393146384345302F4173736574446174612F496E7374616E636550726F706572746965732E62696E504B01021400140006080800E57A974688E57597CD3F000090
311
4100006B00000000000000000000000000CD02000046313935373239332D383946412D343136432D413132332D3936383645393146384345302F5265736F75726365732F34343044444633422D363238372D343433432D413837372D3744333645463037303445442F7468756D626E61696C2F302F67656E657269635F706E
311
67504B01021400140006080800E57A974628BB58AF800100009E0500003D000000000000000000000000002343000046313935373239332D383946412D343136432D413132332D3936383645393146384345302F536368656D61732F436F6D6D6F6E536368656D612E786D6C504B01021400140006080800E57A97462CCEBD
311
668A040000E01200003E00000000000000000000000000FE44000046313935373239332D383946412D343136432D413132332D3936383645393146384345302F536368656D61732F47656E65726963536368656D612E786D6C504B01021400140006080800E57A97466180134D5F0100006B03000045000000000000000000
311
00000000E449000046313935373239332D383946412D343136432D413132332D3936383645393146384345302F536368656D61732F52656E6465724D6174657269616C536368656D612E786D6C504B01021400140006080800E57A9746125CE20751000000570000004700000000000000000000000000A64B000046313935
311
373239332D383946412D343136432D413132332D3936383645393146384345302F4173736574446174612F41737365745461626C654F66436F6E74656E74732E62696E504B01021400140006080800E57A9746F8658340580000006800000045000000000000000000000000005C4C000046313935373239332D383946412D
311
343136432D413132332D3936383645393146384345302F4173736574446174612F53747265616D56657273696F6E5461626C652E696E66504B01021400140006080800E57A9746BF20B4E8350100009A0400003600000000000000000000000000174D000046313935373239332D383946412D343136432D413132332D3936
311
383645393146384345302F4173736574446174612F636E782E786D6C504B01021400140006080800E57A9746E3CFE7F4E40000005E0100006700000000000000000000000000A04E000046313935373239332D383946412D343136432D413132332D3936383645393146384345302F5265736F75726365732F343430444446
311
33422D363238372D343433432D413837372D3744333645463037303445442F7468756D626E61696C2F302F636E782E786D6C504B01021400140006080800E57A9746A233C2345D0000008000000065000000000000000000000000000950000046313935373239332D383946412D343136432D413132332D39363836453931
311
46384345302F5265736F75726365732F34343044444633422D363238372D343433432D413837372D3744333645463037303445442F7468756D626E61696C2F636E782E786D6C504B01021400140006080800E57A9746BE89762363000000880000005B00000000000000000000000000E950000046313935373239332D3839
311
46412D343136432D413132332D3936383645393146384345302F5265736F75726365732F34343044444633422D363238372D343433432D413837372D3744333645463037303445442F636E782E786D6C504B01021400140006080800E57A974608A7E0887E000000A30000003600000000000000000000000000C551000046
311
313935373239332D383946412D343136432D413132332D3936383645393146384345302F5265736F75726365732F636E782E786D6C504B01021400140006080800E57A97467DA29B5D080100004F03000034000000000000000000000000009752000046313935373239332D383946412D343136432D413132332D39363836
311
45393146384345302F536368656D61732F636E782E786D6C504B01021400140006080800E57A9746E3603EBE7A000000C20000002C00000000000000000000000000F153000046313935373239332D383946412D343136432D413132332D3936383645393146384345302F636E782E786D6C504B01021400140006080800E5
311
7A9746AAC1EB817E000000A30000000700000000000000000000000000B5540000636E782E786D6C504B01021400140006080800E57A9746CA1DF9C9A9000000730100001300000000000000000000000000585500005B436F6E74656E745F54797065735D2E786D6C504B01021400140006080800E57A97463DEE336E6400
311
0000790000001B00000000000000000000000000325600006175746F6465736B2D64657369676E2D7061636B6167652E786D6C504B01021400140006080800E57A97460E217654F9000000960100003700000000000000000000000000CF56000046313935373239332D383946412D343136432D413132332D393638364539
311
3146384345302F4173736574446174612F636F72652E786D6C504B01021400140006080800E57A97463E0521ECF40000008E01000068000000000000000000000000001D58000046313935373239332D383946412D343136432D413132332D3936383645393146384345302F5265736F75726365732F34343044444633422D
311
363238372D343433432D413837372D3744333645463037303445442F7468756D626E61696C2F302F636F72652E786D6C504B01021400140006080800E57A97466EEF4756FA0000009601000066000000000000000000000000009759000046313935373239332D383946412D343136432D413132332D393638364539314638
311
4345302F5265736F75726365732F34343044444633422D363238372D343433432D413837372D3744333645463037303445442F7468756D626E61696C2F636F72652E786D6C504B01021400140006080800E57A9746203914D50D010000B10100005C00000000000000000000000000155B000046313935373239332D383946
311
412D343136432D413132332D3936383645393146384345302F5265736F75726365732F34343044444633422D363238372D343433432D413837372D3744333645463037303445442F636F72652E786D6C504B01021400140006080800E57A97469A7D1109FA0000009601000037000000000000000000000000009C5C000046
311
313935373239332D383946412D343136432D413132332D3936383645393146384345302F5265736F75726365732F636F72652E786D6C504B01021400140006080800E57A9746D869432DF7000000940100003500000000000000000000000000EB5D000046313935373239332D383946412D343136432D413132332D393638
311
3645393146384345302F536368656D61732F636F72652E786D6C504B01021400140006080800E57A9746A9420A4C02010000D70100002D00000000000000000000000000355F000046313935373239332D383946412D343136432D413132332D3936383645393146384345302F636F72652E786D6C504B0102140014000608
311
0800E57A97467D615DD508010000B2010000080000000000000000000000000082600000636F72652E786D6C504B0506000000001A001A00210B0000B06100000000
310
504B0304140006080800E57A9746000000000000000000000000370000006662782F44463335343534382D373339372D343738372D394443392D3942363739453844463136372F617474726962757465732E62696E504B0304140006080800E57A9746000000000000000000000000350000006662782F4446333534353438
310
2D373339372D343738372D394443392D3942363739453844463136372F76657274696365732E62696E504B0304140006080800E57A9746F270F1330600000004000000360000006662782F44463335343534382D373339372D343738372D394443392D3942363739453844463136372F747269616E676C65732E62696E6366
310
60600000504B0304140006080800E57A974688E57597CD3F000090410000420000006662782F44463335343534382D373339372D343738372D394443392D3942363739453844463136372F7265736F75726365732F322F305F67656E657269632E706E67355B773CD4FF1FBF73E71C0E67EF7576C9DEF3EC995D46C6A1EC50
310
46649CBDF79E192942562825CE965D8A868C2842C8DE9FDFD1F7E7F138F7078FCF6B3F5FCFD7EBFDFEC41B196891913091804020321D6D7513FC77D8C5070EC3FFEE51B21F068154CC75D455CC028A3EA68992803810109FDDE5D5CEC5521B28A1B422BF80741695D5B529DA1C2D058AD2388BDA9F476F7C2CADC939304173
310
DBF48A452BF8A700C0C70C3D121C1AA15A5270C22E2B9E28763651F7DA0D12CE11077B2ECD0D560B5E3DE2368B1E65C5E1C87384A4CC5F2D9FB8BE39E9B77C753783A37998F5CEF1B4FEE553463245C9712270880DF339E0B882A6BA713D865F6F384C842D440934EF264F4A304F8DE4EEFA1E2BF5E2D91F5ADD9613D6E31D
310
DB33ED31DB1D7916CAF091286EA3D31B9CFECB78BB0060245B943C4C040119FF780A74DD308BA9D028678674EB5504ECF284EE814DAED07440BAF649BE4B55DA2890F4D73E2D489A59EE54FDB0A85B59F2F52C4858A02705C4815A792B0C4A996A2023ECB195073E115E3E3647F64243A8338F2000BCB58DA5692C7E7C3D41
310
3F963FEDF3CF00FBB0F831A9D51360FECA43819F527B89FA260EB63C5DA676830AA3626A3693B23F1A17A0DFFCE3EE164E31B5365EDF0C89EF64D8E38AB0BA9A1117D7C3A0EC44F44F4023095E80BA610DE336D0F99593A88BFC5306E72DF98F7FD132ED95878DF2964EA7E43071359FD83B2BDF9C6B5BDF768F0F3C0FC351
310
199526F53D9460A34511F75D1B63E488178569472C91A94497807A3FD4A390C6558F26D416365C3656DE6E769DA9D8FC73774E1709812842DD8EF96AED1960F79D21B395CDDFE6F92CB4EB962A4668C76990E2EF29798C8941D67DA50F4A5F947872460F1F6FDB794E8A29FD7AC0C0D6E0714339CE258FB17AE8535221E346
310
4A10F29A0BE5EEECEFC5675926A89F49EB14E5711894F6586DB5754EB4D5DA9C6437EBA57DB97A24F8B8A8DB295FFD73266CF57E82694DF5166DDF93573AFE9C9C5EB05F8FEF8E89E0A8917B0B3724DB7BEBB53252581EFC3E38166BA131A3A5B42FE2AD00A769BBFA4458D2DE7822F8C4F63D0B8E21B285AE13325F3410A4
310
35C648C9D91FDEB109E73CEDA7BC796961AF79175E1A3CE4C5E8B0D009B0C9E29EFD98BC8E97554E3D8D838424E270F7685226E5AC268E021EDE3522D583E8F20C0BDE2959EF5BBFEEDAB32FE9A3ED0E39F211A86AA9DEBFC68182EDED132AB8BB794442D2D7EA9F4D8BFF52BC4D55BB165124EE90A42D101E67BBBB292FFB
310
4F66DE5BF2300E44546757DA7CEF8932BFC9F92A0707953491A55C5A5ACEDABD9FA1AEA01BAC3DC5A24E22E7C47213493996EFBC369D086ED9397C9BA6C7F9855C7BD5E15BFC8C53DB3D2A4C5901A57ACD2FBDF4D1676E95338B2C2BCE65FDA4C64F5FEFDC7D9CA5AA1FCF11E193F2FDABF0F4916BF13FB916A224380E6462
310
A9815F2300DC49CC4DF8D055CEF76462F4B7A7ACA7365C2707891370BC1D0AA6203C44CCAB47084FEC057F27FFCD57F89B8B9852459798A675C66BD7CE572CAF71FF7E6D7ECF7BF62CAB7B3F1107DCD04DC55A3F9961700286141C94A4F771FEB2BCDA2DDEE0CB0BAE402FF1DB0100F8E475DFFFC074DDB4498AB7D186A765
310
4DDB1CB680D703D47CEB4E72F8CB13D86A4AA68116E26387B93FD6738779B34FEDB8E517EDF2BAF28D9BE93A1D3A164320E07D42E514725C29515FF361754213EDE06B079A2E99EB1CA82A02019EADEEB87B9AF005BD04BBCECB14AACD6B24EFBE482194A97DD32400685FF1FEF1544D1B14EFB1E7F08E6D2CD2AF52DE757F
310
35F5E62332EE88EA26417AD5C3E0E319D68F25414E6D672BD4522B278C57D18F0113921C71D96527E091F00CEB15AE23D24667369BD3CEFA10C7549D930890BA4366F4EBC55F01F746109F98ABCDD5A3EE06619C6AD78AB33E48E4C9BD21BF7478B385EC05C4F8987E2C1BFA0A60EBEDAA0AE0B015C2720ECE180FB6F2DEFB
310
EB822D96338C9B63822183BBF52FB664A7AE57003AABCE512BF77E7E31BDA2E739AC4C131657DDFE5225E900FB56CC01CDE808FA4A9C9DA16AC679656BB64796283D89812B8F91136AE18EE5EBBAF47A73BE3C153EB5D4CD491B4BFB4FE690A4CF9ABA08C0D8AA64220C438C96EA6CA80B58FE5761E697B3A292EB9FBDA502
310
FA863E49FE694ADDFFF9D62C520BDD1A22014147A0903A05B9B729F54272EF83931FEEC057BFF8C8055C279EAC5C0011804828734024F6CFA319C9CC6867C727184465CD9BB7ED386AFFD96B294A85E3802FAE47244602D8273615952B98C4F23F7EAE4463D9D638EEE374A20959E0FE519C4CFB0FBFE5DD80C2AA3F9DB961
310
D1BDE57E67C9BB47B77FDD74EE3094F5DBBE3EBC1FBDB7393F5116263009E2EFE1AF9A221B2AE234C902BF70E9F280ED23E73908361565964333A3F01D0B006AF32FB21AA1316744B489D5A198E85299241735BE559675130955C902A8ED761FC0DBE337A9F91919AF5CE32AF902ADF9AB2615E00E8A94586BA1A90839B618
310
32FF1BFB76D2EFADE6DB1BA04CCAD3DA649E7E2A0219F592E22F2AD54847EEA8E42271011E9074F8F3DD9FBA6CDF88FFC9FC7E811AD1CA8F4557CE4AFC7BBEDCF0114A48689F20A584520C74DA8127124B767E2FB91A6B186246727BE63C9445BAE02088D58B8EFDC0F1072407CD9B89A13F6303B4A928F593AD489B58E686
310
9325790ADC406036C591729FE14021F94B7796BB11848D463536A092A26F077F94639F7CEEE2A724C66EC885F4A24F8B8A0AC321F8FD149BA529460FAA34E4663C02D41FDF80BCA222D42F0ABFF8490F4FA74C673807C2051D8E467B47B616072860069A9A303ABA9B319D58404461401B0A0F9BE5E1E151C14BC33B32ABE0
310
3DDE91708DFAEB15E7C0D593C86BB7D7EC17BE56E57975F077BFD5525F3A1A361D584A75E08CF29FC7B44B2B3085014F3A5A14517377C3F6B8F37E59514C3B12F8AACDEDDA4DFC49BE5710101534CD6FB6DE15B50F11A09472AABA727F0C49D9CB906B158030065F48EB3625E010CEC1D511D0053474B11E6A4F01C0D6EF1B
310
ED3A944FDEC70E0DDCDC756C86545910E0DAE3BE3AA9A404574C2995CD5CAF9549226BC94B4F4F0F5F9086F418F6B32346464610D8BC7391D3C3A3CCF04CFC1FB2A3A3170E369511868F14EEA4E5E438CC73DB1F3248AA94B6B2FF33B222FF3D1E7BF146CAD229770158063BCE4F5391964DF62F7E52A7BE0EEA829C9E13C4
310
C147D6F93FE59E111DAB5E4594D6F3CD1AD375EE039930EFE5AF2BB2D41C83C7DABD8C659BAFBE8FAB392CA634F3D15C1D945DB4588D2B0824A4EC928AAC565557CA2F0DAA588CA5BE30B3A8004F7BF005E96CBF891D7F18112A3619FDF530DC8AA64954258E1811789B5189B49B4EB53F5F89F7D37523894F3EB57B373763
310
C91E502F52CC99EB7BDDF933FC324C4FFC2561DFFA7339FAFDD0A4BFBE6D3A8FF9ED1FC49898139864602458968913181918F719CCF5A68B2EE9C1FF050E34E63107003B8120FA982C21B30A874E4F5E4B38D5A8290C4B8D9BE48A0BE31EA995BDC37AC6DE90BA17D259DEF53605D55922FEB1855D915B659FBEB350EE0DFB
310
2F9F766E1C84CC8964B75D08667445EAB966015F63A18A9E0A325C1B3DC628C0D3CB60F767FA93CC65F25458BD23C3B312716E5F40E5858AC06EBA9AB14F95DB99147B832069201541D09A0D856E12C629CF32683760EE855537D1901988D5EBC156676C7DD51D7207CF3267AF1D76C2AD867315E44618015313A98B19941C
310
696FED3461CAA9B5415F918556D7802EDACEFD6B2E45853A9735DFC9DBF7E440F9319F8B6805A973BCCDC76C069A9144E51F187EDCC12FC31B5DEAAF0A76137199B106EC84ADA6B6EE697D4E6A96E007417F4E880E8B1E89B4BCE9D81EF611E2ED8F0C1A6C25F620FAFAAB656A7C42D464880E8AFAB0E0FC8EA38CA9A8AEEA
310
EE3E4648BA4680270A89743CDD3E6C6CBF34B7B640EFA285ABC7EA0A1E28F3CC963D114A80123EE66D0AF7D5380EB41909B605AB4765B709B808590458157E69BA1378FEC4B48CAF6A730E3BE3C5EF2DD1A5EAF94B1DDE50CEB55DDFD7EE9A16747FA4B223359FB1FCC69E1194892BABB93A1D5C4E807AC0EA2E30180811E7
310
7A2291F6E7F7FAA5E0F60215BC6024E48DE436C511F0628B8CA189982D4D83CCA17D305A7E923C37941CFDFDCD93ACAF735EF5F0E61BBD3E6C41A59B242790D3A3BAC7064DCD89AA2E37214EC839820949D5CAA31E240D2948E48F690298974A96BA9A8432BC90F5071D6537C9666EA4564796B7AFFFA548077BEEA75F6308
310
3435074BA182F3699557397F71548383FDA8CA34D99B981E72835ECDA5DDDC151315173D05A21F651AAF8524E88209E2E7A737ED1045800CE3390050BCFB8BE588DF111617874C62575039CA588EEFDEFEFE319B739DE2EDC147092A262611E159650E787917885EF08F1F51B8F2D8A71D60B58B190FEF9541A1BE94BC19FE
310
A50784DA1419FE4B0FB51B8D36B5FF8E1286FD8AF42B91E59A5F1CC4D60174E764045FD8C57B18209B217F89A62252BD20BE0E63E12B8E8F029FE19E0E8D0870F58721A557082250D5424F7909369376E41666C0EE77CD87CB283F661D5FB6D0DA023CB67320A20DC7BE661E9E1BFE5463085C557DA1FF9BE835733766C3D1
310
39F2CF9E2208873AD0EB4814DE9E6BF2CAF81614D4D43906ED1C05A3265CABBFE192770FC2F64F940CB6B17B5F166F133C9AEEAD2641807C3E69515171DD74C4A85311513D6EC9530B3B601B6BA3EBFF3B5C3D2F7D69765141E345F75433953D013ADDF8F6AA7DC3F4A7563FE5C7D367937E2900D7EAD0F9FC9A4A1A9B5BDF
310
1FEF08532660C01C5D6DE22199AA774383E306DAB87E301ABB7D213887F9869D4942D0D71E94B27EDF216A318BD488D45DF84529EF575AF3C3938C0AAA0215B01994153E2054A0B894DA5C784980633AAD48576957CF4AEAEAFADC7C587368551C73DBE1E57C58AC713303A8BFC258BD04B51724459FF9E24C03A81E0E0679
310
CEB9B348C0DC998FEB9C6D6EFA77D247CC8F92D3848599ED89A23218D0636465AD1CEEB7DC140D7426F83491C4E8E8281C2FB35240918FFECE880CA2A42D70E8B20B34DF5221C7DB0CF90ECCB9C745B37A47E9B716FF7A97B7A252C1F3814DC7B1E1A7F72B8751D524EF7CAE45B0C73B3BE7D08ED39781B380DDFC9AA4A474
310
9C9493DB5BAD07A6EA6C092FBD0E85DB004DF06B8C9D3089C5320187E4CE1846158C7EA7DDAE8AD9AFFF21AA3A1026BB06A259845E8232DEE62811A4DA9CEAB3A4887320B76E2AE5615EAB7BDF738CBDD01F1E64064BC13D9EC53576751CA8CACD58B3CEB0E6CA585BD089B2A59B9FC101403387AADBDBE70586B93D64BF3A
310
D4453EF9C3B6A93817E8346991798601344F79A83C51F3D50F7BF2683A3605F51A72449489E0EE6169C749C60B1035651103AEE24D24E51A759C840DD3FC6504DA6FE107510E447B43461C79D22970B75DE5E1BD3007D1AFC619A4A4A69B5626AF5E9B8374E20677F77E2F8E73DF868E8BEC7EBA7B6A75EEF7205E1AB9486C
310
B642741D6E03FF13FCCEDB1C4AC129886268B01CDF4B124AF797CF784F3C6DEC97A17D4B558070A0F1C04DA4FF9BDBF34159AEFE958479824B3F58EBD1E19088A2AFDE501B6F2052368A3FD0E650A179EFAB1561E1D27527077136E652676C3670F42DCB3352F48F6BC86D2C3B0051727E41A0A4DC6CE2BE9D47F5CAA2935A
310
3C0539AF080665997194ABECD723B08129CC5B6B21D2E7D54CD4D12610E7E9FB8306771A89576C7A982002775ED44F3F744CF21EEBB27A631671D921938AAEE3EB0D19CD1E083727F607823E817BF599DCED5394E37EEBC2E88782E638920CA641EF74D4CDFCDEF06F4278ECB18E31E7E9876F2D783C8BF429C75395F57E98
310
C2B495A3DA077EB3AC3C158608B6B57FE3EA48484D9A480096FCEE0DE880950E7E5A5714131C5C41AAA29FD19AE81AC145FA1B9E85C7169A5AB837B213493DF7E9AA4B5FBF9CDEB36EBD21EF1181B7CF7366AB2A951D01E37AF4EB835D1BE8C117CFBE7625D2EBCDB0B20C5A4B45CED0BCDE3EE8DA9DA78C2E21DEAAFFD119
310
7E463C33CC6A80FB785669B856EFF7A8CCCA2841B5A5369173320B1170C368B2748D81062EA0296E5E2D95D7667A4A46D98A6FF475C76AAB0A8C8D45E226FAFC9FE0133EA9F60111F99CA81ACE03A1D14C89E8B0D69079C91464FA1D99E651D0EAF606F345C42A8A1AA9BA391031582B96D5B4176A77AADB01F12FD298A75D
310
EEBB2C82F0B8650E880722F8DDD90C56A7A058E5FDEF1AC93545BA27367C76F5D8F9690CB6F8DAE141EDD7971F0FB548A2AE435F224D6E5954CA155512F7332029D5A1230854B79F258EC5FFDB09F5F6343A8EB193229B7F7E79B3E48F8E183860B38C8269D1B53738FF1E0BACF6AADA6D4869E9DE708E79B5DADCC09B1BC7
310
6F649731CFAF59A83FD8BAE4C749D66FA87A3810D4D62FFE826FA400C0F325D2BC0F3CA35F5847B82A2ACC7961745C823E4D863D54460AF792CE6F79B5C7A33B25C3AEA6CDE15A919B6367D781E9D44F61BF828672594A3E1D9EDD6DF179A81F27EAC05B936575D73E05C209DDD2115CFB705DF9BBF3C911589B3640735E9E
310
618FC9C36A7326C82B2205E244C55D56FDB9D5DC93CE958D4BF8174D2B3DA54CB3C09F2C2A6DFF73D23B2197355761AD421EC581284A7EF8DE2CE3497C0C804D49B41DFD6A7360844E5BEFFB495CFCDB97A4595911CDBA623274CE852B5E278AF0BEB1770E9D37CD977B2766A7DED0E94B840E1E95E8C77DE5CB6354AF7871
310
427C28ADBEEF7BA0A28E19DE9ACD75F379FE373EAE6DDDAE3834692F9C2B03B4FCA8FCA9ABE8EEEBEBB725B88A7C90941E850682CA04061A7DF0CE82ED49BFAFFD42C309818FAE14755CAAE78B0F73243ECCCAD7DF58FCB9CDFAE7A4D3E6671A613639130D056C8383C8F4FCF4808C331E544DD26E4755D09EA05253B3049A
310
1E32587CC25D72E073E2CD96D04A71BBCB0038FEC3F53D254199C3CDC67CD66640269431860225392B2CB3ECD0B4498AAE78BA1994246AE1EE78F2EDFB79F6C6CB6B5E279C4D373FBC21CB2698C9ACBBEB6A4BB6B39E16AB0E421CCBFC7654D81ED86022F9BB522146F9F4772E2D0E4FA70120C95A85A417BF5078B232F475
310
4363EB1750B2AC2148EB46B1EA72AD9B4D23ADCBC589D70106C3EC2ABEEED84DFE28E718C6C83502C28E9FDD3B09DA0A6F6F7B72B706A31C9E2A331EE70DA56A083D2177BFD63C55B11D8D949FAFCF90B23A1E24B9B5018B9A17E99F2890EC302F330FE7936E2C23F0D237EC8916F5166AB84B62A21BB0B950146962D754F9
310
2CC2C8877BED8FC7B7B25726DD19545392570B3A2C66B58F027BEF412E552D12A588C4A3CC5C3193FCB3485EFFF700D0B9EEC077754A33DC1FB9E25AF814628F91DDFECB667D3F7690803F38D13F8AE39353523BB08FC6760144AFA2CE28236F65EDBB3D5F59A57D612B99E3D7E5F8A851666BF9B5A6658EFC96EEB37A378A
310
BB0EB3FDDF1303AF32C41BD1C8560745D7BD81066B0D6313359CF488563D3BA3F8E2185D1FAA3EBA1397C9D0E3DD232180A4DCADB6AF25DB3AC3CC26589C8239E66E81547BC7E2F328F9884764CA37EB5DBE390DFC03A5246B456A7C3684C4377D0EEF9A350680FA9A077E8B2957B489E09AB1AD41316944C2254B5984830F
310
691C93CAA767EECF976FA5647538830B5E63236A6F0365C1E0F3E327F24FE35EDDBD7360B0F7374837409F7A6311BECC12B7026D4FA1AE204FA3F5FE904B1F420C7A9044AE58E403E7C4848E7DA25DC9EDAC79DD756FAA26B9EA83ACE8A214A2612A22AFA19DAE7DBAC5F8CDE1292A485F98DAC731A29FE01A3966E96BCB9F
310
B5A4C8830E1B9AF0C54B87FBE221A097036E5D28D1F869F810C06A9BB0AC0612F69AEBAF893C6E7AD59460208BAB3A6B09CA4F6BDDAB8CF0D1F84B72487498395A70DCD754796E271099A567A55CF242BBED64696378BB6CF25EF0FCDB589F3A82F1116D010A9AB9FA4358809EE0C973A2B4229BAA876A70B03AB49CBA7FBE
310
71DB1832FFD32F9BF2C8E98075CACAFB36921235D0F552B6A67E94E094097A5D7DF681B40623DA535ADA7A9AD8E9A62407D7C9A5AE51D62A17A83A23728DE86BB56115804D3F2675F2C6B87541A0FC497BF0CA86420F558C9859EBE9FAD62747E323E3AADC03FDCDDFE7407B09DA90B44E3185723C5381EAEF589765E2F7A0
310
99BA46695BAD60CEF3491B8A171F5F56444F7CE9455312C3498C74173AEA0214EC029833B34B650CBB5A5508D5091665309642791708ECF27CF11DB3D797D6CFE474453BD4BFADB768094B2147814D81C7CBAF8228DCAF5564B5891F5EF6A860EB2E323CB82AB868D8EA048880D63B0DE5341F1B3D53297B928A11E15F25E5
310
148990F710747C3509ED14909C552EBE3973246FCE55D00564D8310BC3EBC5085D08D806799B77D6C57FDF5E55837F9E934F09C03C729271B64F12D0A9F9E938107CAF7BF1EC8CF1BB9B42363D33070F4CACB425E605DDB0A34A12BB936DE286B9887A4E2E558F0886498BFF49C311D96C277CF6A9FC0D75AD0ECC5226D7E0
310
E3572012E56D7FDE4410CEC7A6D0F997F225A2055B8B92E3956E875AE4993CB3D4C9063AF98FD45E1BAB165640A43439A2C9181A7C355B297C0A0CCFFAE19B6FA3C2BA238A885FBC98B8F6DAF4B94B97304878DF4D8BFF6A4AEDF79E90ED4E68F00CD7299F4E0D83E35601AF0CBEF18C1E870E74758FA91F5131075004DB3C
310
FCF09AE1DABC11957FD9808C92E8A678CE9DBE40DDA0E0D1D505AAFBCBA208232BFB6FB3704E8985E61ADE53DE74152F5C7DE74B1DEDCD37DC3E8FB30D7EBA8B9EFFC3606BF90B8D438279CB7709FC7C00D327F41817EEA71CD9E49FE9C8C9A81C70915D9F0F15958EC5AA4C3BBFAF46986B90F188BDB24B89DE3C6F29EC3E
310
6F66D84856EE96A35E657CA41B41EFD8DBFA16AD6E91439EA92B40B21C053249F51AE50EB0B24C770FFAF40DF12C8436366819C48E36547D4E7B72FE2BBF10828583057814A668BDF183F6B2E58DFB151103E56303E63D00F39C27C4661605DB644D19175D02E3F0241E8FC3458D17AAAADB117CE9EEA690D0DB01E634878C
310
04C2C9310B69FCAB831151E3AD293BEF6E46B0ABCECB50F5939B39C613D41E81FAE8D34CAE3C4566B761D37185FE864AC32FCB71AEF39DAA5BAB88609BB980CD2F07A8F941653B529567726E2B2A58D079DD57E1E5E31426CF184A04D7B03B985F276D47406AF276FE32E3328BA866EB1FD39BEF57863A317634AA5FE46740
310
9B3873F5069EF0D71AF00AD189D17BA1974ECDB2D623E9E14086386A6AAB5807825C37B015BFE892AFD154920EC437EB945D958E18622E1E0FE2FA06557CE4BB9BBD05A2D40E774DA2B65473791E314B7D6C886820B2FCFE4AA272B3B8B15E7344A145E8AF919B5454D89D36D413E87211186BF6F645E5EC94DCCE8E1C7990
310
22E4EC9BC86D7A0F2AFB1FC4B2CE48F84B3F49ECE65BAD24CADCC07EFF39AB06BE9E6B27A059938EA7208838455383DDBCFCD967DDE4650EF92A14FF933C975DB20BD7FEEBC4487576485963D757D16340D9599FEB362F775F38CA4185A86F74B629C81B133644A3B18FD056E997E0734F9BE26D11C0AAFC669E2AC9FC41D2
310
81F8B2E1C35AE27BCE05F3DA295488096688719D974DF1B5D182DB7792288697F8763CFB43562C1CDEE11C4AABD5C22B6E33F6F389CFC3477C5919DC0D533F8A7A1846B7ADB60ABDC26C43D0CFC8910B7C15EE22675BD02702ED39DB77A87A192CA7A543E6205B979B9F5A6B512A3CA799E198B2D5797C0AF8D1D872CA455D
310
4D431A7879D4DD76110B5FF7F4176B54477A9EB5E4A5D11214FDA585F0382751D8E2582BA5D2075053298FEB8F1537304E32CB22C2E2B693DC0A760B1DFCA751BDC445AFDCBB12820ED85F6D5298933C7EF1211E9E057684056CDA3FEF3BB6052355E162DF27C59E965A8DDB7F9437EB72CDDA3A090DE65A5B2F50326247B7
310
EC67B73ACC7047FC9B353D6EE990F772207C6EC52B39DC2F3C0754821DAB559F7C1809C7D0DD5B0499D0442E0A6E391B3D5DB46D11E731E6794EC77523FBDAA242ED67F9FA1FB684255671F63C9BCFE6E7E896D51001A6113EF2298BA494E0B0980D1FA5B9D60796554C02256B1E0345FB7C6186B6A19D2DCA270416262845
310
FA4F42DB5D9B0A0B6F07FCA2E56C242522E001E0CEB734AF310FC8BFB57E38E03AACE93B3326A2197891E68452B26A6307FDABFEE0223D3C03C3C73D2D5BC054C8311F12004CAE488E5C29287F8156A2CAA4AD0D7BE6B97264E4139F437CE73ADF52E5134C52B819777C18B323A5924E4F67AFD13B1CDC3A61793A79FAF5C0
310
CEB718E441071E797C6DCCB9EFCF7E4A1E9F3DF3C2F9C9E8294E9586868788C972857FB0556D7A26941A7EEB9B580AD78EC40B85DC906B4120A563CA3B87797ED612D3B035962BB75F6515A393F4CB057F564CDF54F2E5A024514E6A1F901DB80C7E70B1FC05E356A7E72FABF4775B3E3FB8F70A2A8E7B6A94542BB3041579
310
78CCC999E707A29CC795E67A59CC546A5D47B368954CA7B6E75EC9E1F6FC73CE3B4F71F8CB1A6B15923D61EAAEB14626AAA9D04A26EB9C66CD1BE86CA31A5D8703DE04CD1EBCE4F5CCB62F93909AD11E55799A781A956ED27D3E738F4538CB04ADABC7DAEF20BC35BA6A90BCC1DC61BA05F20D8832FFB9BC9B15E2DB838A0A
310
FBB7E0C82A562127E0446894F427794C3037186F622BF24DE1B00AA10A23BFA47B2A180D6DA5AD6F7326FEB8C100C2D7142EB2A0B2A9D1008A09BA343D70E054AB69E2A7EDB783CBD92537FAF4A44D1296AC2792729104B3276C276C951D0CF3CF3F1E6B017720A7B8505A5FF9589365979678C36F1BAF759EAF57C60F1FF5
310
FE9DCF5F8E764FF25A2D06CF25117A8FED51884C13B2B750DB0E4F5E3D64124FCF11F0AD8F1CC3B3DA4B38ED22BF1CB2585EE6BFEBBA63FBFD44F9537B9B37BDD6B358720F98A8125AED4349CCFEB0E135F19E208A04CA7E2B10711185D72E381F448036EF57C9F874E54A971CA37A639E986AC0226DC5AA00D5B14FEA9192
310
234B3DE617814FC221C92F33F1D392F297731B567FD98FD91D989379AF567A65B8ADF177591DB90FBEA99BF4ED11B16E50A0AB1DBF1156D034BBE04D69D08F939D8E92BF525A1DDAFF80ECBC95D8F45D3FDD289FD23F7D8B452F8EBB34EC082DEEE68E18EDDF072060FAD2AB1504DD4879BF67099FC58F6E9DEFBF645D1633
310
4A3E9A127C6F1AF6132CF287E433B43A0EE93812B4AA0B194E03EE3FF91EF9C6ED0074A2F6EB18A96A7C9890B1FCDA1F2095E944DB911ED54C60DF16FB74C8CE9BDC7C54C4F14078CF73C2FFF1F1BBCCD7CF64F71407EA1683DBC410D226627F66E509060D5C0AFD611DE681D509DB8DD12FB1265B03C6F5C55FF4C30BD941
310
87FF692B4F152982502F193098A789526A038AB529A52BC0DC4FB6285CBAC10A8B8DB75DCD9BDABBB221E27D1F8DA9F5EE5926A1C8AA9BA9BC09239C6A7F12914EA3B59EFF7AAEC3FFCCE56F1C5C2980AD072793527565E774F4631DB178CEEC691B1F367BEA0CF2907E1D6B854D527065979DDEF002D8B2ACEA7CE21AE297
310
737EDE1D45B31233B73FEA35BCFDD0B09721FDBAF6432681F2FD10C3E9EFB246FD6E854B344ACC9D8A0EEF876A7314B49B6A499FC650B099D650DBFEC7638ADFD245E2B7839DA5AC5F7D5623FC0ECEEC8653FC9B2BDD1AD4D00A566FBA7186DD3C9CD26512551637498CADB950FEC71ADB9A5524285DE328B8EC7EC75D2345
310
AEC6A27C42AF6D9B92155315C80DBFCABBB7DA0FAE425C4FB896B15C9BFAC4FE67DF5A23D30C93DA4D8F36FB15D100050DA6062E22AEC5F4DAC4F6FEEF97AE05DE63C6D38F9E068A20BC5E3B6BCD75320C5090924E7F93640A7735B1A43451C2D91EE62C6238B797349E59890AF3A520DF4A87095F3ABEC2E61F0593416CE4
310
6CDCBE0E00E2523FCCD04408588B5B6C9DB6459C786CE378770B54F51DA3A5E1DF2A3349BEAAC234A6CF8993B598B3B25B4B113E353A4D750FA7534749430F3EBF2512E7EA3FD43C6AB9A1F765A58463B306721A15D224FAFE8C6F5E3432D57EE697DA0DD5A9D4866A8BCCAAA9DFF1F06047851408FEC060471D0E3EB86BFA
310
F46E4B5E60311DC3E3CEA147C75CF971BE74689507154FF2D2E92F15CDB2B9182B11459FD8ACAC5A85F174BC94A7F4EE4C4F5CAFA7C02E37BF0BC77B7DCD0C047BC316F562A01A441AFA7931CC84A28CB9F4AA367EB515778F29BFE61195FA671F4352E5E46E3A64773F1F76EE5EB36D7BCE9BCEAD837A4D77F8DB8C92AEEF
310
6711920D7C7D0F76B0FD0EB7AB83724CD35BCA7D36DDDF5FBB7FF6F04A91F3E2BB3B8F1A43CD659639507FF6331C5F697BCC782AE57D757A27D97F1AB9E0AEDB43F92F1B2AACDF5FEC8ADBAF9F814E2027003BA2F9E144B1938A7A04050AE5D953B82C45619165C813A10E76DD6906B3C16438064D14CDA713AEC420034613
310
E1AC7241904A49FBF87409AFB1FCB9B72FE7933A87D8FBEDACECE4EDCF6A4FE9FB94D5DEB74FAB7CFEAE17EE965DF980DCCA2D04134994F9A2E94D2265DA4FE6AA7B7AC15FACAC2B5ABBCD7DFF542C5314FDAB2E1B9D8B65220B8E2B638BE008E8DCA22678C820C5053664D15E89F2D735B51A84955E81A443545E9FF787BE
310
0FA700A76D136C27DA179A7C6E8939E01BE756E19CB292798063D8B97F44E8A27BCF3A614FEB8BE974A718E86F7EC99B53CA35FA24F61F2B07266684623A3D4CF073E511F3A10A8FDAFAF0078C577F4DF9D339FE7862E5FA47CF4344209E5BF76D783B1B48E152AD281B15FCB934DCDA49CEC5706B1EE8B460F435324A5CAD
310
154725E21AB8044B75A557A79F6C807B9340AA3D92503E866F4274412926C8C504E4D5EF8C0E68DD0B028781A6B4054F11CF18941F101C57CCC796773ABC8DED9CD91FE5788806C05E548895354AEAC96546D55B0E94A59F148D061F42AA398D822CDECA4CDE79E13469BDCC44FDC990F366BA5978C15F97ED80CBFD73B0CD
310
9B8B83A4F6845BDFBFAF034019473FB9A63BD55D3A4A7284757071574029A4D016DCCBE95DD679EF3C4880BF169422F8C89B68A988D2B13793CAED4F74DE7486C72DC94DF46B8E93D8E02EFCB1FF9B3BA10C8AE7F653DF94F4AF466CDDCEF5776687F7C4C14B63E4EED1719DC2EC482D7DBCC7AE518CDE3D5FF86D39000EC3
310
673C0044E1D308BF05F74D1B5F033A7D1BE7F74BC55BBE3E4A20F920946CA0271EB17BD2B80E5660ACB8A29A79F5E4BBA49D4D945B6EEF4A7EFEAA65E5555BBB57A7E15D2F83C69F30BBB978D2B39F1F26FC097424D39BB33CA3D87ABF64E307938B685BAD44F71556A30B7E712CA4FE600613C3E554B69ADE949A7CFE214D
310
F1FFF05CB82151EC6FC31950239F94CF7AD39DC473F6EA356E5EC2C4EFA04383CEFE985A127484366FBEE3C0EC4FEA363E4F6632AE781392FD45D67B63FB8DF70E82734F431FD3443172A0E30A83D60982D55FA6A2CF86DBA8382502ACC6CDEF3B907982EED1160E14863FA242F9757347E1544275CCDCF71ECD5F8621CBEA
310
326B8BA884AD7F825781923E66971F04010D574C541D8427A438A37EEF8AF88240EED7362C953F5A81DE2D56109CDE2524EA0F5D2F87308C0C47BD97AD605878AB8589E17CA83930CB5E0DCCD75853D68B1AB136594926DE426C367428E9334AFAFF90ECE221BB5DC9E5BB53D2CDEF954EAA9CD814F0E5725F1965DD458E5F
310
8487683AD86B9D0076BE3EE91EB1CECC5331A67A3F79D8B27587C12EC2A6A70474749F27B4C0BBAFB94B34189E88DC18964BE4121B9137FD516C7755356E50D6714E31ACD222621EBBCD1CFF81D87479056A9DA0E0B8EA19D24CF937DA89F78E8650CCBDC110AAB6C4E46DCBFD0446BA9E2060E81F314AC2031E88135E5476
310
AC0160EF5C0DD2EEF1B8B5CB2D198BE9A554A9093B5F7D7E4B5407DDFCA1D9C152FD97F55BFFFDFE802954DFEC8995B983E28AC92F1971E28F531DC407A1280EB125F64A72E617EFB27DFBCEDCDA2D6F2BDADA36873EE46B9BE1782998C63DA7182BC383FB6FD15DA472B175D7E8B4FC88F38D6E07FEAA3FA3CBB8F6B449EC
310
F14D2175E5C5CCA3A42ABF24CA6C9395AF74535F4DDB38CB84F56614B0FD32D7E19CA5CF988DB4449C40E23DF2B16772594554579094450F56F253CD25EA7F77366FB1CFE79696C428BB64D5A41E986189427E5E4D7E2DAE3D5BB4972B3DC44EAABDDDD63A2264ECFA5C786EB0EE1FDC5BE34FA0F08376869FD1E61EA06CAE
310
15191135445EE8F0394161C3266A596AA035572BB0C8876180D8B9C77D307DF9DCDF7365ABDA6F3A2366436457A4DFC1F259666569A9E4A79C817BDD5610E5200FCE894A358EC72858D50EF67545DA81C6FACE3D457BAF70367E1E6BDD9A952FB4F56247F58F523B97E640246051A72F79BE42FFA0B3187F63097F91C48B86
310
8586F714B0EBD5A00A8412C1236E1298F60C72BE6C96B82B404CADAA304AE9F303176B14BA53FBC2D5E86377E35542019E24D97B96A49B2C0E5006E7795954DEAF5DA58958839043C6C70BD3B1B33B6DC5C31316D8A6923F142E26F6711A2258AF977DDF1F970ECC4F1F2B434B96D81BEB6E89BF3BBB3C7C8CC80505070723
310
D6D7D7D3C8CA27CA164A26024FED94B12A86031867241DA53D929636DA600F050BC40CE48B8BA03D69224720DEE2ED2127390BDF5E6EA64527BBD4C4C63FA76BB801FEEC0E61218EC98A8A86CD8313781617877E66692839B9468CF4DB8E50A73986E558E309C0D6F676F921BE02F1185454DC75B111572FF9D27D85EA14C0
310
5AD7271225B391C4275659CA4A43759D0BA44639BE4C30A84DB7F67A41399FB95CBF923B1B1672ABC807C1590557FB18D811983FA97F5E609516D62281D38B1281F68FC75528C35E4CD7DF0F7DBB5E5DD69C414EBEA2F4A5B241B996BA77AE6C772E367408C633EA3E438B68563EA8BE7667F3A4C4FDEEA52ABD78A2820F44
310
3B7914A15F180018D231E64519C56A12F6CA7C8DAE18F06F6B769DBF92329EF6A5D18FBCE600F36BD8E8198DE5CDAA96181F3A756EBA5501CEE58F497EA4F418A2B82565B9BCC611713C0B708CCA1F398B78C5F7D03B3437CC18F13061F55C7BEDADD5ACB1DB0E36D3CE47FF6EA1A563A57E9649EA5D14D1A50EAA45746338
310
1C073777EF1600607BAF6428A7DDC079D47A204EF1E1F1F0589FB054D45E02CE623B3823C317C601E589E22B1E88B448524B86A82828E32345EC18AE17214B42F8C41C6D428016D9BA31DDCB47572561E5A402E5BA4FCE55F78AF7268524AA04130F3A20BA5D1E9F9948EA48FC8F5314FDB35E21898198060034ACE5E3E2BB
310
CA34092518F275190AF65F45867FF0900AA4B81F25427414C372BF51DC29AA855C5428EE1EEDD6B849AD60F6E73475C2D2523F8A2772C840A478DED18A8C5C91B085F255DC4F54EA7AA8947354FD17ECF8FB3B4A0DE7B483CAF3A1165EE05BBA413E5C1FEF3DE1D6B8F2F3F3251C17D9FCAB48A9AAF63AC773A0E413BBC46A
310
9ADF84A566FC920E4D8C52C9769EE3301CADEEEDD92B312E02E2A7E35B7F1E7D203FE5A7D75578B06E99D0E46FFADB8FDA17ED8880390DA29094202D6F645F76F6F96409CDA05495A96E84B04A00D1A6C6C81D7F3DE9376E828CCF144EE50E364ACCE7237EA0BFB5607ED1AC3CFE73794E5B61739D14DF1743441B1AC98F00
310
ECEDE9E7301FA29755FBEFA68C91EF2B314CF510537EF1ABFC9A762496280B546F5EDAAF8A5B387D469FC9A878A92828C88608453ACEC6094DCA54111E7AD5B2663DFE2DD151B7F123B9F4FEF8EE36AB125FD7AD52A59B1B765B3E3F73E3F73DEA93875004D2AFFE3CDE9493B87A9904DD052028949041A91DC0E1BA47BA71
310
4343FD5B25E0A6A09503AFC17C790058A836A324FE31D7893512E28230332F153181C1E018E1124EBE1BA262AA428A518237D1EA7275E48C5C561BD19ED6912EDD8367DA0F31E40EEAE9683DA9257525AEA7B632B97119E17145A90231768A4F3B9120FF32E8319B015E3CBE26F1A754177D8185345817C096B0CE443A955D
310
13AC15E1FB5DEEA0239EC32A3C92241A237B0B02FFCB4F93CF2B02570C8D192E2F2A68CEEB42F12E6F8CEEFF46C251E22B4341C56FB08CCE550E7A9D6F4D6564B9EA52A83D5BF2C6E03FA19D2775E15A8A7ACF30A13C259EE7F5EF2AC3BA354F1500E1A07FC63FB4686E2F12EC69719F9ECF5FE3F35598DF2CE944008CE78F
310
0911BA5BE5D0A34E0098FF038669C26030BA9B300303039852A8F6F496341737CA7E0D2E3AAA36DE0A70AA7D9CA0D54D9AD84B18A44C9E625475E1C97B93BEBB38DCE7D227E67A2D00F531436136355F243D1FC0D712C5765754FA22FCFFAE97919161F46D6E61ACB37D83777B385889770B50765B127768443A5C4D3A4E35
310
A3151111F146B7CA116F918A049F1C272F2CD7976C69A0068773451659A97E0F4A08FE604C3FF6CE7385DB19F4D3ABC8A0D80DA8A42096AC377DB49382B36E270B6FA7570188B4B7D1DDDDA82ACA487CCA5D38BD3BD039ADBAFA4ACFF27809239B722081E2EB9F145320553D183F28471C388BC8814E5045676767AB58A8E7
310
2D1CED2CA731379515D2E533E4CF0B39DFC625F97AC4836831A4DE330E87A8126FA17EBE583D614E71E22A8DBF2825599743E0640037303E8E1B1E8EA4E1ABFA4F62907B5E4E0E5DCFDAB417C36C6848A2B8D15F1E505434C0707E16B1CFC2A1C36A42BBF55734F8F4301DDC2A5110CEE8C0747F69519265012A2174BF4E95
310
5ECD4FDE095A3ABC70536B7AD0B9D7892F81287D667C108703C9B66A221E9A0929D030008F77FF6F5D2108EF5706FC87A3069B976F7C9FC3239D13D283CDEA83597461079FEEE049B0F392889898B7D87D31F8D60ED7B56B91823A8E4EDDB36C6172ECEE42BD42B12CD67994FA0F0DFAE9389356F4CD4425A4B8AA55CBF7EC
310
D585C6A2C2316791E43D5C06841ADBB226A87FD61515FFBB0167B74E56BD7F3E90A57A97FEDCBDF483A0D6699A8C0849CAEB4947FAA90D8E332D9DEBD9F4738C37DA0CAF9CF3DAA68BCB67C420459C7A64498D6E848E5CADE92BB6901F607AA331104A67F7CD650EE169B1DAE94D2C31C2F993632259B6957E246EFE4C5481
310
107B07118607700040E5812A2A2A38DA0076875258C753F60E0F2662C748EDD5F3F3686B8FC3BD6FE631ECCAA1E8B1C1E565AD117E54893E79F4672E32F9E46B2A183DFDCF3EECB4D4D077DBEA0DA254D256045109670050129E9B9B1A9E4A11344D61497A992778095151510C4BB7EF2009B63AA4360635312E4CF668B7E0
310
D3D85A8688E2BD83B569439892ADB63461930D428E0DE42E4AC57CE48DA5CC1449530D8BD3D6A0F08DF20C8E8F570F2CFFFCEA286E30969B4654D498A58D9DA782E19FE3F002181838925592C4A1EF0B332D88B61A92C644547BED490D3A42CFFAB70E36D961F694F6307F72FF15A1C79D5B1B5CEFD353D9E2B52566DEC8F8
310
F09CB3E8359C0F68EBBB7898243E34E12A015B2685AB303C04D3A9E00671FF3DFF0A184E4A2ABEB2B666AF5B3A209C73D8EF29DCDB069C9F391EEE9DD0F74C7BCDE16F8F02E3B8816122BBEB50665775B600549D8BB33A54A6BF940C028118BC6878C79958D6784F9DEAA6E26748386FFAF8D0D0101E2847B6563F5D8DC1D7
310
8F787BE00E2C941AE12148D4A81599FE8F68D4DA5CDED75530ADE138240300EE13B0FC13A1687FED6774662C05A2B7DFB186732F0D7A93545D8B0A6390AE5054D9CB582DA846D7A061B3358B45E2B52DDE63E114397EDB7E09233A579155D795BE76102CF277F4DF8B188C4F2879BEAE3C08347124BF9ED23B128259FE107D
310
31E34A652F090B30B39E0D9AF917B76A2806135621A8A60681F16AF216514BBD02711585B5B1AE823F4B2D0369EA5B6BCB863072727FFC871CA6C9AB79A814D989057E9470A3D238BC87CBB4A0EA49AFE2B86F22E499793CAA9047080450166BDC357524561E258C77CB697F1ABB32562CF87C3B7AA12F911EF19FB3E5C022
310
22E887D08202A60A17151F5E053A86B437771088B4FEE14D652C43E8D939995D34545E12E2FF93D4E366EAD25F10CB7DED141563C3D0C447AF06078A91135FD4B9611583CB4BF3BD167F2399CEAB0E0100F8FFC305F00F1711717173138B4B48C83022295DE657EFEDD97F238ECA80F528AFB4F8D67AD4E2594B9A3AA86D74
310
87EFC313BA95745C186F0CDD84CC12DC9CB0424B42203D351FD9C0A3AF10CC7F388E0329279087386421F194F4A29464C1DEF7EF8BE515E4A199DCD5B909342598D8FE6A231F71336248D5CEC5454455C7BE383B3BC7B260FED27F703FDC39A170F3827239102F59D4DEE7FEF82EAA1A5E4BA94DCC4CC44E7E2EDE20F24244
310
E4454369D2E87C3F823F193FD4FD27E1C23984B01898D15ABC20711A8A558054951A6AE280096BA36CBA439603B7B0B4C45F248C14B2383B4B5CD8ECECE4FF859AD4A6CA2326D020EF090F4041D28DB66E5256B56232CC52829DE8060BAE6BBF37D4B7469B822454FE93210A3E8D15E69FFCF01123222611C51C4FD0A041A0
310
CFA2471CF6BE38D2B20FA4C3525B5B8B586759475CF80ADFE67A284AC24651E52B8E683D24C2622642F27E7C3C22783BCF63648BC398BD6CD0D9C97E7E7E3EACB6126DB7A6C1FD9F1031302EE67ED96F22B77C7CA0239BB324207559B105E4693EB26EC46182A92C9C0DBD24F29B31C5C5AC1F84300E0E17CEEAC15F5736FA
310
4A98971E2F1423BFCD68D4BBD5F86E74B40A369F39507C88FCDB35D2DD8DEBEA4AF999E23CF2816D204200DF6E611781B9884C1AC8888B4DE397320472959434323A5A36B22A8E1F721A270DF3BD65E4A31C11FF048AFB0D8B7B6881423793963A23CFCE935FC189ED36FAE35C46DA3574C979E4394BE52084F3081837BE03
310
3396D2EBD80F1F691B273F660D2B32FA27A33B1DE4ADA5F0FA4651511102DFA410DDA86E065272CA314D5249DF91B06BB92807B28EFD54F08F7B525252782CD276DD02E6B0319B13DF87B1F6361AD6B28FC0D711CF445429B9E5A433CD493051C49A9E03DDB1B147D880253514A5DED88009018620EE229101C041950E2D8A
310
A8E1F5F5438E0C0C0C60EEDEE9E3E0C051948C69F84BB7B2A48A1F3C8EB9E6864687F4F4F6F6E2FA87608ADAF9C5E117B7C1A737E710769DA1D15ECE6A84502AA855398712D5FB51BE92E4EF824969CE18278798AC303C2C7980DD2500ADF8FB1E6D6C2FAAFF9987178923334A244758BAA01A9A1B70FA5097D01E1CC2A58D
310
AD0EC94CE6430AA9B0C10D75E3C6BAC670EFBADEE1607739CE0FC18A2587E3EC3058562014C64219C69BC269082D5C2F4A659278D585755912176D78A1B641719C2A394CED495A1AC5D583FD2F5EDD93308EA7EAE8A6DD396598BDBD3D4CFED62D18A5BDFDE0DD5C80D1A89BA62697B131AE7CE9A6594138582F1B37D68F17
310
49AC7CB67A70695D48A4A056AC1FBD4E82358CEAE38F54B95A9016F9000F9879C0D9D131768635CA798895F27D6F1614F11F2838A83611AA51C9A3DDB539D42979C29F10465655C17BEC3E2760B80DCBF609198C7B171A531905F3EC218D696025975E986C6B4C666666787271F202805577DD5A3EF0CAFAF91B62DC4B2DB4
310
217A7606282F31D8DDBC290593BAA93EA6353AFA9939B877978481E15CFC9F2755CDC00C538F63A4BA3E80AE009B73CA0185687D339A507D165B74290D6EE46D5C58148F020C3668ABE9EF2F7549170DC80DB41FFC1D678FF19AEB10C7133832B104B80F691B3138F97A92D26E551F1F110400D45AC71A9B9AC41A1A1B1DAE
310
ED0B0810638EFFB511D46B121C6FEA0F38CD00E03CFFEB9713FE1F9C263E4DDEC160D0497FA9A132BA608584057FB15380825DE6C7FC3C667EE947D488A09898D8E939C4953BF4EC9836344D2CC6B2971B2A21A572B06096F4982D2CC7232D46E8EA69DC83722E267754D777F97F96D5DA74E1E75178084D0E70F12AD33E5F
310
71EF2AFA599B2BEBF60A5BE475F444F240CBFE8143C334E7ED9150FEEFEF7EB020C4DBED388DD1D6A167A76F3CBF119B578AE8CFA7736ACAFA4440A1C47185638A0D2F3EB5BDDEFDA958FB13CE4AA4923D5BF840392D45544329525749734866684BF7F8D9D54D892E19BCA9F829A0F8BFCBEEA6CFDFC61D74EA1A645ED7A1
310
FF241739F15694BD835B66FEC5677E40FE69BD3F91AE402F036537218A401CB0828604AD189E575015C6F3F6BBC8AC79CF6C70653847254B31551EFCBEB5978B9DB85D58D0FA41A9DFE9C624834AA04949D24B5AE6D299E072D152D12097920F14AA92C31C3B97E28B6C2E6E9C23D63043ECBBC0A60FDF5BD0C33C127EA8A3
310
308B8B6AFFEB28B4455BF6E7AF4FC6222728357EB8E46E85053E6A8843AB23295BF838ABDA94658FEF3F832F147046B4ACD6F7D48E8FCC9618582961C898D1C7A253C91BFECBDA6BA18A1FCF70755DCCEE2222F41B76D23CA98D0CB3D95F0CF66D57FFF65E2A90F5DF40FC3187621E981BD0BC1D992787212688976B94A8F0
310
C6EF646624B570B78E068826F87CE27041A95C9A4871FF65CC17FCB1639629AD6A9517000D63AC231F3D741CB8430777E7ECF80CE7A3F73C0F162F7E56AA71F4DA80A33CD6ACEE78E2C11FAC03DAFCE929B106F8F6B3ED2DC71FF994BD9CEF4E9A94896EF1B6E2B7B4978168BCF0847A3D2A4F1B0500B926E634B174548E9F
310
BAD27153FB5FC36799B1E6C7C38A94E1F9E996796D7B485E635D5287A2AE76FBD11A341DB3F8F810385BB7296391973DC6C37C452A9305AEBBE0CDB6C566DB59FE60C8E94B1FD090354BF51439FFD1B48D725228FFA88C84F686F547107A7A235665A4593B7C34D748C1AC8D56DD5DA861EEFBADDECBBD65117E65851F9035
310
1AEB65F0EFCFF4BCFEF24CB7A5879699FAC437A7AF9099186CF006BB923A59E37D7A36A29FD8D2CBB914A5E9D0A8FD212FBF796AE9A67958FF1D5D8B85F78F96219D4714EB919929241B6C018AAE0C02069F8D919961EC5DDFBFB7573E3AC8E08BFB7C8534BE6DE045B3CD63DBD71F7638BA2309CAE398EA3A7D8F98BBBC7A
310
EB367EFA5CFA27A9F8F2F52FE878058E6209C026453F8E7E8A237DFC389E9590F6059B397CFD65183BBF936E86896612A5B5FEE49DAC8455D026218AFEBEC12B3523A45B57B82C9C97E02ACFA1184DB18E48CF615DBF39C3CC6F0B4AE6BBEEA2E39D944E290302FA3DE33FA7E40296E2EF7BF1CD855BBECFAD0FD622BEE974
310
6FC4FDFDE545AE6E3BC234CADF83A0FB76DFB145BF3828AE3436368AC24989454F8FF70A177672C711CAA1A76107218CF948CA01F873520E7A2B118EBB161ABAD432932029628B6761590C98AB590C8C8C79798CE9F715BA696E839E9131A4BB68BE923F1747FBFF165331FFDD4D05997ACD168F12CA75348DAC04C7F509FE
310
83898A8B421181AF492861CE81E4A2DD0A30850CFA95E05F097FF70F9E777310D584A75BA7018922E271DAB1D785671157685B7D383D3E074DDB4F1E44EF04B07BAAC75A062077C54B9752C738C9D804D402E02851F3F89605AF189738C18C021D2139EAF72513824E10DDD3047BACC8521ED7E98B257D1166903B1B08FA6F
310
918FD7E162913FEC7D0EF4787E29C35FBA8C6E2C9C20E9AB30AE42CA2A01A090E7D010C1B5BF9CEE2A304BF3A987FB40D836979B79E18D70F257DA61E808472DD85B82761825779D6B90CAEB0F23360C6F80A7D7D77545E95B3DFF0CF96A827F9B5BCECD2C9698718417EF80FEEDEE938AFF55859D0D540B7FE09435583A6F
310
04874A0C7E8CF234DF4879722000167F5872CEC6BF3EF7E5A8CC8121E6A359227C8A29C95212F9F735BC72A887D56B8F309FC525BFB4FD767AAEC4AEFF249CFBBD2DE1AB9969A6155C7D8DABC307E47324C1F916C7BCFF40ABA5644E9FFB9238D19ADADA49D9610F01ABBA57E4DFCBDCCBB2B93C8953206C91DE01B0E2651A
310
6D6C31721915B31F7B7CBCE55466F6D70402788FA91D73BE4ADCBA99A35F17D6B83383704917D6833F0FA3CD45C926ADB8BC17999A4A0AFBCE2541F7B8CF4C2F5FBA611B3E626D64407CB32C122DFF4EF8674D6EDBB86C8F7C6A16D50FA685E2CCA34F8F7D1D8265BB0042E9D7F1F666F7BE5FAA5184DF58E12122A42EF02F
310
461B3F369AC746F96528AD208512AB56844CF75B97F352DF7995024FB02855385854F3798670D01CAC771AC3E1889EC25F61A20C1F8CAB46898817F9C47E2CDA1F286BF2F358298709FE567C91133E2638C8B53975E753EA8BFD3578B5F7186B7BF084EBA3F77BAC3132A5779902EC22AF2D2E79F42D324E083386DAEE9810
310
D1B44A5DAA54513C7A71E52A4AB9257D975B621308FE4D2141CC3DCFE946C154A3C1DFCCA7629EC69ACFA831634ADDA93C0388D2A9A2DDAFCF957C6995BCE7FBB6DC4EBAE79E63EB08E9A25F52F67076F7093CA545CA3053B5BF576DEAD4E0017143C5F759F32B2D6F145B52B67B48909B7C7FCA6586EE385A2189C16932CB
310
6DDFD9152AE317C430492A578ED27B72D85D40C7C93C097939E1B50F4D67F05334FE9DC362C30B7FF561B95259138ECFD9274C8D695C31B14D4EAA9F3D7FA8DDF652F8C5DEFA23284C799B7D94416DEE81E05A866302DC70192A5368EA65E1CED8BF107A1E2D3119A71E85DC1A7B0C1E93274CE04DD0F2ABC8AC7C987FDB00
310
2B6F81757B43502EF7A0D92E416494FAEEA4C9C090CD9557AA4D532F4996A272B94355C5A0E4974EEA9627476F30809B94D8D8D860062E02204643BEC7D0438AF800FC7E2B26955D595421E83C69E1A07E0E3122285835F014AD538188CF9737CE76D464A353FA55A001AB2526B84E985083693BC76FE211CA1D000679C889
310
E3C009832C87E1AC2EDD05C302557422DF0800E316FCAC86978A371F025A6C7DAA9F333E7BD160403A1A06EA75AA9888FF01504B0304140006080800E57A974651464CB48900000043010000360000006662782F44463335343534382D373339372D343738372D394443392D3942363739453844463136372F646972656374
310
6F72792E786D6C9D8F310EC2300C45AF127987122606C71DD918B841D4B851A43646695A717C52A85029031293A5A76FBF6FACEF7DA7264E43906840EF0FA03836E242F406C6DCEE4EA06AC22492573150D1F66C60C640E8938CB705396EEDD86DE9B5042FE27813D640EA63BB001C722AF6E55CB61E4863F58284D5D3F53D
310
D715CE1C3985E63FD7F1B7EBDD617E9F1E504B0304140006080800E57A9746937D67E73B070000201C0000340000006662782F44463335343534382D373339372D343738372D394443392D3942363739453844463136372F6F626A656374732E786D6CDD59596FDB3810FE2B84F665F7C13A7CBB505C2476521845DAA24617
310
FB26D032ED70431DA0A4C4D95FBF438A944545B6951EC062132076287238F3CD3DF2DF1F22869E08CF68125F599EED5A88C461B2A5F1FECA2AF25D6F6AA1F773E4F324C96BFB2C14E3885C5962D99AFB7B9E14A95ADA921D2E5873F5EEE62F94852426160A19CEB22B2B0B1F48846D5CE4C996648FF616E7D8DEEF0EB66797
310
1B4DB27B8ED387C65529E624CE8155588F818AE2C033FF05919CB9EF880DC6B641B76DFD33DB1C29B8C9288DB31CC7E12BAE1AD7F54F70D5B86EE00D97B7FDD1AC371A0E07BDE1B8EFF56EEE6E963D6F327017E3C562767D3BB3D0DCDF2409AB149092780B5A7CB1E69EEF882795F80A8536BEC3248E49A8D06CDBB0258A2E
310
2559131303584F8A565348296B6D61D051F813DB3A8162B064A0AD85D39F75EB4D367F030859172BE51911569EE51C74ADB02FFDC1F59D72D5D00BCD508473C2296688D10DC71C14045B4B05196484B70852486026B5A8E9D57905C3BEEC4B6D5CEE0AC684FF5A73E96901F823C933C919FD87F023F7F5DB802790B6A0713E
310
55C2E62F299098F98E5C2C9F0DFAEA610924DA31BC076B0131C5A641BF81D742C482D5D29A7FBCDB1CD6223EB45F9EF224253C1796279D59F99DD660CDB4C0F83A8052E26AEAEE88CA5780FE13205FF1827CD01CA787E161A865E738CE76098F403BC8453D17FEB8487C7DF5CD77AAC373848C58790A5370DB9F84A9218671
310
770DD2B9FF04469FF081126E1D6206367D4F63E1E760288825B004F17EB73958F31504535884539881F4F0EB3BE22B828F920EC49B8686DAC26F0745698769FAD951571FC066380D2B5519329EC277F453F0BD5EAE3FAE0BBEC321B9578EBD243B1AD31C92693B4306E886CB7F5B7D921EF981251BCC8EA78D4D215CB34F44
310
DC6851CB5AA90549BD0027220D979A912BF714BC9D311C93A4C8D47A5B9C0A1396F060F312942EDC7AD79FDA06CACB9401B4C63248EE21A7A9C0C49A2B6D5581D0AE090A1686B9B2C07DA9D56053446980A3A48845A87D6D8A4D3E20CE084B04AA929A366CEDB59AEC96EE764506C1AB95E4C20052F9B3265C5AF810E2581B
310
BF9CEC3886249AC401851C0CCED27A83714105DE799E33C2760165AC88821D6590478208A727E87794A09EB91EC9CB73C2B7AD044DCBD23EA96D4800AE80D520E96C55C67CA5534E9EA82833653ED3D9C0D8A1EA506B3E3C912E44A66801541BA334F3E1D05D2EEF0637BD717F3AE941D5B4E85D4F2793DE643918DFDEB913
310
7778BB6CF2A9A3553DDF812A459963F85FFE50449B1853060F84D8789BBE7B2FB3E79503A1D1817B47C3D170DA9B0C6670F70418982D17B3DEEC663C99DD4E9777DE78E2709225050F49E6F41D37D02699C6FB535C69EE5EC750286B2E273BADAFA630FFE318DACC098612FFAB41B48A5D2D0561D7202A8E3643280E1F458A
310
0A42A8FA5ADDA711449B7CB4C5B937C665D71EB8F2C7F3667D77D69FCEC695B19F0DD4F29E1F8E736D1284D077167990A438A4797B426DE0D2314EBF29B7D8036F84009DEA6F75C9F93CA32E096884F724D861D125B404C64B12B4E6B03D4BB28CC624935DDEABEAAF41D3B5A19832736E8B11D22C88488EBFC7FE64DBD0B0
310
6988CD2C807E341713818B554165D0AA0339455174BF90B8A5FC2F4186A394959DEE250CBCBE8640F7386D16279816573C81BD05380FDC2D91838B4BD42BF6757DD0AAB526F5D977933F018FAE6B7E213CFA8AEEA5933DF266E2670A41653CF20613AD884B58E9AB72D1C7B1023ACFF025782674FFD0A9D0ECA6935AC95616
310
D53989A08DC579C13BF9EB78E4BEBA48C5858643D46E7A637128FB37DDC1017AB2813B55DED6AE813A94C630E7EA24C82B295A4D58EA42CEF4C4E8EA0D7E7D56D975AA3F1C2F7F79C55C77BE480E7F2EE300D572198055F4316AEAD6AADBA887B2679C871048D7F2B377031EB125DB636366906B2BD1757D7AA97A5E89801A
310
C1C4168B387B2FBEB0AF18540DDD73E67C288B36A75C5F89C466C370FAC887C1B449EBF38775830AAC743EFD4560449E1B14D4EA4274C367487D5B1D7BFE060525D1B7D599E3FF898E422BB0364683697096300A4379B2457B9240F686B143876E8347249359198C570529FD46A0C3E9A772A69AE30DD3A7C3070C8369A67A
310
B12284A12864CC2B4BADA3DF600C2A26917238653F421BA66298850A4EAF2CB0D89C42B7656F609C258787927A635C098E8DE3BDC8F7E5A9EAFFE331810E44A5A35CD59E2EB828C90C6782C23695EF09A0EA2B1FCCFDEF175DB383700E5F37455E09735C384AA340D02F044AE160EAF7A8E03D4041715E2ECF967B0C483A4D
310
E6CFDA4149B59763BE97E3F51ADED7CB2F8E988CAF3EA394157BA1CE73DDAF41A927BA6E569453281F0C4389996251432EDE395F7802AF98227447C108D0EF87E9F80F6791445112974BCEB57A5185D60FF0DA69EBE8911FB4F1AE3772E414408DF5830DCE888DB7D9232C806A3915B3D11262C300AA685A3300AD11A10B38
310
66EC5F2D91AA8D6A13927AD815F0C8993E024712EF7284DBD437D40690E00BC0957C78FCA2177C87C3107CFE2F504B0304140006080800E57A974633EA4C4FDE000000530100003C0000006662782F44463335343534382D373339372D343738372D394443392D3942363739453844463136372F7265736F75726365732F32
310
2F636E782E786D6C4D90CD6E03210C845F05715F16368D54452C79899C7A8928381485C52B7EAAE4ED0B29957AB235F3C99AB13C3FB640BE21658F71A582714A201AB43EBA95D6729BDE29392B9910CB3F8C92A837586997A9922E61DD8764E1A66BE86AF0F13E447E7510217973DDA3A3C4049DF34AB3F9824D335D0B5AC8
310
776675D14CB004196B32D04E14BFC1386112E80296AA858BE3C4DFA6E57011C7D3723809F121E74E2AF9891806EF6381843B31D896D8F27039775BC99AFC607A8966FC85632D9C9C9BAD642EA97D6060E5B937CC6FDAC1FC427E5D25E75EB18D57FF36FB3BD40F504B0304140006080800E57A9746FF15A4A45D0000008000
310
00003A0000006662782F44463335343534382D373339372D343738372D394443392D3942363739453844463136372F7265736F75726365732F636E782E786D6C4D8B3B0E80201005AF42B6F75B59F0390B113044D83508C6E30BC6C26AF226F3B8BA6360974DA7271430F523308B2B198F9B80925DB700539227A2FCCB80A1
310
8E5640D320F996A81C9F32D6E9129A0D1EF74FCE750E6D57BC7165FBCA07504B0304140006080800E57A9746708136DC3E01000046050000300000006662782F44463335343534382D373339372D343738372D394443392D3942363739453844463136372F636E782E786D6CCD94C14EC3300C865FA5CABD49BB31094D6926
310
71E00938206E69EA95B034AE1217B1B72719DD00A1210E93C62D727E4BFF67FFB2DCBC0DAE7885102DFA86D5BC620578839DF57DC326DA96B7ACD8281910E98B8C155E0FD0B05C664AF601A7712E75B0D593CB5567FD6E2E6AA260DB8920B2C2381D63C3A2798641733D11761077BCD3A479CD03449C8281D44F7680B9DF04
310
D0041D538BAA5E95D54DB9583ED4ABF562B9AEEB2729B252C916D1CD7AEB09028E85C1F4F0C94C2545FE56720A76D66402A63E9DF1D67A29D2BF9231B9F5FDACA3FD9875E3E8ACD194C624D010509944A007293EC44A8ACCFB8DFAFEEEF1E8A0E86C004318F6571A407D6E0027633C25E16FFC07E1EFD8D8BE24DC6B6DFB2C
310
EC6CEB62A8C7B4C614D79FFB4F29D2BE77FF2FF4276397CF7C3A2564CDFF433EFABA10B1389CBCB4F47C01D53B504B0304140006080800E57A9746EBB8D6237E000000A30000000B0000006662782F636E782E786D6C4D8CD10A832018465F45FE7BB745D6AFA0069BEB3D6259C84CC3D5D8E34F4717BBFAE0F09D23BBCFE2
310
C9DBA6978B414175BA00B1E11147176605FB36510EA4D332C5B8FDDD808461B10A0A062DE714F7F540A39D86DD17EA5D781ED0F475C31AC629D60229438E54989BA0E2DAA2B873D3572D66E35C943CBF5EDE92D75F504B0304140006080800E57A9746A6D797065F0000008200000007000000636E782E786D6C4DCB3B0E80
310
201045D1AD90E9FD7516806B51190811670C8A61F982B1B0BAC9C97B72CA7B1037C6D3332918DA1E04D2CAC69353902EDB8C20262D23F3F59B81A079470595414B17391D1F19B4730A5583A7ED43BBE4025D9592775E5ADFFA01504B0304140006080800E57A9746ECFD112DA800000026010000130000005B436F6E74656E
310
745F54797065735D2E786D6C7D4F4B0EC22010BD0A61DF525D18634ABB506FE00510A79458060253536F2FD89D5197F3FED3F68B9BD80362B21E25DFD40D6780DADF2C1AC9671AAA3D677DD75E9E0112CB5A4C928F44E12044D22338956A1F003333F8E814E5331A1194BE2B0362DB343BA13D122055543278D79E6050F344
310
ECBC6478EDCD76CE8EABAE5449AE4298AC56946789C28AAFBEABC53F3EAF09A84A1441B91F0101CD4780756578C173A578FFDDBD00504B0304140006080800E57A97463DEE336E64000000790000001B0000006175746F6465736B2D64657369676E2D7061636B6167652E786D6C35CBC10E83200C00D05F21DCA56CA76D41
310
FC96062B120735B69A7DBE268BB7777961F8D5AF396893C2ADB70FE7ADA196782C2DF776D7A97B5933C430F15651E5469C55D70F80A4992A3ADC954792C525AE70A1E4D6AD9816CC044FEFDF01FE3FDE907802504B0304140006080800E57A97468A7F3B9FF30000008E0100003D0000006662782F44463335343534382D37
310
3339372D343738372D394443392D3942363739453844463136372F7265736F75726365732F322F636F72652E786D6C8550CB6E833010FC15B47703365890C8382AB4FD829E7AB38C43AD041BF951F5F36B072AB5A79E76353B33BB3BECF2B5DE8B4FE5BCB666005CD6502823EDACCD32400C57D44371E1CC591B7ED1A03062
310
55036418385B9C8DDB01496B8232193576560728BC57010A794FCD005E7EA855942286C4F0B77213F2261655E272E77116A39E0FA99E939BBE6AE580D3FEE934BE74139A6A32A296BC52741A69879EFB769C46D25132F5ACCA62CE825E7FB64BA74450337052638AEA1691E60DD33369CE18BFB32A3339F3C1A59F8FA5F9BB
310
4467D58EFE718BDBFCBF5BD42634E470DB151E384EC73D069C55399D541ED1A59A93E4DF504B0304140006080800E57A974681935124F9000000960100003B0000006662782F44463335343534382D373339372D343738372D394443392D3942363739453844463136372F7265736F75726365732F636F72652E786D6C8550
310
CB6EC32010FC156BEFD80607C5893051EDB65FD0536F086F5C9418221E553FBF90B8527BEA6957B333B3BB234E5FEBB5FA441F8CB303D0BA850AAD76B3B1CB00299E490FD5490AEF5CFC4583CAAA1507283048B178976E1BA49D8D680B6ADD8C1BA842C00895BEE66680A03F7055B54A3133C2A5BE297D510BD6B47EF0A448
310
C9CC9BD4CCD9CD9C0D7A90BC7F3A8C2FFB894C2D1BC98EBD727218F99E3CF7BB711AD99EB3A9174D114B11CDFAB35D7B54116790ACA59CB43BC2BA37CA8FAC3B52FA2E9AC29422449F7FDE9696EF407A0C2E798D41348FE91FD7749BFF774DC6C68E6DAE0F450049F391F781144D4929977B84B99644E537504B0304140006
310
080800E57A9746807CB434F2000000B1010000310000006662782F44463335343534382D373339372D343738372D394443392D3942363739453844463136372F636F72652E786D6C8D50CB6EC32010FC156BEFD8C18F60479848AD9B2FE8A93704C44589C1E251F5F30BB12BB5B79C16CDCE30B343CFDFCBBDF852CE6B6B46
310
C0E5010A658495DACC23C470453D1467469DB5E10F0D0AC31735428681D1D9D9B8EE90B02628935163A5DA41EEBD0A50887B7A8CE0C5A75A78C963480C7F2B572E6E7C56252E371EA3412FBF52E1140F4A02AB0FB8438716D5CD3BEE4E7573C2F8835699C9688C5AEE565A26777DD5CA019B2E4DD7766D8F483310D4929EA0
310
617A1DD0F07224C35B3F5DF091D02A8B19F5C1A59BF74FF275CFCA37E1BFCC71954F64D62634F56EB8293C309CF23C168C56B9C0341EEDA699CB663F504B0304140006080800E57A9746A5470CE854010000DD0200000C0000006662782F636F72652E786D6C8D52DB6E842014FC15C33B5E58CDBA1B64536DFB057DEA1B8B
310
AC25AB6010CC7E7EC14BAC0FDD362648E69C33736602BE3CBA3618B91E84920548C218045C32550BD914C09A1BCC417021582B657EB48140D28E17C0C380E0462BDB2F1053D270E951A96ABE807418B801016BDDA50003FBE21D0DA935AE63B8873D6577DAF03009E73E82AD15F5322A6AC7266E826B40B2FCE554BE1D2B58
310
C5A884297ACFE0A9CC8EF0354FCBAA44C70C55398EFC30C14674AB3AD39C1A5E0382E22483710AD1E123C9CEE8704E924F1CF94E8207A39DE745D4BB03E4767DE068C6777CB6AFFFE6B3429A035AF8E6890190C4AD3715088E7C3EEE3785B7CFD009BBFC0CBDB6AB85BB8346CE8CD2A9ABD4CA6EA591B6963BEA38983E1CCD
310
55C73C11FCC6839EF03CE7704151D9B8D5A871D7AB355E7DBF53CF351CCD23904A77B4DD969B57DCCE4D6867691D67AA55FA3FD3ABD535CCC83F4CF20D504B0304140006080800E57A9746A237D6CB07010000B201000008000000636F72652E786D6C8D50C16E842014FC15F2EEA8A04677836CAA6DBFA0A7DEA8B02E5905
310
03B869FFBEB06B93F6D6D32333F3DE0CC34E9FCB8C6ECA796D4D07242B0029335AA9CDD4C116CEB80574E2CC591B7EC90019B1A80E120C9C4DCE6EEB0E8DD60465126AAC543B28BC5701D038C747077EBCA84564620B51E1AFD92AC6AB985446B2878EB3A0979FD5D1291194044E0B52E3A2C2B47C23F591964742DE599E94
310
9C6D9B96BB9596D15D9FB572C0EBF6E9D0BF34031E0ADAE38ABED6F8D0D70D7E6EAB7EE86953D3A165795AE6CC0717FFBC1F893903F2E2967C59FEA038FBB076DE05319444D6CC5FC00B9627E24FE86D95FF08AD4D28E97EF0B1E1819318E84E44E3D4601CF77AE34C6DF36F504B01021400140006080800E57A9746000000
310
0000000000000000003700000000000000000000000000000000006662782F44463335343534382D373339372D343738372D394443392D3942363739453844463136372F617474726962757465732E62696E504B01021400140006080800E57A97460000000000000000000000003500000000000000000000000000550000
310
006662782F44463335343534382D373339372D343738372D394443392D3942363739453844463136372F76657274696365732E62696E504B01021400140006080800E57A9746F270F13306000000040000003600000000000000000000000000A80000006662782F44463335343534382D373339372D343738372D39444339
310
2D3942363739453844463136372F747269616E676C65732E62696E504B01021400140006080800E57A974688E57597CD3F0000904100004200000000000000000000000000020100006662782F44463335343534382D373339372D343738372D394443392D3942363739453844463136372F7265736F75726365732F322F30
310
5F67656E657269632E706E67504B01021400140006080800E57A974651464CB4890000004301000036000000000000000000000000002F4100006662782F44463335343534382D373339372D343738372D394443392D3942363739453844463136372F6469726563746F72792E786D6C504B01021400140006080800E57A97
310
46937D67E73B070000201C000034000000000000000000000000000C4200006662782F44463335343534382D373339372D343738372D394443392D3942363739453844463136372F6F626A656374732E786D6C504B01021400140006080800E57A974633EA4C4FDE000000530100003C000000000000000000000000009949
310
00006662782F44463335343534382D373339372D343738372D394443392D3942363739453844463136372F7265736F75726365732F322F636E782E786D6C504B01021400140006080800E57A9746FF15A4A45D000000800000003A00000000000000000000000000D14A00006662782F44463335343534382D373339372D34
310
3738372D394443392D3942363739453844463136372F7265736F75726365732F636E782E786D6C504B01021400140006080800E57A9746708136DC3E010000460500003000000000000000000000000000864B00006662782F44463335343534382D373339372D343738372D394443392D3942363739453844463136372F63
310
6E782E786D6C504B01021400140006080800E57A9746EBB8D6237E000000A30000000B00000000000000000000000000124D00006662782F636E782E786D6C504B01021400140006080800E57A9746A6D797065F000000820000000700000000000000000000000000B94D0000636E782E786D6C504B010214001400060808
310
00E57A9746ECFD112DA80000002601000013000000000000000000000000003D4E00005B436F6E74656E745F54797065735D2E786D6C504B01021400140006080800E57A97463DEE336E64000000790000001B00000000000000000000000000164F00006175746F6465736B2D64657369676E2D7061636B6167652E786D6C
310
504B01021400140006080800E57A97468A7F3B9FF30000008E0100003D00000000000000000000000000B34F00006662782F44463335343534382D373339372D343738372D394443392D3942363739453844463136372F7265736F75726365732F322F636F72652E786D6C504B01021400140006080800E57A974681935124
310
F9000000960100003B00000000000000000000000000015100006662782F44463335343534382D373339372D343738372D394443392D3942363739453844463136372F7265736F75726365732F636F72652E786D6C504B01021400140006080800E57A9746807CB434F2000000B10100003100000000000000000000000000
310
535200006662782F44463335343534382D373339372D343738372D394443392D3942363739453844463136372F636F72652E786D6C504B01021400140006080800E57A9746A5470CE854010000DD0200000C00000000000000000000000000945300006662782F636F72652E786D6C504B01021400140006080800E57A9746
310
A237D6CB07010000B2010000080000000000000000000000000012550000636F72652E786D6C504B050600000000120012002D0600003F5600000000
  0
XRECORD
  5
1FE7
102
{ACAD_REACTORS
330
1FE2
102
}
330
1FE2
100
AcDbXrecord
280
     1
270
     1
271
     1
  0
XRECORD
  5
1FE6
102
{ACAD_REACTORS
330
1FE2
102
}
330
1FE2
100
AcDbXrecord
280
     1
270
     1
271
     1
  0
XRECORD
  5
1FE8
102
{ACAD_REACTORS
330
1FE2
102
}
330
1FE2
100
AcDbXrecord
280
     1
270
     1
271
     1
  0
XRECORD
  5
1FE5
102
{ACAD_REACTORS
330
1FE2
102
}
330
1FE2
100
AcDbXrecord
280
     1
270
     1
271
     1
  0
XRECORD
  5
4B95F
102
{ACAD_REACTORS
330
4B95E
102
}
330
4B95E
100
AcDbXrecord
280
     1
102
DISPLAYNAME
  1
Imperial24
102
FLAGS
 90
        0
  0
CELLSTYLEMAP
  5
4B920
102
{ACAD_REACTORS
330
20A8
102
}
330
20A8
100
AcDbCellStyleMap
 90
        3
300
CELLSTYLE
  1
TABLEFORMAT_BEGIN
 90
        5
170
     1
 91
        0
 92
    32768
 62
   257
 93
        1
300
CONTENTFORMAT
  1
CONTENTFORMAT_BEGIN
 90
        0
 91
        0
 92
      512
 93
        0
300

 40
0.0
140
1.0
 94
        5
 62
     0
340
11
144
0.25
309
CONTENTFORMAT_END
171
     1
301
MARGIN
  1
CELLMARGIN_BEGIN
 40
0.06
 40
0.06
 40
0.06
 40
0.06
 40
0.18
 40
0.18
309
CELLMARGIN_END
 94
        6
 95
        1
302
GRIDFORMAT
  1
GRIDFORMAT_BEGIN
 90
        0
 91
        1
 62
     0
 92
       -2
340
0
 93
        0
 40
0.045
309
GRIDFORMAT_END
 95
        2
302
GRIDFORMAT
  1
GRIDFORMAT_BEGIN
 90
        0
 91
        1
 62
     0
 92
       -2
340
0
 93
        0
 40
0.045
309
GRIDFORMAT_END
 95
        4
302
GRIDFORMAT
  1
GRIDFORMAT_BEGIN
 90
        0
 91
        1
 62
     0
 92
       -2
340
0
 93
        0
 40
0.045
309
GRIDFORMAT_END
 95
        8
302
GRIDFORMAT
  1
GRIDFORMAT_BEGIN
 90
        0
 91
        1
 62
     0
 92
       -2
340
0
 93
        0
 40
0.045
309
GRIDFORMAT_END
 95
       16
302
GRIDFORMAT
  1
GRIDFORMAT_BEGIN
 90
        0
 91
        1
 62
     0
 92
       -2
340
0
 93
        0
 40
0.045
309
GRIDFORMAT_END
 95
       32
302
GRIDFORMAT
  1
GRIDFORMAT_BEGIN
 90
        0
 91
        1
 62
     0
 92
       -2
340
0
 93
        0
 40
0.045
309
GRIDFORMAT_END
309
TABLEFORMAT_END
  1
CELLSTYLE_BEGIN
 90
        1
 91
        1
300
_TITLE
309
CELLSTYLE_END
300
CELLSTYLE
  1
TABLEFORMAT_BEGIN
 90
        5
170
     1
 91
        0
 92
        0
 62
   257
 93
        1
300
CONTENTFORMAT
  1
CONTENTFORMAT_BEGIN
 90
        0
 91
        0
 92
      512
 93
        0
300

 40
0.0
140
1.0
 94
        5
 62
     0
340
11
144
0.18
309
CONTENTFORMAT_END
171
     1
301
MARGIN
  1
CELLMARGIN_BEGIN
 40
0.06
 40
0.06
 40
0.06
 40
0.06
 40
0.18
 40
0.18
309
CELLMARGIN_END
 94
        6
 95
        1
302
GRIDFORMAT
  1
GRIDFORMAT_BEGIN
 90
        0
 91
        1
 62
     0
 92
       -2
340
0
 93
        0
 40
0.045
309
GRIDFORMAT_END
 95
        2
302
GRIDFORMAT
  1
GRIDFORMAT_BEGIN
 90
        0
 91
        1
 62
     0
 92
       -2
340
0
 93
        0
 40
0.045
309
GRIDFORMAT_END
 95
        4
302
GRIDFORMAT
  1
GRIDFORMAT_BEGIN
 90
        0
 91
        1
 62
     0
 92
       -2
340
0
 93
        0
 40
0.045
309
GRIDFORMAT_END
 95
        8
302
GRIDFORMAT
  1
GRIDFORMAT_BEGIN
 90
        0
 91
        1
 62
     0
 92
       -2
340
0
 93
        0
 40
0.045
309
GRIDFORMAT_END
 95
       16
302
GRIDFORMAT
  1
GRIDFORMAT_BEGIN
 90
        0
 91
        1
 62
     0
 92
       -2
340
0
 93
        0
 40
0.045
309
GRIDFORMAT_END
 95
       32
302
GRIDFORMAT
  1
GRIDFORMAT_BEGIN
 90
        0
 91
        1
 62
     0
 92
       -2
340
0
 93
        0
 40
0.045
309
GRIDFORMAT_END
309
TABLEFORMAT_END
  1
CELLSTYLE_BEGIN
 90
        2
 91
        1
300
_HEADER
309
CELLSTYLE_END
300
CELLSTYLE
  1
TABLEFORMAT_BEGIN
 90
        5
170
     1
 91
        0
 92
        0
 62
   257
 93
        1
300
CONTENTFORMAT
  1
CONTENTFORMAT_BEGIN
 90
        0
 91
        0
 92
      512
 93
        0
300

 40
0.0
140
1.0
 94
        2
 62
     0
340
11
144
0.18
309
CONTENTFORMAT_END
171
     1
301
MARGIN
  1
CELLMARGIN_BEGIN
 40
0.06
 40
0.06
 40
0.06
 40
0.06
 40
0.18
 40
0.18
309
CELLMARGIN_END
 94
        6
 95
        1
302
GRIDFORMAT
  1
GRIDFORMAT_BEGIN
 90
        0
 91
        1
 62
     0
 92
       -2
340
0
 93
        0
 40
0.045
309
GRIDFORMAT_END
 95
        2
302
GRIDFORMAT
  1
GRIDFORMAT_BEGIN
 90
        0
 91
        1
 62
     0
 92
       -2
340
0
 93
        0
 40
0.045
309
GRIDFORMAT_END
 95
        4
302
GRIDFORMAT
  1
GRIDFORMAT_BEGIN
 90
        0
 91
        1
 62
     0
 92
       -2
340
0
 93
        0
 40
0.045
309
GRIDFORMAT_END
 95
        8
302
GRIDFORMAT
  1
GRIDFORMAT_BEGIN
 90
        0
 91
        1
 62
     0
 92
       -2
340
0
 93
        0
 40
0.045
309
GRIDFORMAT_END
 95
       16
302
GRIDFORMAT
  1
GRIDFORMAT_BEGIN
 90
        0
 91
        1
 62
     0
 92
       -2
340
0
 93
        0
 40
0.045
309
GRIDFORMAT_END
 95
       32
302
GRIDFORMAT
  1
GRIDFORMAT_BEGIN
 90
        0
 91
        1
 62
     0
 92
       -2
340
0
 93
        0
 40
0.045
309
GRIDFORMAT_END
309
TABLEFORMAT_END
  1
CELLSTYLE_BEGIN
 90
        3
 91
        2
300
_DATA
309
CELLSTYLE_END
  0
XRECORD
  5
4B935
102
{ACAD_REACTORS
330
4B934
102
}
330
4B934
100
AcDbXrecord
280
     1
102
RTVSPost2010Prop28
280
     1
102
RTVSPost2010PropOp28
 70
     1
102
RTVSPost2010Prop29
280
     1
102
RTVSPost2010PropOp29
 70
     1
102
RTVSPost2010Prop30
280
     0
102
RTVSPost2010PropOp30
 70
     1
102
RTVSPost2010Prop31
280
     0
102
RTVSPost2010PropOp31
 70
     1
102
RTVSPost2010Prop32
280
     0
102
RTVSPost2010PropOp32
 70
     1
102
RTVSPost2010Prop33
280
     0
102
RTVSPost2010PropOp33
 70
     1
102
RTVSPost2010Prop34
280
     0
102
RTVSPost2010PropOp34
 70
     1
102
RTVSPost2010Prop35
280
     0
102
RTVSPost2010PropOp35
 70
     1
102
RTVSPost2010Prop36
280
     0
102
RTVSPost2010PropOp36
 70
     1
102
RTVSPost2010Prop37
 90
       50
102
RTVSPost2010PropOp37
 70
     1
102
RTVSPost2010Prop38
140
0.0
102
RTVSPost2010PropOp38
 70
     1
102
RTVSPost2010Prop39
140
1.0
102
RTVSPost2010PropOp39
 70
     1
102
RTVSPost2010Prop40
 90
        0
102
RTVSPost2010PropOp40
 70
     1
102
RTVSPost2010Prop41ColorIndex
 90
       18
102
RTVSPost2010Prop41ColorRGB
 90
        0
102
RTVSPost2010PropOp41
 70
     1
102
RTVSPost2010Prop42
 90
       50
102
RTVSPost2010PropOp42
 70
     1
102
RTVSPost2010Prop43
 90
        3
102
RTVSPost2010PropOp43
 70
     1
102
RTVSPost2010Prop44ColorIndex
 90
        5
102
RTVSPost2010Prop44ColorRGB
 90
      255
102
RTVSPost2010PropOp44
 70
     1
102
RTVSPost2010Prop45
280
     0
102
RTVSPost2010PropOp45
 70
     1
102
RTVSPost2010Prop46
 90
       50
102
RTVSPost2010PropOp46
 70
     1
102
RTVSPost2010Prop47
 90
       50
102
RTVSPost2010PropOp47
 70
     1
102
RTVSPost2010Prop48
 90
       50
102
RTVSPost2010PropOp48
 70
     1
102
RTVSPost2010Prop49
280
     0
102
RTVSPost2010PropOp49
 70
     1
102
RTVSPost2010Prop50
 90
       50
102
RTVSPost2010PropOp50
 70
     1
102
RTVSPost2010Prop51ColorIndex
 90
      256
102
RTVSPost2010Prop51ColorRGB
 90
-16777216
102
RTVSPost2010PropOp51
 70
     0
102
RTVSPost2010Prop52
140
1.0
102
RTVSPost2010PropOp52
 70
     0
102
RTVSPost2010Prop53
 90
        2
102
RTVSPost2010PropOp53
 70
     1
102
RTVSPost2010Prop54
  1
strokes_ogs.tif
102
RTVSPost2010PropOp54
 70
     1
102
RTVSPost2010Prop55
280
     0
102
RTVSPost2010PropOp55
 70
     1
102
RTVSPost2010Prop56
140
1.0
102
RTVSPost2010PropOp56
 70
     1
102
RTVSPost2010Prop57
140
1.0
102
RTVSPost2010PropOp57
 70
     1
  0
XRECORD
  5
4B939
102
{ACAD_REACTORS
330
4B938
102
}
330
4B938
100
AcDbXrecord
280
     1
102
RTVSPost2010Prop28
280
     0
102
RTVSPost2010PropOp28
 70
     1
102
RTVSPost2010Prop29
280
     1
102
RTVSPost2010PropOp29
 70
     1
102
RTVSPost2010Prop30
280
     1
102
RTVSPost2010PropOp30
 70
     1
102
RTVSPost2010Prop31
280
     0
102
RTVSPost2010PropOp31
 70
     1
102
RTVSPost2010Prop32
280
     0
102
RTVSPost2010PropOp32
 70
     1
102
RTVSPost2010Prop33
280
     0
102
RTVSPost2010PropOp33
 70
     1
102
RTVSPost2010Prop34
280
     0
102
RTVSPost2010PropOp34
 70
     1
102
RTVSPost2010Prop35
280
     0
102
RTVSPost2010PropOp35
 70
     1
102
RTVSPost2010Prop36
280
     0
102
RTVSPost2010PropOp36
 70
     1
102
RTVSPost2010Prop37
 90
       50
102
RTVSPost2010PropOp37
 70
     1
102
RTVSPost2010Prop38
140
0.0
102
RTVSPost2010PropOp38
 70
     1
102
RTVSPost2010Prop39
140
1.0
102
RTVSPost2010PropOp39
 70
     1
102
RTVSPost2010Prop40
 90
        0
102
RTVSPost2010PropOp40
 70
     1
102
RTVSPost2010Prop41ColorIndex
 90
       18
102
RTVSPost2010Prop41ColorRGB
 90
        0
102
RTVSPost2010PropOp41
 70
     1
102
RTVSPost2010Prop42
 90
       50
102
RTVSPost2010PropOp42
 70
     1
102
RTVSPost2010Prop43
 90
        3
102
RTVSPost2010PropOp43
 70
     1
102
RTVSPost2010Prop44ColorIndex
 90
        5
102
RTVSPost2010Prop44ColorRGB
 90
      255
102
RTVSPost2010PropOp44
 70
     1
102
RTVSPost2010Prop45
280
     0
102
RTVSPost2010PropOp45
 70
     1
102
RTVSPost2010Prop46
 90
       50
102
RTVSPost2010PropOp46
 70
     1
102
RTVSPost2010Prop47
 90
       50
102
RTVSPost2010PropOp47
 70
     1
102
RTVSPost2010Prop48
 90
       50
102
RTVSPost2010PropOp48
 70
     1
102
RTVSPost2010Prop49
280
     0
102
RTVSPost2010PropOp49
 70
     1
102
RTVSPost2010Prop50
 90
       50
102
RTVSPost2010PropOp50
 70
     1
102
RTVSPost2010Prop51ColorIndex
 90
      256
102
RTVSPost2010Prop51ColorRGB
 90
-16777216
102
RTVSPost2010PropOp51
 70
     0
102
RTVSPost2010Prop52
140
1.0
102
RTVSPost2010PropOp52
 70
     0
102
RTVSPost2010Prop53
 90
        2
102
RTVSPost2010PropOp53
 70
     1
102
RTVSPost2010Prop54
  1
strokes_ogs.tif
102
RTVSPost2010PropOp54
 70
     1
102
RTVSPost2010Prop55
280
     0
102
RTVSPost2010PropOp55
 70
     1
102
RTVSPost2010Prop56
140
1.0
102
RTVSPost2010PropOp56
 70
     1
102
RTVSPost2010Prop57
140
1.0
102
RTVSPost2010PropOp57
 70
     1
  0
XRECORD
  5
4B937
102
{ACAD_REACTORS
330
4B936
102
}
330
4B936
100
AcDbXrecord
280
     1
102
RTVSPost2010Prop28
280
     0
102
RTVSPost2010PropOp28
 70
     1
102
RTVSPost2010Prop29
280
     1
102
RTVSPost2010PropOp29
 70
     1
102
RTVSPost2010Prop30
280
     1
102
RTVSPost2010PropOp30
 70
     1
102
RTVSPost2010Prop31
280
     0
102
RTVSPost2010PropOp31
 70
     1
102
RTVSPost2010Prop32
280
     0
102
RTVSPost2010PropOp32
 70
     1
102
RTVSPost2010Prop33
280
     0
102
RTVSPost2010PropOp33
 70
     1
102
RTVSPost2010Prop34
280
     0
102
RTVSPost2010PropOp34
 70
     1
102
RTVSPost2010Prop35
280
     0
102
RTVSPost2010PropOp35
 70
     1
102
RTVSPost2010Prop36
280
     0
102
RTVSPost2010PropOp36
 70
     1
102
RTVSPost2010Prop37
 90
       50
102
RTVSPost2010PropOp37
 70
     1
102
RTVSPost2010Prop38
140
0.0
102
RTVSPost2010PropOp38
 70
     1
102
RTVSPost2010Prop39
140
1.0
102
RTVSPost2010PropOp39
 70
     1
102
RTVSPost2010Prop40
 90
        0
102
RTVSPost2010PropOp40
 70
     1
102
RTVSPost2010Prop41ColorIndex
 90
       18
102
RTVSPost2010Prop41ColorRGB
 90
        0
102
RTVSPost2010PropOp41
 70
     1
102
RTVSPost2010Prop42
 90
       50
102
RTVSPost2010PropOp42
 70
     1
102
RTVSPost2010Prop43
 90
        3
102
RTVSPost2010PropOp43
 70
     1
102
RTVSPost2010Prop44ColorIndex
 90
        5
102
RTVSPost2010Prop44ColorRGB
 90
      255
102
RTVSPost2010PropOp44
 70
     1
102
RTVSPost2010Prop45
280
     0
102
RTVSPost2010PropOp45
 70
     1
102
RTVSPost2010Prop46
 90
       50
102
RTVSPost2010PropOp46
 70
     1
102
RTVSPost2010Prop47
 90
       50
102
RTVSPost2010PropOp47
 70
     1
102
RTVSPost2010Prop48
 90
       50
102
RTVSPost2010PropOp48
 70
     1
102
RTVSPost2010Prop49
280
     0
102
RTVSPost2010PropOp49
 70
     1
102
RTVSPost2010Prop50
 90
       50
102
RTVSPost2010PropOp50
 70
     1
102
RTVSPost2010Prop51ColorIndex
 90
      256
102
RTVSPost2010Prop51ColorRGB
 90
-16777216
102
RTVSPost2010PropOp51
 70
     0
102
RTVSPost2010Prop52
140
1.0
102
RTVSPost2010PropOp52
 70
     0
102
RTVSPost2010Prop53
 90
        2
102
RTVSPost2010PropOp53
 70
     1
102
RTVSPost2010Prop54
  1
strokes_ogs.tif
102
RTVSPost2010PropOp54
 70
     1
102
RTVSPost2010Prop55
280
     0
102
RTVSPost2010PropOp55
 70
     1
102
RTVSPost2010Prop56
140
1.0
102
RTVSPost2010PropOp56
 70
     1
102
RTVSPost2010Prop57
140
1.0
102
RTVSPost2010PropOp57
 70
     1
  0
XRECORD
  5
4B933
102
{ACAD_REACTORS
330
4B932
102
}
330
4B932
100
AcDbXrecord
280
     1
102
RTVSPost2010Prop28
280
     0
102
RTVSPost2010PropOp28
 70
     1
102
RTVSPost2010Prop29
280
     1
102
RTVSPost2010PropOp29
 70
     1
102
RTVSPost2010Prop30
280
     1
102
RTVSPost2010PropOp30
 70
     1
102
RTVSPost2010Prop31
280
     0
102
RTVSPost2010PropOp31
 70
     1
102
RTVSPost2010Prop32
280
     0
102
RTVSPost2010PropOp32
 70
     1
102
RTVSPost2010Prop33
280
     0
102
RTVSPost2010PropOp33
 70
     1
102
RTVSPost2010Prop34
280
     0
102
RTVSPost2010PropOp34
 70
     1
102
RTVSPost2010Prop35
280
     0
102
RTVSPost2010PropOp35
 70
     1
102
RTVSPost2010Prop36
280
     0
102
RTVSPost2010PropOp36
 70
     1
102
RTVSPost2010Prop37
 90
       50
102
RTVSPost2010PropOp37
 70
     1
102
RTVSPost2010Prop38
140
0.0
102
RTVSPost2010PropOp38
 70
     1
102
RTVSPost2010Prop39
140
1.0
102
RTVSPost2010PropOp39
 70
     1
102
RTVSPost2010Prop40
 90
        0
102
RTVSPost2010PropOp40
 70
     1
102
RTVSPost2010Prop41ColorIndex
 90
       18
102
RTVSPost2010Prop41ColorRGB
 90
        0
102
RTVSPost2010PropOp41
 70
     1
102
RTVSPost2010Prop42
 90
       50
102
RTVSPost2010PropOp42
 70
     1
102
RTVSPost2010Prop43
 90
        3
102
RTVSPost2010PropOp43
 70
     1
102
RTVSPost2010Prop44ColorIndex
 90
        5
102
RTVSPost2010Prop44ColorRGB
 90
      255
102
RTVSPost2010PropOp44
 70
     1
102
RTVSPost2010Prop45
280
     0
102
RTVSPost2010PropOp45
 70
     1
102
RTVSPost2010Prop46
 90
       50
102
RTVSPost2010PropOp46
 70
     1
102
RTVSPost2010Prop47
 90
       50
102
RTVSPost2010PropOp47
 70
     1
102
RTVSPost2010Prop48
 90
       50
102
RTVSPost2010PropOp48
 70
     1
102
RTVSPost2010Prop49
280
     0
102
RTVSPost2010PropOp49
 70
     1
102
RTVSPost2010Prop50
 90
       50
102
RTVSPost2010PropOp50
 70
     1
102
RTVSPost2010Prop51ColorIndex
 90
      256
102
RTVSPost2010Prop51ColorRGB
 90
-16777216
102
RTVSPost2010PropOp51
 70
     0
102
RTVSPost2010Prop52
140
1.0
102
RTVSPost2010PropOp52
 70
     0
102
RTVSPost2010Prop53
 90
        2
102
RTVSPost2010PropOp53
 70
     1
102
RTVSPost2010Prop54
  1
strokes_ogs.tif
102
RTVSPost2010PropOp54
 70
     1
102
RTVSPost2010Prop55
280
     0
102
RTVSPost2010PropOp55
 70
     1
102
RTVSPost2010Prop56
140
1.0
102
RTVSPost2010PropOp56
 70
     1
102
RTVSPost2010Prop57
140
1.0
102
RTVSPost2010PropOp57
 70
     1
  0
XRECORD
  5
4B941
102
{ACAD_REACTORS
330
4B940
102
}
330
4B940
100
AcDbXrecord
280
     1
102
RTVSPost2010Prop28
280
     0
102
RTVSPost2010PropOp28
 70
     1
102
RTVSPost2010Prop29
280
     1
102
RTVSPost2010PropOp29
 70
     1
102
RTVSPost2010Prop30
280
     1
102
RTVSPost2010PropOp30
 70
     1
102
RTVSPost2010Prop31
280
     0
102
RTVSPost2010PropOp31
 70
     1
102
RTVSPost2010Prop32
280
     0
102
RTVSPost2010PropOp32
 70
     1
102
RTVSPost2010Prop33
280
     0
102
RTVSPost2010PropOp33
 70
     1
102
RTVSPost2010Prop34
280
     0
102
RTVSPost2010PropOp34
 70
     1
102
RTVSPost2010Prop35
280
     0
102
RTVSPost2010PropOp35
 70
     1
102
RTVSPost2010Prop36
280
     0
102
RTVSPost2010PropOp36
 70
     1
102
RTVSPost2010Prop37
 90
       50
102
RTVSPost2010PropOp37
 70
     1
102
RTVSPost2010Prop38
140
0.0
102
RTVSPost2010PropOp38
 70
     1
102
RTVSPost2010Prop39
140
1.0
102
RTVSPost2010PropOp39
 70
     1
102
RTVSPost2010Prop40
 90
        0
102
RTVSPost2010PropOp40
 70
     1
102
RTVSPost2010Prop41ColorIndex
 90
       18
102
RTVSPost2010Prop41ColorRGB
 90
        0
102
RTVSPost2010PropOp41
 70
     1
102
RTVSPost2010Prop42
 90
       50
102
RTVSPost2010PropOp42
 70
     1
102
RTVSPost2010Prop43
 90
        3
102
RTVSPost2010PropOp43
 70
     1
102
RTVSPost2010Prop44ColorIndex
 90
        5
102
RTVSPost2010Prop44ColorRGB
 90
      255
102
RTVSPost2010PropOp44
 70
     1
102
RTVSPost2010Prop45
280
     0
102
RTVSPost2010PropOp45
 70
     1
102
RTVSPost2010Prop46
 90
       50
102
RTVSPost2010PropOp46
 70
     1
102
RTVSPost2010Prop47
 90
       50
102
RTVSPost2010PropOp47
 70
     1
102
RTVSPost2010Prop48
 90
       50
102
RTVSPost2010PropOp48
 70
     1
102
RTVSPost2010Prop49
280
     0
102
RTVSPost2010PropOp49
 70
     1
102
RTVSPost2010Prop50
 90
       50
102
RTVSPost2010PropOp50
 70
     1
102
RTVSPost2010Prop51ColorIndex
 90
      256
102
RTVSPost2010Prop51ColorRGB
 90
-16777216
102
RTVSPost2010PropOp51
 70
     0
102
RTVSPost2010Prop52
140
1.0
102
RTVSPost2010PropOp52
 70
     0
102
RTVSPost2010Prop53
 90
        2
102
RTVSPost2010PropOp53
 70
     1
102
RTVSPost2010Prop54
  1
strokes_ogs.tif
102
RTVSPost2010PropOp54
 70
     1
102
RTVSPost2010Prop55
280
     0
102
RTVSPost2010PropOp55
 70
     1
102
RTVSPost2010Prop56
140
1.0
102
RTVSPost2010PropOp56
 70
     1
102
RTVSPost2010Prop57
140
1.0
102
RTVSPost2010PropOp57
 70
     1
  0
XRECORD
  5
4B949
102
{ACAD_REACTORS
330
4B948
102
}
330
4B948
100
AcDbXrecord
280
     1
102
RTVSPost2010Prop28
280
     0
102
RTVSPost2010PropOp28
 70
     1
102
RTVSPost2010Prop29
280
     1
102
RTVSPost2010PropOp29
 70
     1
102
RTVSPost2010Prop30
280
     1
102
RTVSPost2010PropOp30
 70
     1
102
RTVSPost2010Prop31
280
     0
102
RTVSPost2010PropOp31
 70
     1
102
RTVSPost2010Prop32
280
     0
102
RTVSPost2010PropOp32
 70
     1
102
RTVSPost2010Prop33
280
     0
102
RTVSPost2010PropOp33
 70
     1
102
RTVSPost2010Prop34
280
     0
102
RTVSPost2010PropOp34
 70
     1
102
RTVSPost2010Prop35
280
     0
102
RTVSPost2010PropOp35
 70
     1
102
RTVSPost2010Prop36
280
     0
102
RTVSPost2010PropOp36
 70
     1
102
RTVSPost2010Prop37
 90
       50
102
RTVSPost2010PropOp37
 70
     1
102
RTVSPost2010Prop38
140
0.0
102
RTVSPost2010PropOp38
 70
     1
102
RTVSPost2010Prop39
140
1.0
102
RTVSPost2010PropOp39
 70
     1
102
RTVSPost2010Prop40
 90
        0
102
RTVSPost2010PropOp40
 70
     1
102
RTVSPost2010Prop41ColorIndex
 90
       18
102
RTVSPost2010Prop41ColorRGB
 90
        0
102
RTVSPost2010PropOp41
 70
     1
102
RTVSPost2010Prop42
 90
       50
102
RTVSPost2010PropOp42
 70
     1
102
RTVSPost2010Prop43
 90
        3
102
RTVSPost2010PropOp43
 70
     1
102
RTVSPost2010Prop44ColorIndex
 90
        5
102
RTVSPost2010Prop44ColorRGB
 90
      255
102
RTVSPost2010PropOp44
 70
     1
102
RTVSPost2010Prop45
280
     0
102
RTVSPost2010PropOp45
 70
     1
102
RTVSPost2010Prop46
 90
       50
102
RTVSPost2010PropOp46
 70
     1
102
RTVSPost2010Prop47
 90
       50
102
RTVSPost2010PropOp47
 70
     1
102
RTVSPost2010Prop48
 90
       50
102
RTVSPost2010PropOp48
 70
     1
102
RTVSPost2010Prop49
280
     0
102
RTVSPost2010PropOp49
 70
     1
102
RTVSPost2010Prop50
 90
       50
102
RTVSPost2010PropOp50
 70
     1
102
RTVSPost2010Prop51ColorIndex
 90
      256
102
RTVSPost2010Prop51ColorRGB
 90
-16777216
102
RTVSPost2010PropOp51
 70
     0
102
RTVSPost2010Prop52
140
1.0
102
RTVSPost2010PropOp52
 70
     0
102
RTVSPost2010Prop53
 90
        2
102
RTVSPost2010PropOp53
 70
     1
102
RTVSPost2010Prop54
  1
strokes_ogs.tif
102
RTVSPost2010PropOp54
 70
     1
102
RTVSPost2010Prop55
280
     0
102
RTVSPost2010PropOp55
 70
     1
102
RTVSPost2010Prop56
140
1.0
102
RTVSPost2010PropOp56
 70
     1
102
RTVSPost2010Prop57
140
1.0
102
RTVSPost2010PropOp57
 70
     1
  0
XRECORD
  5
4B93B
102
{ACAD_REACTORS
330
4B93A
102
}
330
4B93A
100
AcDbXrecord
280
     1
102
RTVSPost2010Prop28
280
     0
102
RTVSPost2010PropOp28
 70
     1
102
RTVSPost2010Prop29
280
     1
102
RTVSPost2010PropOp29
 70
     1
102
RTVSPost2010Prop30
280
     1
102
RTVSPost2010PropOp30
 70
     1
102
RTVSPost2010Prop31
280
     0
102
RTVSPost2010PropOp31
 70
     1
102
RTVSPost2010Prop32
280
     0
102
RTVSPost2010PropOp32
 70
     1
102
RTVSPost2010Prop33
280
     0
102
RTVSPost2010PropOp33
 70
     1
102
RTVSPost2010Prop34
280
     0
102
RTVSPost2010PropOp34
 70
     1
102
RTVSPost2010Prop35
280
     0
102
RTVSPost2010PropOp35
 70
     1
102
RTVSPost2010Prop36
280
     0
102
RTVSPost2010PropOp36
 70
     1
102
RTVSPost2010Prop37
 90
       50
102
RTVSPost2010PropOp37
 70
     1
102
RTVSPost2010Prop38
140
0.0
102
RTVSPost2010PropOp38
 70
     1
102
RTVSPost2010Prop39
140
1.0
102
RTVSPost2010PropOp39
 70
     1
102
RTVSPost2010Prop40
 90
        0
102
RTVSPost2010PropOp40
 70
     1
102
RTVSPost2010Prop41ColorIndex
 90
       18
102
RTVSPost2010Prop41ColorRGB
 90
        0
102
RTVSPost2010PropOp41
 70
     1
102
RTVSPost2010Prop42
 90
       50
102
RTVSPost2010PropOp42
 70
     1
102
RTVSPost2010Prop43
 90
        3
102
RTVSPost2010PropOp43
 70
     1
102
RTVSPost2010Prop44ColorIndex
 90
        5
102
RTVSPost2010Prop44ColorRGB
 90
      255
102
RTVSPost2010PropOp44
 70
     1
102
RTVSPost2010Prop45
280
     0
102
RTVSPost2010PropOp45
 70
     1
102
RTVSPost2010Prop46
 90
       50
102
RTVSPost2010PropOp46
 70
     1
102
RTVSPost2010Prop47
 90
       50
102
RTVSPost2010PropOp47
 70
     1
102
RTVSPost2010Prop48
 90
       50
102
RTVSPost2010PropOp48
 70
     1
102
RTVSPost2010Prop49
280
     0
102
RTVSPost2010PropOp49
 70
     1
102
RTVSPost2010Prop50
 90
       50
102
RTVSPost2010PropOp50
 70
     1
102
RTVSPost2010Prop51ColorIndex
 90
      256
102
RTVSPost2010Prop51ColorRGB
 90
-16777216
102
RTVSPost2010PropOp51
 70
     0
102
RTVSPost2010Prop52
140
1.0
102
RTVSPost2010PropOp52
 70
     0
102
RTVSPost2010Prop53
 90
        2
102
RTVSPost2010PropOp53
 70
     1
102
RTVSPost2010Prop54
  1
strokes_ogs.tif
102
RTVSPost2010PropOp54
 70
     1
102
RTVSPost2010Prop55
280
     0
102
RTVSPost2010PropOp55
 70
     1
102
RTVSPost2010Prop56
140
1.0
102
RTVSPost2010PropOp56
 70
     1
102
RTVSPost2010Prop57
140
1.0
102
RTVSPost2010PropOp57
 70
     1
  0
XRECORD
  5
4B93F
102
{ACAD_REACTORS
330
4B93E
102
}
330
4B93E
100
AcDbXrecord
280
     1
102
RTVSPost2010Prop28
280
     0
102
RTVSPost2010PropOp28
 70
     1
102
RTVSPost2010Prop29
280
     1
102
RTVSPost2010PropOp29
 70
     1
102
RTVSPost2010Prop30
280
     1
102
RTVSPost2010PropOp30
 70
     1
102
RTVSPost2010Prop31
280
     0
102
RTVSPost2010PropOp31
 70
     1
102
RTVSPost2010Prop32
280
     0
102
RTVSPost2010PropOp32
 70
     1
102
RTVSPost2010Prop33
280
     0
102
RTVSPost2010PropOp33
 70
     1
102
RTVSPost2010Prop34
280
     0
102
RTVSPost2010PropOp34
 70
     1
102
RTVSPost2010Prop35
280
     0
102
RTVSPost2010PropOp35
 70
     1
102
RTVSPost2010Prop36
280
     0
102
RTVSPost2010PropOp36
 70
     1
102
RTVSPost2010Prop37
 90
       50
102
RTVSPost2010PropOp37
 70
     1
102
RTVSPost2010Prop38
140
0.0
102
RTVSPost2010PropOp38
 70
     1
102
RTVSPost2010Prop39
140
1.0
102
RTVSPost2010PropOp39
 70
     1
102
RTVSPost2010Prop40
 90
        0
102
RTVSPost2010PropOp40
 70
     1
102
RTVSPost2010Prop41ColorIndex
 90
       18
102
RTVSPost2010Prop41ColorRGB
 90
        0
102
RTVSPost2010PropOp41
 70
     1
102
RTVSPost2010Prop42
 90
       50
102
RTVSPost2010PropOp42
 70
     1
102
RTVSPost2010Prop43
 90
        3
102
RTVSPost2010PropOp43
 70
     1
102
RTVSPost2010Prop44ColorIndex
 90
        5
102
RTVSPost2010Prop44ColorRGB
 90
      255
102
RTVSPost2010PropOp44
 70
     1
102
RTVSPost2010Prop45
280
     0
102
RTVSPost2010PropOp45
 70
     1
102
RTVSPost2010Prop46
 90
       50
102
RTVSPost2010PropOp46
 70
     1
102
RTVSPost2010Prop47
 90
       50
102
RTVSPost2010PropOp47
 70
     1
102
RTVSPost2010Prop48
 90
       50
102
RTVSPost2010PropOp48
 70
     1
102
RTVSPost2010Prop49
280
     0
102
RTVSPost2010PropOp49
 70
     1
102
RTVSPost2010Prop50
 90
       50
102
RTVSPost2010PropOp50
 70
     1
102
RTVSPost2010Prop51ColorIndex
 90
      256
102
RTVSPost2010Prop51ColorRGB
 90
-16777216
102
RTVSPost2010PropOp51
 70
     0
102
RTVSPost2010Prop52
140
1.0
102
RTVSPost2010PropOp52
 70
     0
102
RTVSPost2010Prop53
 90
        2
102
RTVSPost2010PropOp53
 70
     1
102
RTVSPost2010Prop54
  1
strokes_ogs.tif
102
RTVSPost2010PropOp54
 70
     1
102
RTVSPost2010Prop55
280
     0
102
RTVSPost2010PropOp55
 70
     1
102
RTVSPost2010Prop56
140
1.0
102
RTVSPost2010PropOp56
 70
     1
102
RTVSPost2010Prop57
140
1.0
102
RTVSPost2010PropOp57
 70
     1
  0
XRECORD
  5
4B95D
102
{ACAD_REACTORS
330
4B95C
102
}
330
4B95C
100
AcDbXrecord
280
     1
102
RTVSPost2010Prop28
280
     0
102
RTVSPost2010PropOp28
 70
     1
102
RTVSPost2010Prop29
280
     1
102
RTVSPost2010PropOp29
 70
     1
102
RTVSPost2010Prop30
280
     1
102
RTVSPost2010PropOp30
 70
     1
102
RTVSPost2010Prop31
280
     0
102
RTVSPost2010PropOp31
 70
     1
102
RTVSPost2010Prop32
280
     0
102
RTVSPost2010PropOp32
 70
     1
102
RTVSPost2010Prop33
280
     0
102
RTVSPost2010PropOp33
 70
     1
102
RTVSPost2010Prop34
280
     0
102
RTVSPost2010PropOp34
 70
     1
102
RTVSPost2010Prop35
280
     0
102
RTVSPost2010PropOp35
 70
     1
102
RTVSPost2010Prop36
280
     0
102
RTVSPost2010PropOp36
 70
     1
102
RTVSPost2010Prop37
 90
       50
102
RTVSPost2010PropOp37
 70
     0
102
RTVSPost2010Prop38
140
0.0
102
RTVSPost2010PropOp38
 70
     0
102
RTVSPost2010Prop39
140
1.0
102
RTVSPost2010PropOp39
 70
     0
102
RTVSPost2010Prop40
 90
        0
102
RTVSPost2010PropOp40
 70
     0
102
RTVSPost2010Prop41ColorIndex
 90
       18
102
RTVSPost2010Prop41ColorRGB
 90
        0
102
RTVSPost2010PropOp41
 70
     0
102
RTVSPost2010Prop42
 90
       50
102
RTVSPost2010PropOp42
 70
     0
102
RTVSPost2010Prop43
 90
        3
102
RTVSPost2010PropOp43
 70
     0
102
RTVSPost2010Prop44ColorIndex
 90
        5
102
RTVSPost2010Prop44ColorRGB
 90
      255
102
RTVSPost2010PropOp44
 70
     0
102
RTVSPost2010Prop45
280
     0
102
RTVSPost2010PropOp45
 70
     1
102
RTVSPost2010Prop46
 90
       50
102
RTVSPost2010PropOp46
 70
     0
102
RTVSPost2010Prop47
 90
       50
102
RTVSPost2010PropOp47
 70
     0
102
RTVSPost2010Prop48
 90
       50
102
RTVSPost2010PropOp48
 70
     0
102
RTVSPost2010Prop49
280
     0
102
RTVSPost2010PropOp49
 70
     1
102
RTVSPost2010Prop50
 90
       50
102
RTVSPost2010PropOp50
 70
     0
102
RTVSPost2010Prop51ColorIndex
 90
      256
102
RTVSPost2010Prop51ColorRGB
 90
-16777216
102
RTVSPost2010PropOp51
 70
     0
102
RTVSPost2010Prop52
140
1.0
102
RTVSPost2010PropOp52
 70
     0
102
RTVSPost2010Prop53
 90
        2
102
RTVSPost2010PropOp53
 70
     0
102
RTVSPost2010Prop54
  1
strokes_ogs.tif
102
RTVSPost2010PropOp54
 70
     0
102
RTVSPost2010Prop55
280
     0
102
RTVSPost2010PropOp55
 70
     1
102
RTVSPost2010Prop56
140
1.0
102
RTVSPost2010PropOp56
 70
     0
102
RTVSPost2010Prop57
140
1.0
102
RTVSPost2010PropOp57
 70
     0
  0
XRECORD
  5
4B947
102
{ACAD_REACTORS
330
4B946
102
}
330
4B946
100
AcDbXrecord
280
     1
102
RTVSPost2010Prop28
280
     0
102
RTVSPost2010PropOp28
 70
     1
102
RTVSPost2010Prop29
280
     1
102
RTVSPost2010PropOp29
 70
     1
102
RTVSPost2010Prop30
280
     1
102
RTVSPost2010PropOp30
 70
     1
102
RTVSPost2010Prop31
280
     0
102
RTVSPost2010PropOp31
 70
     1
102
RTVSPost2010Prop32
280
     0
102
RTVSPost2010PropOp32
 70
     1
102
RTVSPost2010Prop33
280
     0
102
RTVSPost2010PropOp33
 70
     1
102
RTVSPost2010Prop34
280
     0
102
RTVSPost2010PropOp34
 70
     1
102
RTVSPost2010Prop35
280
     0
102
RTVSPost2010PropOp35
 70
     1
102
RTVSPost2010Prop36
280
     0
102
RTVSPost2010PropOp36
 70
     1
102
RTVSPost2010Prop37
 90
       50
102
RTVSPost2010PropOp37
 70
     1
102
RTVSPost2010Prop38
140
0.0
102
RTVSPost2010PropOp38
 70
     1
102
RTVSPost2010Prop39
140
1.0
102
RTVSPost2010PropOp39
 70
     1
102
RTVSPost2010Prop40
 90
        0
102
RTVSPost2010PropOp40
 70
     1
102
RTVSPost2010Prop41ColorIndex
 90
       18
102
RTVSPost2010Prop41ColorRGB
 90
        0
102
RTVSPost2010PropOp41
 70
     1
102
RTVSPost2010Prop42
 90
       50
102
RTVSPost2010PropOp42
 70
     1
102
RTVSPost2010Prop43
 90
        3
102
RTVSPost2010PropOp43
 70
     1
102
RTVSPost2010Prop44ColorIndex
 90
        5
102
RTVSPost2010Prop44ColorRGB
 90
      255
102
RTVSPost2010PropOp44
 70
     1
102
RTVSPost2010Prop45
280
     0
102
RTVSPost2010PropOp45
 70
     1
102
RTVSPost2010Prop46
 90
       50
102
RTVSPost2010PropOp46
 70
     1
102
RTVSPost2010Prop47
 90
       50
102
RTVSPost2010PropOp47
 70
     1
102
RTVSPost2010Prop48
 90
       50
102
RTVSPost2010PropOp48
 70
     1
102
RTVSPost2010Prop49
280
     0
102
RTVSPost2010PropOp49
 70
     1
102
RTVSPost2010Prop50
 90
       50
102
RTVSPost2010PropOp50
 70
     1
102
RTVSPost2010Prop51ColorIndex
 90
      256
102
RTVSPost2010Prop51ColorRGB
 90
-16777216
102
RTVSPost2010PropOp51
 70
     0
102
RTVSPost2010Prop52
140
1.0
102
RTVSPost2010PropOp52
 70
     0
102
RTVSPost2010Prop53
 90
        2
102
RTVSPost2010PropOp53
 70
     1
102
RTVSPost2010Prop54
  1
strokes_ogs.tif
102
RTVSPost2010PropOp54
 70
     1
102
RTVSPost2010Prop55
280
     0
102
RTVSPost2010PropOp55
 70
     1
102
RTVSPost2010Prop56
140
1.0
102
RTVSPost2010PropOp56
 70
     1
102
RTVSPost2010Prop57
140
1.0
102
RTVSPost2010PropOp57
 70
     1
  0
XRECORD
  5
4B92B
102
{ACAD_REACTORS
330
4B92A
102
}
330
4B92A
100
AcDbXrecord
280
     1
102
RTVSPost2010Prop28
280
     0
102
RTVSPost2010PropOp28
 70
     1
102
RTVSPost2010Prop29
280
     1
102
RTVSPost2010PropOp29
 70
     1
102
RTVSPost2010Prop30
280
     1
102
RTVSPost2010PropOp30
 70
     1
102
RTVSPost2010Prop31
280
     0
102
RTVSPost2010PropOp31
 70
     1
102
RTVSPost2010Prop32
280
     0
102
RTVSPost2010PropOp32
 70
     1
102
RTVSPost2010Prop33
280
     0
102
RTVSPost2010PropOp33
 70
     1
102
RTVSPost2010Prop34
280
     0
102
RTVSPost2010PropOp34
 70
     1
102
RTVSPost2010Prop35
280
     0
102
RTVSPost2010PropOp35
 70
     1
102
RTVSPost2010Prop36
280
     0
102
RTVSPost2010PropOp36
 70
     1
102
RTVSPost2010Prop37
 90
       50
102
RTVSPost2010PropOp37
 70
     1
102
RTVSPost2010Prop38
140
0.0
102
RTVSPost2010PropOp38
 70
     1
102
RTVSPost2010Prop39
140
1.0
102
RTVSPost2010PropOp39
 70
     1
102
RTVSPost2010Prop40
 90
        0
102
RTVSPost2010PropOp40
 70
     1
102
RTVSPost2010Prop41ColorIndex
 90
       18
102
RTVSPost2010Prop41ColorRGB
 90
        0
102
RTVSPost2010PropOp41
 70
     1
102
RTVSPost2010Prop42
 90
       50
102
RTVSPost2010PropOp42
 70
     1
102
RTVSPost2010Prop43
 90
        3
102
RTVSPost2010PropOp43
 70
     1
102
RTVSPost2010Prop44ColorIndex
 90
        5
102
RTVSPost2010Prop44ColorRGB
 90
      255
102
RTVSPost2010PropOp44
 70
     1
102
RTVSPost2010Prop45
280
     0
102
RTVSPost2010PropOp45
 70
     1
102
RTVSPost2010Prop46
 90
       50
102
RTVSPost2010PropOp46
 70
     1
102
RTVSPost2010Prop47
 90
       50
102
RTVSPost2010PropOp47
 70
     1
102
RTVSPost2010Prop48
 90
       50
102
RTVSPost2010PropOp48
 70
     1
102
RTVSPost2010Prop49
280
     0
102
RTVSPost2010PropOp49
 70
     1
102
RTVSPost2010Prop50
 90
       50
102
RTVSPost2010PropOp50
 70
     1
102
RTVSPost2010Prop51ColorIndex
 90
      256
102
RTVSPost2010Prop51ColorRGB
 90
-16777216
102
RTVSPost2010PropOp51
 70
     0
102
RTVSPost2010Prop52
140
1.0
102
RTVSPost2010PropOp52
 70
     0
102
RTVSPost2010Prop53
 90
        2
102
RTVSPost2010PropOp53
 70
     1
102
RTVSPost2010Prop54
  1
strokes_ogs.tif
102
RTVSPost2010PropOp54
 70
     1
102
RTVSPost2010Prop55
280
     0
102
RTVSPost2010PropOp55
 70
     1
102
RTVSPost2010Prop56
140
1.0
102
RTVSPost2010PropOp56
 70
     1
102
RTVSPost2010Prop57
140
1.0
102
RTVSPost2010PropOp57
 70
     1
  0
XRECORD
  5
4B92D
102
{ACAD_REACTORS
330
4B92C
102
}
330
4B92C
100
AcDbXrecord
280
     1
102
RTVSPost2010Prop28
280
     0
102
RTVSPost2010PropOp28
 70
     1
102
RTVSPost2010Prop29
280
     1
102
RTVSPost2010PropOp29
 70
     1
102
RTVSPost2010Prop30
280
     1
102
RTVSPost2010PropOp30
 70
     1
102
RTVSPost2010Prop31
280
     0
102
RTVSPost2010PropOp31
 70
     1
102
RTVSPost2010Prop32
280
     0
102
RTVSPost2010PropOp32
 70
     1
102
RTVSPost2010Prop33
280
     0
102
RTVSPost2010PropOp33
 70
     1
102
RTVSPost2010Prop34
280
     0
102
RTVSPost2010PropOp34
 70
     1
102
RTVSPost2010Prop35
280
     0
102
RTVSPost2010PropOp35
 70
     1
102
RTVSPost2010Prop36
280
     0
102
RTVSPost2010PropOp36
 70
     1
102
RTVSPost2010Prop37
 90
       50
102
RTVSPost2010PropOp37
 70
     1
102
RTVSPost2010Prop38
140
0.0
102
RTVSPost2010PropOp38
 70
     1
102
RTVSPost2010Prop39
140
1.0
102
RTVSPost2010PropOp39
 70
     1
102
RTVSPost2010Prop40
 90
        0
102
RTVSPost2010PropOp40
 70
     1
102
RTVSPost2010Prop41ColorIndex
 90
       18
102
RTVSPost2010Prop41ColorRGB
 90
        0
102
RTVSPost2010PropOp41
 70
     1
102
RTVSPost2010Prop42
 90
       50
102
RTVSPost2010PropOp42
 70
     1
102
RTVSPost2010Prop43
 90
        3
102
RTVSPost2010PropOp43
 70
     1
102
RTVSPost2010Prop44ColorIndex
 90
        5
102
RTVSPost2010Prop44ColorRGB
 90
      255
102
RTVSPost2010PropOp44
 70
     1
102
RTVSPost2010Prop45
280
     0
102
RTVSPost2010PropOp45
 70
     1
102
RTVSPost2010Prop46
 90
       50
102
RTVSPost2010PropOp46
 70
     1
102
RTVSPost2010Prop47
 90
       50
102
RTVSPost2010PropOp47
 70
     1
102
RTVSPost2010Prop48
 90
       50
102
RTVSPost2010PropOp48
 70
     1
102
RTVSPost2010Prop49
280
     0
102
RTVSPost2010PropOp49
 70
     1
102
RTVSPost2010Prop50
 90
       50
102
RTVSPost2010PropOp50
 70
     1
102
RTVSPost2010Prop51ColorIndex
 90
      256
102
RTVSPost2010Prop51ColorRGB
 90
-16777216
102
RTVSPost2010PropOp51
 70
     0
102
RTVSPost2010Prop52
140
1.0
102
RTVSPost2010PropOp52
 70
     0
102
RTVSPost2010Prop53
 90
        2
102
RTVSPost2010PropOp53
 70
     1
102
RTVSPost2010Prop54
  1
strokes_ogs.tif
102
RTVSPost2010PropOp54
 70
     1
102
RTVSPost2010Prop55
280
     0
102
RTVSPost2010PropOp55
 70
     1
102
RTVSPost2010Prop56
140
1.0
102
RTVSPost2010PropOp56
 70
     1
102
RTVSPost2010Prop57
140
1.0
102
RTVSPost2010PropOp57
 70
     1
  0
XRECORD
  5
4B92F
102
{ACAD_REACTORS
330
4B92E
102
}
330
4B92E
100
AcDbXrecord
280
     1
102
RTVSPost2010Prop28
280
     0
102
RTVSPost2010PropOp28
 70
     1
102
RTVSPost2010Prop29
280
     1
102
RTVSPost2010PropOp29
 70
     1
102
RTVSPost2010Prop30
280
     1
102
RTVSPost2010PropOp30
 70
     1
102
RTVSPost2010Prop31
280
     0
102
RTVSPost2010PropOp31
 70
     1
102
RTVSPost2010Prop32
280
     0
102
RTVSPost2010PropOp32
 70
     1
102
RTVSPost2010Prop33
280
     0
102
RTVSPost2010PropOp33
 70
     1
102
RTVSPost2010Prop34
280
     0
102
RTVSPost2010PropOp34
 70
     1
102
RTVSPost2010Prop35
280
     0
102
RTVSPost2010PropOp35
 70
     1
102
RTVSPost2010Prop36
280
     0
102
RTVSPost2010PropOp36
 70
     1
102
RTVSPost2010Prop37
 90
       50
102
RTVSPost2010PropOp37
 70
     1
102
RTVSPost2010Prop38
140
0.0
102
RTVSPost2010PropOp38
 70
     1
102
RTVSPost2010Prop39
140
1.0
102
RTVSPost2010PropOp39
 70
     1
102
RTVSPost2010Prop40
 90
        0
102
RTVSPost2010PropOp40
 70
     1
102
RTVSPost2010Prop41ColorIndex
 90
       18
102
RTVSPost2010Prop41ColorRGB
 90
        0
102
RTVSPost2010PropOp41
 70
     1
102
RTVSPost2010Prop42
 90
       50
102
RTVSPost2010PropOp42
 70
     1
102
RTVSPost2010Prop43
 90
        3
102
RTVSPost2010PropOp43
 70
     1
102
RTVSPost2010Prop44ColorIndex
 90
        5
102
RTVSPost2010Prop44ColorRGB
 90
      255
102
RTVSPost2010PropOp44
 70
     1
102
RTVSPost2010Prop45
280
     0
102
RTVSPost2010PropOp45
 70
     1
102
RTVSPost2010Prop46
 90
       50
102
RTVSPost2010PropOp46
 70
     1
102
RTVSPost2010Prop47
 90
       50
102
RTVSPost2010PropOp47
 70
     1
102
RTVSPost2010Prop48
 90
       50
102
RTVSPost2010PropOp48
 70
     1
102
RTVSPost2010Prop49
280
     0
102
RTVSPost2010PropOp49
 70
     1
102
RTVSPost2010Prop50
 90
       50
102
RTVSPost2010PropOp50
 70
     1
102
RTVSPost2010Prop51ColorIndex
 90
      256
102
RTVSPost2010Prop51ColorRGB
 90
-16777216
102
RTVSPost2010PropOp51
 70
     0
102
RTVSPost2010Prop52
140
1.0
102
RTVSPost2010PropOp52
 70
     0
102
RTVSPost2010Prop53
 90
        2
102
RTVSPost2010PropOp53
 70
     1
102
RTVSPost2010Prop54
  1
strokes_ogs.tif
102
RTVSPost2010PropOp54
 70
     1
102
RTVSPost2010Prop55
280
     0
102
RTVSPost2010PropOp55
 70
     1
102
RTVSPost2010Prop56
140
1.0
102
RTVSPost2010PropOp56
 70
     1
102
RTVSPost2010Prop57
140
1.0
102
RTVSPost2010PropOp57
 70
     1
  0
XRECORD
  5
4B931
102
{ACAD_REACTORS
330
4B930
102
}
330
4B930
100
AcDbXrecord
280
     1
102
RTVSPost2010Prop28
280
     0
102
RTVSPost2010PropOp28
 70
     1
102
RTVSPost2010Prop29
280
     1
102
RTVSPost2010PropOp29
 70
     1
102
RTVSPost2010Prop30
280
     1
102
RTVSPost2010PropOp30
 70
     1
102
RTVSPost2010Prop31
280
     0
102
RTVSPost2010PropOp31
 70
     1
102
RTVSPost2010Prop32
280
     0
102
RTVSPost2010PropOp32
 70
     1
102
RTVSPost2010Prop33
280
     0
102
RTVSPost2010PropOp33
 70
     1
102
RTVSPost2010Prop34
280
     0
102
RTVSPost2010PropOp34
 70
     1
102
RTVSPost2010Prop35
280
     0
102
RTVSPost2010PropOp35
 70
     1
102
RTVSPost2010Prop36
280
     0
102
RTVSPost2010PropOp36
 70
     1
102
RTVSPost2010Prop37
 90
       50
102
RTVSPost2010PropOp37
 70
     1
102
RTVSPost2010Prop38
140
0.0
102
RTVSPost2010PropOp38
 70
     1
102
RTVSPost2010Prop39
140
1.0
102
RTVSPost2010PropOp39
 70
     1
102
RTVSPost2010Prop40
 90
        0
102
RTVSPost2010PropOp40
 70
     1
102
RTVSPost2010Prop41ColorIndex
 90
       18
102
RTVSPost2010Prop41ColorRGB
 90
        0
102
RTVSPost2010PropOp41
 70
     1
102
RTVSPost2010Prop42
 90
       50
102
RTVSPost2010PropOp42
 70
     1
102
RTVSPost2010Prop43
 90
        3
102
RTVSPost2010PropOp43
 70
     1
102
RTVSPost2010Prop44ColorIndex
 90
        5
102
RTVSPost2010Prop44ColorRGB
 90
      255
102
RTVSPost2010PropOp44
 70
     1
102
RTVSPost2010Prop45
280
     0
102
RTVSPost2010PropOp45
 70
     1
102
RTVSPost2010Prop46
 90
       50
102
RTVSPost2010PropOp46
 70
     1
102
RTVSPost2010Prop47
 90
       50
102
RTVSPost2010PropOp47
 70
     1
102
RTVSPost2010Prop48
 90
       50
102
RTVSPost2010PropOp48
 70
     1
102
RTVSPost2010Prop49
280
     0
102
RTVSPost2010PropOp49
 70
     1
102
RTVSPost2010Prop50
 90
       50
102
RTVSPost2010PropOp50
 70
     1
102
RTVSPost2010Prop51ColorIndex
 90
      256
102
RTVSPost2010Prop51ColorRGB
 90
-16777216
102
RTVSPost2010PropOp51
 70
     0
102
RTVSPost2010Prop52
140
1.0
102
RTVSPost2010PropOp52
 70
     0
102
RTVSPost2010Prop53
 90
        2
102
RTVSPost2010PropOp53
 70
     1
102
RTVSPost2010Prop54
  1
strokes_ogs.tif
102
RTVSPost2010PropOp54
 70
     1
102
RTVSPost2010Prop55
280
     0
102
RTVSPost2010PropOp55
 70
     1
102
RTVSPost2010Prop56
140
1.0
102
RTVSPost2010PropOp56
 70
     1
102
RTVSPost2010Prop57
140
1.0
102
RTVSPost2010PropOp57
 70
     1
  0
XRECORD
  5
4B94D
102
{ACAD_REACTORS
330
4B94C
102
}
330
4B94C
100
AcDbXrecord
280
     1
102
RTVSPost2010Prop28
280
     0
102
RTVSPost2010PropOp28
 70
     1
102
RTVSPost2010Prop29
280
     1
102
RTVSPost2010PropOp29
 70
     1
102
RTVSPost2010Prop30
280
     1
102
RTVSPost2010PropOp30
 70
     1
102
RTVSPost2010Prop31
280
     0
102
RTVSPost2010PropOp31
 70
     1
102
RTVSPost2010Prop32
280
     0
102
RTVSPost2010PropOp32
 70
     1
102
RTVSPost2010Prop33
280
     0
102
RTVSPost2010PropOp33
 70
     1
102
RTVSPost2010Prop34
280
     0
102
RTVSPost2010PropOp34
 70
     1
102
RTVSPost2010Prop35
280
     0
102
RTVSPost2010PropOp35
 70
     1
102
RTVSPost2010Prop36
280
     0
102
RTVSPost2010PropOp36
 70
     1
102
RTVSPost2010Prop37
 90
       50
102
RTVSPost2010PropOp37
 70
     1
102
RTVSPost2010Prop38
140
0.0
102
RTVSPost2010PropOp38
 70
     1
102
RTVSPost2010Prop39
140
1.0
102
RTVSPost2010PropOp39
 70
     1
102
RTVSPost2010Prop40
 90
        0
102
RTVSPost2010PropOp40
 70
     1
102
RTVSPost2010Prop41ColorIndex
 90
       18
102
RTVSPost2010Prop41ColorRGB
 90
        0
102
RTVSPost2010PropOp41
 70
     1
102
RTVSPost2010Prop42
 90
       50
102
RTVSPost2010PropOp42
 70
     1
102
RTVSPost2010Prop43
 90
        3
102
RTVSPost2010PropOp43
 70
     1
102
RTVSPost2010Prop44ColorIndex
 90
        5
102
RTVSPost2010Prop44ColorRGB
 90
      255
102
RTVSPost2010PropOp44
 70
     1
102
RTVSPost2010Prop45
280
     0
102
RTVSPost2010PropOp45
 70
     1
102
RTVSPost2010Prop46
 90
       50
102
RTVSPost2010PropOp46
 70
     1
102
RTVSPost2010Prop47
 90
       50
102
RTVSPost2010PropOp47
 70
     1
102
RTVSPost2010Prop48
 90
       50
102
RTVSPost2010PropOp48
 70
     1
102
RTVSPost2010Prop49
280
     0
102
RTVSPost2010PropOp49
 70
     1
102
RTVSPost2010Prop50
 90
       50
102
RTVSPost2010PropOp50
 70
     1
102
RTVSPost2010Prop51ColorIndex
 90
      256
102
RTVSPost2010Prop51ColorRGB
 90
-16777216
102
RTVSPost2010PropOp51
 70
     0
102
RTVSPost2010Prop52
140
1.0
102
RTVSPost2010PropOp52
 70
     0
102
RTVSPost2010Prop53
 90
        2
102
RTVSPost2010PropOp53
 70
     1
102
RTVSPost2010Prop54
  1
strokes_ogs.tif
102
RTVSPost2010PropOp54
 70
     1
102
RTVSPost2010Prop55
280
     0
102
RTVSPost2010PropOp55
 70
     1
102
RTVSPost2010Prop56
140
1.0
102
RTVSPost2010PropOp56
 70
     1
102
RTVSPost2010Prop57
140
1.0
102
RTVSPost2010PropOp57
 70
     1
  0
XRECORD
  5
4B959
102
{ACAD_REACTORS
330
4B958
102
}
330
4B958
100
AcDbXrecord
280
     1
102
RTVSPost2010Prop28
280
     0
102
RTVSPost2010PropOp28
 70
     1
102
RTVSPost2010Prop29
280
     1
102
RTVSPost2010PropOp29
 70
     1
102
RTVSPost2010Prop30
280
     1
102
RTVSPost2010PropOp30
 70
     1
102
RTVSPost2010Prop31
280
     0
102
RTVSPost2010PropOp31
 70
     1
102
RTVSPost2010Prop32
280
     0
102
RTVSPost2010PropOp32
 70
     1
102
RTVSPost2010Prop33
280
     0
102
RTVSPost2010PropOp33
 70
     1
102
RTVSPost2010Prop34
280
     0
102
RTVSPost2010PropOp34
 70
     1
102
RTVSPost2010Prop35
280
     0
102
RTVSPost2010PropOp35
 70
     1
102
RTVSPost2010Prop36
280
     0
102
RTVSPost2010PropOp36
 70
     1
102
RTVSPost2010Prop37
 90
       50
102
RTVSPost2010PropOp37
 70
     0
102
RTVSPost2010Prop38
140
0.0
102
RTVSPost2010PropOp38
 70
     0
102
RTVSPost2010Prop39
140
1.0
102
RTVSPost2010PropOp39
 70
     0
102
RTVSPost2010Prop40
 90
        0
102
RTVSPost2010PropOp40
 70
     0
102
RTVSPost2010Prop41ColorIndex
 90
       18
102
RTVSPost2010Prop41ColorRGB
 90
        0
102
RTVSPost2010PropOp41
 70
     0
102
RTVSPost2010Prop42
 90
       50
102
RTVSPost2010PropOp42
 70
     0
102
RTVSPost2010Prop43
 90
        3
102
RTVSPost2010PropOp43
 70
     0
102
RTVSPost2010Prop44ColorIndex
 90
        5
102
RTVSPost2010Prop44ColorRGB
 90
      255
102
RTVSPost2010PropOp44
 70
     0
102
RTVSPost2010Prop45
280
     0
102
RTVSPost2010PropOp45
 70
     1
102
RTVSPost2010Prop46
 90
       50
102
RTVSPost2010PropOp46
 70
     0
102
RTVSPost2010Prop47
 90
       50
102
RTVSPost2010PropOp47
 70
     0
102
RTVSPost2010Prop48
 90
       50
102
RTVSPost2010PropOp48
 70
     0
102
RTVSPost2010Prop49
280
     0
102
RTVSPost2010PropOp49
 70
     1
102
RTVSPost2010Prop50
 90
       50
102
RTVSPost2010PropOp50
 70
     0
102
RTVSPost2010Prop51ColorIndex
 90
      256
102
RTVSPost2010Prop51ColorRGB
 90
-16777216
102
RTVSPost2010PropOp51
 70
     0
102
RTVSPost2010Prop52
140
1.0
102
RTVSPost2010PropOp52
 70
     0
102
RTVSPost2010Prop53
 90
        2
102
RTVSPost2010PropOp53
 70
     0
102
RTVSPost2010Prop54
  1
strokes_ogs.tif
102
RTVSPost2010PropOp54
 70
     0
102
RTVSPost2010Prop55
280
     0
102
RTVSPost2010PropOp55
 70
     1
102
RTVSPost2010Prop56
140
1.0
102
RTVSPost2010PropOp56
 70
     0
102
RTVSPost2010Prop57
140
1.0
102
RTVSPost2010PropOp57
 70
     0
  0
XRECORD
  5
4B945
102
{ACAD_REACTORS
330
4B944
102
}
330
4B944
100
AcDbXrecord
280
     1
102
RTVSPost2010Prop28
280
     0
102
RTVSPost2010PropOp28
 70
     1
102
RTVSPost2010Prop29
280
     1
102
RTVSPost2010PropOp29
 70
     1
102
RTVSPost2010Prop30
280
     1
102
RTVSPost2010PropOp30
 70
     1
102
RTVSPost2010Prop31
280
     0
102
RTVSPost2010PropOp31
 70
     1
102
RTVSPost2010Prop32
280
     0
102
RTVSPost2010PropOp32
 70
     1
102
RTVSPost2010Prop33
280
     0
102
RTVSPost2010PropOp33
 70
     1
102
RTVSPost2010Prop34
280
     0
102
RTVSPost2010PropOp34
 70
     1
102
RTVSPost2010Prop35
280
     0
102
RTVSPost2010PropOp35
 70
     1
102
RTVSPost2010Prop36
280
     0
102
RTVSPost2010PropOp36
 70
     1
102
RTVSPost2010Prop37
 90
       50
102
RTVSPost2010PropOp37
 70
     1
102
RTVSPost2010Prop38
140
0.0
102
RTVSPost2010PropOp38
 70
     1
102
RTVSPost2010Prop39
140
1.0
102
RTVSPost2010PropOp39
 70
     1
102
RTVSPost2010Prop40
 90
        0
102
RTVSPost2010PropOp40
 70
     1
102
RTVSPost2010Prop41ColorIndex
 90
       18
102
RTVSPost2010Prop41ColorRGB
 90
        0
102
RTVSPost2010PropOp41
 70
     1
102
RTVSPost2010Prop42
 90
       50
102
RTVSPost2010PropOp42
 70
     1
102
RTVSPost2010Prop43
 90
        3
102
RTVSPost2010PropOp43
 70
     1
102
RTVSPost2010Prop44ColorIndex
 90
        5
102
RTVSPost2010Prop44ColorRGB
 90
      255
102
RTVSPost2010PropOp44
 70
     1
102
RTVSPost2010Prop45
280
     0
102
RTVSPost2010PropOp45
 70
     1
102
RTVSPost2010Prop46
 90
       50
102
RTVSPost2010PropOp46
 70
     1
102
RTVSPost2010Prop47
 90
       50
102
RTVSPost2010PropOp47
 70
     1
102
RTVSPost2010Prop48
 90
       50
102
RTVSPost2010PropOp48
 70
     1
102
RTVSPost2010Prop49
280
     0
102
RTVSPost2010PropOp49
 70
     1
102
RTVSPost2010Prop50
 90
       50
102
RTVSPost2010PropOp50
 70
     1
102
RTVSPost2010Prop51ColorIndex
 90
      256
102
RTVSPost2010Prop51ColorRGB
 90
-16777216
102
RTVSPost2010PropOp51
 70
     0
102
RTVSPost2010Prop52
140
1.0
102
RTVSPost2010PropOp52
 70
     0
102
RTVSPost2010Prop53
 90
        2
102
RTVSPost2010PropOp53
 70
     1
102
RTVSPost2010Prop54
  1
strokes_ogs.tif
102
RTVSPost2010PropOp54
 70
     1
102
RTVSPost2010Prop55
280
     0
102
RTVSPost2010PropOp55
 70
     1
102
RTVSPost2010Prop56
140
1.0
102
RTVSPost2010PropOp56
 70
     1
102
RTVSPost2010Prop57
140
1.0
102
RTVSPost2010PropOp57
 70
     1
  0
XRECORD
  5
4B95B
102
{ACAD_REACTORS
330
4B95A
102
}
330
4B95A
100
AcDbXrecord
280
     1
102
RTVSPost2010Prop28
280
     0
102
RTVSPost2010PropOp28
 70
     1
102
RTVSPost2010Prop29
280
     1
102
RTVSPost2010PropOp29
 70
     1
102
RTVSPost2010Prop30
280
     1
102
RTVSPost2010PropOp30
 70
     1
102
RTVSPost2010Prop31
280
     0
102
RTVSPost2010PropOp31
 70
     1
102
RTVSPost2010Prop32
280
     0
102
RTVSPost2010PropOp32
 70
     1
102
RTVSPost2010Prop33
280
     0
102
RTVSPost2010PropOp33
 70
     1
102
RTVSPost2010Prop34
280
     0
102
RTVSPost2010PropOp34
 70
     1
102
RTVSPost2010Prop35
280
     0
102
RTVSPost2010PropOp35
 70
     1
102
RTVSPost2010Prop36
280
     0
102
RTVSPost2010PropOp36
 70
     1
102
RTVSPost2010Prop37
 90
       50
102
RTVSPost2010PropOp37
 70
     0
102
RTVSPost2010Prop38
140
0.0
102
RTVSPost2010PropOp38
 70
     0
102
RTVSPost2010Prop39
140
1.0
102
RTVSPost2010PropOp39
 70
     0
102
RTVSPost2010Prop40
 90
        0
102
RTVSPost2010PropOp40
 70
     0
102
RTVSPost2010Prop41ColorIndex
 90
       18
102
RTVSPost2010Prop41ColorRGB
 90
        0
102
RTVSPost2010PropOp41
 70
     0
102
RTVSPost2010Prop42
 90
       50
102
RTVSPost2010PropOp42
 70
     0
102
RTVSPost2010Prop43
 90
        3
102
RTVSPost2010PropOp43
 70
     0
102
RTVSPost2010Prop44ColorIndex
 90
        5
102
RTVSPost2010Prop44ColorRGB
 90
      255
102
RTVSPost2010PropOp44
 70
     0
102
RTVSPost2010Prop45
280
     0
102
RTVSPost2010PropOp45
 70
     1
102
RTVSPost2010Prop46
 90
       50
102
RTVSPost2010PropOp46
 70
     0
102
RTVSPost2010Prop47
 90
       50
102
RTVSPost2010PropOp47
 70
     0
102
RTVSPost2010Prop48
 90
       50
102
RTVSPost2010PropOp48
 70
     0
102
RTVSPost2010Prop49
280
     0
102
RTVSPost2010PropOp49
 70
     1
102
RTVSPost2010Prop50
 90
       50
102
RTVSPost2010PropOp50
 70
     0
102
RTVSPost2010Prop51ColorIndex
 90
      256
102
RTVSPost2010Prop51ColorRGB
 90
-16777216
102
RTVSPost2010PropOp51
 70
     0
102
RTVSPost2010Prop52
140
1.0
102
RTVSPost2010PropOp52
 70
     0
102
RTVSPost2010Prop53
 90
        2
102
RTVSPost2010PropOp53
 70
     0
102
RTVSPost2010Prop54
  1
strokes_ogs.tif
102
RTVSPost2010PropOp54
 70
     0
102
RTVSPost2010Prop55
280
     0
102
RTVSPost2010PropOp55
 70
     1
102
RTVSPost2010Prop56
140
1.0
102
RTVSPost2010PropOp56
 70
     0
102
RTVSPost2010Prop57
140
1.0
102
RTVSPost2010PropOp57
 70
     0
  0
XRECORD
  5
4B93D
102
{ACAD_REACTORS
330
4B93C
102
}
330
4B93C
100
AcDbXrecord
280
     1
102
RTVSPost2010Prop28
280
     0
102
RTVSPost2010PropOp28
 70
     1
102
RTVSPost2010Prop29
280
     1
102
RTVSPost2010PropOp29
 70
     1
102
RTVSPost2010Prop30
280
     1
102
RTVSPost2010PropOp30
 70
     1
102
RTVSPost2010Prop31
280
     0
102
RTVSPost2010PropOp31
 70
     1
102
RTVSPost2010Prop32
280
     0
102
RTVSPost2010PropOp32
 70
     1
102
RTVSPost2010Prop33
280
     0
102
RTVSPost2010PropOp33
 70
     1
102
RTVSPost2010Prop34
280
     0
102
RTVSPost2010PropOp34
 70
     1
102
RTVSPost2010Prop35
280
     0
102
RTVSPost2010PropOp35
 70
     1
102
RTVSPost2010Prop36
280
     0
102
RTVSPost2010PropOp36
 70
     1
102
RTVSPost2010Prop37
 90
       50
102
RTVSPost2010PropOp37
 70
     1
102
RTVSPost2010Prop38
140
0.0
102
RTVSPost2010PropOp38
 70
     1
102
RTVSPost2010Prop39
140
1.0
102
RTVSPost2010PropOp39
 70
     1
102
RTVSPost2010Prop40
 90
        0
102
RTVSPost2010PropOp40
 70
     1
102
RTVSPost2010Prop41ColorIndex
 90
       18
102
RTVSPost2010Prop41ColorRGB
 90
        0
102
RTVSPost2010PropOp41
 70
     1
102
RTVSPost2010Prop42
 90
       50
102
RTVSPost2010PropOp42
 70
     1
102
RTVSPost2010Prop43
 90
        3
102
RTVSPost2010PropOp43
 70
     1
102
RTVSPost2010Prop44ColorIndex
 90
        5
102
RTVSPost2010Prop44ColorRGB
 90
      255
102
RTVSPost2010PropOp44
 70
     1
102
RTVSPost2010Prop45
280
     0
102
RTVSPost2010PropOp45
 70
     1
102
RTVSPost2010Prop46
 90
       50
102
RTVSPost2010PropOp46
 70
     1
102
RTVSPost2010Prop47
 90
       50
102
RTVSPost2010PropOp47
 70
     1
102
RTVSPost2010Prop48
 90
       50
102
RTVSPost2010PropOp48
 70
     1
102
RTVSPost2010Prop49
280
     0
102
RTVSPost2010PropOp49
 70
     1
102
RTVSPost2010Prop50
 90
       50
102
RTVSPost2010PropOp50
 70
     1
102
RTVSPost2010Prop51ColorIndex
 90
      256
102
RTVSPost2010Prop51ColorRGB
 90
-16777216
102
RTVSPost2010PropOp51
 70
     0
102
RTVSPost2010Prop52
140
1.0
102
RTVSPost2010PropOp52
 70
     0
102
RTVSPost2010Prop53
 90
        2
102
RTVSPost2010PropOp53
 70
     1
102
RTVSPost2010Prop54
  1
strokes_ogs.tif
102
RTVSPost2010PropOp54
 70
     1
102
RTVSPost2010Prop55
280
     0
102
RTVSPost2010PropOp55
 70
     1
102
RTVSPost2010Prop56
140
1.0
102
RTVSPost2010PropOp56
 70
     1
102
RTVSPost2010Prop57
140
1.0
102
RTVSPost2010PropOp57
 70
     1
  0
XRECORD
  5
4B957
102
{ACAD_REACTORS
330
4B956
102
}
330
4B956
100
AcDbXrecord
280
     1
102
RTVSPost2010Prop28
280
     0
102
RTVSPost2010PropOp28
 70
     1
102
RTVSPost2010Prop29
280
     1
102
RTVSPost2010PropOp29
 70
     1
102
RTVSPost2010Prop30
280
     1
102
RTVSPost2010PropOp30
 70
     1
102
RTVSPost2010Prop31
280
     0
102
RTVSPost2010PropOp31
 70
     1
102
RTVSPost2010Prop32
280
     0
102
RTVSPost2010PropOp32
 70
     1
102
RTVSPost2010Prop33
280
     0
102
RTVSPost2010PropOp33
 70
     1
102
RTVSPost2010Prop34
280
     0
102
RTVSPost2010PropOp34
 70
     1
102
RTVSPost2010Prop35
280
     0
102
RTVSPost2010PropOp35
 70
     1
102
RTVSPost2010Prop36
280
     0
102
RTVSPost2010PropOp36
 70
     1
102
RTVSPost2010Prop37
 90
       50
102
RTVSPost2010PropOp37
 70
     1
102
RTVSPost2010Prop38
140
0.0
102
RTVSPost2010PropOp38
 70
     1
102
RTVSPost2010Prop39
140
1.0
102
RTVSPost2010PropOp39
 70
     1
102
RTVSPost2010Prop40
 90
        0
102
RTVSPost2010PropOp40
 70
     1
102
RTVSPost2010Prop41ColorIndex
 90
       18
102
RTVSPost2010Prop41ColorRGB
 90
        0
102
RTVSPost2010PropOp41
 70
     1
102
RTVSPost2010Prop42
 90
       50
102
RTVSPost2010PropOp42
 70
     1
102
RTVSPost2010Prop43
 90
        3
102
RTVSPost2010PropOp43
 70
     1
102
RTVSPost2010Prop44ColorIndex
 90
        5
102
RTVSPost2010Prop44ColorRGB
 90
      255
102
RTVSPost2010PropOp44
 70
     1
102
RTVSPost2010Prop45
280
     0
102
RTVSPost2010PropOp45
 70
     1
102
RTVSPost2010Prop46
 90
       50
102
RTVSPost2010PropOp46
 70
     1
102
RTVSPost2010Prop47
 90
       50
102
RTVSPost2010PropOp47
 70
     1
102
RTVSPost2010Prop48
 90
       50
102
RTVSPost2010PropOp48
 70
     1
102
RTVSPost2010Prop49
280
     0
102
RTVSPost2010PropOp49
 70
     1
102
RTVSPost2010Prop50
 90
       50
102
RTVSPost2010PropOp50
 70
     1
102
RTVSPost2010Prop51ColorIndex
 90
      256
102
RTVSPost2010Prop51ColorRGB
 90
-16777216
102
RTVSPost2010PropOp51
 70
     0
102
RTVSPost2010Prop52
140
1.0
102
RTVSPost2010PropOp52
 70
     0
102
RTVSPost2010Prop53
 90
        2
102
RTVSPost2010PropOp53
 70
     1
102
RTVSPost2010Prop54
  1
strokes_ogs.tif
102
RTVSPost2010PropOp54
 70
     1
102
RTVSPost2010Prop55
280
     0
102
RTVSPost2010PropOp55
 70
     1
102
RTVSPost2010Prop56
140
1.0
102
RTVSPost2010PropOp56
 70
     1
102
RTVSPost2010Prop57
140
1.0
102
RTVSPost2010PropOp57
 70
     1
  0
XRECORD
  5
4B955
102
{ACAD_REACTORS
330
4B954
102
}
330
4B954
100
AcDbXrecord
280
     1
102
RTVSPost2010Prop28
280
     0
102
RTVSPost2010PropOp28
 70
     1
102
RTVSPost2010Prop29
280
     1
102
RTVSPost2010PropOp29
 70
     1
102
RTVSPost2010Prop30
280
     1
102
RTVSPost2010PropOp30
 70
     1
102
RTVSPost2010Prop31
280
     0
102
RTVSPost2010PropOp31
 70
     1
102
RTVSPost2010Prop32
280
     0
102
RTVSPost2010PropOp32
 70
     1
102
RTVSPost2010Prop33
280
     0
102
RTVSPost2010PropOp33
 70
     1
102
RTVSPost2010Prop34
280
     0
102
RTVSPost2010PropOp34
 70
     1
102
RTVSPost2010Prop35
280
     0
102
RTVSPost2010PropOp35
 70
     1
102
RTVSPost2010Prop36
280
     0
102
RTVSPost2010PropOp36
 70
     1
102
RTVSPost2010Prop37
 90
       50
102
RTVSPost2010PropOp37
 70
     1
102
RTVSPost2010Prop38
140
0.0
102
RTVSPost2010PropOp38
 70
     1
102
RTVSPost2010Prop39
140
1.0
102
RTVSPost2010PropOp39
 70
     1
102
RTVSPost2010Prop40
 90
        0
102
RTVSPost2010PropOp40
 70
     1
102
RTVSPost2010Prop41ColorIndex
 90
       18
102
RTVSPost2010Prop41ColorRGB
 90
        0
102
RTVSPost2010PropOp41
 70
     1
102
RTVSPost2010Prop42
 90
       50
102
RTVSPost2010PropOp42
 70
     1
102
RTVSPost2010Prop43
 90
        3
102
RTVSPost2010PropOp43
 70
     1
102
RTVSPost2010Prop44ColorIndex
 90
        5
102
RTVSPost2010Prop44ColorRGB
 90
      255
102
RTVSPost2010PropOp44
 70
     1
102
RTVSPost2010Prop45
280
     0
102
RTVSPost2010PropOp45
 70
     1
102
RTVSPost2010Prop46
 90
       50
102
RTVSPost2010PropOp46
 70
     1
102
RTVSPost2010Prop47
 90
       50
102
RTVSPost2010PropOp47
 70
     1
102
RTVSPost2010Prop48
 90
       50
102
RTVSPost2010PropOp48
 70
     1
102
RTVSPost2010Prop49
280
     0
102
RTVSPost2010PropOp49
 70
     1
102
RTVSPost2010Prop50
 90
       50
102
RTVSPost2010PropOp50
 70
     1
102
RTVSPost2010Prop51ColorIndex
 90
      256
102
RTVSPost2010Prop51ColorRGB
 90
-16777216
102
RTVSPost2010PropOp51
 70
     0
102
RTVSPost2010Prop52
140
1.0
102
RTVSPost2010PropOp52
 70
     0
102
RTVSPost2010Prop53
 90
        2
102
RTVSPost2010PropOp53
 70
     1
102
RTVSPost2010Prop54
  1
strokes_ogs.tif
102
RTVSPost2010PropOp54
 70
     1
102
RTVSPost2010Prop55
280
     0
102
RTVSPost2010PropOp55
 70
     1
102
RTVSPost2010Prop56
140
1.0
102
RTVSPost2010PropOp56
 70
     1
102
RTVSPost2010Prop57
140
1.0
102
RTVSPost2010PropOp57
 70
     1
  0
XRECORD
  5
4B94F
102
{ACAD_REACTORS
330
4B94E
102
}
330
4B94E
100
AcDbXrecord
280
     1
102
RTVSPost2010Prop28
280
     0
102
RTVSPost2010PropOp28
 70
     1
102
RTVSPost2010Prop29
280
     1
102
RTVSPost2010PropOp29
 70
     1
102
RTVSPost2010Prop30
280
     1
102
RTVSPost2010PropOp30
 70
     1
102
RTVSPost2010Prop31
280
     0
102
RTVSPost2010PropOp31
 70
     1
102
RTVSPost2010Prop32
280
     0
102
RTVSPost2010PropOp32
 70
     1
102
RTVSPost2010Prop33
280
     0
102
RTVSPost2010PropOp33
 70
     1
102
RTVSPost2010Prop34
280
     0
102
RTVSPost2010PropOp34
 70
     1
102
RTVSPost2010Prop35
280
     0
102
RTVSPost2010PropOp35
 70
     1
102
RTVSPost2010Prop36
280
     0
102
RTVSPost2010PropOp36
 70
     1
102
RTVSPost2010Prop37
 90
       50
102
RTVSPost2010PropOp37
 70
     1
102
RTVSPost2010Prop38
140
0.0
102
RTVSPost2010PropOp38
 70
     1
102
RTVSPost2010Prop39
140
1.0
102
RTVSPost2010PropOp39
 70
     1
102
RTVSPost2010Prop40
 90
        0
102
RTVSPost2010PropOp40
 70
     1
102
RTVSPost2010Prop41ColorIndex
 90
       18
102
RTVSPost2010Prop41ColorRGB
 90
        0
102
RTVSPost2010PropOp41
 70
     1
102
RTVSPost2010Prop42
 90
       50
102
RTVSPost2010PropOp42
 70
     1
102
RTVSPost2010Prop43
 90
        3
102
RTVSPost2010PropOp43
 70
     1
102
RTVSPost2010Prop44ColorIndex
 90
        5
102
RTVSPost2010Prop44ColorRGB
 90
      255
102
RTVSPost2010PropOp44
 70
     1
102
RTVSPost2010Prop45
280
     0
102
RTVSPost2010PropOp45
 70
     1
102
RTVSPost2010Prop46
 90
       50
102
RTVSPost2010PropOp46
 70
     1
102
RTVSPost2010Prop47
 90
       50
102
RTVSPost2010PropOp47
 70
     1
102
RTVSPost2010Prop48
 90
       50
102
RTVSPost2010PropOp48
 70
     1
102
RTVSPost2010Prop49
280
     0
102
RTVSPost2010PropOp49
 70
     1
102
RTVSPost2010Prop50
 90
       50
102
RTVSPost2010PropOp50
 70
     1
102
RTVSPost2010Prop51ColorIndex
 90
      256
102
RTVSPost2010Prop51ColorRGB
 90
-16777216
102
RTVSPost2010PropOp51
 70
     0
102
RTVSPost2010Prop52
140
1.0
102
RTVSPost2010PropOp52
 70
     0
102
RTVSPost2010Prop53
 90
        2
102
RTVSPost2010PropOp53
 70
     1
102
RTVSPost2010Prop54
  1
strokes_ogs.tif
102
RTVSPost2010PropOp54
 70
     1
102
RTVSPost2010Prop55
280
     0
102
RTVSPost2010PropOp55
 70
     1
102
RTVSPost2010Prop56
140
1.0
102
RTVSPost2010PropOp56
 70
     1
102
RTVSPost2010Prop57
140
1.0
102
RTVSPost2010PropOp57
 70
     1
  0
XRECORD
  5
4B951
102
{ACAD_REACTORS
330
4B950
102
}
330
4B950
100
AcDbXrecord
280
     1
102
RTVSPost2010Prop28
280
     0
102
RTVSPost2010PropOp28
 70
     1
102
RTVSPost2010Prop29
280
     1
102
RTVSPost2010PropOp29
 70
     1
102
RTVSPost2010Prop30
280
     1
102
RTVSPost2010PropOp30
 70
     1
102
RTVSPost2010Prop31
280
     0
102
RTVSPost2010PropOp31
 70
     1
102
RTVSPost2010Prop32
280
     0
102
RTVSPost2010PropOp32
 70
     1
102
RTVSPost2010Prop33
280
     0
102
RTVSPost2010PropOp33
 70
     1
102
RTVSPost2010Prop34
280
     0
102
RTVSPost2010PropOp34
 70
     1
102
RTVSPost2010Prop35
280
     0
102
RTVSPost2010PropOp35
 70
     1
102
RTVSPost2010Prop36
280
     0
102
RTVSPost2010PropOp36
 70
     1
102
RTVSPost2010Prop37
 90
       50
102
RTVSPost2010PropOp37
 70
     1
102
RTVSPost2010Prop38
140
0.0
102
RTVSPost2010PropOp38
 70
     1
102
RTVSPost2010Prop39
140
1.0
102
RTVSPost2010PropOp39
 70
     1
102
RTVSPost2010Prop40
 90
        0
102
RTVSPost2010PropOp40
 70
     1
102
RTVSPost2010Prop41ColorIndex
 90
       18
102
RTVSPost2010Prop41ColorRGB
 90
        0
102
RTVSPost2010PropOp41
 70
     1
102
RTVSPost2010Prop42
 90
       50
102
RTVSPost2010PropOp42
 70
     1
102
RTVSPost2010Prop43
 90
        3
102
RTVSPost2010PropOp43
 70
     1
102
RTVSPost2010Prop44ColorIndex
 90
        5
102
RTVSPost2010Prop44ColorRGB
 90
      255
102
RTVSPost2010PropOp44
 70
     1
102
RTVSPost2010Prop45
280
     0
102
RTVSPost2010PropOp45
 70
     1
102
RTVSPost2010Prop46
 90
       50
102
RTVSPost2010PropOp46
 70
     1
102
RTVSPost2010Prop47
 90
       50
102
RTVSPost2010PropOp47
 70
     1
102
RTVSPost2010Prop48
 90
       50
102
RTVSPost2010PropOp48
 70
     1
102
RTVSPost2010Prop49
280
     0
102
RTVSPost2010PropOp49
 70
     1
102
RTVSPost2010Prop50
 90
       50
102
RTVSPost2010PropOp50
 70
     1
102
RTVSPost2010Prop51ColorIndex
 90
      256
102
RTVSPost2010Prop51ColorRGB
 90
-16777216
102
RTVSPost2010PropOp51
 70
     0
102
RTVSPost2010Prop52
140
1.0
102
RTVSPost2010PropOp52
 70
     0
102
RTVSPost2010Prop53
 90
        2
102
RTVSPost2010PropOp53
 70
     1
102
RTVSPost2010Prop54
  1
strokes_ogs.tif
102
RTVSPost2010PropOp54
 70
     1
102
RTVSPost2010Prop55
280
     0
102
RTVSPost2010PropOp55
 70
     1
102
RTVSPost2010Prop56
140
1.0
102
RTVSPost2010PropOp56
 70
     1
102
RTVSPost2010Prop57
140
1.0
102
RTVSPost2010PropOp57
 70
     1
  0
XRECORD
  5
4B943
102
{ACAD_REACTORS
330
4B942
102
}
330
4B942
100
AcDbXrecord
280
     1
102
RTVSPost2010Prop28
280
     0
102
RTVSPost2010PropOp28
 70
     1
102
RTVSPost2010Prop29
280
     1
102
RTVSPost2010PropOp29
 70
     1
102
RTVSPost2010Prop30
280
     1
102
RTVSPost2010PropOp30
 70
     1
102
RTVSPost2010Prop31
280
     0
102
RTVSPost2010PropOp31
 70
     1
102
RTVSPost2010Prop32
280
     0
102
RTVSPost2010PropOp32
 70
     1
102
RTVSPost2010Prop33
280
     0
102
RTVSPost2010PropOp33
 70
     1
102
RTVSPost2010Prop34
280
     0
102
RTVSPost2010PropOp34
 70
     1
102
RTVSPost2010Prop35
280
     0
102
RTVSPost2010PropOp35
 70
     1
102
RTVSPost2010Prop36
280
     0
102
RTVSPost2010PropOp36
 70
     1
102
RTVSPost2010Prop37
 90
       50
102
RTVSPost2010PropOp37
 70
     1
102
RTVSPost2010Prop38
140
0.0
102
RTVSPost2010PropOp38
 70
     1
102
RTVSPost2010Prop39
140
1.0
102
RTVSPost2010PropOp39
 70
     1
102
RTVSPost2010Prop40
 90
        0
102
RTVSPost2010PropOp40
 70
     1
102
RTVSPost2010Prop41ColorIndex
 90
       18
102
RTVSPost2010Prop41ColorRGB
 90
        0
102
RTVSPost2010PropOp41
 70
     1
102
RTVSPost2010Prop42
 90
       50
102
RTVSPost2010PropOp42
 70
     1
102
RTVSPost2010Prop43
 90
        3
102
RTVSPost2010PropOp43
 70
     1
102
RTVSPost2010Prop44ColorIndex
 90
        5
102
RTVSPost2010Prop44ColorRGB
 90
      255
102
RTVSPost2010PropOp44
 70
     1
102
RTVSPost2010Prop45
280
     0
102
RTVSPost2010PropOp45
 70
     1
102
RTVSPost2010Prop46
 90
       50
102
RTVSPost2010PropOp46
 70
     1
102
RTVSPost2010Prop47
 90
       50
102
RTVSPost2010PropOp47
 70
     1
102
RTVSPost2010Prop48
 90
       50
102
RTVSPost2010PropOp48
 70
     1
102
RTVSPost2010Prop49
280
     0
102
RTVSPost2010PropOp49
 70
     1
102
RTVSPost2010Prop50
 90
       50
102
RTVSPost2010PropOp50
 70
     1
102
RTVSPost2010Prop51ColorIndex
 90
      256
102
RTVSPost2010Prop51ColorRGB
 90
-16777216
102
RTVSPost2010PropOp51
 70
     0
102
RTVSPost2010Prop52
140
1.0
102
RTVSPost2010PropOp52
 70
     0
102
RTVSPost2010Prop53
 90
        2
102
RTVSPost2010PropOp53
 70
     1
102
RTVSPost2010Prop54
  1
strokes_ogs.tif
102
RTVSPost2010PropOp54
 70
     1
102
RTVSPost2010Prop55
280
     0
102
RTVSPost2010PropOp55
 70
     1
102
RTVSPost2010Prop56
140
1.0
102
RTVSPost2010PropOp56
 70
     1
102
RTVSPost2010Prop57
140
1.0
102
RTVSPost2010PropOp57
 70
     1
  0
XRECORD
  5
4B94B
102
{ACAD_REACTORS
330
4B94A
102
}
330
4B94A
100
AcDbXrecord
280
     1
102
RTVSPost2010Prop28
280
     0
102
RTVSPost2010PropOp28
 70
     1
102
RTVSPost2010Prop29
280
     1
102
RTVSPost2010PropOp29
 70
     1
102
RTVSPost2010Prop30
280
     1
102
RTVSPost2010PropOp30
 70
     1
102
RTVSPost2010Prop31
280
     0
102
RTVSPost2010PropOp31
 70
     1
102
RTVSPost2010Prop32
280
     0
102
RTVSPost2010PropOp32
 70
     1
102
RTVSPost2010Prop33
280
     0
102
RTVSPost2010PropOp33
 70
     1
102
RTVSPost2010Prop34
280
     0
102
RTVSPost2010PropOp34
 70
     1
102
RTVSPost2010Prop35
280
     0
102
RTVSPost2010PropOp35
 70
     1
102
RTVSPost2010Prop36
280
     0
102
RTVSPost2010PropOp36
 70
     1
102
RTVSPost2010Prop37
 90
       50
102
RTVSPost2010PropOp37
 70
     1
102
RTVSPost2010Prop38
140
0.0
102
RTVSPost2010PropOp38
 70
     1
102
RTVSPost2010Prop39
140
1.0
102
RTVSPost2010PropOp39
 70
     1
102
RTVSPost2010Prop40
 90
        0
102
RTVSPost2010PropOp40
 70
     1
102
RTVSPost2010Prop41ColorIndex
 90
       18
102
RTVSPost2010Prop41ColorRGB
 90
        0
102
RTVSPost2010PropOp41
 70
     1
102
RTVSPost2010Prop42
 90
       50
102
RTVSPost2010PropOp42
 70
     1
102
RTVSPost2010Prop43
 90
        3
102
RTVSPost2010PropOp43
 70
     1
102
RTVSPost2010Prop44ColorIndex
 90
        5
102
RTVSPost2010Prop44ColorRGB
 90
      255
102
RTVSPost2010PropOp44
 70
     1
102
RTVSPost2010Prop45
280
     0
102
RTVSPost2010PropOp45
 70
     1
102
RTVSPost2010Prop46
 90
       50
102
RTVSPost2010PropOp46
 70
     1
102
RTVSPost2010Prop47
 90
       50
102
RTVSPost2010PropOp47
 70
     1
102
RTVSPost2010Prop48
 90
       50
102
RTVSPost2010PropOp48
 70
     1
102
RTVSPost2010Prop49
280
     0
102
RTVSPost2010PropOp49
 70
     1
102
RTVSPost2010Prop50
 90
       50
102
RTVSPost2010PropOp50
 70
     1
102
RTVSPost2010Prop51ColorIndex
 90
      256
102
RTVSPost2010Prop51ColorRGB
 90
-16777216
102
RTVSPost2010PropOp51
 70
     0
102
RTVSPost2010Prop52
140
1.0
102
RTVSPost2010PropOp52
 70
     0
102
RTVSPost2010Prop53
 90
        2
102
RTVSPost2010PropOp53
 70
     1
102
RTVSPost2010Prop54
  1
strokes_ogs.tif
102
RTVSPost2010PropOp54
 70
     1
102
RTVSPost2010Prop55
280
     0
102
RTVSPost2010PropOp55
 70
     1
102
RTVSPost2010Prop56
140
1.0
102
RTVSPost2010PropOp56
 70
     1
102
RTVSPost2010Prop57
140
1.0
102
RTVSPost2010PropOp57
 70
     1
  0
XRECORD
  5
4B953
102
{ACAD_REACTORS
330
4B952
102
}
330
4B952
100
AcDbXrecord
280
     1
102
RTVSPost2010Prop28
280
     0
102
RTVSPost2010PropOp28
 70
     1
102
RTVSPost2010Prop29
280
     1
102
RTVSPost2010PropOp29
 70
     1
102
RTVSPost2010Prop30
280
     1
102
RTVSPost2010PropOp30
 70
     1
102
RTVSPost2010Prop31
280
     0
102
RTVSPost2010PropOp31
 70
     1
102
RTVSPost2010Prop32
280
     0
102
RTVSPost2010PropOp32
 70
     1
102
RTVSPost2010Prop33
280
     0
102
RTVSPost2010PropOp33
 70
     1
102
RTVSPost2010Prop34
280
     0
102
RTVSPost2010PropOp34
 70
     1
102
RTVSPost2010Prop35
280
     0
102
RTVSPost2010PropOp35
 70
     1
102
RTVSPost2010Prop36
280
     0
102
RTVSPost2010PropOp36
 70
     1
102
RTVSPost2010Prop37
 90
       50
102
RTVSPost2010PropOp37
 70
     1
102
RTVSPost2010Prop38
140
0.0
102
RTVSPost2010PropOp38
 70
     1
102
RTVSPost2010Prop39
140
1.0
102
RTVSPost2010PropOp39
 70
     1
102
RTVSPost2010Prop40
 90
        0
102
RTVSPost2010PropOp40
 70
     1
102
RTVSPost2010Prop41ColorIndex
 90
       18
102
RTVSPost2010Prop41ColorRGB
 90
        0
102
RTVSPost2010PropOp41
 70
     1
102
RTVSPost2010Prop42
 90
       50
102
RTVSPost2010PropOp42
 70
     1
102
RTVSPost2010Prop43
 90
        3
102
RTVSPost2010PropOp43
 70
     1
102
RTVSPost2010Prop44ColorIndex
 90
        5
102
RTVSPost2010Prop44ColorRGB
 90
      255
102
RTVSPost2010PropOp44
 70
     1
102
RTVSPost2010Prop45
280
     0
102
RTVSPost2010PropOp45
 70
     1
102
RTVSPost2010Prop46
 90
       50
102
RTVSPost2010PropOp46
 70
     1
102
RTVSPost2010Prop47
 90
       50
102
RTVSPost2010PropOp47
 70
     1
102
RTVSPost2010Prop48
 90
       50
102
RTVSPost2010PropOp48
 70
     1
102
RTVSPost2010Prop49
280
     0
102
RTVSPost2010PropOp49
 70
     1
102
RTVSPost2010Prop50
 90
       50
102
RTVSPost2010PropOp50
 70
     1
102
RTVSPost2010Prop51ColorIndex
 90
      256
102
RTVSPost2010Prop51ColorRGB
 90
-16777216
102
RTVSPost2010PropOp51
 70
     0
102
RTVSPost2010Prop52
140
1.0
102
RTVSPost2010PropOp52
 70
     0
102
RTVSPost2010Prop53
 90
        2
102
RTVSPost2010PropOp53
 70
     1
102
RTVSPost2010Prop54
  1
strokes_ogs.tif
102
RTVSPost2010PropOp54
 70
     1
102
RTVSPost2010Prop55
280
     0
102
RTVSPost2010PropOp55
 70
     1
102
RTVSPost2010Prop56
140
1.0
102
RTVSPost2010PropOp56
 70
     1
102
RTVSPost2010Prop57
140
1.0
102
RTVSPost2010PropOp57
 70
     1
  0
ENDSEC
  0
EOF
