  0
SECTION
  2
HEADER
  9
$ACADVER
  1
AC1024
  9
$ACADMAINTVER
 70
   183
  9
$DWGCODEPAGE
  3
ANSI_1252
  9
$LASTSAVEDBY
  1
bmccallum
  9
$INSBASE
 10
0.0
 20
0.0
 30
0.0
  9
$EXTMIN
 10
1.892266399575574
 20
1.799999999999998
 30
0.0
  9
$EXTMAX
 10
35.7544736105576
 20
22.41321785841801
 30
0.0
  9
$LIMMIN
 10
0.0
 20
0.0
  9
$LIMMAX
 10
38.9
 20
19.6
  9
$ORTHOMODE
 70
     1
  9
$REGENMODE
 70
     1
  9
$FILLMODE
 70
     1
  9
$QTEXTMODE
 70
     0
  9
$MIRRTEXT
 70
     1
  9
$LTSCALE
 40
0.5
  9
$ATTMODE
 70
     1
  9
$TEXTSIZE
 40
0.3
  9
$TRACEWID
 40
0.05
  9
$TEXTSTYLE
  7
STANDARD
  9
$CLAYER
  8
0
  9
$CELTYPE
  6
BYLAYER
  9
$CECOLOR
 62
   256
  9
$CELTSCALE
 40
1.0
  9
$DISPSILH
 70
     0
  9
$DIMSCALE
 40
3.0
  9
$DIMASZ
 40
0.1
  9
$DIMEXO
 40
0.1
  9
$DIMDLI
 40
0.38
  9
$DIMRND
 40
0.0
  9
$DIMDLE
 40
0.0
  9
$DIMEXE
 40
0.1
  9
$DIMTP
 40
0.0
  9
$DIMTM
 40
0.0
  9
$DIMTXT
 40
0.1
  9
$DIMCEN
 40
0.06
  9
$DIMTSZ
 40
0.0
  9
$DIMTOL
 70
     0
  9
$DIMLIM
 70
     0
  9
$DIMTIH
 70
     1
  9
$DIMTOH
 70
     1
  9
$DIMSE1
 70
     0
  9
$DIMSE2
 70
     0
  9
$DIMTAD
 70
     0
  9
$DIMZIN
 70
     0
  9
$DIMBLK
  1

  9
$DIMASO
 70
     1
  9
$DIMSHO
 70
     1
  9
$DIMPOST
  1
"
  9
$DIMAPOST
  1

  9
$DIMALT
 70
     0
  9
$DIMALTD
 70
     2
  9
$DIMALTF
 40
25.4
  9
$DIMLFAC
 40
1.0
  9
$DIMTOFL
 70
     0
  9
$DIMTVP
 40
0.0
  9
$DIMTIX
 70
     0
  9
$DIMSOXD
 70
     0
  9
$DIMSAH
 70
     0
  9
$DIMBLK1
  1

  9
$DIMBLK2
  1

  9
$DIMSTYLE
  2
STANDARD
  9
$DIMCLRD
 70
   256
  9
$DIMCLRE
 70
   256
  9
$DIMCLRT
 70
   256
  9
$DIMTFAC
 40
1.0
  9
$DIMGAP
 40
0.1
  9
$DIMJUST
 70
     0
  9
$DIMSD1
 70
     0
  9
$DIMSD2
 70
     0
  9
$DIMTOLJ
 70
     1
  9
$DIMTZIN
 70
     0
  9
$DIMALTZ
 70
     0
  9
$DIMALTTZ
 70
     0
  9
$DIMUPT
 70
     0
  9
$DIMDEC
 70
     3
  9
$DIMTDEC
 70
     3
  9
$DIMALTU
 70
     2
  9
$DIMALTTD
 70
     2
  9
$DIMTXSTY
  7
STANDARD
  9
$DIMAUNIT
 70
     0
  9
$DIMADEC
 70
     0
  9
$DIMALTRND
 40
0.0
  9
$DIMAZIN
 70
     0
  9
$DIMDSEP
 70
    46
  9
$DIMATFIT
 70
     3
  9
$DIMFRAC
 70
     1
  9
$DIMLDRBLK
  1

  9
$DIMLUNIT
 70
     5
  9
$DIMLWD
 70
    -1
  9
$DIMLWE
 70
    -1
  9
$DIMTMOVE
 70
     0
  9
$DIMFXL
 40
1.0
  9
$DIMFXLON
 70
     0
  9
$DIMJOGANG
 40
0.7853981633974483
  9
$DIMTFILL
 70
     0
  9
$DIMTFILLCLR
 70
     0
  9
$DIMARCSYM
 70
     0
  9
$DIMLTYPE
  6
BYLAYER
  9
$DIMLTEX1
  6
BYLAYER
  9
$DIMLTEX2
  6
BYLAYER
  9
$DIMTXTDIRECTION
 70
     0
  9
$LUNITS
 70
     2
  9
$LUPREC
 70
     4
  9
$SKETCHINC
 40
0.1
  9
$FILLETRAD
 40
1.5
  9
$AUNITS
 70
     0
  9
$AUPREC
 70
     0
  9
$MENU
  1
.
  9
$ELEVATION
 40
0.0
  9
$PELEVATION
 40
0.0
  9
$THICKNESS
 40
0.0
  9
$LIMCHECK
 70
     0
  9
$CHAMFERA
 40
0.0
  9
$CHAMFERB
 40
0.0
  9
$CHAMFERC
 40
1.0
  9
$CHAMFERD
 40
0.0
  9
$SKPOLY
 70
     0
  9
$TDCREATE
 40
2453409.517386250
  9
$TDUCREATE
 40
2453409.809052917
  9
$TDUPDATE
 40
2457599.537901794
  9
$TDUUPDATE
 40
2457599.829568461
  9
$TDINDWG
 40
0.3539183912
  9
$TDUSRTIMER
 40
0.3539158333
  9
$USRTIMER
 70
     1
  9
$ANGBASE
 50
0.0
  9
$ANGDIR
 70
     0
  9
$PDMODE
 70
     0
  9
$PDSIZE
 40
0.0
  9
$PLINEWID
 40
0.0
  9
$SPLFRAME
 70
     0
  9
$SPLINETYPE
 70
     6
  9
$SPLINESEGS
 70
     8
  9
$HANDSEED
  5
CDF5
  9
$SURFTAB1
 70
     6
  9
$SURFTAB2
 70
     6
  9
$SURFTYPE
 70
     6
  9
$SURFU
 70
     6
  9
$SURFV
 70
     6
  9
$UCSBASE
  2

  9
$UCSNAME
  2

  9
$UCSORG
 10
0.0
 20
0.0
 30
0.0
  9
$UCSXDIR
 10
1.0
 20
0.0
 30
0.0
  9
$UCSYDIR
 10
0.0
 20
1.0
 30
0.0
  9
$UCSORTHOREF
  2

  9
$UCSORTHOVIEW
 70
     0
  9
$UCSORGTOP
 10
0.0
 20
0.0
 30
0.0
  9
$UCSORGBOTTOM
 10
0.0
 20
0.0
 30
0.0
  9
$UCSORGLEFT
 10
0.0
 20
0.0
 30
0.0
  9
$UCSORGRIGHT
 10
0.0
 20
0.0
 30
0.0
  9
$UCSORGFRONT
 10
0.0
 20
0.0
 30
0.0
  9
$UCSORGBACK
 10
0.0
 20
0.0
 30
0.0
  9
$PUCSBASE
  2

  9
$PUCSNAME
  2

  9
$PUCSORG
 10
0.0
 20
0.0
 30
0.0
  9
$PUCSXDIR
 10
1.0
 20
0.0
 30
0.0
  9
$PUCSYDIR
 10
0.0
 20
1.0
 30
0.0
  9
$PUCSORTHOREF
  2

  9
$PUCSORTHOVIEW
 70
     0
  9
$PUCSORGTOP
 10
0.0
 20
0.0
 30
0.0
  9
$PUCSORGBOTTOM
 10
0.0
 20
0.0
 30
0.0
  9
$PUCSORGLEFT
 10
0.0
 20
0.0
 30
0.0
  9
$PUCSORGRIGHT
 10
0.0
 20
0.0
 30
0.0
  9
$PUCSORGFRONT
 10
0.0
 20
0.0
 30
0.0
  9
$PUCSORGBACK
 10
0.0
 20
0.0
 30
0.0
  9
$USERI1
 70
     0
  9
$USERI2
 70
     0
  9
$USERI3
 70
     0
  9
$USERI4
 70
     0
  9
$USERI5
 70
     0
  9
$USERR1
 40
0.0
  9
$USERR2
 40
0.0
  9
$USERR3
 40
0.0
  9
$USERR4
 40
0.0
  9
$USERR5
 40
0.0
  9
$WORLDVIEW
 70
     1
  9
$SHADEDGE
 70
     3
  9
$SHADEDIF
 70
    70
  9
$TILEMODE
 70
     0
  9
$MAXACTVP
 70
    64
  9
$PINSBASE
 10
0.0
 20
0.0
 30
0.0
  9
$PLIMCHECK
 70
     0
  9
$PEXTMIN
 10
0.1738679795558582
 20
0.079467426642001
 30
-0.0000000000112498
  9
$PEXTMAX
 10
16.70645962386034
 20
10.62452771048323
 30
0.0000000000002956
  9
$PLIMMIN
 10
-0.0366904843833107
 20
-0.146432341159373
  9
$PLIMMAX
 10
16.9364422176571
 20
10.83618300719504
  9
$UNITMODE
 70
     0
  9
$VISRETAIN
 70
     1
  9
$PLINEGEN
 70
     0
  9
$PSLTSCALE
 70
     1
  9
$TREEDEPTH
 70
  3020
  9
$CMLSTYLE
  2
STANDARD
  9
$CMLJUST
 70
     0
  9
$CMLSCALE
 40
1.0
  9
$PROXYGRAPHICS
 70
     1
  9
$MEASUREMENT
 70
     0
  9
$CELWEIGHT
370
    -1
  9
$ENDCAPS
280
     0
  9
$JOINSTYLE
280
     0
  9
$LWDISPLAY
290
     0
  9
$INSUNITS
 70
     0
  9
$HYPERLINKBASE
  1

  9
$STYLESHEET
  1

  9
$XEDIT
290
     1
  9
$CEPSNTYPE
380
     0
  9
$PSTYLEMODE
290
     1
  9
$FINGERPRINTGUID
  2
{0B1B2803-D0D8-48CB-944B-8DE798CA42D2}
  9
$VERSIONGUID
  2
{6ECB0B57-E598-4B91-8E54-EC6424A91C87}
  9
$EXTNAMES
290
     1
  9
$PSVPSCALE
 40
0.0
  9
$OLESTARTUP
290
     0
  9
$SORTENTS
280
    96
  9
$INDEXCTL
280
     0
  9
$HIDETEXT
280
     0
  9
$XCLIPFRAME
280
     2
  9
$HALOGAP
280
     0
  9
$OBSCOLOR
 70
   257
  9
$OBSLTYPE
280
     0
  9
$INTERSECTIONDISPLAY
280
     0
  9
$INTERSECTIONCOLOR
 70
   257
  9
$DIMASSOC
280
     1
  9
$PROJECTNAME
  1

  9
$CAMERADISPLAY
290
     0
  9
$LENSLENGTH
 40
50.0
  9
$CAMERAHEIGHT
 40
0.0
  9
$STEPSPERSEC
 40
2.0
  9
$STEPSIZE
 40
6.0
  9
$3DDWFPREC
 40
2.0
  9
$PSOLWIDTH
 40
0.25
  9
$PSOLHEIGHT
 40
4.0
  9
$LOFTANG1
 40
1.570795999999999
  9
$LOFTANG2
 40
1.570795999999999
  9
$LOFTMAG1
 40
0.0
  9
$LOFTMAG2
 40
0.0
  9
$LOFTPARAM
 70
     7
  9
$LOFTNORMALS
280
     1
  9
$LATITUDE
 40
37.795
  9
$LONGITUDE
 40
-122.394
  9
$NORTHDIRECTION
 40
0.0
  9
$TIMEZONE
 70
 -8000
  9
$LIGHTGLYPHDISPLAY
280
     1
  9
$TILEMODELIGHTSYNCH
280
     1
  9
$CMATERIAL
347
53F3
  9
$SOLIDHIST
280
     0
  9
$SHOWHIST
280
     1
  9
$DWFFRAME
280
     2
  9
$DGNFRAME
280
     0
  9
$REALWORLDSCALE
290
     1
  9
$INTERFERECOLOR
 62
     1
  9
$INTERFEREOBJVS
345
5415
  9
$INTERFEREVPVS
346
CB7E
  9
$CSHADOW
280
     0
  9
$SHADOWPLANELOCATION
 40
0.0
  0
ENDSEC
  0
SECTION
  2
CLASSES
  0
CLASS
  1
ACDBDICTIONARYWDFLT
  2
AcDbDictionaryWithDefault
  3
ObjectDBX Classes
 90
        0
 91
        1
280
     0
281
     0
  0
CLASS
  1
DICTIONARYVAR
  2
AcDbDictionaryVar
  3
ObjectDBX Classes
 90
        0
 91
       16
280
     0
281
     0
  0
CLASS
  1
MATERIAL
  2
AcDbMaterial
  3
ObjectDBX Classes
 90
     1153
 91
        3
280
     0
281
     0
  0
CLASS
  1
VISUALSTYLE
  2
AcDbVisualStyle
  3
ObjectDBX Classes
 90
     4095
 91
       26
280
     0
281
     0
  0
CLASS
  1
TABLESTYLE
  2
AcDbTableStyle
  3
ObjectDBX Classes
 90
     4095
 91
        1
280
     0
281
     0
  0
CLASS
  1
SCALE
  2
AcDbScale
  3
ObjectDBX Classes
 90
     1153
 91
       39
280
     0
281
     0
  0
CLASS
  1
MLEADERSTYLE
  2
AcDbMLeaderStyle
  3
ACDB_MLEADERSTYLE_CLASS
 90
     4095
 91
        1
280
     0
281
     0
  0
CLASS
  1
CELLSTYLEMAP
  2
AcDbCellStyleMap
  3
ObjectDBX Classes
 90
     1152
 91
        3
280
     0
281
     0
  0
CLASS
  1
SORTENTSTABLE
  2
AcDbSortentsTable
  3
ObjectDBX Classes
 90
        0
 91
        2
280
     0
281
     0
  0
CLASS
  1
ACDBSECTIONVIEWSTYLE
  2
AcDbSectionViewStyle
  3
ObjectDBX Classes
 90
     1025
 91
        1
280
     0
281
     0
  0
CLASS
  1
ACDBDETAILVIEWSTYLE
  2
AcDbDetailViewStyle
  3
ObjectDBX Classes
 90
     1025
 91
        1
280
     0
281
     0
  0
ENDSEC
  0
SECTION
  2
TABLES
  0
TABLE
  2
VPORT
  5
8
330
0
100
AcDbSymbolTable
 70
     1
  0
VPORT
  5
53EA
330
8
100
AcDbSymbolTableRecord
100
AcDbViewportTableRecord
  2
*Active
 70
     0
 10
0.0
 20
0.0
 11
1.0
 21
1.0
 12
19.45
 22
11.20695095386533
 13
0.0
 23
0.0
 14
0.1
 24
0.1
 15
1.0
 25
1.0
 16
0.0
 26
0.0
 36
1.0
 17
0.0
 27
0.0
 37
0.0
 40
24.75338676496531
 41
1.581059390048153
 42
50.0
 43
0.0
 44
0.0
 50
0.0
 51
0.0
 71
     0
 72
   100
 73
     1
 74
     3
 75
     0
 76
     1
 77
     0
 78
     0
281
     0
 65
     1
110
0.0
120
0.0
130
0.0
111
1.0
121
0.0
131
0.0
112
0.0
122
1.0
132
0.0
 79
     0
146
0.0
348
5411
 60
     3
 61
     5
292
     1
282
     1
141
0.0
142
0.0
 63
   250
421
  3355443
  0
ENDTAB
  0
TABLE
  2
LTYPE
  5
5
330
0
100
AcDbSymbolTable
 70
     3
  0
LTYPE
  5
14
330
5
100
AcDbSymbolTableRecord
100
AcDbLinetypeTableRecord
  2
BYBLOCK
 70
     0
  3

 72
    65
 73
     0
 40
0.0
  0
LTYPE
  5
15
330
5
100
AcDbSymbolTableRecord
100
AcDbLinetypeTableRecord
  2
BYLAYER
 70
     0
  3

 72
    65
 73
     0
 40
0.0
  0
LTYPE
  5
16
330
5
100
AcDbSymbolTableRecord
100
AcDbLinetypeTableRecord
  2
CONTINUOUS
 70
     0
  3
Solid line
 72
    65
 73
     0
 40
0.0
  0
LTYPE
  5
CA6A
330
5
100
AcDbSymbolTableRecord
100
AcDbLinetypeTableRecord
  2
CENTER
 70
     0
  3
Center ____ _ ____ _ ____ _ ____ _ ____ _ ____
 72
    65
 73
     4
 40
2.0
 49
1.25
 74
     0
 49
-0.25
 74
     0
 49
0.25
 74
     0
 49
-0.25
 74
     0
  0
ENDTAB
  0
TABLE
  2
LAYER
  5
2
102
{ACAD_XDICTIONARY
360
1FD0
102
}
330
0
100
AcDbSymbolTable
 70
     5
  0
LAYER
  5
10
102
{ACAD_XDICTIONARY
360
5445
102
}
330
2
100
AcDbSymbolTableRecord
100
AcDbLayerTableRecord
  2
0
 70
     0
 62
     7
  6
CONTINUOUS
370
    -3
390
1BB4
347
5403
  0
LAYER
  5
2C
102
{ACAD_XDICTIONARY
360
5449
102
}
330
2
100
AcDbSymbolTableRecord
100
AcDbLayerTableRecord
  2
TITLE
 70
     0
 62
     7
  6
CONTINUOUS
370
    -3
390
1BB4
347
5403
  0
LAYER
  5
2D
102
{ACAD_XDICTIONARY
360
544B
102
}
330
2
100
AcDbSymbolTableRecord
100
AcDbLayerTableRecord
  2
DIM
 70
     0
 62
     7
  6
CONTINUOUS
370
    -3
390
1BB4
347
5403
  0
LAYER
  5
B0C
330
2
100
AcDbSymbolTableRecord
100
AcDbLayerTableRecord
  2
DEFPOINTS
 70
     0
 62
     7
  6
CONTINUOUS
290
     0
370
    -3
390
1BB4
347
5403
  0
LAYER
  5
1664
102
{ACAD_XDICTIONARY
360
544D
102
}
330
2
100
AcDbSymbolTableRecord
100
AcDbLayerTableRecord
  2
VIEWPORT
 70
     0
 62
    -7
  6
CONTINUOUS
370
    -3
390
1BB4
347
5403
  0
ENDTAB
  0
TABLE
  2
STYLE
  5
3
330
0
100
AcDbSymbolTable
 70
     6
  0
STYLE
  5
11
330
3
100
AcDbSymbolTableRecord
100
AcDbTextStyleTableRecord
  2
STANDARD
 70
     0
 40
0.0
 41
1.0
 50
0.0
 71
     0
 42
0.3
  3
simplex.shx
  4

  0
STYLE
  5
30
330
3
100
AcDbSymbolTableRecord
100
AcDbTextStyleTableRecord
  2
TITLE
 70
     0
 40
0.0
 41
1.0
 50
0.0
 71
     0
 42
0.1
  3
ARIAL.TTF
  4

1001
ACAD
1000
Arial
1071
       34
  0
STYLE
  5
B08
330
3
100
AcDbSymbolTableRecord
100
AcDbTextStyleTableRecord
  2
TITLE_LIGHT
 70
     0
 40
0.0
 41
1.0
 50
0.0
 71
     0
 42
0.2
  3
simplex.shx
  4

  0
STYLE
  5
CC40
330
3
100
AcDbSymbolTableRecord
100
AcDbTextStyleTableRecord
  2
Title Bold
 70
     0
 40
0.0
 41
1.0
 50
0.0
 71
     0
 42
0.09
  3
arialbd.ttf
  4

1001
ACAD
1000
Arial
1071
 33554466
  0
STYLE
  5
CC41
330
3
100
AcDbSymbolTableRecord
100
AcDbTextStyleTableRecord
  2
Title light
 70
     0
 40
0.0
 41
1.0
 50
0.0
 71
     0
 42
0.2
  3
simplex.shx
  4

  0
ENDTAB
  0
TABLE
  2
VIEW
  5
6
330
0
100
AcDbSymbolTable
 70
     1
  0
ENDTAB
  0
TABLE
  2
UCS
  5
7
330
0
100
AcDbSymbolTable
 70
     0
  0
ENDTAB
  0
TABLE
  2
APPID
  5
9
330
0
100
AcDbSymbolTable
 70
    12
  0
APPID
  5
12
330
9
100
AcDbSymbolTableRecord
100
AcDbRegAppTableRecord
  2
ACAD
 70
     0
  0
APPID
  5
5443
330
9
100
AcDbSymbolTableRecord
100
AcDbRegAppTableRecord
  2
ACAD_MLEADERVER
 70
     0
  0
APPID
  5
5DFE
330
9
100
AcDbSymbolTableRecord
100
AcDbRegAppTableRecord
  2
AcAecLayerStandard
 70
     0
  0
APPID
  5
617F
330
9
100
AcDbSymbolTableRecord
100
AcDbRegAppTableRecord
  2
ACAD_DSTYLE_DIMJAG
 70
     0
  0
APPID
  5
6180
330
9
100
AcDbSymbolTableRecord
100
AcDbRegAppTableRecord
  2
ACAD_DSTYLE_DIMTALN
 70
     0
  0
APPID
  5
62FF
330
9
100
AcDbSymbolTableRecord
100
AcDbRegAppTableRecord
  2
ACAD_PSEXT
 70
     0
  0
APPID
  5
C748
330
9
100
AcDbSymbolTableRecord
100
AcDbRegAppTableRecord
  2
ACAD_EXEMPT_FROM_CAD_STANDARDS
 70
     0
  0
APPID
  5
C908
330
9
100
AcDbSymbolTableRecord
100
AcDbRegAppTableRecord
  2
ACAD_DSTYLE_DIM_LINETYPE
 70
     0
  0
APPID
  5
C909
330
9
100
AcDbSymbolTableRecord
100
AcDbRegAppTableRecord
  2
ACAD_DSTYLE_DIM_EXT1_LINETYPE
 70
     0
  0
APPID
  5
C90A
330
9
100
AcDbSymbolTableRecord
100
AcDbRegAppTableRecord
  2
ACAD_DSTYLE_DIM_EXT2_LINETYPE
 70
     0
  0
APPID
  5
CC43
330
9
100
AcDbSymbolTableRecord
100
AcDbRegAppTableRecord
  2
AcDbBlockRepETag
 70
     0
  0
APPID
  5
CCE7
330
9
100
AcDbSymbolTableRecord
100
AcDbRegAppTableRecord
  2
ACAD_DSTYLE_DIMFLIPARROW_WHICH_SYMBOL
 70
     0
  0
ENDTAB
  0
TABLE
  2
DIMSTYLE
  5
A
330
0
100
AcDbSymbolTable
 70
     2
100
AcDbDimStyleTable
 71
     1
340
27
  0
DIMSTYLE
105
27
102
{ACAD_REACTORS
330
C7EA
330
C82E
330
C83F
330
CA71
102
}
330
A
100
AcDbSymbolTableRecord
100
AcDbDimStyleTableRecord
  2
STANDARD
 70
     0
  3
"
 40
3.0
 41
0.1
 42
0.1
 44
0.1
140
0.1
141
0.06
147
0.1
176
   256
177
   256
178
   256
271
     3
272
     3
276
     1
277
     5
340
11
345
15
346
15
347
15
371
    -1
372
    -1
1001
ACAD_DSTYLE_DIMJAG
1070
   388
1040
1.5
1001
ACAD_DSTYLE_DIMTALN
1070
   392
1070
     0
  0
ENDTAB
  0
TABLE
  2
BLOCK_RECORD
  5
1
330
0
100
AcDbSymbolTable
 70
     7
  0
BLOCK_RECORD
  5
1F
102
{ACAD_XDICTIONARY
360
1BAA
102
}
330
1
100
AcDbSymbolTableRecord
100
AcDbBlockTableRecord
  2
*MODEL_SPACE
340
1BB5
 70
     0
280
     1
281
     0
  0
BLOCK_RECORD
  5
CC48
102
{ACAD_XDICTIONARY
360
CC7D
102
}
330
1
100
AcDbSymbolTableRecord
100
AcDbBlockTableRecord
  2
*Paper_Space
340
CC46
 70
     0
280
     1
281
     0
  0
BLOCK_RECORD
  5
C7EB
330
1
100
AcDbSymbolTableRecord
100
AcDbBlockTableRecord
  2
*D0
340
0
 70
     0
280
     1
281
     0
  0
BLOCK_RECORD
  5
C82F
330
1
100
AcDbSymbolTableRecord
100
AcDbBlockTableRecord
  2
*D1
340
0
 70
     0
280
     1
281
     0
  0
BLOCK_RECORD
  5
C840
330
1
100
AcDbSymbolTableRecord
100
AcDbBlockTableRecord
  2
*D2
340
0
 70
     0
280
     1
281
     0
  0
BLOCK_RECORD
  5
CA72
330
1
100
AcDbSymbolTableRecord
100
AcDbBlockTableRecord
  2
*D3
340
0
 70
     0
280
     1
281
     0
  0
BLOCK_RECORD
  5
CBF2
330
1
100
AcDbSymbolTableRecord
100
AcDbBlockTableRecord
  2
bega
340
0
310
2800000020000000200000000100080000000000000400000000000000000000000000000000000000000000000080000080000000808000800000008000800080800000C0C0C000C0DCC000F0CAA6000020400000206000002080000020A0000020C0000020E00000400000004020000040400000406000004080000040A0
310
000040C0000040E00000600000006020000060400000606000006080000060A0000060C0000060E00000800000008020000080400000806000008080000080A0000080C0000080E00000A0000000A0200000A0400000A0600000A0800000A0A00000A0C00000A0E00000C0000000C0200000C0400000C0600000C0800000C0
310
A00000C0C00000C0E00000E0000000E0200000E0400000E0600000E0800000E0A00000E0C00000E0E00040000000400020004000400040006000400080004000A0004000C0004000E00040200000402020004020400040206000402080004020A0004020C0004020E000404000004040200040404000404060004040800040
310
40A0004040C0004040E00040600000406020004060400040606000406080004060A0004060C0004060E00040800000408020004080400040806000408080004080A0004080C0004080E00040A0000040A0200040A0400040A0600040A0800040A0A00040A0C00040A0E00040C0000040C0200040C0400040C0600040C08000
310
40C0A00040C0C00040C0E00040E0000040E0200040E0400040E0600040E0800040E0A00040E0C00040E0E00080000000800020008000400080006000800080008000A0008000C0008000E00080200000802020008020400080206000802080008020A0008020C0008020E00080400000804020008040400080406000804080
310
008040A0008040C0008040E00080600000806020008060400080606000806080008060A0008060C0008060E00080800000808020008080400080806000808080008080A0008080C0008080E00080A0000080A0200080A0400080A0600080A0800080A0A00080A0C00080A0E00080C0000080C0200080C0400080C0600080C0
310
800080C0A00080C0C00080C0E00080E0000080E0200080E0400080E0600080E0800080E0A00080E0C00080E0E000C0000000C0002000C0004000C0006000C0008000C000A000C000C000C000E000C0200000C0202000C0204000C0206000C0208000C020A000C020C000C020E000C0400000C0402000C0404000C0406000C0
310
408000C040A000C040C000C040E000C0600000C0602000C0604000C0606000C0608000C060A000C060C000C060E000C0800000C0802000C0804000C0806000C0808000C080A000C080C000C080E000C0A00000C0A02000C0A04000C0A06000C0A08000C0A0A000C0A0C000C0A0E000C0C00000C0C02000C0C04000C0C06000
310
C0C08000C0C0A000F0FBFF00A4A0A000808080000000FF0000FF000000FFFF00FF000000FF00FF00FFFF0000FFFFFF0000000000000000000000000000000000000000000000000000000000000000000000000000000000000000000000000000000000000000000000000000000000000000000000000000000000000000
310
00000000000000000000000000000000000000000000000000000000000000000000000000000000000000000000000000000000000000000000000000000000000000000000000000000000000000000000000000000000000000000000000000000000000000000000000000000000000000000000000000000000000000
310
00000000000000000000000000000000000000000000000000000000000000000000000000000000000000000000000000000000000000000000000000000000000000000000000000000000000000000000000000000000000000000000000000000000000000000000000000000000000000000000000000000000000000
310
000000000000000000000000000000000000000000000000000000000000000000000000FFFFFF00000000000000000000000000FFFFFFFFFFFFFFFFFFFFFFFFFFFF00FFFFFFFFFFFFFFFFFF000000FFFFFF0000FFFFFFFFFFFFFFFFFFFFFFFFFFFFFFFFFFFFFFFFFFFFFFFFFFFFFFFFFFFF0000FFFFFF0000FFFFFFFFFF00
310
000000FFFFFF0000FFFFFFFFFFFFFFFFFFFF000000FFFFFFFFFFFFFFFFFFFFFFFFFFFFFFFF00FFFFFFFFFFFFFFFFFFFFFFFF000000FFFFFFFFFFFFFFFFFFFFFFFFFFFFFFFF00FFFFFFFFFF00FFFF00FFFF00000000FFFFFF00FFFFFFFFFFFF00000000FFFFFF0000FFFFFF00FFFFFFFFFF00000000FFFFFFFFFFFFFFFFFFFF
310
FFFFFFFFFFFFFFFFFFFFFF000000FFFFFF0000000000FFFFFFFFFFFFFFFFFFFFFFFFFFFF00FFFFFFFFFFFF000000FFFFFF000000000000000000000000000000000000000000FFFFFF000000000000000000000000000000000000000000000000000000000000000000000000000000000000000000000000000000000000
310
00000000000000000000000000000000000000000000000000000000000000000000000000000000000000000000000000000000000000000000000000000000000000000000000000000000000000000000000000000000000000000000000000000000000000000000000000000000000000000000000000000000000000
310
00000000000000000000000000000000000000000000000000000000000000000000000000000000000000000000000000000000000000000000000000000000000000000000000000000000000000000000000000000000000000000000000000000000000000000000000000000000000000000000000000000000000000
310
0000000000000000000000000000000000000000000000000000000000000000000000000000000000000000000000000000000000000000
102
{BLKREFS
331
CC3D
102
}
 70
     1
280
     1
281
     0
  0
BLOCK_RECORD
  5
CC39
102
{ACAD_XDICTIONARY
360
CC3A
102
}
330
1
100
AcDbSymbolTableRecord
100
AcDbBlockTableRecord
  2
bega logo
340
0
102
{BLKREFS
331
CC71
102
}
 70
     1
280
     1
281
     0
  0
ENDTAB
  0
ENDSEC
  0
SECTION
  2
BLOCKS
  0
BLOCK
  5
20
330
1F
100
AcDbEntity
  8
0
100
AcDbBlockBegin
  2
*MODEL_SPACE
 70
     0
 10
0.0
 20
0.0
 30
0.0
  3
*MODEL_SPACE
  1

  0
ENDBLK
  5
21
330
1F
100
AcDbEntity
  8
0
100
AcDbBlockEnd
  0
BLOCK
  5
CC7F
330
CC48
100
AcDbEntity
 67
     1
  8
0
100
AcDbBlockBegin
  2
*Paper_Space
 70
     0
 10
0.0
 20
0.0
 30
0.0
  3
*Paper_Space
  1

  0
ENDBLK
  5
CC80
330
CC48
100
AcDbEntity
 67
     1
  8
0
100
AcDbBlockEnd
  0
BLOCK
  5
C7EC
330
C7EB
100
AcDbEntity
  8
0
100
AcDbBlockBegin
  2
*D0
 70
     1
 10
0.0
 20
0.0
 30
0.0
  3
*D0
  1

  0
LINE
  5
CD3E
330
C7EB
100
AcDbEntity
  8
DIM
440
 16777216
100
AcDbLine
 10
10.75614810842203
 20
5.061303472457391
 30
0.0
 11
10.75614810842203
 21
1.799999999999998
 31
0.0
  0
LINE
  5
CD3F
330
C7EB
100
AcDbEntity
  8
DIM
440
 16777216
100
AcDbLine
 10
19.80993713600602
 20
5.061303472457391
 30
0.0
 11
19.80993713600602
 21
1.799999999999998
 31
0.0
  0
LINE
  5
CD40
330
C7EB
100
AcDbEntity
  8
DIM
440
 16777216
100
AcDbLine
 10
11.05614810842203
 20
2.099999999999999
 30
0.0
 11
14.78304262221402
 21
2.099999999999999
 31
0.0
  0
LINE
  5
CD41
330
C7EB
100
AcDbEntity
  8
DIM
440
 16777216
100
AcDbLine
 10
19.50993713600602
 20
2.099999999999999
 30
0.0
 11
15.78304262221402
 21
2.099999999999999
 31
0.0
  0
SOLID
  5
CD42
330
C7EB
100
AcDbEntity
  8
DIM
440
 16777216
100
AcDbTrace
 10
11.05614810842203
 20
2.149999999999999
 30
0.0
 11
11.05614810842203
 21
2.049999999999999
 31
0.0
 12
10.75614810842203
 22
2.099999999999999
 32
0.0
 13
10.75614810842203
 23
2.099999999999999
 33
0.0
  0
SOLID
  5
CD43
330
C7EB
100
AcDbEntity
  8
DIM
440
 16777216
100
AcDbTrace
 10
19.50993713600602
 20
2.149999999999999
 30
0.0
 11
19.50993713600602
 21
2.049999999999999
 31
0.0
 12
19.80993713600602
 22
2.099999999999999
 32
0.0
 13
19.80993713600602
 23
2.099999999999999
 33
0.0
  0
MTEXT
  5
CD44
330
C7EB
100
AcDbEntity
  8
DIM
440
 16777216
100
AcDbMText
 10
15.28304262221402
 20
2.099999999999999
 30
0.0
 40
0.3
 41
0.0
 46
0.0
 71
     5
 72
     1
  1
\A1;9"
 73
     1
 44
1.0
  0
POINT
  5
CD45
330
C7EB
100
AcDbEntity
  8
DEFPOINTS
 62
     0
440
 16777216
100
AcDbPoint
 10
10.75614810842203
 20
5.361303472457391
 30
0.0
  0
POINT
  5
CD46
330
C7EB
100
AcDbEntity
  8
DEFPOINTS
 62
     0
440
 16777216
100
AcDbPoint
 10
19.80993713600602
 20
5.361303472457391
 30
0.0
  0
POINT
  5
CD47
330
C7EB
100
AcDbEntity
  8
DEFPOINTS
 62
     0
440
 16777216
100
AcDbPoint
 10
19.80993713600602
 20
2.099999999999999
 30
0.0
  0
ENDBLK
  5
C7ED
330
C7EB
100
AcDbEntity
  8
0
100
AcDbBlockEnd
  0
BLOCK
  5
C830
330
C82F
100
AcDbEntity
  8
0
100
AcDbBlockBegin
  2
*D1
 70
     1
 10
0.0
 20
0.0
 30
0.0
  3
*D1
  1

  0
LINE
  5
CD48
330
C82F
100
AcDbEntity
  8
DIM
440
 16777216
100
AcDbLine
 10
31.05447361055759
 20
12.72874243059317
 30
0.0
 11
35.55447361055759
 21
12.72874243059317
 31
0.0
  0
LINE
  5
CD49
330
C82F
100
AcDbEntity
  8
DIM
440
 16777216
100
AcDbLine
 10
33.55724922745914
 20
5.968673475076379
 30
0.0
 11
35.55447361055759
 21
5.968673475076378
 31
0.0
  0
LINE
  5
CD4A
330
C82F
100
AcDbEntity
  8
DIM
440
 16777216
100
AcDbLine
 10
35.2544736105576
 20
12.42874243059317
 30
0.0
 11
35.2544736105576
 21
9.948707952834773
 31
0.0
  0
LINE
  5
CD4B
330
C82F
100
AcDbEntity
  8
DIM
440
 16777216
100
AcDbLine
 10
35.2544736105576
 20
6.268673475076377
 30
0.0
 11
35.2544736105576
 21
8.748707952834774
 31
0.0
  0
SOLID
  5
CD4C
330
C82F
100
AcDbEntity
  8
DIM
440
 16777216
100
AcDbTrace
 10
35.2044736105576
 20
12.42874243059317
 30
0.0
 11
35.3044736105576
 21
12.42874243059317
 31
0.0
 12
35.2544736105576
 22
12.72874243059317
 32
0.0
 13
35.2544736105576
 23
12.72874243059317
 33
0.0
  0
SOLID
  5
CD4D
330
C82F
100
AcDbEntity
  8
DIM
440
 16777216
100
AcDbTrace
 10
35.2044736105576
 20
5.668673475076378
 30
0.0
 11
35.3044736105576
 21
5.668673475076378
 31
0.0
 12
35.2544736105576
 22
5.968673475076378
 32
0.0
 13
35.2544736105576
 23
5.968673475076378
 33
0.0
  0
LINE
  5
CD4E
330
C82F
100
AcDbEntity
  8
DIM
440
 16777216
100
AcDbLine
 10
35.2544736105576
 20
5.668673475076378
 30
0.0
 11
35.2544736105576
 21
5.368673475076378
 31
0.0
  0
LINE
  5
CD4F
330
C82F
100
AcDbEntity
  8
DIM
440
 16777216
100
AcDbLine
 10
35.2544736105576
 20
5.968673475076378
 30
0.0
 11
35.2544736105576
 21
6.268673475076377
 31
0.0
  0
MTEXT
  5
CD50
330
C82F
100
AcDbEntity
  8
DIM
440
 16777216
100
AcDbMText
 10
35.2544736105576
 20
9.348707952834779
 30
0.0
 40
0.3
 41
0.0
 46
0.0
 71
     5
 72
     1
  1
\A1;6{\H1.000000x;\S3#4;}"
 73
     1
 44
1.0
  0
POINT
  5
CD51
330
C82F
100
AcDbEntity
  8
DEFPOINTS
 62
     0
440
 16777216
100
AcDbPoint
 10
30.75447361055759
 20
12.72874243059317
 30
0.0
  0
POINT
  5
CD52
330
C82F
100
AcDbEntity
  8
DEFPOINTS
 62
     0
440
 16777216
100
AcDbPoint
 10
33.25724922745914
 20
5.968673475076379
 30
0.0
  0
POINT
  5
CD53
330
C82F
100
AcDbEntity
  8
DEFPOINTS
 62
     0
440
 16777216
100
AcDbPoint
 10
35.2544736105576
 20
5.968673475076378
 30
0.0
  0
ENDBLK
  5
C831
330
C82F
100
AcDbEntity
  8
0
100
AcDbBlockEnd
  0
BLOCK
  5
C841
330
C840
100
AcDbEntity
  8
0
100
AcDbBlockBegin
  2
*D2
 70
     1
 10
0.0
 20
0.0
 30
0.0
  3
*D2
  1

  0
LINE
  5
CD54
330
C840
100
AcDbEntity
  8
DIM
440
 16777216
100
AcDbLine
 10
26.01829340272352
 20
5.736873568634472
 30
0.0
 11
26.01829340272352
 21
1.799999999999999
 31
0.0
  0
LINE
  5
CD55
330
C840
100
AcDbEntity
  8
DIM
440
 16777216
100
AcDbLine
 10
33.11323960130651
 20
5.736873568634472
 30
0.0
 11
33.11323960130651
 21
1.799999999999999
 31
0.0
  0
LINE
  5
CD56
330
C840
100
AcDbEntity
  8
DIM
440
 16777216
100
AcDbLine
 10
26.31829340272352
 20
2.1
 30
0.0
 11
28.83719507344359
 21
2.1
 31
0.0
  0
LINE
  5
CD57
330
C840
100
AcDbEntity
  8
DIM
440
 16777216
100
AcDbLine
 10
32.81323960130651
 20
2.1
 30
0.0
 11
30.29433793058645
 21
2.1
 31
0.0
  0
SOLID
  5
CD58
330
C840
100
AcDbEntity
  8
DIM
440
 16777216
100
AcDbTrace
 10
26.31829340272352
 20
2.149999999999999
 30
0.0
 11
26.31829340272352
 21
2.05
 31
0.0
 12
26.01829340272352
 22
2.1
 32
0.0
 13
26.01829340272352
 23
2.1
 33
0.0
  0
SOLID
  5
CD59
330
C840
100
AcDbEntity
  8
DIM
440
 16777216
100
AcDbTrace
 10
32.81323960130651
 20
2.149999999999999
 30
0.0
 11
32.81323960130651
 21
2.05
 31
0.0
 12
33.11323960130651
 22
2.1
 32
0.0
 13
33.11323960130651
 23
2.1
 33
0.0
  0
MTEXT
  5
CD5A
330
C840
100
AcDbEntity
  8
DIM
440
 16777216
100
AcDbMText
 10
29.56576650201501
 20
2.1
 30
0.0
 40
0.3
 41
0.0
 46
0.0
 71
     5
 72
     1
  1
\A1;7{\H1.000000x;\S1#8;}"
 73
     1
 44
1.0
  0
POINT
  5
CD5B
330
C840
100
AcDbEntity
  8
DEFPOINTS
 62
     0
440
 16777216
100
AcDbPoint
 10
26.01829340272352
 20
6.036873568634471
 30
0.0
  0
POINT
  5
CD5C
330
C840
100
AcDbEntity
  8
DEFPOINTS
 62
     0
440
 16777216
100
AcDbPoint
 10
33.11323960130651
 20
6.036873568634471
 30
0.0
  0
POINT
  5
CD5D
330
C840
100
AcDbEntity
  8
DEFPOINTS
 62
     0
440
 16777216
100
AcDbPoint
 10
33.11323960130651
 20
2.1
 30
0.0
  0
ENDBLK
  5
C842
330
C840
100
AcDbEntity
  8
0
100
AcDbBlockEnd
  0
BLOCK
  5
CA73
330
CA72
100
AcDbEntity
  8
0
100
AcDbBlockBegin
  2
*D3
 70
     1
 10
0.0
 20
0.0
 30
0.0
  3
*D3
  1

  0
LINE
  5
CD5E
330
CA72
100
AcDbEntity
  8
0
440
 16777216
100
AcDbLine
 10
23.32466994794014
 20
17.94249936584317
 30
0.0
 11
24.65484569835383
 21
15.63856738313063
 31
0.0
  0
LINE
  5
CD5F
330
CA72
100
AcDbEntity
  8
0
440
 16777216
100
AcDbLine
 10
26.35575886118567
 20
19.69249936584317
 30
0.0
 11
27.68593461159935
 21
17.38856738313065
 31
0.0
  0
LINE
  5
CD60
330
CA72
100
AcDbEntity
  8
0
440
 16777216
100
AcDbLine
 10
24.76465331948916
 20
16.04837500426597
 30
0.0
 11
25.29181872640516
 21
16.35273409385638
 31
0.0
  0
LINE
  5
CD61
330
CA72
100
AcDbEntity
  8
0
440
 16777216
100
AcDbLine
 10
27.27612699046402
 20
17.49837500426598
 30
0.0
 11
26.74896158354802
 21
17.19401591467556
 31
0.0
  0
SOLID
  5
CD62
330
CA72
100
AcDbEntity
  8
0
440
 16777216
100
AcDbTrace
 10
24.73965331948916
 20
16.09167627445519
 30
0.0
 11
24.78965331948916
 21
16.00507373407674
 31
0.0
 12
24.50484569835383
 22
15.89837500426597
 32
0.0
 13
24.50484569835383
 23
15.89837500426597
 33
0.0
  0
SOLID
  5
CD63
330
CA72
100
AcDbEntity
  8
0
440
 16777216
100
AcDbTrace
 10
27.25112699046402
 20
17.5416762744552
 30
0.0
 11
27.30112699046402
 21
17.45507373407675
 31
0.0
 12
27.53593461159935
 22
17.64837500426598
 32
0.0
 13
27.53593461159935
 23
17.64837500426598
 33
0.0
  0
MTEXT
  5
CD64
330
CA72
100
AcDbEntity
  8
0
440
 16777216
100
AcDbMText
 10
26.0203901549766
 20
16.77337500426597
 30
0.0
 40
0.3
 41
0.0
 46
0.0
 71
     5
 72
     1
  1
\A1;3{\H1.000000x;\S1#2;}"
 73
     1
 44
1.0
  0
POINT
  5
CD65
330
CA72
100
AcDbEntity
  8
DEFPOINTS
 62
     0
440
 16777216
100
AcDbPoint
 10
23.17466994794015
 20
18.2023069869785
 30
0.0
  0
POINT
  5
CD66
330
CA72
100
AcDbEntity
  8
DEFPOINTS
 62
     0
440
 16777216
100
AcDbPoint
 10
26.20575886118567
 20
19.95230698697851
 30
0.0
  0
POINT
  5
CD67
330
CA72
100
AcDbEntity
  8
DEFPOINTS
 62
     0
440
 16777216
100
AcDbPoint
 10
27.53593461159935
 20
17.64837500426598
 30
0.0
  0
ENDBLK
  5
CA74
330
CA72
100
AcDbEntity
  8
0
100
AcDbBlockEnd
  0
BLOCK
  5
CBF3
330
CBF2
100
AcDbEntity
  8
0
100
AcDbBlockBegin
  2
bega
 70
     0
 10
0.0
 20
0.0
 30
0.0
  3
bega
  1

  0
HATCH
  5
CBF4
330
CBF2
100
AcDbEntity
  8
0
100
AcDbHatch
 10
0.0
 20
0.0
 30
0.0
210
0.0
220
0.0
230
1.0
  2
SOLID
 70
     1
 71
     1
 91
       18
 92
        1
 93
       15
 72
     4
 94
        3
 73
     0
 74
     0
 95
        8
 96
        4
 40
0.0
 40
0.0
 40
0.0
 40
0.0
 40
11.8016654154607
 40
11.8016654154607
 40
11.8016654154607
 40
11.8016654154607
 10
7.035577472388887
 20
-2.481201227998744
 10
7.03544731696475
 20
-2.515837259605794
 10
7.057892042171959
 20
-2.536879190038558
 10
7.085416479737973
 20
-2.536946076400318
 97
        0
 72
     4
 94
        3
 73
     0
 74
     0
 95
        8
 96
        4
 40
0.0
 40
0.0
 40
0.0
 40
0.0
 40
4.629221768901988
 40
4.629221768901988
 40
4.629221768901988
 40
4.629221768901988
 10
7.085416479737973
 20
-2.536946076400318
 10
7.097963906578137
 20
-2.536974998711921
 10
7.108408947015837
 20
-2.530141796392404
 10
7.11448471464611
 20
-2.520470461122103
 97
        0
 72
     1
 10
7.114484698988838
 20
-2.520470459082845
 11
7.115377742088837
 21
-2.534389948782845
 72
     1
 10
7.115377742088837
 20
-2.534389948782845
 11
7.132486064388837
 21
-2.534389948782845
 72
     1
 10
7.132486064388837
 20
-2.534389948782845
 11
7.132486064388837
 21
-2.477715932982845
 72
     1
 10
7.132486064388837
 20
-2.477715932982845
 11
7.087956329888837
 21
-2.477715932982845
 72
     1
 10
7.087956329888837
 20
-2.477715932982845
 11
7.087958138788838
 21
-2.494699516782845
 72
     1
 10
7.087958138788838
 20
-2.494699516782845
 11
7.113098177288837
 21
-2.494695898982845
 72
     4
 94
        3
 73
     0
 74
     0
 95
        8
 96
        4
 40
0.0
 40
0.0
 40
0.0
 40
0.0
 40
5.368284882327459
 40
5.368284882327459
 40
5.368284882327459
 40
5.368284882327459
 10
7.113098188924324
 20
-2.494695903011865
 10
7.11051313902058
 20
-2.50987357154594
 10
7.099232931340701
 20
-2.518830852691102
 10
7.086763235643485
 20
-2.518830853589292
 97
        0
 72
     4
 94
        3
 73
     0
 74
     0
 95
        8
 96
        4
 40
0.0
 40
0.0
 40
0.0
 40
0.0
 40
7.529152638125497
 40
7.529152638125497
 40
7.529152638125497
 40
7.529152638125497
 10
7.086763235643485
 20
-2.518830853589292
 10
7.067988192731542
 20
-2.518830851715375
 10
7.057864927154875
 20
-2.501946693631877
 10
7.057864926982067
 20
-2.481123495794018
 97
        0
 72
     4
 94
        3
 73
     0
 74
     0
 95
        8
 96
        4
 40
0.0
 40
0.0
 40
0.0
 40
0.0
 40
7.504907119165637
 40
7.504907119165637
 40
7.504907119165637
 40
7.504907119165637
 10
7.057864926982067
 20
-2.481123495794018
 10
7.057864927298699
 20
-2.460296682434186
 10
7.068394930943732
 20
-2.443412524496772
 10
7.086763235643485
 20
-2.443412522539423
 97
        0
 72
     4
 94
        3
 73
     0
 74
     0
 95
        8
 96
        4
 40
0.0
 40
0.0
 40
0.0
 40
0.0
 40
4.530982702601268
 40
4.530982702601268
 40
4.530982702601268
 40
4.530982702601268
 10
7.086763235643485
 20
-2.443412522539423
 10
7.09740893442861
 20
-2.443412519965713
 10
7.106062518978284
 20
-2.447807106512711
 10
7.111010265302276
 20
-2.462312298444937
 97
        0
 72
     1
 10
7.111010254688837
 20
-2.462312297582845
 11
7.132261911388837
 21
-2.462310488682845
 72
     4
 94
        3
 73
     0
 74
     0
 95
        8
 96
        4
 40
0.0
 40
0.0
 40
0.0
 40
0.0
 40
8.922377717083382
 40
8.922377717083382
 40
8.922377717083382
 40
8.922377717083382
 10
7.13226189286133
 20
-2.462310490728403
 10
7.125898696395945
 20
-2.436047847076395
 10
7.106955536142994
 20
-2.425476264021082
 10
7.085416479737973
 20
-2.425458187342576
 97
        0
 72
     4
 94
        3
 73
     0
 74
     0
 95
        8
 96
        4
 40
0.0
 40
0.0
 40
0.0
 40
0.0
 40
11.8149668603718
 40
11.8149668603718
 40
11.8149668603718
 40
11.8149668603718
 10
7.085416479737973
 20
-2.425458187342576
 10
7.054224166378205
 20
-2.42542926477272
 10
7.035693167191277
 20
-2.450697657733943
 10
7.035577472388887
 20
-2.481201227998744
 97
        0
 97
       15
330
CC2B
330
CBF6
330
CBF5
330
CC04
330
CBFE
330
CBFC
330
CBFD
330
CBFB
330
CBF9
330
CC0B
330
CC0C
330
CBFF
330
CC00
330
CC02
330
CC03
 92
       48
 93
        1
 72
     4
 94
        3
 73
     0
 74
     0
 95
        8
 96
        4
 40
0.0
 40
0.0
 40
0.0
 40
0.0
 40
7.529152638125497
 40
7.529152638125497
 40
7.529152638125497
 40
7.529152638125497
 10
7.086763235643485
 20
-2.518830853589292
 10
7.067988192731542
 20
-2.518830851715375
 10
7.057864927154875
 20
-2.501946693631877
 10
7.057864926982067
 20
-2.481123495794018
 97
        0
 97
        1
330
CC0B
 92
       49
 93
        1
 72
     4
 94
        3
 73
     0
 74
     0
 95
        8
 96
        4
 40
0.0
 40
0.0
 40
0.0
 40
0.0
 40
7.504907119165637
 40
7.504907119165637
 40
7.504907119165637
 40
7.504907119165637
 10
7.057864926982067
 20
-2.481123495794018
 10
7.057864927298699
 20
-2.460296682434186
 10
7.068394930943732
 20
-2.443412524496772
 10
7.086763235643485
 20
-2.443412522539423
 97
        0
 97
        1
330
CC0C
 92
       48
 93
        1
 72
     4
 94
        3
 73
     0
 74
     0
 95
        8
 96
        4
 40
0.0
 40
0.0
 40
0.0
 40
0.0
 40
4.530982702601268
 40
4.530982702601268
 40
4.530982702601268
 40
4.530982702601268
 10
7.086763235643485
 20
-2.443412522539423
 10
7.09740893442861
 20
-2.443412519965713
 10
7.106062518978284
 20
-2.447807106512711
 10
7.111010265302276
 20
-2.462312298444937
 97
        0
 97
        1
330
CBFF
 92
       48
 93
        1
 72
     4
 94
        3
 73
     0
 74
     0
 95
        8
 96
        4
 40
0.0
 40
0.0
 40
0.0
 40
0.0
 40
8.922377717083382
 40
8.922377717083382
 40
8.922377717083382
 40
8.922377717083382
 10
7.13226189286133
 20
-2.462310490728403
 10
7.125898696395945
 20
-2.436047847076395
 10
7.106955536142994
 20
-2.425476264021082
 10
7.085416479737973
 20
-2.425458187342576
 97
        0
 97
        1
330
CC02
 92
       49
 93
        1
 72
     4
 94
        3
 73
     0
 74
     0
 95
        8
 96
        4
 40
0.0
 40
0.0
 40
0.0
 40
0.0
 40
5.368284882327459
 40
5.368284882327459
 40
5.368284882327459
 40
5.368284882327459
 10
7.113098188924324
 20
-2.494695903011865
 10
7.11051313902058
 20
-2.50987357154594
 10
7.099232931340701
 20
-2.518830852691102
 10
7.086763235643485
 20
-2.518830853589292
 97
        0
 97
        1
330
CBF9
 92
       49
 93
        1
 72
     1
 10
7.087958138788838
 20
-2.494699516782845
 11
7.113098177288837
 21
-2.494695898982845
 97
        1
330
CBFB
 92
       49
 93
        1
 72
     1
 10
7.087956329888837
 20
-2.477715932982845
 11
7.087958138788838
 21
-2.494699516782845
 97
        1
330
CBFD
 92
       49
 93
        1
 72
     1
 10
7.132486064388837
 20
-2.477715932982845
 11
7.087956329888837
 21
-2.477715932982845
 97
        1
330
CBFC
 92
       49
 93
        1
 72
     1
 10
7.132486064388837
 20
-2.534389948782845
 11
7.132486064388837
 21
-2.477715932982845
 97
        1
330
CBFE
 92
       49
 93
        1
 72
     1
 10
7.115377742088837
 20
-2.534389948782845
 11
7.132486064388837
 21
-2.534389948782845
 97
        1
330
CC04
 92
       49
 93
        1
 72
     1
 10
7.114484698988838
 20
-2.520470459082845
 11
7.115377742088837
 21
-2.534389948782845
 97
        1
330
CBF5
 92
       49
 93
        1
 72
     4
 94
        3
 73
     0
 74
     0
 95
        8
 96
        4
 40
0.0
 40
0.0
 40
0.0
 40
0.0
 40
4.629221768901988
 40
4.629221768901988
 40
4.629221768901988
 40
4.629221768901988
 10
7.085416479737973
 20
-2.536946076400318
 10
7.097963906578137
 20
-2.536974998711921
 10
7.108408947015837
 20
-2.530141796392404
 10
7.11448471464611
 20
-2.520470461122103
 97
        0
 97
        1
330
CBF6
 92
       49
 93
        1
 72
     4
 94
        3
 73
     0
 74
     0
 95
        8
 96
        4
 40
0.0
 40
0.0
 40
0.0
 40
0.0
 40
11.8016654154607
 40
11.8016654154607
 40
11.8016654154607
 40
11.8016654154607
 10
7.035577472388887
 20
-2.481201227998744
 10
7.03544731696475
 20
-2.515837259605794
 10
7.057892042171959
 20
-2.536879190038558
 10
7.085416479737973
 20
-2.536946076400318
 97
        0
 97
        1
330
CC2B
 92
       49
 93
        1
 72
     4
 94
        3
 73
     0
 74
     0
 95
        8
 96
        4
 40
0.0
 40
0.0
 40
0.0
 40
0.0
 40
11.8149668603718
 40
11.8149668603718
 40
11.8149668603718
 40
11.8149668603718
 10
7.085416479737973
 20
-2.425458187342576
 10
7.054224166378205
 20
-2.42542926477272
 10
7.035693167191277
 20
-2.450697657733943
 10
7.035577472388887
 20
-2.481201227998744
 97
        0
 97
        1
330
CC03
 92
       32
 93
        1
 72
     1
 10
7.111010254688837
 20
-2.462312297582845
 11
7.132261911388837
 21
-2.462310488682845
 97
        1
330
CC00
 92
       16
 93
        2
 72
     1
 10
7.111010254688837
 20
-2.462312297582845
 11
7.132261911388837
 21
-2.462310488682845
 72
     1
 10
7.132261911388837
 20
-2.462310488682845
 11
7.111010254688837
 21
-2.462312297582845
 97
        1
330
CC00
 92
       48
 93
        3
 72
     1
 10
7.111010254688837
 20
-2.462312297582845
 11
7.132261911388837
 21
-2.462310488682845
 72
     1
 10
7.111010254688837
 20
-2.462312297582845
 11
7.132261911388837
 21
-2.462310488682845
 72
     1
 10
7.085416385888837
 20
-2.425562919882845
 11
7.085416483688838
 21
-2.425458188882845
 97
        6
330
CC00
330
CC00
330
CC00
330
CC00
330
CC00
330
CC01
 75
     0
 76
     1
 98
        1
 10
0.0
 20
0.0
450
        0
451
        0
460
0.0
461
0.0
452
        1
462
1.0
453
        2
463
0.0
 63
     5
421
      255
463
1.0
 63
    51
421
 16777113
470
LINEAR
1001
ACAD
1010
0.0
1020
0.0
1030
0.0
  0
LINE
  5
CBF5
102
{ACAD_REACTORS
330
CBF4
102
}
330
CBF2
100
AcDbEntity
  8
0
  6
Continuous
 62
     7
370
    15
100
AcDbLine
 10
7.114484698988838
 20
-2.520470459082845
 30
0.0
 11
7.115377742088837
 21
-2.534389948782845
 31
0.0
  0
SPLINE
  5
CBF6
102
{ACAD_REACTORS
330
CBF4
102
}
330
CBF2
100
AcDbEntity
  8
0
  6
Continuous
 62
     7
370
    15
100
AcDbSpline
210
0.0
220
0.0
230
1.0
 70
     8
 71
     3
 72
     8
 73
     4
 74
     0
 42
0.000000001
 43
0.0000000001
 40
0.0
 40
0.0
 40
0.0
 40
0.0
 40
4.629221768901988
 40
4.629221768901988
 40
4.629221768901988
 40
4.629221768901988
 10
7.085416479737973
 20
-2.536946076400318
 30
0.0
 10
7.097963906578137
 20
-2.536974998711921
 30
0.0
 10
7.108408947015837
 20
-2.530141796392404
 30
0.0
 10
7.11448471464611
 20
-2.520470461122103
 30
0.0
  0
HATCH
  5
CBF7
330
CBF2
100
AcDbEntity
  8
0
100
AcDbHatch
 10
0.0
 20
0.0
 30
0.0
210
0.0
220
0.0
230
1.0
  2
SOLID
 70
     1
 71
     1
 91
        3
 92
       16
 93
        8
 72
     1
 10
6.876636387927156
 20
-2.446783116982845
 11
6.876636387927156
 21
-2.470859895482845
 72
     1
 10
6.876636387927156
 20
-2.470859895482845
 11
6.899094999627157
 21
-2.470859895482845
 72
     2
 10
6.899095014227156
 20
-2.449481463082845
 40
0.021378434297707
 50
270.0000000507
 51
302.7538327093
 73
     1
 72
     2
 10
6.905897067027157
 20
-2.459258813382845
 40
0.0094853188547192
 50
300.1513158430999
 51
360.8238440749
 73
     1
 72
     1
 10
6.915381362527152
 20
-2.459122432182845
 11
6.915366891627156
 21
-2.458110981682845
 72
     4
 94
        3
 73
     0
 74
     0
 95
        8
 96
        4
 40
0.0
 40
0.0
 40
0.0
 40
0.0
 40
1.234817782031019
 40
1.234817782031019
 40
1.234817782031019
 40
1.234817782031019
 10
6.915366860976281
 20
-2.458110979461423
 10
6.915260831578787
 20
-2.45496133154696
 10
6.913756238899043
 20
-2.451889956249106
 10
6.911329683810924
 20
-2.449879146679267
 97
        0
 72
     2
 10
6.901452276727156
 20
-2.464087284082844
 40
0.0173041711593509
 50
55.19321811040001
 51
89.99999999280001
 73
     1
 72
     1
 10
6.901452296827157
 20
-2.446783116982845
 11
6.876636387927156
 21
-2.446783116982845
 97
        8
330
CC37
330
CC2A
330
CC31
330
CC32
330
CBFA
330
CBF8
330
CC35
330
CC36
 92
       16
 93
        8
 72
     1
 10
6.876636387927156
 20
-2.516801268082845
 11
6.900384184727156
 21
-2.516801268082845
 72
     2
 10
6.900384175127157
 20
-2.493727653982845
 40
0.0230736156625213
 50
270.0000000021
 51
299.6729218121
 73
     1
 72
     2
 10
6.905084866927158
 20
-2.503065769382845
 40
0.0126444541283982
 50
302.1139766277
 51
357.5033071323001
 73
     1
 72
     4
 94
        3
 73
     0
 74
     0
 95
        8
 96
        4
 40
0.0
 40
0.0
 40
0.0
 40
0.0
 40
1.0
 40
1.0
 40
1.0
 40
1.0
 10
6.917717318165067
 20
-2.503616583572982
 10
6.917765569072273
 20
-2.502509988822556
 10
6.917734181256207
 20
-2.501405648970588
 10
6.917623430238558
 20
-2.500303536250148
 97
        0
 72
     4
 94
        3
 73
     0
 74
     0
 95
       10
 96
        6
 40
0.0
 40
0.0
 40
0.0
 40
0.0
 40
0.5
 40
0.5
 40
1.0
 40
1.0
 40
1.0
 40
1.0
 10
6.917623430238558
 20
-2.500303536250148
 10
6.917405671676237
 20
-2.49813656654854
 10
6.916659848823567
 20
-2.49602188163258
 10
6.914280738359588
 20
-2.492370764145272
 10
6.912647447353577
 20
-2.490834326364914
 10
6.910753031288428
 20
-2.489759943258022
 97
        0
 72
     2
 10
6.900262396127157
 20
-2.510424799282845
 40
0.023175195852144
 50
63.08510597700003
 51
89.99999999290002
 73
     1
 72
     1
 10
6.900262355027152
 20
-2.487249608382845
 11
6.876636387927156
 21
-2.487249608382845
 72
     1
 10
6.876636387927156
 20
-2.487249608382845
 11
6.876636387927156
 21
-2.516801268082845
 97
        8
330
CC30
330
CC1B
330
CC1C
330
CC1D
330
CC2C
330
CC2D
330
CC2E
330
CC2F
 92
        1
 93
        9
 72
     2
 10
6.911145075327156
 20
-2.503482871582844
 40
0.0281849953663461
 50
358.2750093542999
 51
429.1859787467999
 73
     1
 72
     2
 10
6.910344636927157
 20
-2.454425532082845
 40
0.025155504803769
 50
295.4642982438
 51
359.8582049783
 73
     1
 72
     2
 10
6.910101396227156
 20
-2.454545993682845
 40
0.0253987350977654
 50
0.13130661799998
 51
52.56383084060001
 73
     1
 72
     2
 10
6.907353580927157
 20
-2.464020839782845
 40
0.0347769093137198
 50
58.46861031739998
 51
93.09517018550002
 73
     1
 72
     1
 10
6.905475805927157
 20
-2.429294663382845
 11
6.855860219027157
 21
-2.429294663382845
 72
     1
 10
6.855860219027157
 20
-2.429294663382845
 11
6.855860219027157
 21
-2.534285101682845
 72
     1
 10
6.855860219027157
 20
-2.534285101682845
 11
6.906167477927156
 21
-2.534285101682845
 72
     2
 10
6.906153707627155
 20
-2.490937190982845
 40
0.0433479148632238
 50
270.0181584594
 51
289.8507158831
 73
     1
 72
     2
 10
6.911384295927157
 20
-2.505415203482844
 40
0.0279540238095668
 50
289.8435790134
 51
362.222167714
 73
     1
 97
        9
330
CC1A
330
CC12
330
CC13
330
CC14
330
CC15
330
CC16
330
CC17
330
CC18
330
CC19
 75
     0
 76
     1
 98
        1
 10
0.0
 20
0.0
450
        0
451
        0
460
0.0
461
0.0
452
        1
462
1.0
453
        2
463
0.0
 63
     5
421
      255
463
1.0
 63
    51
421
 16777113
470
LINEAR
1001
ACAD
1010
0.0
1020
0.0
1030
0.0
  0
SPLINE
  5
CBF8
102
{ACAD_REACTORS
330
CBF7
102
}
330
CBF2
100
AcDbEntity
  8
0
  6
Continuous
 62
     7
370
    15
100
AcDbSpline
210
0.0
220
0.0
230
1.0
 70
     8
 71
     3
 72
     8
 73
     4
 74
     0
 42
0.000000001
 43
0.0000000001
 40
0.0
 40
0.0
 40
0.0
 40
0.0
 40
1.234817782031019
 40
1.234817782031019
 40
1.234817782031019
 40
1.234817782031019
 10
6.915366860976281
 20
-2.458110979461423
 30
0.0
 10
6.915260831578787
 20
-2.45496133154696
 30
0.0
 10
6.913756238899043
 20
-2.451889956249106
 30
0.0
 10
6.911329683810924
 20
-2.449879146679267
 30
0.0
  0
SPLINE
  5
CBF9
102
{ACAD_REACTORS
330
CBF4
102
}
330
CBF2
100
AcDbEntity
  8
0
  6
Continuous
 62
     7
370
    15
100
AcDbSpline
210
0.0
220
0.0
230
1.0
 70
     8
 71
     3
 72
     8
 73
     4
 74
     0
 42
0.000000001
 43
0.0000000001
 40
0.0
 40
0.0
 40
0.0
 40
0.0
 40
5.368284882327459
 40
5.368284882327459
 40
5.368284882327459
 40
5.368284882327459
 10
7.113098188924324
 20
-2.494695903011865
 30
0.0
 10
7.11051313902058
 20
-2.50987357154594
 30
0.0
 10
7.099232931340701
 20
-2.518830852691102
 30
0.0
 10
7.086763235643485
 20
-2.518830853589292
 30
0.0
  0
LINE
  5
CBFA
102
{ACAD_REACTORS
330
CBF7
102
}
330
CBF2
100
AcDbEntity
  8
0
  6
Continuous
 62
     7
370
    15
100
AcDbLine
 10
6.915381362527152
 20
-2.459122432182845
 30
0.0
 11
6.915366891627156
 21
-2.458110981682845
 31
0.0
  0
LINE
  5
CBFB
102
{ACAD_REACTORS
330
CBF4
102
}
330
CBF2
100
AcDbEntity
  8
0
  6
Continuous
 62
     7
370
    15
100
AcDbLine
 10
7.087958138788838
 20
-2.494699516782845
 30
0.0
 11
7.113098177288837
 21
-2.494695898982845
 31
0.0
  0
LINE
  5
CBFC
102
{ACAD_REACTORS
330
CBF4
102
}
330
CBF2
100
AcDbEntity
  8
0
  6
Continuous
 62
     7
370
    15
100
AcDbLine
 10
7.132486064388837
 20
-2.477715932982845
 30
0.0
 11
7.087956329888837
 21
-2.477715932982845
 31
0.0
  0
LINE
  5
CBFD
102
{ACAD_REACTORS
330
CBF4
102
}
330
CBF2
100
AcDbEntity
  8
0
  6
Continuous
 62
     7
370
    15
100
AcDbLine
 10
7.087956329888837
 20
-2.477715932982845
 30
0.0
 11
7.087958138788838
 21
-2.494699516782845
 31
0.0
  0
LINE
  5
CBFE
102
{ACAD_REACTORS
330
CBF4
102
}
330
CBF2
100
AcDbEntity
  8
0
  6
Continuous
 62
     7
370
    15
100
AcDbLine
 10
7.132486064388837
 20
-2.534389948782845
 30
0.0
 11
7.132486064388837
 21
-2.477715932982845
 31
0.0
  0
SPLINE
  5
CBFF
102
{ACAD_REACTORS
330
CBF4
102
}
330
CBF2
100
AcDbEntity
  8
0
  6
Continuous
 62
     7
370
    15
100
AcDbSpline
210
0.0
220
0.0
230
1.0
 70
     8
 71
     3
 72
     8
 73
     4
 74
     0
 42
0.000000001
 43
0.0000000001
 40
0.0
 40
0.0
 40
0.0
 40
0.0
 40
4.530982702601268
 40
4.530982702601268
 40
4.530982702601268
 40
4.530982702601268
 10
7.086763235643485
 20
-2.443412522539423
 30
0.0
 10
7.09740893442861
 20
-2.443412519965713
 30
0.0
 10
7.106062518978284
 20
-2.447807106512711
 30
0.0
 10
7.111010265302276
 20
-2.462312298444937
 30
0.0
  0
LINE
  5
CC00
102
{ACAD_REACTORS
330
CBF4
102
}
330
CBF2
100
AcDbEntity
  8
0
  6
Continuous
 62
     7
370
    15
100
AcDbLine
 10
7.111010254688837
 20
-2.462312297582845
 30
0.0
 11
7.132261911388837
 21
-2.462310488682845
 31
0.0
  0
LINE
  5
CC01
102
{ACAD_REACTORS
330
CBF4
102
}
330
CBF2
100
AcDbEntity
  8
0
  6
Continuous
 62
     7
370
    15
100
AcDbLine
 10
7.085416385888837
 20
-2.425562919882845
 30
0.0
 11
7.085416483688838
 21
-2.425458188882845
 31
0.0
  0
SPLINE
  5
CC02
102
{ACAD_REACTORS
330
CBF4
102
}
330
CBF2
100
AcDbEntity
  8
0
  6
Continuous
 62
     7
370
    15
100
AcDbSpline
210
0.0
220
0.0
230
1.0
 70
     8
 71
     3
 72
     8
 73
     4
 74
     0
 42
0.000000001
 43
0.0000000001
 40
0.0
 40
0.0
 40
0.0
 40
0.0
 40
8.922377717083382
 40
8.922377717083382
 40
8.922377717083382
 40
8.922377717083382
 10
7.13226189286133
 20
-2.462310490728403
 30
0.0
 10
7.125898696395945
 20
-2.436047847076395
 30
0.0
 10
7.106955536142994
 20
-2.425476264021082
 30
0.0
 10
7.085416479737973
 20
-2.425458187342576
 30
0.0
  0
SPLINE
  5
CC03
102
{ACAD_REACTORS
330
CBF4
102
}
330
CBF2
100
AcDbEntity
  8
0
  6
Continuous
 62
     7
370
    15
100
AcDbSpline
210
0.0
220
0.0
230
1.0
 70
     8
 71
     3
 72
     8
 73
     4
 74
     0
 42
0.000000001
 43
0.0000000001
 40
0.0
 40
0.0
 40
0.0
 40
0.0
 40
11.8149668603718
 40
11.8149668603718
 40
11.8149668603718
 40
11.8149668603718
 10
7.085416479737973
 20
-2.425458187342576
 30
0.0
 10
7.054224166378205
 20
-2.42542926477272
 30
0.0
 10
7.035693167191277
 20
-2.450697657733943
 30
0.0
 10
7.035577472388887
 20
-2.481201227998744
 30
0.0
  0
LINE
  5
CC04
102
{ACAD_REACTORS
330
CBF4
102
}
330
CBF2
100
AcDbEntity
  8
0
  6
Continuous
 62
     7
370
    15
100
AcDbLine
 10
7.115377742088837
 20
-2.534389948782845
 30
0.0
 11
7.132486064388837
 21
-2.534389948782845
 31
0.0
  0
HATCH
  5
CC05
330
CBF2
100
AcDbEntity
  8
0
100
AcDbHatch
 10
0.0
 20
0.0
 30
0.0
210
0.0
220
0.0
230
1.0
  2
SOLID
 70
     1
 71
     1
 91
        1
 92
        1
 93
       12
 72
     1
 10
6.973973432327157
 20
-2.486165240882845
 11
7.023188770527157
 21
-2.486165240882845
 72
     1
 10
7.023188770527157
 20
-2.486165240882845
 11
7.023188770527157
 21
-2.468666459682845
 72
     1
 10
7.023188770527157
 20
-2.468666459682845
 11
6.973973432327157
 21
-2.468666459682845
 72
     1
 10
6.973973432327157
 20
-2.468666459682845
 11
6.973973432327157
 21
-2.446794776782845
 72
     1
 10
6.973973432327157
 20
-2.446794776782845
 11
7.029747236927157
 21
-2.446794776782845
 72
     1
 10
7.029747236927157
 20
-2.446794776782845
 11
7.029747236927157
 21
-2.429294186782845
 72
     1
 10
7.029747236927157
 20
-2.429294186782845
 11
6.952099965027157
 21
-2.429294186782845
 72
     1
 10
6.952099965027157
 20
-2.429294186782845
 11
6.952099965027157
 21
-2.534285107782844
 72
     1
 10
6.952099965027157
 20
-2.534285107782844
 11
7.029747236927157
 21
-2.534285107782844
 72
     1
 10
7.029747236927157
 20
-2.534285107782844
 11
7.029747236927157
 21
-2.516788129382845
 72
     1
 10
7.029747236927157
 20
-2.516788129382845
 11
6.973973432327157
 21
-2.516788129382845
 72
     1
 10
6.973973432327157
 20
-2.516788129382845
 11
6.973973432327157
 21
-2.486165240882845
 97
       12
330
CC26
330
CC0D
330
CC0E
330
CC0F
330
CC10
330
CC11
330
CC06
330
CC07
330
CC08
330
CC09
330
CC0A
330
CC25
 75
     0
 76
     1
 98
        1
 10
0.0
 20
0.0
450
        0
451
        0
460
0.0
461
0.0
452
        1
462
1.0
453
        2
463
0.0
 63
     5
421
      255
463
1.0
 63
    51
421
 16777113
470
LINEAR
1001
ACAD
1010
0.0
1020
0.0
1030
0.0
  0
LINE
  5
CC06
102
{ACAD_REACTORS
330
CC05
102
}
330
CBF2
100
AcDbEntity
  8
0
  6
Continuous
 62
     7
370
    15
100
AcDbLine
 10
7.029747236927157
 20
-2.429294186782845
 30
0.0
 11
6.952099965027157
 21
-2.429294186782845
 31
0.0
  0
LINE
  5
CC07
102
{ACAD_REACTORS
330
CC05
102
}
330
CBF2
100
AcDbEntity
  8
0
  6
Continuous
 62
     7
370
    15
100
AcDbLine
 10
6.952099965027157
 20
-2.429294186782845
 30
0.0
 11
6.952099965027157
 21
-2.534285107782844
 31
0.0
  0
LINE
  5
CC08
102
{ACAD_REACTORS
330
CC05
102
}
330
CBF2
100
AcDbEntity
  8
0
  6
Continuous
 62
     7
370
    15
100
AcDbLine
 10
6.952099965027157
 20
-2.534285107782844
 30
0.0
 11
7.029747236927157
 21
-2.534285107782844
 31
0.0
  0
LINE
  5
CC09
102
{ACAD_REACTORS
330
CC05
102
}
330
CBF2
100
AcDbEntity
  8
0
  6
Continuous
 62
     7
370
    15
100
AcDbLine
 10
7.029747236927157
 20
-2.534285107782844
 30
0.0
 11
7.029747236927157
 21
-2.516788129382845
 31
0.0
  0
LINE
  5
CC0A
102
{ACAD_REACTORS
330
CC05
102
}
330
CBF2
100
AcDbEntity
  8
0
  6
Continuous
 62
     7
370
    15
100
AcDbLine
 10
7.029747236927157
 20
-2.516788129382845
 30
0.0
 11
6.973973432327157
 21
-2.516788129382845
 31
0.0
  0
SPLINE
  5
CC0B
102
{ACAD_REACTORS
330
CBF4
102
}
330
CBF2
100
AcDbEntity
  8
0
  6
Continuous
 62
     7
370
    15
100
AcDbSpline
210
0.0
220
0.0
230
1.0
 70
     8
 71
     3
 72
     8
 73
     4
 74
     0
 42
0.000000001
 43
0.0000000001
 40
0.0
 40
0.0
 40
0.0
 40
0.0
 40
7.529152638125497
 40
7.529152638125497
 40
7.529152638125497
 40
7.529152638125497
 10
7.086763235643485
 20
-2.518830853589292
 30
0.0
 10
7.067988192731542
 20
-2.518830851715375
 30
0.0
 10
7.057864927154875
 20
-2.501946693631877
 30
0.0
 10
7.057864926982067
 20
-2.481123495794018
 30
0.0
  0
SPLINE
  5
CC0C
102
{ACAD_REACTORS
330
CBF4
102
}
330
CBF2
100
AcDbEntity
  8
0
  6
Continuous
 62
     7
370
    15
100
AcDbSpline
210
0.0
220
0.0
230
1.0
 70
     8
 71
     3
 72
     8
 73
     4
 74
     0
 42
0.000000001
 43
0.0000000001
 40
0.0
 40
0.0
 40
0.0
 40
0.0
 40
7.504907119165637
 40
7.504907119165637
 40
7.504907119165637
 40
7.504907119165637
 10
7.057864926982067
 20
-2.481123495794018
 30
0.0
 10
7.057864927298699
 20
-2.460296682434186
 30
0.0
 10
7.068394930943732
 20
-2.443412524496772
 30
0.0
 10
7.086763235643485
 20
-2.443412522539423
 30
0.0
  0
LINE
  5
CC0D
102
{ACAD_REACTORS
330
CC05
102
}
330
CBF2
100
AcDbEntity
  8
0
  6
Continuous
 62
     7
370
    15
100
AcDbLine
 10
7.023188770527157
 20
-2.486165240882845
 30
0.0
 11
7.023188770527157
 21
-2.468666459682845
 31
0.0
  0
LINE
  5
CC0E
102
{ACAD_REACTORS
330
CC05
102
}
330
CBF2
100
AcDbEntity
  8
0
  6
Continuous
 62
     7
370
    15
100
AcDbLine
 10
7.023188770527157
 20
-2.468666459682845
 30
0.0
 11
6.973973432327157
 21
-2.468666459682845
 31
0.0
  0
LINE
  5
CC0F
102
{ACAD_REACTORS
330
CC05
102
}
330
CBF2
100
AcDbEntity
  8
0
  6
Continuous
 62
     7
370
    15
100
AcDbLine
 10
6.973973432327157
 20
-2.468666459682845
 30
0.0
 11
6.973973432327157
 21
-2.446794776782845
 31
0.0
  0
LINE
  5
CC10
102
{ACAD_REACTORS
330
CC05
102
}
330
CBF2
100
AcDbEntity
  8
0
  6
Continuous
 62
     7
370
    15
100
AcDbLine
 10
6.973973432327157
 20
-2.446794776782845
 30
0.0
 11
7.029747236927157
 21
-2.446794776782845
 31
0.0
  0
LINE
  5
CC11
102
{ACAD_REACTORS
330
CC05
102
}
330
CBF2
100
AcDbEntity
  8
0
  6
Continuous
 62
     7
370
    15
100
AcDbLine
 10
7.029747236927157
 20
-2.446794776782845
 30
0.0
 11
7.029747236927157
 21
-2.429294186782845
 31
0.0
  0
ARC
  5
CC12
102
{ACAD_REACTORS
330
CBF7
102
}
330
CBF2
100
AcDbEntity
  8
0
  6
Continuous
 62
     7
370
    15
100
AcDbCircle
 10
6.910344636927157
 20
-2.454425532082845
 30
0.0
 40
0.025155504803769
100
AcDbArc
 50
295.4642982438
 51
359.8582049783
  0
ARC
  5
CC13
102
{ACAD_REACTORS
330
CBF7
102
}
330
CBF2
100
AcDbEntity
  8
0
  6
Continuous
 62
     7
370
    15
100
AcDbCircle
 10
6.910101396227156
 20
-2.454545993682845
 30
0.0
 40
0.0253987350977654
100
AcDbArc
 50
0.13130661799998
 51
52.56383084060001
  0
ARC
  5
CC14
102
{ACAD_REACTORS
330
CBF7
102
}
330
CBF2
100
AcDbEntity
  8
0
  6
Continuous
 62
     7
370
    15
100
AcDbCircle
 10
6.907353580927157
 20
-2.464020839782845
 30
0.0
 40
0.0347769093137198
100
AcDbArc
 50
58.46861031739998
 51
93.09517018550002
  0
LINE
  5
CC15
102
{ACAD_REACTORS
330
CBF7
102
}
330
CBF2
100
AcDbEntity
  8
0
  6
Continuous
 62
     7
370
    15
100
AcDbLine
 10
6.905475805927157
 20
-2.429294663382845
 30
0.0
 11
6.855860219027157
 21
-2.429294663382845
 31
0.0
  0
LINE
  5
CC16
102
{ACAD_REACTORS
330
CBF7
102
}
330
CBF2
100
AcDbEntity
  8
0
  6
Continuous
 62
     7
370
    15
100
AcDbLine
 10
6.855860219027157
 20
-2.429294663382845
 30
0.0
 11
6.855860219027157
 21
-2.534285101682845
 31
0.0
  0
LINE
  5
CC17
102
{ACAD_REACTORS
330
CBF7
102
}
330
CBF2
100
AcDbEntity
  8
0
  6
Continuous
 62
     7
370
    15
100
AcDbLine
 10
6.855860219027157
 20
-2.534285101682845
 30
0.0
 11
6.906167477927156
 21
-2.534285101682845
 31
0.0
  0
ARC
  5
CC18
102
{ACAD_REACTORS
330
CBF7
102
}
330
CBF2
100
AcDbEntity
  8
0
  6
Continuous
 62
     7
370
    15
100
AcDbCircle
 10
6.906153707627155
 20
-2.490937190982845
 30
0.0
 40
0.0433479148632238
100
AcDbArc
 50
270.0181584594
 51
289.8507158831
  0
ARC
  5
CC19
102
{ACAD_REACTORS
330
CBF7
102
}
330
CBF2
100
AcDbEntity
  8
0
  6
Continuous
 62
     7
370
    15
100
AcDbCircle
 10
6.911384295927157
 20
-2.505415203482844
 30
0.0
 40
0.0279540238095668
100
AcDbArc
 50
289.8435790134
 51
2.222167713999982
  0
ARC
  5
CC1A
102
{ACAD_REACTORS
330
CBF7
102
}
330
CBF2
100
AcDbEntity
  8
0
  6
Continuous
 62
     7
370
    15
100
AcDbCircle
 10
6.911145075327156
 20
-2.503482871582844
 30
0.0
 40
0.0281849953663461
100
AcDbArc
 50
358.2750093542999
 51
69.1859787468
  0
ARC
  5
CC1B
102
{ACAD_REACTORS
330
CBF7
102
}
330
CBF2
100
AcDbEntity
  8
0
  6
Continuous
 62
     7
370
    15
100
AcDbCircle
 10
6.900384175127157
 20
-2.493727653982845
 30
0.0
 40
0.0230736156625213
100
AcDbArc
 50
270.0000000021
 51
299.6729218121
  0
ARC
  5
CC1C
102
{ACAD_REACTORS
330
CBF7
102
}
330
CBF2
100
AcDbEntity
  8
0
  6
Continuous
 62
     7
370
    15
100
AcDbCircle
 10
6.905084866927158
 20
-2.503065769382845
 30
0.0
 40
0.0126444541283982
100
AcDbArc
 50
302.1139766277
 51
357.5033071323001
  0
SPLINE
  5
CC1D
102
{ACAD_REACTORS
330
CBF7
102
}
330
CBF2
100
AcDbEntity
  8
0
  6
Continuous
 62
     7
370
    15
100
AcDbSpline
210
0.0
220
0.0
230
1.0
 70
     8
 71
     3
 72
     8
 73
     4
 74
     0
 42
0.000000001
 43
0.0000000001
 40
0.0
 40
0.0
 40
0.0
 40
0.0
 40
1.0
 40
1.0
 40
1.0
 40
1.0
 10
6.917717318165067
 20
-2.503616583572982
 30
0.0
 10
6.917765569072273
 20
-2.502509988822556
 30
0.0
 10
6.917734181256207
 20
-2.501405648970588
 30
0.0
 10
6.917623430238558
 20
-2.500303536250148
 30
0.0
  0
HATCH
  5
CC1E
330
CBF2
100
AcDbEntity
  8
0
100
AcDbHatch
 10
0.0
 20
0.0
 30
0.0
210
0.0
220
0.0
230
1.0
  2
SOLID
 70
     1
 71
     1
 91
        2
 92
        1
 93
        8
 72
     1
 10
7.219521596025813
 20
-2.534285107782844
 11
7.242488792925811
 21
-2.534285107782844
 72
     1
 10
7.242488792925811
 20
-2.534285107782844
 11
7.205305653525812
 21
-2.429294186782845
 72
     1
 10
7.205305653525812
 20
-2.429294186782845
 11
7.181246633725812
 21
-2.429294186782845
 72
     1
 10
7.181246633725812
 20
-2.429294186782845
 11
7.144061685525811
 21
-2.534285107782844
 72
     1
 10
7.144061685525811
 20
-2.534285107782844
 11
7.167027073525813
 21
-2.534285107782844
 72
     1
 10
7.167027073525813
 20
-2.534285107782844
 11
7.174684598425812
 21
-2.511317941482845
 72
     1
 10
7.174684598425812
 20
-2.511317941482845
 11
7.211213318625812
 21
-2.511317941482845
 72
     1
 10
7.211213318625812
 20
-2.511317941482845
 11
7.219521596025813
 21
-2.534285107782844
 97
        8
330
CC34
330
CC1F
330
CC20
330
CC21
330
CC22
330
CC23
330
CC24
330
CC33
 92
       16
 93
        3
 72
     1
 10
7.193275263625812
 20
-2.451167666282845
 11
7.180152953025811
 21
-2.494916446482845
 72
     1
 10
7.180152953025811
 20
-2.494916446482845
 11
7.206401143125813
 21
-2.494916446482845
 72
     1
 10
7.206401143125813
 20
-2.494916446482845
 11
7.193275263625812
 21
-2.451167666282845
 97
        3
330
CC29
330
CC27
330
CC28
 75
     0
 76
     1
 98
        1
 10
0.0
 20
0.0
450
        0
451
        0
460
0.0
461
0.0
452
        1
462
1.0
453
        2
463
0.0
 63
     5
421
      255
463
1.0
 63
    51
421
 16777113
470
LINEAR
1001
ACAD
1010
0.0
1020
0.0
1030
0.0
  0
LINE
  5
CC1F
102
{ACAD_REACTORS
330
CC1E
102
}
330
CBF2
100
AcDbEntity
  8
0
  6
Continuous
 62
     7
370
    15
100
AcDbLine
 10
7.242488792925811
 20
-2.534285107782844
 30
0.0
 11
7.205305653525812
 21
-2.429294186782845
 31
0.0
  0
LINE
  5
CC20
102
{ACAD_REACTORS
330
CC1E
102
}
330
CBF2
100
AcDbEntity
  8
0
  6
Continuous
 62
     7
370
    15
100
AcDbLine
 10
7.205305653525812
 20
-2.429294186782845
 30
0.0
 11
7.181246633725812
 21
-2.429294186782845
 31
0.0
  0
LINE
  5
CC21
102
{ACAD_REACTORS
330
CC1E
102
}
330
CBF2
100
AcDbEntity
  8
0
  6
Continuous
 62
     7
370
    15
100
AcDbLine
 10
7.181246633725812
 20
-2.429294186782845
 30
0.0
 11
7.144061685525811
 21
-2.534285107782844
 31
0.0
  0
LINE
  5
CC22
102
{ACAD_REACTORS
330
CC1E
102
}
330
CBF2
100
AcDbEntity
  8
0
  6
Continuous
 62
     7
370
    15
100
AcDbLine
 10
7.144061685525811
 20
-2.534285107782844
 30
0.0
 11
7.167027073525813
 21
-2.534285107782844
 31
0.0
  0
LINE
  5
CC23
102
{ACAD_REACTORS
330
CC1E
102
}
330
CBF2
100
AcDbEntity
  8
0
  6
Continuous
 62
     7
370
    15
100
AcDbLine
 10
7.167027073525813
 20
-2.534285107782844
 30
0.0
 11
7.174684598425812
 21
-2.511317941482845
 31
0.0
  0
LINE
  5
CC24
102
{ACAD_REACTORS
330
CC1E
102
}
330
CBF2
100
AcDbEntity
  8
0
  6
Continuous
 62
     7
370
    15
100
AcDbLine
 10
7.174684598425812
 20
-2.511317941482845
 30
0.0
 11
7.211213318625812
 21
-2.511317941482845
 31
0.0
  0
LINE
  5
CC25
102
{ACAD_REACTORS
330
CC05
102
}
330
CBF2
100
AcDbEntity
  8
0
  6
Continuous
 62
     7
370
    15
100
AcDbLine
 10
6.973973432327157
 20
-2.516788129382845
 30
0.0
 11
6.973973432327157
 21
-2.486165240882845
 31
0.0
  0
LINE
  5
CC26
102
{ACAD_REACTORS
330
CC05
102
}
330
CBF2
100
AcDbEntity
  8
0
  6
Continuous
 62
     7
370
    15
100
AcDbLine
 10
6.973973432327157
 20
-2.486165240882845
 30
0.0
 11
7.023188770527157
 21
-2.486165240882845
 31
0.0
  0
LINE
  5
CC27
102
{ACAD_REACTORS
330
CC1E
102
}
330
CBF2
100
AcDbEntity
  8
0
  6
Continuous
 62
     7
370
    15
100
AcDbLine
 10
7.180152953025811
 20
-2.494916446482845
 30
0.0
 11
7.206401143125813
 21
-2.494916446482845
 31
0.0
  0
LINE
  5
CC28
102
{ACAD_REACTORS
330
CC1E
102
}
330
CBF2
100
AcDbEntity
  8
0
  6
Continuous
 62
     7
370
    15
100
AcDbLine
 10
7.206401143125813
 20
-2.494916446482845
 30
0.0
 11
7.193275263625812
 21
-2.451167666282845
 31
0.0
  0
LINE
  5
CC29
102
{ACAD_REACTORS
330
CC1E
102
}
330
CBF2
100
AcDbEntity
  8
0
  6
Continuous
 62
     7
370
    15
100
AcDbLine
 10
7.193275263625812
 20
-2.451167666282845
 30
0.0
 11
7.180152953025811
 21
-2.494916446482845
 31
0.0
  0
LINE
  5
CC2A
102
{ACAD_REACTORS
330
CBF7
102
}
330
CBF2
100
AcDbEntity
  8
0
  6
Continuous
 62
     7
370
    15
100
AcDbLine
 10
6.876636387927156
 20
-2.470859895482845
 30
0.0
 11
6.899094999627157
 21
-2.470859895482845
 31
0.0
  0
SPLINE
  5
CC2B
102
{ACAD_REACTORS
330
CBF4
102
}
330
CBF2
100
AcDbEntity
  8
0
  6
Continuous
 62
     7
370
    15
100
AcDbSpline
210
0.0
220
0.0
230
1.0
 70
     8
 71
     3
 72
     8
 73
     4
 74
     0
 42
0.000000001
 43
0.0000000001
 40
0.0
 40
0.0
 40
0.0
 40
0.0
 40
11.8016654154607
 40
11.8016654154607
 40
11.8016654154607
 40
11.8016654154607
 10
7.035577472388887
 20
-2.481201227998744
 30
0.0
 10
7.03544731696475
 20
-2.515837259605794
 30
0.0
 10
7.057892042171959
 20
-2.536879190038558
 30
0.0
 10
7.085416479737973
 20
-2.536946076400318
 30
0.0
  0
SPLINE
  5
CC2C
102
{ACAD_REACTORS
330
CBF7
102
}
330
CBF2
100
AcDbEntity
  8
0
  6
Continuous
 62
     7
370
    15
100
AcDbSpline
210
0.0
220
0.0
230
1.0
 70
     8
 71
     3
 72
    10
 73
     6
 74
     0
 42
0.000000001
 43
0.0000000001
 40
0.0
 40
0.0
 40
0.0
 40
0.0
 40
0.5
 40
0.5
 40
1.0
 40
1.0
 40
1.0
 40
1.0
 10
6.917623430238558
 20
-2.500303536250148
 30
0.0
 10
6.917405671676237
 20
-2.49813656654854
 30
0.0
 10
6.916659848823567
 20
-2.49602188163258
 30
0.0
 10
6.914280738359588
 20
-2.492370764145272
 30
0.0
 10
6.912647447353577
 20
-2.490834326364914
 30
0.0
 10
6.910753031288428
 20
-2.489759943258022
 30
0.0
  0
ARC
  5
CC2D
102
{ACAD_REACTORS
330
CBF7
102
}
330
CBF2
100
AcDbEntity
  8
0
  6
Continuous
 62
     7
370
    15
100
AcDbCircle
 10
6.900262396127157
 20
-2.510424799282845
 30
0.0
 40
0.023175195852144
100
AcDbArc
 50
63.08510597700003
 51
89.99999999290002
  0
LINE
  5
CC2E
102
{ACAD_REACTORS
330
CBF7
102
}
330
CBF2
100
AcDbEntity
  8
0
  6
Continuous
 62
     7
370
    15
100
AcDbLine
 10
6.900262355027152
 20
-2.487249608382845
 30
0.0
 11
6.876636387927156
 21
-2.487249608382845
 31
0.0
  0
LINE
  5
CC2F
102
{ACAD_REACTORS
330
CBF7
102
}
330
CBF2
100
AcDbEntity
  8
0
  6
Continuous
 62
     7
370
    15
100
AcDbLine
 10
6.876636387927156
 20
-2.487249608382845
 30
0.0
 11
6.876636387927156
 21
-2.516801268082845
 31
0.0
  0
LINE
  5
CC30
102
{ACAD_REACTORS
330
CBF7
102
}
330
CBF2
100
AcDbEntity
  8
0
  6
Continuous
 62
     7
370
    15
100
AcDbLine
 10
6.876636387927156
 20
-2.516801268082845
 30
0.0
 11
6.900384184727156
 21
-2.516801268082845
 31
0.0
  0
ARC
  5
CC31
102
{ACAD_REACTORS
330
CBF7
102
}
330
CBF2
100
AcDbEntity
  8
0
  6
Continuous
 62
     7
370
    15
100
AcDbCircle
 10
6.899095014227156
 20
-2.449481463082845
 30
0.0
 40
0.021378434297707
100
AcDbArc
 50
270.0000000507
 51
302.7538327093
  0
ARC
  5
CC32
102
{ACAD_REACTORS
330
CBF7
102
}
330
CBF2
100
AcDbEntity
  8
0
  6
Continuous
 62
     7
370
    15
100
AcDbCircle
 10
6.905897067027157
 20
-2.459258813382845
 30
0.0
 40
0.0094853188547192
100
AcDbArc
 50
300.1513158430999
 51
0.8238440749000069
  0
LINE
  5
CC33
102
{ACAD_REACTORS
330
CC1E
102
}
330
CBF2
100
AcDbEntity
  8
0
  6
Continuous
 62
     7
370
    15
100
AcDbLine
 10
7.211213318625812
 20
-2.511317941482845
 30
0.0
 11
7.219521596025813
 21
-2.534285107782844
 31
0.0
  0
LINE
  5
CC34
102
{ACAD_REACTORS
330
CC1E
102
}
330
CBF2
100
AcDbEntity
  8
0
  6
Continuous
 62
     7
370
    15
100
AcDbLine
 10
7.219521596025813
 20
-2.534285107782844
 30
0.0
 11
7.242488792925811
 21
-2.534285107782844
 31
0.0
  0
ARC
  5
CC35
102
{ACAD_REACTORS
330
CBF7
102
}
330
CBF2
100
AcDbEntity
  8
0
  6
Continuous
 62
     7
370
    15
100
AcDbCircle
 10
6.901452276727156
 20
-2.464087284082844
 30
0.0
 40
0.0173041711593509
100
AcDbArc
 50
55.19321811040001
 51
89.99999999280001
  0
LINE
  5
CC36
102
{ACAD_REACTORS
330
CBF7
102
}
330
CBF2
100
AcDbEntity
  8
0
  6
Continuous
 62
     7
370
    15
100
AcDbLine
 10
6.901452296827157
 20
-2.446783116982845
 30
0.0
 11
6.876636387927156
 21
-2.446783116982845
 31
0.0
  0
LINE
  5
CC37
102
{ACAD_REACTORS
330
CBF7
102
}
330
CBF2
100
AcDbEntity
  8
0
  6
Continuous
 62
     7
370
    15
100
AcDbLine
 10
6.876636387927156
 20
-2.446783116982845
 30
0.0
 11
6.876636387927156
 21
-2.470859895482845
 31
0.0
  0
ENDBLK
  5
CC38
330
CBF2
100
AcDbEntity
  8
0
100
AcDbBlockEnd
  0
BLOCK
  5
CC3C
330
CC39
100
AcDbEntity
  8
0
100
AcDbBlockBegin
  2
bega logo
 70
     0
 10
0.0
 20
0.0
 30
0.0
  3
bega logo
  1

  0
INSERT
  5
CC3D
330
CC39
100
AcDbEntity
  8
0
100
AcDbBlockReference
  2
bega
 10
-138.8202300585621
 20
53.61275461362001
 30
0.0
 41
20.43278469033529
 42
20.43278469033529
 43
20.43278469033529
  0
ENDBLK
  5
CC3E
330
CC39
100
AcDbEntity
  8
0
100
AcDbBlockEnd
  0
ENDSEC
  0
SECTION
  2
ENTITIES
  0
TEXT
  5
51D8
330
1F
100
AcDbEntity
  8
DIM
100
AcDbText
 10
1.914669653127724
 20
10.98491434362085
 30
0.0
 40
0.3
  1
PROVIDED FOR PROPER
100
AcDbText
  0
TEXT
  5
51D9
330
1F
100
AcDbEntity
  8
DIM
100
AcDbText
 10
1.914669653127724
 20
11.49920005790657
 30
0.0
 40
0.3
  1
A LEVEL SURFACE MUST BE
100
AcDbText
  0
TEXT
  5
51DA
330
1F
100
AcDbEntity
  8
DIM
100
AcDbText
 10
1.943054841761031
 20
2.663738832661854
 30
0.0
 40
0.3
  1
(PROVIDED BY OTHERS)
100
AcDbText
  0
TEXT
  5
51DB
330
1F
100
AcDbEntity
  8
DIM
100
AcDbText
 10
2.318054841761029
 20
3.178024546947573
 30
0.0
 40
0.3
  1
WATERPROOF J-BOX
100
AcDbText
  0
TEXT
  5
52D7
330
1F
100
AcDbEntity
  8
DIM
100
AcDbText
 10
2.588955293224673
 20
20.5411497711879
 30
0.0
 40
0.3
  1
1.  LUMIANIRE #77 791 - SEE SPECIFICATIONS:
100
AcDbText
  0
TEXT
  5
52DA
330
1F
100
AcDbEntity
  8
DIM
100
AcDbText
 10
2.088955293224679
 20
21.5411497711879
 30
0.0
 40
0.5
  1
NOTES:
100
AcDbText
  0
TEXT
  5
53E8
330
1F
100
AcDbEntity
  8
DIM
100
AcDbText
 10
1.892266399575575
 20
10.42528224674402
 30
0.0
 40
0.3
  1
INSTALLATION.
100
AcDbText
  0
LINE
  5
61EC
330
1F
100
AcDbEntity
  8
DIM
100
AcDbLine
 10
7.668054797906793
 20
3.39439275448004
 30
0.0
 11
7.443054797906793
 21
3.39439275448004
 31
0.0
  0
LWPOLYLINE
  5
9486
330
1F
100
AcDbEntity
  8
0
100
AcDbPolyline
 90
        2
 70
     0
 43
0.0
 10
19.56636739342552
 20
6.444054915020382
 10
19.58723934558952
 20
6.464933937628893
  0
LWPOLYLINE
  5
9487
330
1F
100
AcDbEntity
  8
0
100
AcDbPolyline
 90
        2
 70
     0
 43
0.0
 10
18.59905281093603
 20
12.58893580730339
 10
18.57817378832752
 20
12.60285751252388
  0
LWPOLYLINE
  5
9488
330
1F
100
AcDbEntity
  8
0
100
AcDbPolyline
 90
        2
 70
     0
 43
0.0
 10
10.75614810842203
 20
6.061303472457391
 10
19.80993713600602
 20
6.061303472457391
  0
LWPOLYLINE
  5
9489
330
1F
100
AcDbEntity
  8
0
100
AcDbPolyline
 90
        2
 70
     0
 43
0.0
 10
19.80993713600602
 20
6.061303472457391
 10
18.73823451091852
 20
12.72116018989788
  0
LWPOLYLINE
  5
948A
330
1F
100
AcDbEntity
  8
0
100
AcDbPolyline
 90
        2
 70
     0
 43
0.0
 10
18.73823451091852
 20
12.72116018989788
 10
18.70343378308952
 20
12.75595384728239
  0
LWPOLYLINE
  5
948B
330
1F
100
AcDbEntity
  8
0
100
AcDbPolyline
 90
        2
 70
     0
 43
0.0
 10
10.75614810842203
 20
6.061303472457391
 10
11.83480805089752
 20
12.72116018989788
  0
LWPOLYLINE
  5
948C
330
1F
100
AcDbEntity
  8
0
100
AcDbPolyline
 90
        2
 70
     0
 43
0.0
 10
18.70343378308952
 20
12.75595384728239
 10
11.86960877872653
 20
12.75595384728239
  0
LWPOLYLINE
  5
948D
330
1F
100
AcDbEntity
  8
0
100
AcDbPolyline
 90
        2
 70
     0
 43
0.0
 10
10.98579614578203
 20
6.464933937628893
 10
10.99971785100253
 20
6.444054915020382
  0
LWPOLYLINE
  5
948E
330
1F
100
AcDbEntity
  8
0
100
AcDbPolyline
 90
        2
 70
     0
 43
0.0
 10
10.98579614578203
 20
6.464933937628893
 10
11.97398975088002
 20
12.58893580730339
  0
LWPOLYLINE
  5
948F
330
1F
100
AcDbEntity
  8
0
100
AcDbPolyline
 90
        2
 70
     0
 43
0.0
 10
11.99486877348853
 20
12.60285751252388
 10
18.57817378832752
 20
12.60285751252388
  0
LWPOLYLINE
  5
9490
330
1F
100
AcDbEntity
  8
0
100
AcDbPolyline
 90
        2
 70
     0
 43
0.0
 10
18.59905281093603
 20
12.58893580730339
 10
19.58723934558952
 20
6.464933937628893
  0
LWPOLYLINE
  5
9491
330
1F
100
AcDbEntity
  8
0
 62
     8
100
AcDbPolyline
 90
        2
 70
     0
 43
0.0
 10
11.80001439351303
 20
7.306981454911879
 10
18.77302816830303
 20
7.306981454911879
  0
LWPOLYLINE
  5
9492
330
1F
100
AcDbEntity
  8
0
 62
     8
100
AcDbPolyline
 90
        2
 70
     0
 43
0.0
 10
18.81478621352002
 20
7.202593412313883
 10
18.77302816830303
 20
7.306981454911879
  0
LWPOLYLINE
  5
9493
330
1F
100
AcDbEntity
  8
0
100
AcDbPolyline
 90
        2
 70
     0
 43
0.0
 10
18.81478621352002
 20
7.202593412313883
 10
11.75825634829603
 20
7.202593412313883
  0
LWPOLYLINE
  5
9494
330
1F
100
AcDbEntity
  8
0
100
AcDbPolyline
 90
        2
 70
     0
 43
0.0
 10
12.43585270752269
 20
11.38501587006588
 10
18.13719022643623
 20
11.38501587006588
  0
LWPOLYLINE
  5
9495
330
1F
100
AcDbEntity
  8
0
 62
     8
100
AcDbPolyline
 90
        2
 70
     0
 43
0.0
 10
13.63721283328202
 20
10.41074397018838
 10
12.43585270752269
 20
11.38501587006588
  0
LWPOLYLINE
  5
9572
330
1F
100
AcDbEntity
  8
0
 62
     8
100
AcDbPolyline
 90
        2
 70
     0
 43
0.0
 10
16.93582265808952
 20
10.41074397018838
 10
18.13719022643623
 20
11.38501587006588
  0
LWPOLYLINE
  5
9573
330
1F
100
AcDbEntity
  8
0
 62
     8
100
AcDbPolyline
 90
        2
 70
     0
 43
0.0
 10
18.66864012570502
 20
7.480956812278892
 10
18.70343378308952
 20
7.390490474901392
  0
LWPOLYLINE
  5
9574
330
1F
100
AcDbEntity
  8
0
 62
     8
100
AcDbPolyline
 90
        2
 70
     0
 43
0.0
 10
18.61296744571202
 20
7.571430220100888
 10
18.65472549092902
 20
7.480956812278892
  0
LWPOLYLINE
  5
9575
330
1F
100
AcDbEntity
  8
0
 62
     8
100
AcDbPolyline
 90
        2
 70
     0
 43
0.0
 10
18.56425208310701
 20
7.661896557478391
 10
18.59905281093603
 20
7.571430220100888
  0
LWPOLYLINE
  5
9576
330
1F
100
AcDbEntity
  8
0
 62
     8
100
AcDbPolyline
 90
        2
 70
     0
 43
0.0
 10
18.50857940311403
 20
7.74540557746788
 10
18.54338013094302
 20
7.661896557478391
  0
LWPOLYLINE
  5
9577
330
1F
100
AcDbEntity
  8
0
 62
     8
100
AcDbPolyline
 90
        2
 70
     0
 43
0.0
 10
18.45987111095352
 20
7.835871914845394
 10
18.49466476833802
 20
7.74540557746788
  0
LWPOLYLINE
  5
9578
330
1F
100
AcDbEntity
  8
0
 62
     8
100
AcDbPolyline
 90
        2
 70
     0
 43
0.0
 10
18.40419843096052
 20
7.926345322667392
 10
18.43899208834502
 20
7.835871914845394
  0
LWPOLYLINE
  5
9579
330
1F
100
AcDbEntity
  8
0
 62
     8
100
AcDbPolyline
 90
        2
 70
     0
 43
0.0
 10
18.35548306835551
 20
8.016811660044888
 10
18.39027672574002
 20
7.926345322667392
  0
LWPOLYLINE
  5
957A
330
1F
100
AcDbEntity
  8
0
 62
     8
100
AcDbPolyline
 90
        2
 70
     0
 43
0.0
 10
18.29981038836253
 20
8.100320680034387
 10
18.33460404574703
 20
8.016811660044888
  0
LWPOLYLINE
  5
957B
330
1F
100
AcDbEntity
  8
0
 62
     8
100
AcDbPolyline
 90
        2
 70
     0
 43
0.0
 10
18.25109502575752
 20
8.190787017411892
 10
18.28588868314202
 20
8.100320680034387
  0
LWPOLYLINE
  5
957C
330
1F
100
AcDbEntity
  8
0
 62
     8
100
AcDbPolyline
 90
        2
 70
     0
 43
0.0
 10
18.19542234576452
 20
8.281253354789381
 10
18.23021600314902
 20
8.190787017411892
  0
LWPOLYLINE
  5
957D
330
1F
100
AcDbEntity
  8
0
 62
     8
100
AcDbPolyline
 90
        2
 70
     0
 43
0.0
 10
18.13974966577153
 20
8.371726762611382
 10
18.18150771098853
 20
8.281253354789381
  0
LWPOLYLINE
  5
957E
330
1F
100
AcDbEntity
  8
0
 62
     8
100
AcDbPolyline
 90
        2
 70
     0
 43
0.0
 10
18.09103430316652
 20
8.455235782600889
 10
18.12583503099553
 20
8.371726762611382
  0
LWPOLYLINE
  5
957F
330
1F
100
AcDbEntity
  8
0
 62
     8
100
AcDbPolyline
 90
        2
 70
     0
 43
0.0
 10
18.03536162317352
 20
8.54570211997839
 10
18.07016235100252
 20
8.455235782600889
  0
LWPOLYLINE
  5
9580
330
1F
100
AcDbEntity
  8
0
 62
     8
100
AcDbPolyline
 90
        2
 70
     0
 43
0.0
 10
17.98665333101302
 20
8.636168457355882
 10
18.02144698839753
 20
8.54570211997839
  0
LWPOLYLINE
  5
9581
330
1F
100
AcDbEntity
  8
0
 62
     8
100
AcDbPolyline
 90
        2
 70
     0
 43
0.0
 10
17.93098065102002
 20
8.726641865177892
 10
17.96577430840453
 20
8.636168457355882
  0
LWPOLYLINE
  5
9582
330
1F
100
AcDbEntity
  8
0
 62
     8
100
AcDbPolyline
 90
        2
 70
     0
 43
0.0
 10
17.88226528841502
 20
8.81015088516739
 10
17.91705894579952
 20
8.726641865177892
  0
LWPOLYLINE
  5
9583
330
1F
100
AcDbEntity
  8
0
 62
     8
100
AcDbPolyline
 90
        2
 70
     0
 43
0.0
 10
17.82659260842202
 20
8.900617222544882
 10
17.86138626580652
 20
8.81015088516739
  0
LWPOLYLINE
  5
9584
330
1F
100
AcDbEntity
  8
0
 62
     8
100
AcDbPolyline
 90
        2
 70
     0
 43
0.0
 10
17.77787724581702
 20
8.99108355992239
 10
17.81267090320152
 20
8.900617222544882
  0
LWPOLYLINE
  5
9585
330
1F
100
AcDbEntity
  8
0
 62
     8
100
AcDbPolyline
 90
        2
 70
     0
 43
0.0
 10
17.72220456582402
 20
9.081549897299883
 10
17.75699822320852
 20
8.99108355992239
  0
LWPOLYLINE
  5
9586
330
1F
100
AcDbEntity
  8
0
 62
     8
100
AcDbPolyline
 90
        2
 70
     0
 43
0.0
 10
17.66653188583103
 20
9.172023305121882
 10
17.70828286060352
 20
9.081549897299883
  0
LWPOLYLINE
  5
9587
330
1F
100
AcDbEntity
  8
0
 62
     8
100
AcDbPolyline
 90
        2
 70
     0
 43
0.0
 10
17.61781652322602
 20
9.25553232511138
 10
17.65261018061052
 20
9.172023305121882
  0
LWPOLYLINE
  5
9588
330
1F
100
AcDbEntity
  8
0
 62
     8
100
AcDbPolyline
 90
        2
 70
     0
 43
0.0
 10
17.56214384323302
 20
9.345998662488883
 10
17.60390188845002
 20
9.25553232511138
  0
LWPOLYLINE
  5
9589
330
1F
100
AcDbEntity
  8
0
 62
     8
100
AcDbPolyline
 90
        2
 70
     0
 43
0.0
 10
17.51342848062802
 20
9.436464999866382
 10
17.54822920845702
 20
9.345998662488883
  0
LWPOLYLINE
  5
958A
330
1F
100
AcDbEntity
  8
0
 62
     8
100
AcDbPolyline
 90
        2
 70
     0
 43
0.0
 10
17.45775580063503
 20
9.526938407688394
 10
17.49255652846402
 20
9.436464999866382
  0
LWPOLYLINE
  5
958B
330
1F
100
AcDbEntity
  8
0
 62
     8
100
AcDbPolyline
 90
        2
 70
     0
 43
0.0
 10
17.40904750847452
 20
9.610447427677886
 10
17.44384116585903
 20
9.526938407688394
  0
LWPOLYLINE
  5
958C
330
1F
100
AcDbEntity
  8
0
 62
     8
100
AcDbPolyline
 90
        2
 70
     0
 43
0.0
 10
17.35337482848152
 20
9.700913765055382
 10
17.38816848586602
 20
9.610447427677886
  0
LWPOLYLINE
  5
958D
330
1F
100
AcDbEntity
  8
0
 62
     8
100
AcDbPolyline
 90
        2
 70
     0
 43
0.0
 10
17.30465946587652
 20
9.79138010243288
 10
17.33945312326102
 20
9.700913765055382
  0
LWPOLYLINE
  5
958E
330
1F
100
AcDbEntity
  8
0
 62
     8
100
AcDbPolyline
 90
        2
 70
     0
 43
0.0
 10
17.24898678588352
 20
9.881846439810383
 10
17.28378044326802
 20
9.79138010243288
  0
LWPOLYLINE
  5
958F
330
1F
100
AcDbEntity
  8
0
 62
     8
100
AcDbPolyline
 90
        2
 70
     0
 43
0.0
 10
17.19331410589052
 20
9.965355459799884
 10
17.23506508066303
 20
9.881846439810383
  0
LWPOLYLINE
  5
9590
330
1F
100
AcDbEntity
  8
0
 62
     8
100
AcDbPolyline
 90
        2
 70
     0
 43
0.0
 10
17.14459874328552
 20
10.05582886762189
 10
17.17939240067002
 20
9.965355459799884
  0
LWPOLYLINE
  5
9591
330
1F
100
AcDbEntity
  8
0
 62
     8
100
AcDbPolyline
 90
        2
 70
     0
 43
0.0
 10
17.08892606329252
 20
10.14629520499939
 10
17.13068410850952
 20
10.05582886762189
  0
LWPOLYLINE
  5
9592
330
1F
100
AcDbEntity
  8
0
 62
     8
100
AcDbPolyline
 90
        2
 70
     0
 43
0.0
 10
17.04021070068752
 20
10.23676154237689
 10
17.07501142851652
 20
10.14629520499939
  0
LWPOLYLINE
  5
9593
330
1F
100
AcDbEntity
  8
0
 62
     8
100
AcDbPolyline
 90
        2
 70
     0
 43
0.0
 10
16.98453802069452
 20
10.32027056236638
 10
17.01933874852352
 20
10.23676154237689
  0
LWPOLYLINE
  5
9594
330
1F
100
AcDbEntity
  8
0
 62
     8
100
AcDbPolyline
 90
        2
 70
     0
 43
0.0
 10
16.93582265808952
 20
10.41074397018838
 10
16.97062338591852
 20
10.32027056236638
  0
LWPOLYLINE
  5
9B7E
330
1F
100
AcDbEntity
  8
0
 62
     8
100
AcDbPolyline
 90
        2
 70
     0
 43
0.0
 10
13.63721283328202
 20
10.41074397018838
 10
16.93582265808952
 20
10.41074397018838
  0
LWPOLYLINE
  5
9B7F
330
1F
100
AcDbEntity
  8
0
 62
     8
100
AcDbPolyline
 90
        2
 70
     0
 43
0.0
 10
13.58849747067702
 20
10.32027056236638
 10
16.98453802069452
 20
10.32027056236638
  0
LWPOLYLINE
  5
9B80
330
1F
100
AcDbEntity
  8
0
 62
     8
100
AcDbPolyline
 90
        2
 70
     0
 43
0.0
 10
13.53282479068403
 20
10.23676154237689
 10
17.04021070068752
 20
10.23676154237689
  0
LWPOLYLINE
  5
9B81
330
1F
100
AcDbEntity
  8
0
 62
     8
100
AcDbPolyline
 90
        2
 70
     0
 43
0.0
 10
13.48411649852352
 20
10.14629520499939
 10
17.08892606329252
 20
10.14629520499939
  0
LWPOLYLINE
  5
9B82
330
1F
100
AcDbEntity
  8
0
 62
     8
100
AcDbPolyline
 90
        2
 70
     0
 43
0.0
 10
13.42843674808603
 20
10.05582886762189
 10
17.14459874328552
 20
10.05582886762189
  0
LWPOLYLINE
  5
9B83
330
1F
100
AcDbEntity
  8
0
 62
     8
100
AcDbPolyline
 90
        2
 70
     0
 43
0.0
 10
13.37972845592553
 20
9.965355459799884
 10
17.19331410589052
 20
9.965355459799884
  0
LWPOLYLINE
  5
9B84
330
1F
100
AcDbEntity
  8
0
 62
     8
100
AcDbPolyline
 90
        2
 70
     0
 43
0.0
 10
13.32405577593253
 20
9.881846439810383
 10
17.24898678588352
 20
9.881846439810383
  0
LWPOLYLINE
  5
9B85
330
1F
100
AcDbEntity
  8
0
 62
     8
100
AcDbPolyline
 90
        2
 70
     0
 43
0.0
 10
13.26838309593953
 20
9.79138010243288
 10
17.30465946587652
 20
9.79138010243288
  0
LWPOLYLINE
  5
9B86
330
1F
100
AcDbEntity
  8
0
 62
     8
100
AcDbPolyline
 90
        2
 70
     0
 43
0.0
 10
13.21966773333453
 20
9.700913765055382
 10
17.35337482848152
 20
9.700913765055382
  0
LWPOLYLINE
  5
9B87
330
1F
100
AcDbEntity
  8
0
 62
     8
100
AcDbPolyline
 90
        2
 70
     0
 43
0.0
 10
13.16399505334152
 20
9.610447427677886
 10
17.40904750847452
 20
9.610447427677886
  0
LWPOLYLINE
  5
9B88
330
1F
100
AcDbEntity
  8
0
 62
     8
100
AcDbPolyline
 90
        2
 70
     0
 43
0.0
 10
13.11527969073652
 20
9.526938407688394
 10
17.45775580063503
 20
9.526938407688394
  0
LWPOLYLINE
  5
9B89
330
1F
100
AcDbEntity
  8
0
 62
     8
100
AcDbPolyline
 90
        2
 70
     0
 43
0.0
 10
13.05960701074353
 20
9.436464999866382
 10
17.51342848062802
 20
9.436464999866382
  0
LWPOLYLINE
  5
9B8A
330
1F
100
AcDbEntity
  8
0
 62
     8
100
AcDbPolyline
 90
        2
 70
     0
 43
0.0
 10
13.01089164813853
 20
9.345998662488883
 10
17.56214384323302
 20
9.345998662488883
  0
LWPOLYLINE
  5
9B8B
330
1F
100
AcDbEntity
  8
0
 62
     8
100
AcDbPolyline
 90
        2
 70
     0
 43
0.0
 10
12.95521896814553
 20
9.25553232511138
 10
17.61781652322602
 20
9.25553232511138
  0
LWPOLYLINE
  5
9B8C
330
1F
100
AcDbEntity
  8
0
 62
     8
100
AcDbPolyline
 90
        2
 70
     0
 43
0.0
 10
12.90651067598502
 20
9.172023305121882
 10
17.66653188583103
 20
9.172023305121882
  0
LWPOLYLINE
  5
9B8D
330
1F
100
AcDbEntity
  8
0
 62
     8
100
AcDbPolyline
 90
        2
 70
     0
 43
0.0
 10
12.85083799599203
 20
9.081549897299883
 10
17.72220456582402
 20
9.081549897299883
  0
LWPOLYLINE
  5
9B8E
330
1F
100
AcDbEntity
  8
0
 62
     8
100
AcDbPolyline
 90
        2
 70
     0
 43
0.0
 10
12.79516531599903
 20
8.99108355992239
 10
17.77787724581702
 20
8.99108355992239
  0
LWPOLYLINE
  5
9B8F
330
1F
100
AcDbEntity
  8
0
 62
     8
100
AcDbPolyline
 90
        2
 70
     0
 43
0.0
 10
12.74644995339403
 20
8.900617222544882
 10
17.82659260842202
 20
8.900617222544882
  0
LWPOLYLINE
  5
9B90
330
1F
100
AcDbEntity
  8
0
 62
     8
100
AcDbPolyline
 90
        2
 70
     0
 43
0.0
 10
12.69077727340103
 20
8.81015088516739
 10
17.88226528841502
 20
8.81015088516739
  0
LWPOLYLINE
  5
9B91
330
1F
100
AcDbEntity
  8
0
 62
     8
100
AcDbPolyline
 90
        2
 70
     0
 43
0.0
 10
12.64206191079603
 20
8.726641865177892
 10
17.93098065102002
 20
8.726641865177892
  0
LWPOLYLINE
  5
9B92
330
1F
100
AcDbEntity
  8
0
 62
     8
100
AcDbPolyline
 90
        2
 70
     0
 43
0.0
 10
12.58638923080303
 20
8.636168457355882
 10
17.98665333101302
 20
8.636168457355882
  0
LWPOLYLINE
  5
9B93
330
1F
100
AcDbEntity
  8
0
 62
     8
100
AcDbPolyline
 90
        2
 70
     0
 43
0.0
 10
12.53767386819803
 20
8.54570211997839
 10
18.03536162317352
 20
8.54570211997839
  0
LWPOLYLINE
  5
9B94
330
1F
100
AcDbEntity
  8
0
 62
     8
100
AcDbPolyline
 90
        2
 70
     0
 43
0.0
 10
12.48200118820502
 20
8.455235782600889
 10
18.09103430316652
 20
8.455235782600889
  0
LWPOLYLINE
  5
9B95
330
1F
100
AcDbEntity
  8
0
 62
     8
100
AcDbPolyline
 90
        2
 70
     0
 43
0.0
 10
12.43328582560002
 20
8.371726762611382
 10
18.13974966577153
 20
8.371726762611382
  0
LWPOLYLINE
  5
9B96
330
1F
100
AcDbEntity
  8
0
 62
     8
100
AcDbPolyline
 90
        2
 70
     0
 43
0.0
 10
12.37761314560702
 20
8.281253354789381
 10
18.19542234576452
 20
8.281253354789381
  0
LWPOLYLINE
  5
9B97
330
1F
100
AcDbEntity
  8
0
 62
     8
100
AcDbPolyline
 90
        2
 70
     0
 43
0.0
 10
12.32194046561403
 20
8.190787017411892
 10
18.25109502575752
 20
8.190787017411892
  0
LWPOLYLINE
  5
9B98
330
1F
100
AcDbEntity
  8
0
 62
     8
100
AcDbPolyline
 90
        2
 70
     0
 43
0.0
 10
12.27323217345352
 20
8.100320680034387
 10
18.29981038836253
 20
8.100320680034387
  0
LWPOLYLINE
  5
9B99
330
1F
100
AcDbEntity
  8
0
 62
     8
100
AcDbPolyline
 90
        2
 70
     0
 43
0.0
 10
12.21755949346052
 20
8.016811660044888
 10
18.35548306835551
 20
8.016811660044888
  0
LWPOLYLINE
  5
9B9A
330
1F
100
AcDbEntity
  8
0
 62
     8
100
AcDbPolyline
 90
        2
 70
     0
 43
0.0
 10
12.16884413085552
 20
7.926345322667392
 10
18.40419843096052
 20
7.926345322667392
  0
LWPOLYLINE
  5
9B9B
330
1F
100
AcDbEntity
  8
0
 62
     8
100
AcDbPolyline
 90
        2
 70
     0
 43
0.0
 10
12.11317145086253
 20
7.835871914845394
 10
18.45987111095352
 20
7.835871914845394
  0
LWPOLYLINE
  5
9B9C
330
1F
100
AcDbEntity
  8
0
 62
     8
100
AcDbPolyline
 90
        2
 70
     0
 43
0.0
 10
12.06445608825753
 20
7.74540557746788
 10
18.50857940311403
 20
7.74540557746788
  0
LWPOLYLINE
  5
9B9D
330
1F
100
AcDbEntity
  8
0
 62
     8
100
AcDbPolyline
 90
        2
 70
     0
 43
0.0
 10
12.00878340826453
 20
7.661896557478391
 10
18.56425208310701
 20
7.661896557478391
  0
LWPOLYLINE
  5
9B9E
330
1F
100
AcDbEntity
  8
0
 62
     8
100
AcDbPolyline
 90
        2
 70
     0
 43
0.0
 10
11.96006804565953
 20
7.571430220100888
 10
18.61296744571202
 20
7.571430220100888
  0
LWPOLYLINE
  5
9B9F
330
1F
100
AcDbEntity
  8
0
 62
     8
100
AcDbPolyline
 90
        2
 70
     0
 43
0.0
 10
11.90439536566653
 20
7.480956812278892
 10
18.66864012570502
 20
7.480956812278892
  0
LWPOLYLINE
  5
9BA0
330
1F
100
AcDbEntity
  8
0
 62
     8
100
AcDbPolyline
 90
        2
 70
     0
 43
0.0
 10
11.84872268567352
 20
7.390490474901392
 10
18.72431280569802
 20
7.390490474901392
  0
LWPOLYLINE
  5
9BA1
330
1F
100
AcDbEntity
  8
0
 62
     8
100
AcDbPolyline
 90
        2
 70
     0
 43
0.0
 10
18.72431280569802
 20
7.390490474901392
 10
18.75911353352703
 20
7.306981454911879
  0
LWPOLYLINE
  5
9ED2
330
1F
100
AcDbEntity
  8
0
100
AcDbPolyline
 90
        2
 70
     0
 43
0.0
 10
18.57121647093952
 20
12.55414214991888
 10
18.55033744833102
 20
12.56806385513938
  0
LWPOLYLINE
  5
9ED3
330
1F
100
AcDbEntity
  8
0
100
AcDbPolyline
 90
        2
 70
     0
 43
0.0
 10
18.57121647093952
 20
12.55414214991888
 10
19.54548837081702
 20
6.499727595013393
  0
LWPOLYLINE
  5
9ED4
330
1F
100
AcDbEntity
  8
0
100
AcDbPolyline
 90
        2
 70
     0
 43
0.0
 10
19.53156666559651
 20
6.478848572404891
 10
19.54548837081702
 20
6.499727595013393
  0
LWPOLYLINE
  5
9ED5
330
1F
100
AcDbEntity
  8
0
100
AcDbPolyline
 90
        2
 70
     0
 43
0.0
 10
19.53156666559651
 20
6.478848572404891
 10
11.04146882577503
 20
6.478848572404891
  0
LWPOLYLINE
  5
9ED6
330
1F
100
AcDbEntity
  8
0
100
AcDbPolyline
 90
        2
 70
     0
 43
0.0
 10
11.02755419099903
 20
6.499727595013393
 10
11.04146882577503
 20
6.478848572404891
  0
LWPOLYLINE
  5
9ED7
330
1F
100
AcDbEntity
  8
0
100
AcDbPolyline
 90
        2
 70
     0
 43
0.0
 10
11.02755419099903
 20
6.499727595013393
 10
12.00182609087653
 20
12.55414214991888
  0
LWPOLYLINE
  5
9ED8
330
1F
100
AcDbEntity
  8
0
100
AcDbPolyline
 90
        2
 70
     0
 43
0.0
 10
12.02270511348503
 20
12.56806385513938
 10
18.55033744833102
 20
12.56806385513938
  0
LWPOLYLINE
  5
9EEA
330
1F
100
AcDbEntity
  8
0
100
AcDbPolyline
 90
        2
 70
     0
 43
0.0
 10
17.13068410850952
 20
5.998673475076388
 10
13.44235845330652
 20
5.998673475076388
  0
LWPOLYLINE
  5
9EEB
330
1F
100
AcDbEntity
  8
0
100
AcDbPolyline
 90
        2
 70
     0
 43
0.0
 10
17.23506508066303
 20
6.054346155069391
 10
17.24202946849552
 20
6.061303472457391
  0
LWPOLYLINE
  5
9EEC
330
1F
100
AcDbEntity
  8
0
100
AcDbPolyline
 90
        2
 70
     0
 43
0.0
 10
17.13068410850952
 20
5.998673475076388
 10
17.20722874066652
 20
6.019552497684882
  0
LWPOLYLINE
  5
9EED
330
1F
100
AcDbEntity
  8
0
100
AcDbPolyline
 90
        2
 70
     0
 43
0.0
 10
17.20722874066652
 20
6.019552497684882
 10
17.23506508066303
 20
6.054346155069391
  0
LWPOLYLINE
  5
9EEE
330
1F
100
AcDbEntity
  8
0
100
AcDbPolyline
 90
        2
 70
     0
 43
0.0
 10
13.33797041070853
 20
6.054346155069391
 10
13.40060040808953
 20
6.00563079246439
  0
LWPOLYLINE
  5
9EEF
330
1F
100
AcDbEntity
  8
0
100
AcDbPolyline
 90
        2
 70
     0
 43
0.0
 10
13.40060040808953
 20
6.00563079246439
 10
13.44235845330652
 20
5.998673475076388
  0
LWPOLYLINE
  5
9EF0
330
1F
100
AcDbEntity
  8
0
100
AcDbPolyline
 90
        2
 70
     0
 43
0.0
 10
13.33797041070853
 20
6.054346155069391
 10
13.33101309332052
 20
6.061303472457391
  0
LINE
  5
9EF1
330
1F
100
AcDbEntity
  8
0
100
AcDbLine
 10
19.56636739342552
 20
6.444054915020382
 30
0.0
 11
10.99971785100253
 21
6.444054915020382
 31
0.0
  0
CIRCLE
  5
9EF2
330
1F
100
AcDbEntity
  8
0
100
AcDbCircle
 10
11.36332606508178
 20
6.757213739981012
 30
0.0
 40
0.198098176475231
  0
CIRCLE
  5
9EF3
330
1F
100
AcDbEntity
  8
0
 62
     8
100
AcDbCircle
 10
11.36332606508178
 20
6.757213739981012
 30
0.0
 40
0.1828705404926682
  0
LWPOLYLINE
  5
9EF4
330
1F
100
AcDbEntity
  8
0
 62
     8
100
AcDbPolyline
 90
        6
 70
     1
 43
0.0
 10
11.4430379077603
 20
6.778872126125901
 10
11.38442527381459
 20
6.83707541379553
 10
11.30471343113606
 20
6.81541702765064
 10
11.28361422240325
 20
6.735555353836121
 10
11.34222685634896
 20
6.67735206616649
 10
11.42193869902749
 20
6.699010452311377
  0
CIRCLE
  5
9EF5
330
1F
100
AcDbEntity
  8
0
100
AcDbCircle
 10
19.20971649673428
 20
6.757213739981012
 30
0.0
 40
0.198098176475231
  0
CIRCLE
  5
9EF6
330
1F
100
AcDbEntity
  8
0
 62
     8
100
AcDbCircle
 10
19.20971649673428
 20
6.757213739981012
 30
0.0
 40
0.1828705404926682
  0
LWPOLYLINE
  5
9EF7
330
1F
100
AcDbEntity
  8
0
 62
     8
100
AcDbPolyline
 90
        6
 70
     1
 43
0.0
 10
19.13000465405573
 20
6.778872126125901
 10
19.18861728800146
 20
6.83707541379553
 10
19.26832913068
 20
6.81541702765064
 10
19.2894283394128
 20
6.735555353836121
 10
19.23081570546709
 20
6.67735206616649
 10
19.15110386278855
 20
6.699010452311377
  0
CIRCLE
  5
9EF8
330
1F
100
AcDbEntity
  8
0
100
AcDbCircle
 10
18.31024989966677
 20
12.28273606734188
 30
0.0
 40
0.198098176475231
  0
CIRCLE
  5
9EF9
330
1F
100
AcDbEntity
  8
0
 62
     8
100
AcDbCircle
 10
18.31024989966677
 20
12.28273606734188
 30
0.0
 40
0.1828705404926682
  0
LWPOLYLINE
  5
9EFA
330
1F
100
AcDbEntity
  8
0
 62
     8
100
AcDbPolyline
 90
        6
 70
     1
 43
0.0
 10
18.23053805698824
 20
12.30439445348678
 10
18.28915069093396
 20
12.36259774115641
 10
18.36886253361248
 20
12.34093935501152
 10
18.3899617423453
 20
12.261077681197
 10
18.33134910839959
 20
12.20287439352737
 10
18.25163726572106
 20
12.22453277967226
  0
LWPOLYLINE
  5
9EFB
330
1F
100
AcDbEntity
  8
0
100
AcDbPolyline
 90
        2
 70
     0
 43
0.0
 10
11.97398975088002
 20
12.58893580730339
 10
11.99486877348853
 20
12.60285751252388
  0
LWPOLYLINE
  5
9EFC
330
1F
100
AcDbEntity
  8
0
100
AcDbPolyline
 90
        2
 70
     0
 43
0.0
 10
11.83480805089752
 20
12.72116018989788
 10
11.86960877872653
 20
12.75595384728239
  0
LWPOLYLINE
  5
9EFD
330
1F
100
AcDbEntity
  8
0
100
AcDbPolyline
 90
        2
 70
     0
 43
0.0
 10
12.00182609087653
 20
12.55414214991888
 10
12.02270511348502
 20
12.56806385513938
  0
CIRCLE
  5
9EFE
330
1F
100
AcDbEntity
  8
0
100
AcDbCircle
 10
12.26279266214928
 20
12.28273606734188
 30
0.0
 40
0.198098176475231
  0
CIRCLE
  5
9EFF
330
1F
100
AcDbEntity
  8
0
 62
     8
100
AcDbCircle
 10
12.26279266214928
 20
12.28273606734188
 30
0.0
 40
0.1828705404926682
  0
LWPOLYLINE
  5
9F00
330
1F
100
AcDbEntity
  8
0
 62
     8
100
AcDbPolyline
 90
        6
 70
     1
 43
0.0
 10
12.34250450482781
 20
12.30439445348678
 10
12.28389187088209
 20
12.36259774115641
 10
12.20418002820356
 20
12.34093935501152
 10
12.18308081947075
 20
12.261077681197
 10
12.24169345341646
 20
12.20287439352737
 10
12.32140529609499
 20
12.22453277967226
  0
LINE
  5
9F01
330
1F
100
AcDbEntity
  8
0
100
AcDbLine
 10
12.43585270752269
 20
11.38501587006588
 30
0.0
 11
11.75825634829603
 21
7.202593412313883
 31
0.0
  0
LINE
  5
9F02
330
1F
100
AcDbEntity
  8
0
100
AcDbLine
 10
18.13719022643623
 20
11.38501587006588
 30
0.0
 11
18.81478621352002
 21
7.202593412313883
 31
0.0
  0
LWPOLYLINE
  5
9F03
330
1F
100
AcDbEntity
  8
0
 62
     8
100
AcDbPolyline
 90
        2
 70
     0
 43
0.0
 10
11.75824927785152
 20
7.202593412313883
 10
11.80000732306852
 20
7.306981454911879
  0
LWPOLYLINE
  5
9F04
330
1F
100
AcDbEntity
  8
0
 62
     8
100
AcDbPolyline
 90
        2
 70
     0
 43
0.0
 10
11.90439536566652
 20
7.480956812278892
 10
11.86960170828202
 20
7.390490474901392
  0
LWPOLYLINE
  5
9F05
330
1F
100
AcDbEntity
  8
0
 62
     8
100
AcDbPolyline
 90
        2
 70
     0
 43
0.0
 10
11.96006804565952
 20
7.571430220100888
 10
11.91831000044252
 20
7.480956812278892
  0
LWPOLYLINE
  5
9F06
330
1F
100
AcDbEntity
  8
0
 62
     8
100
AcDbPolyline
 90
        2
 70
     0
 43
0.0
 10
12.00878340826452
 20
7.661896557478391
 10
11.97398268043552
 20
7.571430220100888
  0
LWPOLYLINE
  5
9F07
330
1F
100
AcDbEntity
  8
0
 62
     8
100
AcDbPolyline
 90
        2
 70
     0
 43
0.0
 10
12.06445608825752
 20
7.74540557746788
 10
12.02965536042852
 20
7.661896557478391
  0
LWPOLYLINE
  5
9F08
330
1F
100
AcDbEntity
  8
0
 62
     8
100
AcDbPolyline
 90
        2
 70
     0
 43
0.0
 10
12.11316438041802
 20
7.835871914845394
 10
12.07837072303352
 20
7.74540557746788
  0
LWPOLYLINE
  5
9F09
330
1F
100
AcDbEntity
  8
0
 62
     8
100
AcDbPolyline
 90
        2
 70
     0
 43
0.0
 10
12.16883706041102
 20
7.926345322667392
 10
12.13404340302652
 20
7.835871914845394
  0
LWPOLYLINE
  5
9F0A
330
1F
100
AcDbEntity
  8
0
 62
     8
100
AcDbPolyline
 90
        2
 70
     0
 43
0.0
 10
12.21755242301602
 20
8.016811660044888
 10
12.18275876563152
 20
7.926345322667392
  0
LWPOLYLINE
  5
9F0B
330
1F
100
AcDbEntity
  8
0
 62
     8
100
AcDbPolyline
 90
        2
 70
     0
 43
0.0
 10
12.27322510300902
 20
8.100320680034387
 10
12.23843144562452
 20
8.016811660044888
  0
LWPOLYLINE
  5
9F0C
330
1F
100
AcDbEntity
  8
0
 62
     8
100
AcDbPolyline
 90
        2
 70
     0
 43
0.0
 10
12.32194046561402
 20
8.190787017411892
 10
12.28714680822952
 20
8.100320680034387
  0
LWPOLYLINE
  5
9F0D
330
1F
100
AcDbEntity
  8
0
 62
     8
100
AcDbPolyline
 90
        2
 70
     0
 43
0.0
 10
12.37761314560702
 20
8.281253354789381
 10
12.34281948822252
 20
8.190787017411892
  0
LWPOLYLINE
  5
9F0E
330
1F
100
AcDbEntity
  8
0
 62
     8
100
AcDbPolyline
 90
        2
 70
     0
 43
0.0
 10
12.43328582560002
 20
8.371726762611382
 10
12.39152778038302
 20
8.281253354789381
  0
LWPOLYLINE
  5
9F0F
330
1F
100
AcDbEntity
  8
0
 62
     8
100
AcDbPolyline
 90
        2
 70
     0
 43
0.0
 10
12.48200118820502
 20
8.455235782600889
 10
12.44720046037602
 20
8.371726762611382
  0
LWPOLYLINE
  5
9F10
330
1F
100
AcDbEntity
  8
0
 62
     8
100
AcDbPolyline
 90
        2
 70
     0
 43
0.0
 10
12.53767386819802
 20
8.54570211997839
 10
12.50287314036902
 20
8.455235782600889
  0
LWPOLYLINE
  5
9F11
330
1F
100
AcDbEntity
  8
0
 62
     8
100
AcDbPolyline
 90
        2
 70
     0
 43
0.0
 10
12.58638216035852
 20
8.636168457355882
 10
12.55158850297402
 20
8.54570211997839
  0
LWPOLYLINE
  5
9F12
330
1F
100
AcDbEntity
  8
0
 62
     8
100
AcDbPolyline
 90
        2
 70
     0
 43
0.0
 10
12.64205484035152
 20
8.726641865177892
 10
12.60726118296702
 20
8.636168457355882
  0
LWPOLYLINE
  5
9F13
330
1F
100
AcDbEntity
  8
0
 62
     8
100
AcDbPolyline
 90
        2
 70
     0
 43
0.0
 10
12.69077020295652
 20
8.81015088516739
 10
12.65597654557202
 20
8.726641865177892
  0
LWPOLYLINE
  5
9F14
330
1F
100
AcDbEntity
  8
0
 62
     8
100
AcDbPolyline
 90
        2
 70
     0
 43
0.0
 10
12.74644288294952
 20
8.900617222544882
 10
12.71164922556502
 20
8.81015088516739
  0
LWPOLYLINE
  5
9F15
330
1F
100
AcDbEntity
  8
0
 62
     8
100
AcDbPolyline
 90
        2
 70
     0
 43
0.0
 10
12.79515824555452
 20
8.99108355992239
 10
12.76036458817002
 20
8.900617222544882
  0
LWPOLYLINE
  5
9F16
330
1F
100
AcDbEntity
  8
0
 62
     8
100
AcDbPolyline
 90
        2
 70
     0
 43
0.0
 10
12.85083092554752
 20
9.081549897299883
 10
12.81603726816302
 20
8.99108355992239
  0
LWPOLYLINE
  5
9F17
330
1F
100
AcDbEntity
  8
0
 62
     8
100
AcDbPolyline
 90
        2
 70
     0
 43
0.0
 10
12.90650360554052
 20
9.172023305121882
 10
12.86475263076802
 20
9.081549897299883
  0
LWPOLYLINE
  5
9F18
330
1F
100
AcDbEntity
  8
0
 62
     8
100
AcDbPolyline
 90
        2
 70
     0
 43
0.0
 10
12.95521896814552
 20
9.25553232511138
 10
12.92042531076102
 20
9.172023305121882
  0
LWPOLYLINE
  5
9F19
330
1F
100
AcDbEntity
  8
0
 62
     8
100
AcDbPolyline
 90
        2
 70
     0
 43
0.0
 10
13.01089164813852
 20
9.345998662488883
 10
12.96913360292152
 20
9.25553232511138
  0
LWPOLYLINE
  5
9F1A
330
1F
100
AcDbEntity
  8
0
 62
     8
100
AcDbPolyline
 90
        2
 70
     0
 43
0.0
 10
13.05960701074352
 20
9.436464999866382
 10
13.02480628291452
 20
9.345998662488883
  0
LWPOLYLINE
  5
9F1B
330
1F
100
AcDbEntity
  8
0
 62
     8
100
AcDbPolyline
 90
        2
 70
     0
 43
0.0
 10
13.11527969073652
 20
9.526938407688394
 10
13.08047896290752
 20
9.436464999866382
  0
LWPOLYLINE
  5
9F1C
330
1F
100
AcDbEntity
  8
0
 62
     8
100
AcDbPolyline
 90
        2
 70
     0
 43
0.0
 10
13.16398798289702
 20
9.610447427677886
 10
13.12919432551252
 20
9.526938407688394
  0
LWPOLYLINE
  5
9F1D
330
1F
100
AcDbEntity
  8
0
 62
     8
100
AcDbPolyline
 90
        2
 70
     0
 43
0.0
 10
13.21966066289002
 20
9.700913765055382
 10
13.18486700550552
 20
9.610447427677886
  0
LWPOLYLINE
  5
9F1E
330
1F
100
AcDbEntity
  8
0
 62
     8
100
AcDbPolyline
 90
        2
 70
     0
 43
0.0
 10
13.26837602549502
 20
9.79138010243288
 10
13.23358236811052
 20
9.700913765055382
  0
LWPOLYLINE
  5
9F1F
330
1F
100
AcDbEntity
  8
0
 62
     8
100
AcDbPolyline
 90
        2
 70
     0
 43
0.0
 10
13.32404870548802
 20
9.881846439810383
 10
13.28925504810352
 20
9.79138010243288
  0
LWPOLYLINE
  5
9F20
330
1F
100
AcDbEntity
  8
0
 62
     8
100
AcDbPolyline
 90
        2
 70
     0
 43
0.0
 10
13.37972138548102
 20
9.965355459799884
 10
13.33797041070852
 20
9.881846439810383
  0
LWPOLYLINE
  5
9F21
330
1F
100
AcDbEntity
  8
0
 62
     8
100
AcDbPolyline
 90
        2
 70
     0
 43
0.0
 10
13.42843674808602
 20
10.05582886762189
 10
13.39364309070152
 20
9.965355459799884
  0
LWPOLYLINE
  5
9F22
330
1F
100
AcDbEntity
  8
0
 62
     8
100
AcDbPolyline
 90
        2
 70
     0
 43
0.0
 10
13.48410942807902
 20
10.14629520499939
 10
13.44235138286202
 20
10.05582886762189
  0
LWPOLYLINE
  5
9F23
330
1F
100
AcDbEntity
  8
0
 62
     8
100
AcDbPolyline
 90
        2
 70
     0
 43
0.0
 10
13.53282479068402
 20
10.23676154237689
 10
13.49802406285502
 20
10.14629520499939
  0
LWPOLYLINE
  5
9F24
330
1F
100
AcDbEntity
  8
0
 62
     8
100
AcDbPolyline
 90
        2
 70
     0
 43
0.0
 10
13.58849747067702
 20
10.32027056236638
 10
13.55369674284802
 20
10.23676154237689
  0
LWPOLYLINE
  5
9F25
330
1F
100
AcDbEntity
  8
0
 62
     8
100
AcDbPolyline
 90
        2
 70
     0
 43
0.0
 10
13.63721283328202
 20
10.41074397018838
 10
13.60241210545302
 20
10.32027056236638
  0
LWPOLYLINE
  5
9F26
330
1F
100
AcDbEntity
  8
0
 62
     8
100
AcDbPolyline
 90
        2
 70
     0
 43
0.0
 10
11.84872268567352
 20
7.390490474901392
 10
11.81392195784452
 20
7.306981454911879
  0
LWPOLYLINE
  5
A900
330
1F
100
AcDbEntity
  8
0
100
AcDbPolyline
 90
        2
 70
     0
 43
0.0
 10
27.79868743464744
 20
12.72874243059317
 10
26.01829340272352
 20
6.036873568634471
  0
LWPOLYLINE
  5
A911
330
1F
100
AcDbEntity
  8
0
100
AcDbPolyline
 90
        2
 70
     0
 43
0.0
 10
31.39793397368384
 20
12.41419108158828
 10
27.79868743464744
 20
12.72874243059317
  0
LWPOLYLINE
  5
A935
330
1F
100
AcDbEntity
  8
0
100
AcDbPolyline
 90
        2
 70
     0
 43
0.0
 10
33.11323960130651
 20
6.036873568634471
 10
31.43121689997748
 20
12.39067537151318
  0
LWPOLYLINE
  5
A938
330
1F
100
AcDbEntity
  8
0
100
AcDbPolyline
 90
        2
 70
     0
 43
0.0
 10
31.39793397368384
 20
12.41419108158828
 10
31.41742011872582
 20
12.40723235011138
  0
LWPOLYLINE
  5
A939
330
1F
100
AcDbEntity
  8
0
100
AcDbPolyline
 90
        2
 70
     0
 43
0.0
 10
31.41742011872582
 20
12.40723235011138
 10
31.43133758167962
 20
12.39053054611348
  0
LWPOLYLINE
  5
C57E
330
1F
100
AcDbEntity
  8
0
100
AcDbPolyline
 90
        2
 70
     0
 43
0.0
 10
31.51763094271322
 20
6.028521959591079
 10
31.49536187071603
 20
5.99929415611698
  0
LWPOLYLINE
  5
C57F
330
1F
100
AcDbEntity
  8
0
100
AcDbPolyline
 90
        2
 70
     0
 43
0.0
 10
31.51763094271322
 20
6.028521959591079
 10
31.52180533314604
 20
6.036873568634471
  0
LWPOLYLINE
  5
C583
330
1F
100
AcDbEntity
  8
0
100
AcDbPolyline
 90
        2
 70
     0
 43
0.0
 10
27.72492148717893
 20
5.968673475076379
 10
27.68873495222794
 20
5.974240743075677
  0
LWPOLYLINE
  5
C584
330
1F
100
AcDbEntity
  8
0
100
AcDbPolyline
 90
        2
 70
     0
 43
0.0
 10
27.68873495222794
 20
5.974240743075677
 10
27.65672280770972
 20
5.990942547073582
  0
LWPOLYLINE
  5
C585
330
1F
100
AcDbEntity
  8
0
100
AcDbPolyline
 90
        2
 70
     0
 43
0.0
 10
27.65672280770972
 20
5.990942547073582
 10
27.63027793119084
 20
6.015995960114881
  0
LWPOLYLINE
  5
C586
330
1F
100
AcDbEntity
  8
0
100
AcDbPolyline
 90
        2
 70
     0
 43
0.0
 10
27.63027793119084
 20
6.015995960114881
 10
27.62192632214742
 20
6.028521959591079
  0
LWPOLYLINE
  5
C587
330
1F
100
AcDbEntity
  8
0
100
AcDbPolyline
 90
        2
 70
     0
 43
0.0
 10
31.49536187071603
 20
5.99929415611698
 10
31.46613265315303
 20
5.979808011074982
  0
LWPOLYLINE
  5
C588
330
1F
100
AcDbEntity
  8
0
100
AcDbPolyline
 90
        2
 70
     0
 43
0.0
 10
31.46613265315303
 20
5.979808011074982
 10
31.43133758167962
 20
5.970066352642882
  0
LWPOLYLINE
  5
C589
330
1F
100
AcDbEntity
  8
0
100
AcDbPolyline
 90
        2
 70
     0
 43
0.0
 10
31.43133758167962
 20
5.970066352642882
 10
31.41602724115932
 20
5.968673475076379
  0
LWPOLYLINE
  5
C59D
330
1F
100
AcDbEntity
  8
0
100
AcDbPolyline
 90
        2
 70
     0
 43
0.0
 10
27.62192632214742
 20
6.028521959591079
 10
27.6171019761249
 20
6.036873568634468
  0
LINE
  5
C5FE
330
1F
100
AcDbEntity
  8
0
  6
Continuous
100
AcDbLine
 10
27.72492148717893
 20
5.968673475076379
 30
0.0
 11
31.41602724115932
 21
5.968673475076379
 31
0.0
  0
LINE
  5
C5FF
330
1F
100
AcDbEntity
  8
0
  6
Continuous
100
AcDbLine
 10
26.01829340272352
 20
6.036873568634471
 30
0.0
 11
33.11323960130651
 21
6.036873568634471
 31
0.0
  0
LINE
  5
C6AD
330
1F
100
AcDbEntity
  8
0
100
AcDbLine
 10
13.19277128090802
 20
5.998673475076388
 30
0.0
 11
17.38027128090803
 21
5.998673475076388
 31
0.0
  0
LINE
  5
C6AE
330
1F
100
AcDbEntity
  8
0
 62
     8
100
AcDbLine
 10
13.19277128090802
 20
5.998673475076388
 30
0.0
 11
13.19277128090802
 21
4.373673475076389
 31
0.0
  0
LINE
  5
C6AF
330
1F
100
AcDbEntity
  8
0
 62
     8
100
AcDbLine
 10
13.31777128090803
 20
5.518494475076388
 30
0.0
 11
13.31777128090803
 21
4.373673475076389
 31
0.0
  0
ARC
  5
C6B0
330
1F
100
AcDbEntity
  8
0
 62
     8
100
AcDbCircle
 10
12.38528428090802
 20
5.389906475076386
 30
0.0
 40
0.9413109999999999
100
AcDbArc
 50
7.851244999999887
 51
30.92591800000001
  0
LINE
  5
C6B1
330
1F
100
AcDbEntity
  8
0
 62
     8
100
AcDbLine
 10
14.56777128090803
 20
5.186173475076389
 30
0.0
 11
14.56777128090803
 21
4.373673475076389
 31
0.0
  0
LINE
  5
C6B2
330
1F
100
AcDbEntity
  8
0
 62
     8
100
AcDbLine
 10
16.00527128090801
 20
5.186173475076389
 30
0.0
 11
16.00527128090801
 21
4.373673475076389
 31
0.0
  0
CIRCLE
  5
C6B3
330
1F
100
AcDbEntity
  8
0
 62
     8
100
AcDbCircle
 10
15.28652128090803
 20
5.186173475076389
 30
0.0
 40
0.369999
  0
CIRCLE
  5
C6B4
330
1F
100
AcDbEntity
  8
0
 62
     8
100
AcDbCircle
 10
15.28652128090803
 20
5.186173475076389
 30
0.0
 40
0.459999
  0
ARC
  5
C6B5
330
1F
100
AcDbEntity
  8
0
 62
     8
100
AcDbCircle
 10
15.28652328090804
 20
5.186172475076391
 30
0.0
 40
0.7187510000000003
100
AcDbArc
 50
106.9574759999994
 51
179.9999069999997
  0
ARC
  5
C6B6
330
1F
100
AcDbEntity
  8
0
 62
     8
100
AcDbCircle
 10
15.28652428090801
 20
5.186174475076393
 30
0.0
 40
0.7187479999999999
100
AcDbArc
 50
359.6690660000003
 51
73.04275600000017
  0
LINE
  5
C6B7
330
1F
100
AcDbEntity
  8
0
 62
     8
100
AcDbLine
 10
17.38027128090803
 20
5.998673475076388
 30
0.0
 11
17.38027128090803
 21
4.373673475076389
 31
0.0
  0
LINE
  5
C6B8
330
1F
100
AcDbEntity
  8
0
 62
     8
100
AcDbLine
 10
17.25527128090801
 20
5.518494475076388
 30
0.0
 11
17.25527128090801
 21
4.561173475076389
 31
0.0
  0
ARC
  5
C6B9
330
1F
100
AcDbEntity
  8
0
 62
     8
100
AcDbCircle
 10
18.18775828090803
 20
5.389906475076386
 30
0.0
 40
0.9413109999999999
100
AcDbArc
 50
149.074082
 51
172.1487550000001
  0
LINE
  5
C750
330
1F
100
AcDbEntity
  8
0
 62
     8
100
AcDbLine
 10
17.31030694825591
 20
4.561173475076389
 30
0.0
 11
17.31030694825591
 21
4.373673475076389
 31
0.0
  0
LINE
  5
C751
330
1F
100
AcDbEntity
  8
0
 62
     8
100
AcDbLine
 10
16.36319015708983
 20
4.561173475076389
 30
0.0
 11
16.36319015708983
 21
4.373673475076389
 31
0.0
  0
LINE
  5
C752
330
1F
100
AcDbEntity
  8
0
 62
     8
100
AcDbLine
 10
16.36319015708983
 20
4.561173475076389
 30
0.0
 11
17.31030694825591
 21
4.561173475076389
 31
0.0
  0
LINE
  5
C753
330
1F
100
AcDbEntity
  8
0
100
AcDbLine
 10
17.38027128090803
 20
5.998673475076388
 30
0.0
 11
19.99910602070112
 21
5.998673475076388
 31
0.0
  0
LINE
  5
C756
330
1F
100
AcDbEntity
  8
0
100
AcDbLine
 10
19.99910602070112
 20
5.998673475076388
 30
0.0
 11
23.02118604227089
 21
5.893140115257534
 31
0.0
  0
LINE
  5
C759
330
1F
100
AcDbEntity
  8
0
 62
     8
100
AcDbLine
 10
17.88027128090803
 20
5.998673475076388
 30
0.0
 11
17.88027128090803
 21
4.373673475076389
 31
0.0
  0
LINE
  5
C75A
330
1F
100
AcDbEntity
  8
0
 62
     8
100
AcDbLine
 10
12.69277128090804
 20
5.998673475076388
 30
0.0
 11
12.69277128090804
 21
4.373673475076389
 31
0.0
  0
LINE
  5
C75C
330
1F
100
AcDbEntity
  8
0
100
AcDbLine
 10
13.19277128090802
 20
5.998673475076388
 30
0.0
 11
10.57393654111494
 21
5.998673475076388
 31
0.0
  0
LINE
  5
C75D
330
1F
100
AcDbEntity
  8
0
100
AcDbLine
 10
10.57393654111494
 20
5.998673475076388
 30
0.0
 11
7.551856519545177
 21
5.893140115257534
 31
0.0
  0
LINE
  5
C760
330
1F
100
AcDbEntity
  8
0
 62
     8
100
AcDbLine
 10
12.69277128090804
 20
4.373673475076389
 30
0.0
 11
17.88027128090803
 21
4.373673475076389
 31
0.0
  0
LINE
  5
C761
330
1F
100
AcDbEntity
  8
0
 62
     8
100
AcDbLine
 10
13.19277128090802
 20
4.373673475076389
 30
0.0
 11
17.38027128090803
 21
4.373673475076389
 31
0.0
  0
HATCH
  5
C769
330
1F
100
AcDbEntity
  8
0
 62
     8
100
AcDbHatch
 10
0.0
 20
0.0
 30
0.0
210
0.0
220
0.0
230
1.0
  2
AR-CONC
 70
     0
 71
     0
 91
        1
 92
        1
 93
       16
 72
     1
 10
20.81463363509286
 20
3.500856216544153
 11
22.75740648159106
 21
3.556188530143475
 72
     1
 10
22.75740648159106
 20
3.556188530143475
 11
23.22886373881599
 21
5.158087213764818
 72
     1
 10
23.22886373881599
 20
5.158087213764818
 11
23.02118604227089
 21
5.893140115257534
 72
     1
 10
23.02118604227089
 20
5.893140115257534
 11
19.99910602070112
 21
5.998673475076388
 72
     1
 10
19.99910602070112
 20
5.998673475076388
 11
17.88027128090802
 21
5.998673475076388
 72
     1
 10
17.88027128090803
 20
5.998673475076388
 11
17.88027128090803
 21
4.373673475076389
 72
     1
 10
17.88027128090803
 20
4.373673475076389
 11
12.69277128090804
 21
4.373673475076389
 72
     1
 10
12.69277128090804
 20
4.373673475076389
 11
12.69277128090804
 21
5.998673475076388
 72
     1
 10
12.69277128090804
 20
5.998673475076388
 11
10.57393654111494
 21
5.998673475076388
 72
     1
 10
10.57393654111494
 20
5.998673475076388
 11
7.551856519545177
 21
5.893140115257534
 72
     1
 10
7.551856519545177
 20
5.893140115257534
 11
7.344178823000087
 21
5.158087213764818
 72
     1
 10
7.344178823000087
 20
5.158087213764818
 11
7.815636080225011
 21
3.556188530143475
 72
     1
 10
7.815636080225011
 20
3.556188530143475
 11
10.56917595263521
 21
3.111340078000313
 72
     1
 10
10.56917595263521
 20
3.111340078000313
 11
12.9634948607595
 21
3.194807809977548
 72
     1
 10
12.9634948607595
 20
3.194807809977548
 11
18.22542827835775
 21
2.694001334139048
 72
     1
 10
18.22542827835775
 20
2.694001334139048
 11
20.81463363509286
 21
3.500856216544153
 97
        0
 75
     0
 76
     1
 52
0.0
 41
0.15
 77
     0
 78
    13
 53
50.0
 43
-13.0546301347288
 44
-3.637071497013306
 45
1.07589027390113
 46
-0.0941282024738927
 79
     2
 49
0.1125
 49
-1.2375
 53
355.0
 43
-13.0546301347288
 44
-3.637071497013306
 45
-0.2081270004195
 46
1.128288200550014
 79
     2
 49
0.09
 49
-0.9899999999999998
 53
100.4514
 43
-12.9649726147288
 44
-3.644915507013306
 45
0.8677640725710324
 46
1.03415931309143
 79
     2
 49
0.095610285
 49
-1.051713167999997
 53
46.18419999999999
 43
-13.0546301347288
 44
-3.337071497013305
 45
1.600861572938465
 46
-0.2482785214935271
 79
     2
 49
0.16875
 49
-1.85625
 53
96.6356
 43
-12.9212250172288
 44
-3.357761457513306
 45
1.401994058323055
 46
1.46117680635066
 79
     2
 49
0.143415432
 49
-1.577569499999999
 53
351.1842000000001
 43
-13.0546301347288
 44
-3.337071497013305
 45
1.401992917700439
 46
1.461177901387985
 79
     2
 49
0.135
 49
-1.485
 53
21.0
 43
-12.9046301347288
 44
-3.412071497013306
 45
0.8953605781776923
 46
-0.6039283359980086
 79
     2
 49
0.1125
 49
-1.2375
 53
326.0
 43
-12.9046301347288
 44
-3.412071497013306
 45
0.3649729978823726
 46
1.087725067570274
 79
     2
 49
0.09
 49
-0.9899999999999998
 53
71.45140000000002
 43
-12.8300167852288
 44
-3.462398906013306
 45
1.260333942872234
 46
0.4837957450649287
 79
     2
 49
0.095610285
 49
-1.051713167999999
 53
37.5
 43
-13.0546301347288
 44
-3.637071497013306
 45
0.018239782975936
 46
0.4993407807469672
 79
     6
 49
0.0
 49
-0.9779999999999999
 49
0.0
 49
-1.004999999999999
 49
0.0
 49
-0.99375
 53
7.499999999999999
 43
-13.0546301347288
 44
-3.637071497013306
 45
0.3946043061632229
 46
0.5916175678235404
 79
     6
 49
0.0
 49
-0.573
 49
0.0
 49
-0.9554999999999999
 49
0.0
 49
-0.37875
 53
327.5
 43
-13.3891301347288
 44
-3.637071497013306
 45
0.8007336542586136
 46
-0.0338323076015697
 79
     6
 49
0.0
 49
-0.375
 49
0.0
 49
-1.169999999999999
 49
0.0
 49
-1.5525
 53
317.5
 43
-13.5391301347288
 44
-3.637071497013306
 45
0.8747792540135794
 46
0.1501574734984764
 79
     6
 49
0.0
 49
-0.4875
 49
0.0
 49
-0.7770000000000003
 49
0.0
 49
-1.102499999999998
 98
        1
 10
-13.0546301347288
 20
-3.637071497013306
1001
ACAD
1010
0.0
1020
0.0
1030
0.0
  0
LINE
  5
C77D
330
1F
100
AcDbEntity
  8
0
100
AcDbLine
 10
33.25724922745914
 20
5.968673475076379
 30
0.0
 11
34.21052874786069
 21
5.935384220683237
 31
0.0
  0
LINE
  5
C77F
330
1F
100
AcDbEntity
  8
0
100
AcDbLine
 10
33.25724922745918
 20
5.968673475076379
 30
0.0
 11
25.88369950087913
 21
5.968673475076383
 31
0.0
  0
LINE
  5
C786
330
1F
100
AcDbEntity
  8
0
100
AcDbLine
 10
27.52922589032153
 20
5.968673475076379
 30
0.0
 11
26.00954014787447
 21
5.915604879564492
 31
0.0
  0
HATCH
  5
C78E
330
1F
100
AcDbEntity
  8
0
 62
     8
100
AcDbHatch
 10
0.0
 20
0.0
 30
0.0
210
0.0
220
0.0
230
1.0
  2
AR-CONC
 70
     0
 71
     0
 91
        1
 92
        1
 93
        9
 72
     1
 10
34.36084674628616
 20
4.690711699270311
 11
34.21052874786069
 21
5.935384220683237
 72
     1
 10
34.21052874786069
 20
5.935384220683237
 11
33.25724922745914
 21
5.968673475076379
 72
     1
 10
33.25724922745918
 20
5.968673475076379
 11
25.88369950087913
 21
5.968673475076383
 72
     1
 10
25.88369950087912
 20
5.968673475076379
 11
24.36401375843206
 21
5.915604879564492
 72
     1
 10
24.36401375843206
 20
5.915604879564492
 11
24.07735366032531
 21
4.847848117545423
 72
     1
 10
24.07735366032531
 20
4.847848117545423
 11
25.46106529032278
 21
3.905029691869731
 72
     1
 10
25.46106529032278
 20
3.905029691869731
 11
29.20337622646195
 21
4.125020660659886
 72
     1
 10
29.20337622646195
 20
4.125020660659886
 11
32.66265530145559
 21
3.905029691869731
 72
     1
 10
32.66265530145559
 20
3.905029691869731
 11
34.36084674628616
 21
4.690711699270311
 97
        0
 75
     0
 76
     1
 52
0.0
 41
0.15
 77
     0
 78
    13
 53
50.0
 43
-19.59208250697486
 44
-3.637071497013306
 45
1.07589027390113
 46
-0.0941282024738927
 79
     2
 49
0.1125
 49
-1.2375
 53
355.0
 43
-19.59208250697486
 44
-3.637071497013306
 45
-0.2081270004195
 46
1.128288200550014
 79
     2
 49
0.09
 49
-0.9899999999999998
 53
100.4514
 43
-19.50242498697487
 44
-3.644915507013306
 45
0.8677640725710324
 46
1.03415931309143
 79
     2
 49
0.0956102849999999
 49
-1.051713167999996
 53
46.18419999999998
 43
-19.59208250697486
 44
-3.337071497013305
 45
1.600861572938465
 46
-0.2482785214935271
 79
     2
 49
0.16875
 49
-1.85625
 53
96.6356
 43
-19.45867738947486
 44
-3.357761457513306
 45
1.401994058323055
 46
1.46117680635066
 79
     2
 49
0.143415432
 49
-1.577569499999999
 53
351.1842000000001
 43
-19.59208250697486
 44
-3.337071497013305
 45
1.401992917700439
 46
1.461177901387985
 79
     2
 49
0.135
 49
-1.485
 53
21.0
 43
-19.44208250697487
 44
-3.412071497013306
 45
0.8953605781776923
 46
-0.6039283359980086
 79
     2
 49
0.1125
 49
-1.2375
 53
326.0
 43
-19.44208250697487
 44
-3.412071497013306
 45
0.3649729978823726
 46
1.087725067570274
 79
     2
 49
0.09
 49
-0.9899999999999998
 53
71.45140000000002
 43
-19.36746915747486
 44
-3.462398906013306
 45
1.260333942872234
 46
0.4837957450649287
 79
     2
 49
0.095610285
 49
-1.051713167999997
 53
37.5
 43
-19.59208250697486
 44
-3.637071497013306
 45
0.018239782975936
 46
0.4993407807469672
 79
     6
 49
0.0
 49
-0.9779999999999999
 49
0.0
 49
-1.004999999999999
 49
0.0
 49
-0.99375
 53
7.499999999999999
 43
-19.59208250697486
 44
-3.637071497013306
 45
0.3946043061632229
 46
0.5916175678235404
 79
     6
 49
0.0
 49
-0.573
 49
0.0
 49
-0.9554999999999999
 49
0.0
 49
-0.37875
 53
327.5
 43
-19.92658250697487
 44
-3.637071497013306
 45
0.8007336542586136
 46
-0.0338323076015697
 79
     6
 49
0.0
 49
-0.375
 49
0.0
 49
-1.169999999999999
 49
0.0
 49
-1.5525
 53
317.5
 43
-20.07658250697487
 44
-3.637071497013306
 45
0.8747792540135794
 46
0.1501574734984764
 79
     6
 49
0.0
 49
-0.4875
 49
0.0
 49
-0.7770000000000003
 49
0.0
 49
-1.102499999999998
 98
        1
 10
-19.59208250697486
 20
-3.637071497013306
1001
ACAD
1010
0.0
1020
0.0
1030
0.0
  0
LWPOLYLINE
  5
C7C1
330
1F
100
AcDbEntity
  8
0
 62
     8
100
AcDbPolyline
 90
        2
 70
     0
 43
0.0
 10
15.11098882675545
 20
11.7729246503167
 10
15.11098882675545
 20
11.5799910743167
  0
LWPOLYLINE
  5
C7C2
330
1F
100
AcDbEntity
  8
0
 62
     8
100
AcDbPolyline
 90
        3
 70
     0
 43
0.0
 10
15.11098882675545
 20
11.7729246503167
 10
15.25305699475546
 20
11.7729246503167
 10
15.25305699475546
 20
11.74135295631672
  0
LWPOLYLINE
  5
C7C3
330
1F
100
AcDbEntity
  8
0
 62
     8
100
AcDbPolyline
 90
        2
 70
     0
 43
0.0
 10
15.14957447275545
 20
11.74135295631672
 10
15.25305699475546
 20
11.74135295631672
  0
LWPOLYLINE
  5
C7C4
330
1F
100
AcDbEntity
  8
0
 62
     8
100
AcDbPolyline
 90
        4
 70
     0
 43
0.0
 10
15.14957447275545
 20
11.74135295631672
 10
15.14957447275545
 20
11.70101204031669
 10
15.24077901475545
 20
11.70101204031669
 10
15.24077901475545
 20
11.6694421283167
  0
LWPOLYLINE
  5
C7C5
330
1F
100
AcDbEntity
  8
0
 62
     8
100
AcDbPolyline
 90
        2
 70
     0
 43
0.0
 10
15.14957447275545
 20
11.6694421283167
 10
15.24077901475545
 20
11.6694421283167
  0
LWPOLYLINE
  5
C7C6
330
1F
100
AcDbEntity
  8
0
 62
     8
100
AcDbPolyline
 90
        4
 70
     0
 43
0.0
 10
15.14957447275545
 20
11.6694421283167
 10
15.14957447275545
 20
11.61331625631668
 10
15.25305699475546
 20
11.61331625631668
 10
15.25305699475546
 20
11.5799910743167
  0
LWPOLYLINE
  5
C7C7
330
1F
100
AcDbEntity
  8
0
 62
     8
100
AcDbPolyline
 90
        2
 70
     0
 43
0.0
 10
15.11098882675545
 20
11.5799910743167
 10
15.25305699475546
 20
11.5799910743167
  0
LWPOLYLINE
  5
C7C8
330
1F
100
AcDbEntity
  8
0
 62
     8
100
AcDbPolyline
 90
        2
 70
     0
 43
0.0
 10
15.50737690675546
 20
11.7729246503167
 10
15.43897483675545
 20
11.5799910743167
  0
LWPOLYLINE
  5
C7C9
330
1F
100
AcDbEntity
  8
0
 62
     8
100
AcDbPolyline
 90
        3
 70
     0
 43
0.0
 10
15.50737690675546
 20
11.7729246503167
 10
15.55122658075546
 20
11.7729246503167
 10
15.61963043275545
 20
11.5799910743167
  0
LWPOLYLINE
  5
C7CA
330
1F
100
AcDbEntity
  8
0
 62
     8
100
AcDbPolyline
 90
        2
 70
     0
 43
0.0
 10
15.57753602875547
 20
11.5799910743167
 10
15.61963043275545
 20
11.5799910743167
  0
LWPOLYLINE
  5
C7CB
330
1F
100
AcDbEntity
  8
0
 62
     8
100
AcDbPolyline
 90
        2
 70
     0
 43
0.0
 10
15.56350456075545
 20
11.62208547831669
 10
15.57753602875547
 20
11.5799910743167
  0
LWPOLYLINE
  5
C7CC
330
1F
100
AcDbEntity
  8
0
 62
     8
100
AcDbPolyline
 90
        2
 70
     0
 43
0.0
 10
15.49510070875546
 20
11.62208547831669
 10
15.56350456075545
 20
11.62208547831669
  0
LWPOLYLINE
  5
C7CD
330
1F
100
AcDbEntity
  8
0
 62
     8
100
AcDbPolyline
 90
        2
 70
     0
 43
0.0
 10
15.49510070875546
 20
11.62208547831669
 10
15.48106924075545
 20
11.5799910743167
  0
LWPOLYLINE
  5
C7CE
330
1F
100
AcDbEntity
  8
0
 62
     8
100
AcDbPolyline
 90
        2
 70
     0
 43
0.0
 10
15.43897483675545
 20
11.5799910743167
 10
15.48106924075545
 20
11.5799910743167
  0
LWPOLYLINE
  5
C7CF
330
1F
100
AcDbEntity
  8
0
 62
     8
100
AcDbPolyline
 90
        2
 70
     0
 43
0.0
 10
15.35127727075546
 20
11.68522708431669
 10
15.35127727075546
 20
11.6536571723167
  0
LWPOLYLINE
  5
C7D0
330
1F
100
AcDbEntity
  8
0
 62
     8
100
AcDbPolyline
 90
        3
 70
     0
 43
0.0
 10
15.35127727075546
 20
11.68522708431669
 10
15.43371259075546
 20
11.68522708431669
 10
15.43371259075546
 20
11.5799910743167
  0
LWPOLYLINE
  5
C7D1
330
1F
100
AcDbEntity
  8
0
 62
     8
100
AcDbPolyline
 90
        2
 70
     0
 43
0.0
 10
15.40214089675546
 20
11.5799910743167
 10
15.43371259075546
 20
11.5799910743167
  0
LWPOLYLINE
  5
C7D2
330
1F
100
AcDbEntity
  8
0
 62
     8
100
AcDbPolyline
 90
        2
 70
     0
 43
0.0
 10
15.40038740875544
 20
11.60630052231671
 10
15.40214089675546
 20
11.5799910743167
  0
LWPOLYLINE
  5
C7D3
330
1F
100
AcDbEntity
  8
0
 62
     8
100
AcDbPolyline
 90
       16
 70
     0
 43
0.0
 10
15.40038740875544
 20
11.60630052231671
 10
15.34777029475545
 20
11.57648409831669
 10
15.28287341875545
 20
11.60279176431671
 10
15.25656397075545
 20
11.6782113503167
 10
15.28111993075545
 20
11.75012217831669
 10
15.34777029475545
 20
11.7799403843167
 10
15.40038740875544
 20
11.76415542831669
 10
15.43371259075546
 20
11.71329002031669
 10
15.39512516275545
 20
11.71329002031669
 10
15.34952378275544
 20
11.7483686903167
 10
15.31093635475546
 20
11.7273214883167
 10
15.29690488675545
 20
11.6782113503167
 10
15.31093635475546
 20
11.6291012123167
 10
15.34952378275544
 20
11.60980749831669
 10
15.39863392075545
 20
11.6536571723167
 10
15.35127727075546
 20
11.6536571723167
  0
LWPOLYLINE
  5
C7D4
330
1F
100
AcDbEntity
  8
0
 62
     8
100
AcDbPolyline
 90
        2
 70
     0
 43
0.0
 10
15.53017937875545
 20
11.73258373431669
 10
15.50562341875546
 20
11.6536571723167
  0
LWPOLYLINE
  5
C7D5
330
1F
100
AcDbEntity
  8
0
 62
     8
100
AcDbPolyline
 90
        2
 70
     0
 43
0.0
 10
15.53017937875545
 20
11.73258373431669
 10
15.55298006875545
 20
11.6536571723167
  0
LWPOLYLINE
  5
C7D6
330
1F
100
AcDbEntity
  8
0
 62
     8
100
AcDbPolyline
 90
        2
 70
     0
 43
0.0
 10
15.50562341875546
 20
11.6536571723167
 10
15.55298006875545
 20
11.6536571723167
  0
LWPOLYLINE
  5
C7D7
330
1F
100
AcDbEntity
  8
0
 62
     8
100
AcDbPolyline
 90
        3
 70
     0
 43
0.0
 10
15.06187690675545
 20
11.76415542831669
 10
15.04433846275545
 20
11.77117116231668
 10
15.02504474875544
 20
11.7729246503167
  0
LWPOLYLINE
  5
C7D8
330
1F
100
AcDbEntity
  8
0
 62
     8
100
AcDbPolyline
 90
        3
 70
     0
 43
0.0
 10
15.07941713275546
 20
11.7273214883167
 10
15.07415488675545
 20
11.7483686903167
 10
15.06187690675545
 20
11.76415542831669
  0
LWPOLYLINE
  5
C7D9
330
1F
100
AcDbEntity
  8
0
 62
     8
100
AcDbPolyline
 90
        2
 70
     0
 43
0.0
 10
15.07941713275546
 20
11.7273214883167
 10
15.07941713275546
 20
11.7273214883167
  0
LWPOLYLINE
  5
C7DA
330
1F
100
AcDbEntity
  8
0
 62
     8
100
AcDbPolyline
 90
        3
 70
     0
 43
0.0
 10
15.05310768475546
 20
11.68522708431669
 10
15.07240139875546
 20
11.7027673103167
 10
15.07941713275546
 20
11.7273214883167
  0
LWPOLYLINE
  5
C7DB
330
1F
100
AcDbEntity
  8
0
 62
     8
100
AcDbPolyline
 90
        3
 70
     0
 43
0.0
 10
15.08643286675545
 20
11.63611694631671
 10
15.07766364475545
 20
11.6659333703167
 10
15.05310768475546
 20
11.68522708431669
  0
LWPOLYLINE
  5
C7DC
330
1F
100
AcDbEntity
  8
0
 62
     8
100
AcDbPolyline
 90
        5
 70
     0
 43
0.0
 10
15.02504474875544
 20
11.5799910743167
 10
15.03907621675544
 20
11.5817445623167
 10
15.05310768475546
 20
11.5852533203167
 10
15.07766364475545
 20
11.6045470343167
 10
15.08643286675545
 20
11.63611694631671
  0
LWPOLYLINE
  5
C7DD
330
1F
100
AcDbEntity
  8
0
 62
     8
100
AcDbPolyline
 90
        2
 70
     0
 43
0.0
 10
14.93384020675547
 20
11.7729246503167
 10
15.02504474875544
 20
11.7729246503167
  0
LWPOLYLINE
  5
C7DE
330
1F
100
AcDbEntity
  8
0
 62
     8
100
AcDbPolyline
 90
        3
 70
     0
 43
0.0
 10
14.93384020675547
 20
11.7729246503167
 10
14.93384020675547
 20
11.5799910743167
 10
15.02504474875544
 20
11.5799910743167
  0
LWPOLYLINE
  5
C7DF
330
1F
100
AcDbEntity
  8
0
 62
     8
100
AcDbPolyline
 90
        2
 70
     0
 43
0.0
 10
14.97067236475545
 20
11.74135295631672
 10
15.01802901475545
 20
11.74135295631672
  0
LWPOLYLINE
  5
C7E0
330
1F
100
AcDbEntity
  8
0
 62
     8
100
AcDbPolyline
 90
        3
 70
     0
 43
0.0
 10
14.97067236475545
 20
11.74135295631672
 10
14.97067236475545
 20
11.69750506431668
 10
15.01452203875546
 20
11.69750506431668
  0
LWPOLYLINE
  5
C7E1
330
1F
100
AcDbEntity
  8
0
 62
     8
100
AcDbPolyline
 90
        2
 70
     0
 43
0.0
 10
14.97067236475545
 20
11.6676886403167
 10
15.01452203875546
 20
11.6676886403167
  0
LWPOLYLINE
  5
C7E2
330
1F
100
AcDbEntity
  8
0
 62
     8
100
AcDbPolyline
 90
        3
 70
     0
 43
0.0
 10
14.97067236475545
 20
11.6676886403167
 10
14.97067236475545
 20
11.61331625631668
 10
15.01452203875546
 20
11.61331625631668
  0
LWPOLYLINE
  5
C7E3
330
1F
100
AcDbEntity
  8
0
 62
     8
100
AcDbPolyline
 90
        3
 70
     0
 43
0.0
 10
15.03556924075545
 20
11.7360907103167
 10
15.02679823675545
 20
11.73959946831669
 10
15.01802901475545
 20
11.74135295631672
  0
LWPOLYLINE
  5
C7E4
330
1F
100
AcDbEntity
  8
0
 62
     8
100
AcDbPolyline
 90
        5
 70
     0
 43
0.0
 10
15.01452203875546
 20
11.69750506431668
 10
15.02504474875544
 20
11.69925855231669
 10
15.03381397075545
 20
11.7027673103167
 10
15.04082970475545
 20
11.70978304431671
 10
15.04258497475544
 20
11.71855226631669
  0
LWPOLYLINE
  5
C7E5
330
1F
100
AcDbEntity
  8
0
 62
     8
100
AcDbPolyline
 90
        3
 70
     0
 43
0.0
 10
15.03381397075545
 20
11.66242639431671
 10
15.02504474875544
 20
11.6659333703167
 10
15.01452203875546
 20
11.6676886403167
  0
LWPOLYLINE
  5
C7E6
330
1F
100
AcDbEntity
  8
0
 62
     8
100
AcDbPolyline
 90
        3
 70
     0
 43
0.0
 10
15.03556924075545
 20
11.6185785023167
 10
15.04433846275545
 20
11.62559423631671
 10
15.04609195075545
 20
11.6378704343167
  0
LWPOLYLINE
  5
C7E7
330
1F
100
AcDbEntity
  8
0
 62
     8
100
AcDbPolyline
 90
        3
 70
     0
 43
0.0
 10
15.01452203875546
 20
11.61331625631668
 10
15.02504474875544
 20
11.61331625631668
 10
15.03556924075545
 20
11.6185785023167
  0
LWPOLYLINE
  5
C7E8
330
1F
100
AcDbEntity
  8
0
 62
     8
100
AcDbPolyline
 90
        4
 70
     0
 43
0.0
 10
15.03556924075545
 20
11.7360907103167
 10
15.04258497475544
 20
11.7203057543167
 10
15.04258497475544
 20
11.71855226631669
 10
15.04258497475544
 20
11.71855226631669
  0
LWPOLYLINE
  5
C7E9
330
1F
100
AcDbEntity
  8
0
 62
     8
100
AcDbPolyline
 90
        3
 70
     0
 43
0.0
 10
15.04609195075545
 20
11.6378704343167
 10
15.04609195075545
 20
11.6431326803167
 10
15.03381397075545
 20
11.66242639431671
  0
DIMENSION
  5
C7EA
330
1F
100
AcDbEntity
  8
DIM
100
AcDbDimension
280
     0
  2
*D0
 10
19.80993713600602
 20
2.099999999999999
 30
0.0
 11
15.28304262221402
 21
2.099999999999999
 31
0.0
 70
    32
 71
     5
 42
9.053789027583992
 73
     0
 74
     0
 75
     0
  3
STANDARD
100
AcDbAlignedDimension
 13
10.75614810842203
 23
5.361303472457391
 33
0.0
 14
19.80993713600602
 24
5.361303472457391
 34
0.0
100
AcDbRotatedDimension
  0
DIMENSION
  5
C82E
330
1F
100
AcDbEntity
  8
DIM
100
AcDbDimension
280
     0
  2
*D1
 10
35.2544736105576
 20
5.968673475076378
 30
0.0
 11
35.2544736105576
 21
9.348707952834779
 31
0.0
 70
    32
 71
     5
 42
6.760068955516789
 73
     0
 74
     0
 75
     1
  3
STANDARD
100
AcDbAlignedDimension
 13
30.75447361055759
 23
12.72874243059317
 33
0.0
 14
33.25724922745914
 24
5.968673475076379
 34
0.0
 50
90.0
100
AcDbRotatedDimension
  0
DIMENSION
  5
C83F
330
1F
100
AcDbEntity
  8
DIM
100
AcDbDimension
280
     0
  2
*D2
 10
33.11323960130651
 20
2.1
 30
0.0
 11
29.56576650201501
 21
2.1
 31
0.0
 70
    32
 71
     5
 42
7.094946198582992
 73
     0
 74
     0
 75
     0
  3
STANDARD
100
AcDbAlignedDimension
 13
26.01829340272352
 23
6.036873568634471
 33
0.0
 14
33.11323960130651
 24
6.036873568634471
 34
0.0
100
AcDbRotatedDimension
  0
SOLID
  5
C87F
330
1F
100
AcDbEntity
  8
DIM
100
AcDbTrace
 10
10.65256583509747
 20
6.300416377715996
 30
0.0
 11
10.55769750529242
 21
6.268793601114312
 31
0.0
 12
10.7
 22
6.0
 32
0.0
 13
10.7
 23
6.0
 33
0.0
  0
LINE
  5
C880
330
1F
100
AcDbEntity
  8
DIM
100
AcDbLine
 10
10.60513167019495
 20
6.284604989415152
 30
0.0
 11
8.8
 21
11.7
 31
0.0
  0
LINE
  5
C881
330
1F
100
AcDbEntity
  8
DIM
100
AcDbLine
 10
8.8
 20
11.7
 30
0.0
 11
8.599999999999999
 21
11.7
 31
0.0
  0
LWPOLYLINE
  5
C882
330
1F
100
AcDbEntity
  8
DIM
100
AcDbPolyline
 90
        2
 70
     1
 43
0.075
 10
13.7625
 20
4.9
 42
1.0
 10
13.8375
 20
4.9
 42
1.0
  0
LINE
  5
C883
330
1F
100
AcDbEntity
  8
DIM
100
AcDbLine
 10
13.8
 20
4.899999999999998
 30
0.0
 11
7.668054797906793
 21
3.39439275448004
 31
0.0
  0
TEXT
  5
C8A2
330
1F
100
AcDbEntity
  8
DIM
100
AcDbText
 10
1.892266399575575
 20
9.925282246744018
 30
0.0
 40
0.3
  1
SEE INSTALLATION 
100
AcDbText
  0
TEXT
  5
C8A3
330
1F
100
AcDbEntity
  8
DIM
100
AcDbText
 10
1.892266399575575
 20
9.425282246744018
 30
0.0
 40
0.3
  1
INSTRUCTIONS FOR
100
AcDbText
  0
TEXT
  5
C8A4
330
1F
100
AcDbEntity
  8
DIM
100
AcDbText
 10
1.892266399575575
 20
8.925282246744018
 30
0.0
 40
0.3
  1
DETAILS.
100
AcDbText
  0
CIRCLE
  5
C9FF
330
1F
100
AcDbEntity
  8
0
  6
Continuous
 62
     7
370
    15
100
AcDbCircle
 10
24.61521440456291
 20
19.20721079754617
 30
0.0
 40
2.158855863029975
  0
ARC
  5
CA00
330
1F
100
AcDbEntity
  8
0
  6
Continuous
 62
     7
370
    15
100
AcDbCircle
 10
24.61521440456291
 20
19.20721079754617
 30
0.0
 40
1.863361615538251
100
AcDbArc
 50
216.2270836592737
 51
23.77291634072734
  0
SPLINE
  5
CA01
330
1F
100
AcDbEntity
  8
0
  6
Continuous
 62
     7
370
    15
100
AcDbSpline
210
0.0
220
0.0
230
1.0
 70
     8
 71
     3
 72
    36
 73
    32
 74
     0
 42
0.000000001
 43
0.0000000001
 40
0.0
 40
0.0
 40
0.0
 40
0.0
 40
0.1250000000000005
 40
0.1250000000000005
 40
0.2500000000000011
 40
0.2500000000000011
 40
0.3125000000000011
 40
0.3125000000000011
 40
0.3750000000000011
 40
0.3750000000000011
 40
0.4375000000000013
 40
0.4375000000000013
 40
0.5000000000000016
 40
0.5000000000000016
 40
0.5312500000000016
 40
0.5312500000000016
 40
0.5625000000000016
 40
0.5625000000000016
 40
0.5937500000000017
 40
0.5937500000000017
 40
0.6250000000000018
 40
0.6250000000000018
 40
0.6875000000000016
 40
0.6875000000000016
 40
0.7500000000000011
 40
0.7500000000000011
 40
0.8125000000000007
 40
0.8125000000000007
 40
0.8750000000000005
 40
0.8750000000000005
 40
1.0
 40
1.0
 40
1.0
 40
1.0
 10
26.3204703853308
 20
19.95835562400553
 30
0.0
 10
26.32898645800997
 20
19.97139986819419
 30
0.0
 10
26.33644565068387
 20
19.98570633290524
 30
0.0
 10
26.34855378712515
 20
20.0175150689026
 30
0.0
 10
26.35324868004524
 20
20.03497027905899
 30
0.0
 10
26.35687849660373
 20
20.06485620726388
 30
0.0
 10
26.35748701012027
 20
20.07541036898427
 30
0.0
 10
26.35707737123344
 20
20.09743680679648
 30
0.0
 10
26.3560460261287
 20
20.10911090922657
 30
0.0
 10
26.3518819285681
 20
20.13302921711892
 30
0.0
 10
26.34877837080702
 20
20.14528083162249
 30
0.0
 10
26.3398177804225
 20
20.17055503369909
 30
0.0
 10
26.33414826689365
 20
20.18299190545667
 30
0.0
 10
26.3237553090869
 20
20.2010860111892
 30
0.0
 10
26.32001714459069
 20
20.20694407711878
 30
0.0
 10
26.31217092275504
 20
20.21810322848882
 30
0.0
 10
26.30804096898647
 20
20.22344275247321
 30
0.0
 10
26.2993898665299
 20
20.23366704494257
 30
0.0
 10
26.2949013416287
 20
20.23850710964148
 30
0.0
 10
26.28584327524113
 20
20.24749877526283
 30
0.0
 10
26.28124230137907
 20
20.25168769335487
 30
0.0
 10
26.2672539216519
 20
20.26345134265439
 30
0.0
 10
26.25765358688035
 20
20.2702244912421
 30
0.0
 10
26.23885455757011
 20
20.28162679702836
 30
0.0
 10
26.22954303452177
 20
20.28635128628366
 30
0.0
 10
26.21107210357281
 20
20.29429906959567
 30
0.0
 10
26.20191920005995
 20
20.29750555135327
 30
0.0
 10
26.18418468100312
 20
20.30257709855973
 30
0.0
 10
26.17553735682295
 20
20.30446957731159
 30
0.0
 10
26.150148115377
 20
20.30859249517333
 30
0.0
 10
26.13395276504119
 20
20.30928887474746
 30
0.0
 10
26.11835289658191
 20
20.30843338361684
 30
0.0
  0
ARC
  5
CA02
330
1F
100
AcDbEntity
  8
0
  6
Continuous
 62
     7
370
    15
100
AcDbCircle
 10
24.61521440456291
 20
19.20721079754617
 30
0.0
 40
1.863361615538251
100
AcDbArc
 50
36.22708365927295
 51
203.7729163407282
  0
SPLINE
  5
CA03
330
1F
100
AcDbEntity
  8
0
  6
Continuous
 62
     7
370
    15
100
AcDbSpline
210
0.0
220
0.0
230
1.0
 70
     8
 71
     3
 72
    36
 73
    32
 74
     0
 42
0.000000001
 43
0.0000000001
 40
0.0
 40
0.0
 40
0.0
 40
0.0
 40
0.124999999999999
 40
0.124999999999999
 40
0.249999999999998
 40
0.249999999999998
 40
0.3124999999999977
 40
0.3124999999999977
 40
0.3749999999999974
 40
0.3749999999999974
 40
0.4374999999999973
 40
0.4374999999999973
 40
0.4999999999999969
 40
0.4999999999999969
 40
0.5312499999999975
 40
0.5312499999999975
 40
0.5624999999999975
 40
0.5624999999999975
 40
0.5937499999999975
 40
0.5937499999999975
 40
0.6249999999999977
 40
0.6249999999999977
 40
0.6874999999999984
 40
0.6874999999999984
 40
0.7499999999999984
 40
0.7499999999999984
 40
0.8124999999999984
 40
0.8124999999999984
 40
0.8749999999999992
 40
0.8749999999999992
 40
1.0
 40
1.0
 40
1.0
 40
1.0
 10
22.90995842379501
 20
18.4560659710868
 30
0.0
 10
22.90144235111586
 20
18.44302172689814
 30
0.0
 10
22.89398315844195
 20
18.4287152621871
 30
0.0
 10
22.88187502200067
 20
18.39690652618974
 30
0.0
 10
22.87718012908058
 20
18.37945131603335
 30
0.0
 10
22.87355031252208
 20
18.34956538782846
 30
0.0
 10
22.87294179900556
 20
18.33901122610807
 30
0.0
 10
22.87335143789238
 20
18.31698478829587
 30
0.0
 10
22.87438278299712
 20
18.30531068586577
 30
0.0
 10
22.87854688055773
 20
18.28139237797342
 30
0.0
 10
22.88165043831881
 20
18.26914076346985
 30
0.0
 10
22.89061102870332
 20
18.24386656139326
 30
0.0
 10
22.89628054223217
 20
18.23142968963567
 30
0.0
 10
22.90667350003892
 20
18.21333558390314
 30
0.0
 10
22.91041166453513
 20
18.20747751797357
 30
0.0
 10
22.91825788637078
 20
18.19631836660352
 30
0.0
 10
22.92238784013935
 20
18.19097884261914
 30
0.0
 10
22.93103894259592
 20
18.18075455014977
 30
0.0
 10
22.93552746749712
 20
18.17591448545086
 30
0.0
 10
22.9445855338847
 20
18.16692281982951
 30
0.0
 10
22.94918650774675
 20
18.16273390173747
 30
0.0
 10
22.96317488747393
 20
18.15097025243795
 30
0.0
 10
22.97277522224547
 20
18.14419710385024
 30
0.0
 10
22.99157425155571
 20
18.13279479806398
 30
0.0
 10
23.00088577460405
 20
18.12807030880868
 30
0.0
 10
23.01935670555301
 20
18.12012252549668
 30
0.0
 10
23.02850960906587
 20
18.11691604373907
 30
0.0
 10
23.0462441281227
 20
18.11184449653262
 30
0.0
 10
23.05489145230287
 20
18.10995201778075
 30
0.0
 10
23.08028069374882
 20
18.10582909991902
 30
0.0
 10
23.09647604408463
 20
18.10513272034488
 30
0.0
 10
23.11207591254391
 20
18.1059882114755
 30
0.0
  0
CIRCLE
  5
CA04
330
1F
100
AcDbEntity
  8
0
  6
Continuous
 62
     7
370
    15
100
AcDbCircle
 10
24.61521440456291
 20
19.20721079754617
 30
0.0
 40
2.2440945
  0
ARC
  5
CA05
330
1F
100
AcDbEntity
  8
0
  6
Continuous
 62
     7
370
    15
100
AcDbCircle
 10
24.61521440456291
 20
19.20721079754617
 30
0.0
 40
1.846313905464755
100
AcDbArc
 50
36.54020442209588
 51
203.4597955779052
  0
SPLINE
  5
CA06
330
1F
100
AcDbEntity
  8
0
  6
Continuous
 62
     7
370
    15
100
AcDbSpline
210
0.0
220
0.0
230
1.0
 70
     8
 71
     3
 72
    10
 73
     6
 74
     0
 42
0.000000001
 43
0.0000000001
 40
0.0
 40
0.0
 40
0.0
 40
0.0
 40
0.5
 40
0.5
 40
1.0
 40
1.0
 40
1.0
 40
1.0
 10
22.90995842379501
 20
18.4560659710868
 30
0.0
 10
22.91116051434557
 20
18.45790723797932
 30
0.0
 10
22.91287055412173
 20
18.46046217298261
 30
0.0
 10
22.91685530831458
 20
18.4660810196676
 30
0.0
 10
22.91912950270955
 20
18.46914382400708
 30
0.0
 10
22.921517451574
 20
18.4721831321154
 30
0.0
  0
SPLINE
  5
CA07
330
1F
100
AcDbEntity
  8
0
  6
Continuous
 62
     7
370
    15
100
AcDbSpline
210
0.0
220
0.0
230
1.0
 70
     8
 71
     3
 72
     8
 73
     4
 74
     0
 42
0.000000001
 43
0.0000000001
 40
0.0
 40
0.0
 40
0.0
 40
0.0
 40
1.0
 40
1.0
 40
1.0
 40
1.0
 10
26.09861551180478
 20
20.30648155243149
 30
0.0
 10
26.10622901162013
 20
20.30757274858277
 30
0.0
 10
26.11395553406233
 20
20.30819223385052
 30
0.0
 10
26.11835289658191
 20
20.30843338361684
 30
0.0
  0
ARC
  5
CA08
330
1F
100
AcDbEntity
  8
0
  6
Continuous
 62
     7
370
    15
100
AcDbCircle
 10
24.61521440456291
 20
19.20721079754617
 30
0.0
 40
1.846313905464755
100
AcDbArc
 50
216.5402044220966
 51
23.45979557790438
  0
SPLINE
  5
CA09
330
1F
100
AcDbEntity
  8
0
  6
Continuous
 62
     7
370
    15
100
AcDbSpline
210
0.0
220
0.0
230
1.0
 70
     8
 71
     3
 72
     8
 73
     4
 74
     0
 42
0.000000001
 43
0.0000000001
 40
0.0
 40
0.0
 40
0.0
 40
0.0
 40
1.0
 40
1.0
 40
1.0
 40
1.0
 10
23.13181329732104
 20
18.10794004266085
 30
0.0
 10
23.12419979750568
 20
18.10684884650957
 30
0.0
 10
23.11647327506349
 20
18.10622936124183
 30
0.0
 10
23.11207591254391
 20
18.1059882114755
 30
0.0
  0
SPLINE
  5
CA0A
330
1F
100
AcDbEntity
  8
0
  6
Continuous
 62
     7
370
    15
100
AcDbSpline
210
0.0
220
0.0
230
1.0
 70
     8
 71
     3
 72
    10
 73
     6
 74
     0
 42
0.000000001
 43
0.0000000001
 40
0.0
 40
0.0
 40
0.0
 40
0.0
 40
0.5
 40
0.5
 40
1.0
 40
1.0
 40
1.0
 40
1.0
 10
26.3204703853308
 20
19.95835562400553
 30
0.0
 10
26.31926829478025
 20
19.95651435711302
 30
0.0
 10
26.31755825500409
 20
19.95395942210974
 30
0.0
 10
26.31357350081124
 20
19.94834057542474
 30
0.0
 10
26.31129930641627
 20
19.94527777108525
 30
0.0
 10
26.30891135755182
 20
19.94223846297694
 30
0.0
  0
CIRCLE
  5
CA0B
330
1F
100
AcDbEntity
  8
0
  6
Continuous
 62
     7
370
    15
100
AcDbCircle
 10
23.09966994794014
 20
18.33221079754617
 30
0.0
 40
0.0940000000000003
  0
CIRCLE
  5
CA0C
330
1F
100
AcDbEntity
  8
0
  6
Continuous
 62
     7
370
    15
100
AcDbCircle
 10
26.13075886118568
 20
20.08221079754617
 30
0.0
 40
0.0939999999999994
  0
CIRCLE
  5
CA0E
330
1F
100
AcDbEntity
  8
0
  6
Continuous
 62
     7
370
    15
100
AcDbCircle
 10
24.61521440456291
 20
19.20721079754617
 30
0.0
 40
1.141732299999999
  0
LINE
  5
CA3B
330
1F
100
AcDbEntity
  8
DIM
  6
CENTER
100
AcDbLine
 10
23.09966994794014
 20
18.33221079754617
 30
0.0
 11
23.02466994794014
 21
18.46211460811383
 31
0.0
  0
LINE
  5
CA3C
330
1F
100
AcDbEntity
  8
DIM
  6
CENTER
100
AcDbLine
 10
23.09966994794014
 20
18.33221079754617
 30
0.0
 11
22.96976613737248
 21
18.25721079754617
 31
0.0
  0
LINE
  5
CA3D
330
1F
100
AcDbEntity
  8
DIM
  6
CENTER
100
AcDbLine
 10
23.09966994794014
 20
18.33221079754617
 30
0.0
 11
23.17466994794015
 21
18.2023069869785
 31
0.0
  0
LINE
  5
CA3E
330
1F
100
AcDbEntity
  8
DIM
  6
CENTER
100
AcDbLine
 10
23.09966994794014
 20
18.33221079754617
 30
0.0
 11
23.22957375850781
 21
18.40721079754617
 31
0.0
  0
LINE
  5
CA42
330
1F
100
AcDbEntity
  8
DIM
  6
CENTER
100
AcDbLine
 10
26.13075886118568
 20
20.08221079754617
 30
0.0
 11
26.05575886118568
 21
20.21211460811384
 31
0.0
  0
LINE
  5
CA43
330
1F
100
AcDbEntity
  8
DIM
  6
CENTER
100
AcDbLine
 10
26.13075886118568
 20
20.08221079754617
 30
0.0
 11
26.00085505061801
 21
20.00721079754617
 31
0.0
  0
LINE
  5
CA44
330
1F
100
AcDbEntity
  8
DIM
  6
CENTER
100
AcDbLine
 10
26.13075886118568
 20
20.08221079754617
 30
0.0
 11
26.20575886118567
 21
19.95230698697851
 31
0.0
  0
LINE
  5
CA45
330
1F
100
AcDbEntity
  8
DIM
  6
CENTER
100
AcDbLine
 10
26.13075886118568
 20
20.08221079754617
 30
0.0
 11
26.26066267175334
 21
20.15721079754618
 31
0.0
  0
LINE
  5
CA49
330
1F
100
AcDbEntity
  8
DIM
  6
CENTER
100
AcDbLine
 10
23.27287502869703
 20
18.43221079754617
 30
0.0
 11
25.95755378042879
 21
19.98221079754618
 31
0.0
  0
LINE
  5
CA5F
330
1F
100
AcDbEntity
  8
DIM
  6
CENTER
100
AcDbLine
 10
24.61521440456291
 20
19.20721079754617
 30
0.0
 11
24.61521440456291
 21
19.30721079754617
 31
0.0
  0
LINE
  5
CA60
330
1F
100
AcDbEntity
  8
DIM
  6
CENTER
100
AcDbLine
 10
24.61521440456291
 20
19.20721079754617
 30
0.0
 11
24.51521440456291
 21
19.20721079754617
 31
0.0
  0
LINE
  5
CA61
330
1F
100
AcDbEntity
  8
DIM
  6
CENTER
100
AcDbLine
 10
24.61521440456291
 20
19.20721079754617
 30
0.0
 11
24.61521440456291
 21
19.10721079754617
 31
0.0
  0
LINE
  5
CA62
330
1F
100
AcDbEntity
  8
DIM
  6
CENTER
100
AcDbLine
 10
24.61521440456291
 20
19.20721079754617
 30
0.0
 11
24.71521440456291
 21
19.20721079754617
 31
0.0
  0
LINE
  5
CA63
330
1F
100
AcDbEntity
  8
DIM
  6
CENTER
100
AcDbLine
 10
24.61521440456291
 20
19.40721079754617
 30
0.0
 11
24.61521440456291
 21
19.99618717254617
 31
0.0
  0
LINE
  5
CA64
330
1F
100
AcDbEntity
  8
DIM
  6
CENTER
100
AcDbLine
 10
24.41521440456292
 20
19.20721079754617
 30
0.0
 11
23.8262380295629
 21
19.20721079754617
 31
0.0
  0
LINE
  5
CA65
330
1F
100
AcDbEntity
  8
DIM
  6
CENTER
100
AcDbLine
 10
24.61521440456291
 20
19.00721079754617
 30
0.0
 11
24.61521440456291
 21
18.41823442254616
 31
0.0
  0
LINE
  5
CA66
330
1F
100
AcDbEntity
  8
DIM
  6
CENTER
100
AcDbLine
 10
24.81521440456291
 20
19.20721079754617
 30
0.0
 11
25.40419077956292
 21
19.20721079754617
 31
0.0
  0
TEXT
  5
CA67
330
1F
100
AcDbEntity
  8
0
100
AcDbText
 10
21.46532089676723
 20
14.98753563236107
 30
0.0
 40
0.4
  1
MOUNTING BASE DETAIL
  7
TITLE
100
AcDbText
  0
DIMENSION
  5
CA71
330
1F
100
AcDbEntity
  8
0
100
AcDbDimension
280
     0
  2
*D3
 10
27.53593461159935
 20
17.64837500426598
 30
0.0
 11
26.0203901549766
 21
16.77337500426597
 31
0.0
 70
    33
 71
     5
 42
3.499999999999992
 73
     0
 74
     0
 75
     0
  3
STANDARD
100
AcDbAlignedDimension
 13
23.17466994794015
 23
18.2023069869785
 33
0.0
 14
26.20575886118567
 24
19.95230698697851
 34
0.0
  0
SOLID
  5
CA8C
330
1F
100
AcDbEntity
  8
0
100
AcDbTrace
 10
24.17258927244088
 20
20.59144827290827
 30
0.0
 11
24.08107891514343
 21
20.55112638670126
 31
0.0
 12
24.24779975241317
 22
20.29675625791238
 32
0.0
 13
24.24779975241317
 23
20.29675625791238
 33
0.0
  0
LINE
  5
CA8D
330
1F
100
AcDbEntity
  8
0
100
AcDbLine
 10
24.12683409379214
 20
20.57128732980477
 30
0.0
 11
23.44914514698013
 21
22.10929964750553
 31
0.0
  0
LINE
  5
CA8E
330
1F
100
AcDbEntity
  8
0
100
AcDbLine
 10
23.44914514698013
 20
22.10929964750553
 30
0.0
 11
23.24948149562187
 21
22.10929964750553
 31
0.0
  0
TEXT
  5
CA8F
330
1F
100
AcDbEntity
  8
0
100
AcDbText
 10
21.29642899192386
 20
21.96061340775731
 30
0.0
 40
0.3
  1
2   DIA.
100
AcDbText
  0
TEXT
  5
CAB0
330
1F
100
AcDbEntity
  8
0
100
AcDbText
 10
21.64766986242863
 20
22.113217858418
 30
0.0
 40
0.3
  1
1
100
AcDbText
  0
LINE
  5
CAB1
330
1F
100
AcDbEntity
  8
0
100
AcDbLine
 10
21.59702550295188
 20
21.8674722451313
 30
0.0
 11
21.94117136476251
 21
22.3589634717047
 31
0.0
  0
TEXT
  5
CAB2
330
1F
100
AcDbEntity
  8
0
100
AcDbText
 10
21.8190984338572
 20
21.81321785841801
 30
0.0
 40
0.3
  1
4
100
AcDbText
  0
TEXT
  5
CAB3
330
1F
100
AcDbEntity
  8
0
100
AcDbText
 10
22.10481271957148
 20
21.963217858418
 30
0.0
 40
0.3
  1
"
100
AcDbText
  0
SOLID
  5
CABF
330
1F
100
AcDbEntity
  8
0
100
AcDbTrace
 10
26.48609180879707
 20
19.9073982793681
 30
0.0
 11
26.51273355682228
 21
20.00378405249962
 31
0.0
 12
26.21025536341512
 22
20.0355164100095
 32
0.0
 13
26.21025536341512
 23
20.0355164100095
 33
0.0
  0
LINE
  5
CAC0
330
1F
100
AcDbEntity
  8
0
100
AcDbLine
 10
26.49941268280968
 20
19.95559116593386
 30
0.0
 11
27.39439118851463
 21
19.70821241840399
 31
0.0
  0
LINE
  5
CAC1
330
1F
100
AcDbEntity
  8
0
100
AcDbLine
 10
27.39439118851463
 20
19.70821241840399
 30
0.0
 11
27.57590448582912
 21
19.70821241840399
 31
0.0
  0
TEXT
  5
CAC2
330
1F
100
AcDbEntity
  8
0
100
AcDbText
 10
27.85351309710323
 20
19.59083180662879
 30
0.0
 40
0.3
  1
(2)     DIA.
100
AcDbText
  0
TEXT
  5
CAC3
330
1F
100
AcDbEntity
  8
0
100
AcDbText
 10
27.92825391522413
 20
19.02319127831752
 30
0.0
 40
0.3
  1
MTG. HOLES
100
AcDbText
  0
TEXT
  5
CAC4
330
1F
100
AcDbEntity
  8
0
100
AcDbText
 10
28.61991614387092
 20
19.7229217926126
 30
0.0
 40
0.3
  1
3
100
AcDbText
  0
LINE
  5
CAC5
330
1F
100
AcDbEntity
  8
0
100
AcDbLine
 10
28.7401078337893
 20
19.4771761793259
 30
0.0
 11
29.08425369559993
 21
19.96866740589929
 31
0.0
  0
TEXT
  5
CAC6
330
1F
100
AcDbEntity
  8
0
100
AcDbText
 10
28.96218076469462
 20
19.4229217926126
 30
0.0
 40
0.3
  1
16
100
AcDbText
  0
TEXT
  5
CAC7
330
1F
100
AcDbEntity
  8
0
100
AcDbText
 10
29.38669943873136
 20
19.5729217926126
 30
0.0
 40
0.3
  1
"
100
AcDbText
  0
VIEWPORT
  5
CC49
330
CC48
100
AcDbEntity
 67
     1
  8
0
100
AcDbViewport
 10
8.449875866636892
 20
5.344875333017833
 30
0.0
 40
18.96037313901988
 41
11.07142355871846
 68
     1
 69
     1
 12
8.449875866636892
 22
5.344875333017833
 13
0.0
 23
0.0
 14
0.5
 24
0.5
 15
0.5
 25
0.5
 16
0.0
 26
0.0
 36
1.0
 17
0.0
 27
0.0
 37
0.0
 42
50.0
 43
0.0
 44
0.0
 45
11.07142355871846
 50
0.0
 51
0.0
 72
   100
 90
    32800
  1

281
     0
 71
     1
 74
     0
110
0.0
120
0.0
130
0.0
111
1.0
121
0.0
131
0.0
112
0.0
122
1.0
132
0.0
 79
     0
146
0.0
170
     0
 61
     5
348
5411
292
     1
282
     1
141
0.0
142
0.0
 63
   250
421
  3355443
  0
VIEWPORT
  5
CC4A
330
CC48
100
AcDbEntity
 67
     1
  8
VIEWPORT
100
AcDbViewport
 10
7.444689766267286
 20
5.352286182670544
 30
0.0
 40
14.53963630592303
 41
10.54435835603311
 68
     2
 69
     2
 12
18.47477971874534
 22
11.81384903929222
 13
0.0
 23
0.0
 14
0.1
 24
0.1
 15
0.5
 25
0.5
 16
0.0
 26
0.0
 36
1.0
 17
0.0
 27
0.0
 37
0.0
 42
50.0
 43
0.0
 44
0.0
 45
25.90919733288258
 50
0.0
 51
0.0
 72
   100
 90
    32864
  1

281
     0
 71
     1
 74
     0
110
0.0
120
0.0
130
0.0
111
1.0
121
0.0
131
0.0
112
0.0
122
1.0
132
0.0
 79
     0
146
0.0
170
     0
 61
     5
348
5411
292
     1
282
     1
141
0.0
142
0.0
 63
   250
421
  3355443
  0
LINE
  5
CC4B
330
CC48
100
AcDbEntity
 67
     1
  8
TITLE
  6
Continuous
100
AcDbLine
 10
16.70545404980198
 20
0.0832243866895084
 30
0.0
 11
0.1748716133057542
 21
0.0832243866895084
 31
0.0
1001
AcDbBlockRepETag
1070
     1
1071
        0
1005
CC4B
  0
LINE
  5
CC4C
330
CC48
100
AcDbEntity
 67
     1
  8
TITLE
  6
Continuous
100
AcDbLine
 10
15.94278783063233
 20
5.009004537941585
 30
0.0
 11
15.94278783063234
 21
9.022316519468724
 31
0.0
1001
AcDbBlockRepETag
1070
     1
1071
        2
1005
CC4C
  0
LINE
  5
CC4D
330
CC48
100
AcDbEntity
 67
     1
  8
TITLE
  6
Continuous
100
AcDbLine
 10
15.70703233873926
 20
5.011953298537345
 30
0.0
 11
15.70703233873927
 21
9.022316519468724
 31
0.0
1001
AcDbBlockRepETag
1070
     1
1071
        3
1005
CC4D
  0
LINE
  5
CC4E
330
CC48
100
AcDbEntity
 67
     1
  8
TITLE
  6
Continuous
100
AcDbLine
 10
15.45747644446848
 20
4.887175351401958
 30
0.0
 11
15.45747644446848
 21
9.022316519468727
 31
0.0
1001
AcDbBlockRepETag
1070
     1
1071
        4
1005
CC4E
  0
LINE
  5
CC4F
330
CC48
100
AcDbEntity
 67
     1
  8
TITLE
  6
Continuous
100
AcDbLine
 10
15.19314533052109
 20
10.62446536068711
 30
0.0
 11
15.19314533052109
 21
0.0832243866895084
 31
0.0
1001
AcDbBlockRepETag
1070
     1
1071
        5
1005
CC4F
  0
LINE
  5
CC50
330
CC48
100
AcDbEntity
 67
     1
  8
TITLE
  6
Continuous
100
AcDbLine
 10
15.65482373492202
 20
1.457310667104706
 30
0.0
 11
15.65482373492202
 21
3.890033081558071
 31
0.0
1001
AcDbBlockRepETag
1070
     1
1071
        6
1005
CC50
  0
TEXT
  5
CC51
330
CC48
100
AcDbEntity
 67
     1
  8
TITLE
  6
Continuous
100
AcDbText
 10
15.42524928269677
 20
0.7308099461895458
 30
0.0
 40
0.149733536562466
  1
SUBMITTAL APPROVAL
 50
90.0
 41
1.199999999999999
  7
Title Bold
100
AcDbText
1001
AcDbBlockRepETag
1070
     1
1071
        7
1005
CC51
  0
TEXT
  5
CC52
330
CC48
100
AcDbEntity
 67
     1
  8
TITLE
  6
Continuous
100
AcDbText
 10
16.26923034661668
 20
1.518170778746473
 30
0.0
 40
0.0935834603515413
  1
DESCRIPTION
 50
90.0
  7
TITLE
100
AcDbText
1001
AcDbBlockRepETag
1070
     1
1071
        8
1005
CC52
  0
LINE
  5
CC53
330
CC48
100
AcDbEntity
 67
     1
  8
TITLE
  6
Continuous
100
AcDbLine
 10
16.1289799340365
 20
0.0832243866895084
 30
0.0
 11
16.1289799340365
 21
4.200896642157321
 31
0.0
1001
AcDbBlockRepETag
1070
     1
1071
        9
1005
CC53
  0
LINE
  5
CC54
330
CC48
100
AcDbEntity
 67
     1
  8
TITLE
  6
Continuous
100
AcDbLine
 10
15.94181301333342
 20
0.0832243866895084
 30
0.0
 11
15.94181301333341
 21
4.200896642157321
 31
0.0
1001
AcDbBlockRepETag
1070
     1
1071
       10
1005
CC54
  0
TEXT
  5
CC55
330
CC48
100
AcDbEntity
 67
     1
  8
TITLE
  6
Continuous
100
AcDbText
 10
15.85446845033865
 20
0.3360912272734493
 30
0.0
 40
0.0898401219374796
  1
SIGNED:
 50
90.0
  7
TITLE
100
AcDbText
1001
AcDbBlockRepETag
1070
     1
1071
       11
1005
CC55
  0
TEXT
  5
CC56
330
CC48
100
AcDbEntity
 67
     1
  8
TITLE
  6
Continuous
100
AcDbText
 10
15.6164033992916
 20
0.4624902281601154
 30
0.0
 40
0.0898401219374796
  1
APPROVED BY:
 50
90.0
  7
TITLE
100
AcDbText
1001
AcDbBlockRepETag
1070
     1
1071
       12
1005
CC56
  0
TEXT
  5
CC57
330
CC48
100
AcDbEntity
 67
     1
  8
TITLE
  6
Continuous
100
AcDbText
 10
16.26923034661668
 20
0.1456133602572029
 30
0.0
 40
0.0935834603515413
  1
REV.
 50
90.0
  7
TITLE
100
AcDbText
1001
AcDbBlockRepETag
1070
     1
1071
       13
1005
CC57
  0
TEXT
  5
CC58
330
CC48
100
AcDbEntity
 67
     1
  8
TITLE
  6
Continuous
100
AcDbText
 10
16.26923034661668
 20
0.644725148798756
 30
0.0
 40
0.0935834603515413
  1
DATE
 50
90.0
  7
TITLE
100
AcDbText
1001
AcDbBlockRepETag
1070
     1
1071
       14
1005
CC58
  0
LINE
  5
CC59
330
CC48
100
AcDbEntity
 67
     1
  8
TITLE
  6
Continuous
100
AcDbLine
 10
16.31614685473958
 20
0.5823361752310615
 30
0.0
 11
15.94181301333342
 21
0.5823361752310615
 31
0.0
1001
AcDbBlockRepETag
1070
     1
1071
       15
1005
CC59
  0
LINE
  5
CC5A
330
CC48
100
AcDbEntity
 67
     1
  8
TITLE
  6
Continuous
100
AcDbLine
 10
16.31614685473958
 20
1.455781805178779
 30
0.0
 11
15.94181301333342
 21
1.455781805178779
 31
0.0
1001
AcDbBlockRepETag
1070
     1
1071
       16
1005
CC5A
  0
TEXT
  5
CC5B
330
CC48
100
AcDbEntity
 67
     1
  8
TITLE
  6
Continuous
100
AcDbText
 10
15.92309632126311
 20
4.263285615725017
 30
0.0
 40
0.0935834603515413
  1
LOCATION:
 50
90.0
  7
TITLE
100
AcDbText
1001
AcDbBlockRepETag
1070
     1
1071
       17
1005
CC5B
  0
LINE
  5
CC5C
330
CC48
100
AcDbEntity
 67
     1
  8
TITLE
  6
Continuous
100
AcDbLine
 10
16.31614685473958
 20
4.200896642157321
 30
0.0
 11
15.19314533052109
 21
4.200896642157321
 31
0.0
1001
AcDbBlockRepETag
1070
     1
1071
       18
1005
CC5C
  0
TEXT
  5
CC5D
330
CC48
100
AcDbEntity
 67
     1
  8
TITLE
  6
Continuous
100
AcDbText
 10
15.85446845033865
 20
2.794601340686283
 30
0.0
 40
0.0898401219374796
  1
DATE:
 50
90.0
  7
TITLE
100
AcDbText
1001
AcDbBlockRepETag
1070
     1
1071
       19
1005
CC5D
  0
TEXT
  5
CC5E
330
CC48
100
AcDbEntity
 67
     1
  8
TITLE
  6
Continuous
100
AcDbText
 10
15.67977932434911
 20
4.263285615725017
 30
0.0
 40
0.0935834603515413
  1
PROJECT: 
 50
90.0
  7
TITLE
100
AcDbText
1001
AcDbBlockRepETag
1070
     1
1071
       20
1005
CC5E
  0
TEXT
  5
CC5F
330
CC48
100
AcDbEntity
 67
     1
  8
TITLE
  6
Continuous
100
AcDbText
 10
15.4364623274351
 20
4.263285615725017
 30
0.0
 40
0.0935834603515413
  1
CAT NO.:
 50
90.0
  7
TITLE
100
AcDbText
1001
AcDbBlockRepETag
1070
     1
1071
       21
1005
CC5F
  0
TEXT
  5
CC60
330
CC48
100
AcDbEntity
 67
     1
  8
TITLE
  6
Continuous
100
AcDbText
 10
16.16641231995354
 20
4.263285615725017
 30
0.0
 40
0.0935834603515413
  1
DRAWN:
 50
90.0
  7
TITLE
100
AcDbText
1001
AcDbBlockRepETag
1070
     1
1071
       22
1005
CC60
  0
POLYLINE
  5
CC61
330
CC48
100
AcDbEntity
 67
     1
  8
TITLE
  6
Continuous
100
AcDb3dPolyline
 66
     1
 10
0.0
 20
0.0
 30
0.0
 70
     8
1001
AcDbBlockRepETag
1070
     1
1071
       23
1005
CC61
  0
VERTEX
  5
CC62
330
CC61
100
AcDbEntity
 67
     1
  8
TITLE
  6
Continuous
100
AcDbVertex
100
AcDb3dPolylineVertex
 10
15.79207947677093
 20
10.61947424280168
 30
0.0
 70
    32
  0
VERTEX
  5
CC63
330
CC61
100
AcDbEntity
 67
     1
  8
TITLE
  6
Continuous
100
AcDbVertex
100
AcDb3dPolylineVertex
 10
15.79207947677093
 20
9.022316519468724
 30
0.0
 70
    32
  0
SEQEND
  5
CC64
330
CC61
100
AcDbEntity
 67
     1
  8
TITLE
  6
Continuous
  0
LINE
  5
CC65
330
CC48
100
AcDbEntity
 67
     1
  8
TITLE
  6
Continuous
100
AcDbLine
 10
15.19314533052108
 20
9.022316519468724
 30
0.0
 11
16.30581110040365
 21
9.022316519468724
 31
0.0
1001
AcDbBlockRepETag
1070
     1
1071
       24
1005
CC65
  0
LINE
  5
CC66
330
CC48
100
AcDbEntity
 67
     1
  8
TITLE
  6
Continuous
100
AcDbLine
 10
16.22880129352124
 20
5.772912532172698
 30
0.0
 11
16.22880129352124
 21
4.811670784601071
 31
0.0
1001
AcDbBlockRepETag
1070
     1
1071
       26
1005
CC66
  0
TEXT
  5
CC67
330
CC48
100
AcDbEntity
 67
     1
  8
TITLE
  6
Continuous
100
AcDbText
 10
15.93693075668636
 20
9.312928905110545
 30
0.0
 40
0.0998223577083107
  1
1000 Bega Way
 50
90.0
  7
TITLE
100
AcDbText
1001
AcDbBlockRepETag
1070
     1
1071
       28
1005
CC67
  0
TEXT
  5
CC68
330
CC48
100
AcDbEntity
 67
     1
  8
TITLE
  6
Continuous
100
AcDbText
 10
16.09728659052203
 20
9.153315364666037
 30
0.0
 40
0.0998223577083107
  1
Carpinteria, Ca. 93013
 50
90.0
  7
TITLE
100
AcDbText
1001
AcDbBlockRepETag
1070
     1
1071
       29
1005
CC68
  0
TEXT
  5
CC69
330
CC48
100
AcDbEntity
 67
     1
  8
TITLE
  6
Continuous
100
AcDbText
 10
16.25764242435769
 20
9.33288058771879
 30
0.0
 40
0.0998223577083107
  1
(805) 684-0533
 50
90.0
  7
TITLE
100
AcDbText
1001
AcDbBlockRepETag
1070
     1
1071
       30
1005
CC69
  0
LINE
  5
CC6A
330
CC48
100
AcDbEntity
 67
     1
  8
TITLE
100
AcDbLine
 10
16.31614685473958
 20
0.0832243866895084
 30
0.0
 11
16.31614685473958
 21
10.62446536068711
 31
0.0
1001
AcDbBlockRepETag
1070
     1
1071
       31
1005
CC6A
  0
TEXT
  5
CC6B
330
CC48
100
AcDbEntity
 67
     1
  8
TITLE
100
AcDbText
 10
16.47898497950144
 20
0.9923785673304827
 30
0.0
 40
0.0898401219374796
  1
This print contains confidential information which is the property of BEGA U.S.  By acception this information,
 50
90.0
 41
1.1
  7
Title light
100
AcDbText
1001
AcDbBlockRepETag
1070
     1
1071
       32
1005
CC6B
  0
TEXT
  5
CC6C
330
CC48
100
AcDbEntity
 67
     1
  8
TITLE
100
AcDbText
 10
15.02300274915655
 20
0.2794620885647938
 30
0.0
 40
0.1996447154166213
  1
TYPE:
 50
90.0
  7
Title Bold
100
AcDbText
1001
AcDbBlockRepETag
1070
     1
1071
       33
1005
CC6C
  0
LINE
  5
CC6D
330
CC48
100
AcDbEntity
 67
     1
  8
0
100
AcDbLine
 10
15.07003932933198
 20
1.206790919633017
 30
0.0
 11
15.07003932933198
 21
3.129750687368586
 31
0.0
1001
AcDbBlockRepETag
1070
     1
1071
       34
1005
CC6D
  0
LINE
  5
CC6E
330
CC48
100
AcDbEntity
 67
     1
  8
TITLE
  6
Continuous
100
AcDbLine
 10
16.22847035397874
 20
7.940202517110999
 30
0.0
 11
16.22847035397874
 21
8.887935677060902
 31
0.0
1001
AcDbBlockRepETag
1070
     1
1071
       37
1005
CC6E
  0
TEXT
  5
CC6F
330
CC48
100
AcDbEntity
 67
     1
  8
TITLE
100
AcDbText
 10
16.63059850113051
 20
1.182624976378231
 30
0.0
 40
0.0898401219374796
  1
the borrower agrees that it will not be used for any other purpose other than that which is was loaned.
 50
90.0
 41
1.1
  7
Title light
100
AcDbText
1001
AcDbBlockRepETag
1070
     1
1071
       38
1005
CC6F
  0
LINE
  5
CC70
330
CC48
100
AcDbEntity
 67
     1
  8
TITLE
  6
Continuous
100
AcDbLine
 10
16.70545404980198
 20
0.0832243866895084
 30
0.0
 11
16.705454049802
 21
10.6244653606871
 31
0.0
1001
AcDbBlockRepETag
1070
     1
1071
       39
1005
CC70
  0
INSERT
  5
CC71
330
CC48
100
AcDbEntity
 67
     1
  8
0
100
AcDbBlockReference
  2
bega logo
 10
15.87223782430944
 20
9.152164539521207
 30
0.0
 41
0.1286772579833691
 42
0.1286772579833691
 43
0.1286772579833691
 50
90.0
1001
AcDbBlockRepETag
1070
     1
1071
       40
1005
CC71
  0
TEXT
  5
CC72
330
CC48
100
AcDbEntity
 67
     1
  8
TITLE
100
AcDbText
 10
15.38829173764463
 20
5.098805296596951
 30
0.0
 40
0.12
  1
77 791
 50
90.0
  7
TITLE
100
AcDbText
  0
TEXT
  5
CC73
330
CC48
100
AcDbEntity
 67
     1
  8
TITLE
100
AcDbText
 10
15.63460232666123
 20
5.187443776964761
 30
0.0
 40
0.0998223577083107
  1
-
 50
90.0
  7
TITLE
100
AcDbText
  0
TEXT
  5
CC74
330
CC48
100
AcDbEntity
 67
     1
  8
TITLE
100
AcDbText
 10
15.88165270678691
 20
5.187443776964761
 30
0.0
 40
0.0998223577083107
  1
-
 50
90.0
  7
TITLE
100
AcDbText
  0
TEXT
  5
CC75
330
CC48
100
AcDbEntity
 67
     1
  8
TITLE
100
AcDbText
 10
16.16092699286313
 20
5.10158185736909
 30
0.0
 40
0.0998223577083107
  1
Bob Mc
 50
90.0
  7
Title light
100
AcDbText
  0
TEXT
  5
CC76
330
CC48
100
AcDbEntity
 67
     1
  8
TITLE
100
AcDbText
 10
16.15031773380847
 20
8.259045928755408
 30
0.0
 40
0.0998223577083107
  1
77791
 50
90.0
100
AcDbText
  0
LINE
  5
CC77
330
CC48
100
AcDbEntity
 67
     1
  8
TITLE
  6
Continuous
100
AcDbLine
 10
16.705454049802
 20
10.6244653606871
 30
0.0
 11
0.1748716133057718
 21
10.6244653606871
 31
0.0
1001
AcDbBlockRepETag
1070
     1
1071
        0
1005
CC4B
  0
LINE
  5
CC78
330
CC48
100
AcDbEntity
 67
     1
  8
TITLE
  6
Continuous
100
AcDbLine
 10
0.1748716133057535
 20
0.0832243866895084
 30
0.0
 11
0.1748716133057712
 21
10.6244653606871
 31
0.0
1001
AcDbBlockRepETag
1070
     1
1071
       39
1005
CC70
  0
TEXT
  5
CC79
330
CC48
100
AcDbEntity
 67
     1
  8
TITLE
  6
Continuous
100
AcDbText
 10
16.16641231995354
 20
5.88729824886154
 30
0.0
 40
0.0935834603515413
  1
DATE:
 50
90.0
  7
TITLE
100
AcDbText
1001
AcDbBlockRepETag
1070
     1
1071
       22
1005
CC60
  0
LINE
  5
CC7A
330
CC48
100
AcDbEntity
 67
     1
  8
TITLE
  6
Continuous
100
AcDbLine
 10
16.22880129352124
 20
7.092611942873427
 30
0.0
 11
16.22880129352124
 21
6.310449427746523
 31
0.0
1001
AcDbBlockRepETag
1070
     1
1071
       26
1005
CC66
  0
TEXT
  5
CC7B
330
CC48
100
AcDbEntity
 67
     1
  8
TITLE
100
AcDbText
 10
16.16092699286313
 20
6.368208555409804
 30
0.0
 40
0.0998223577083107
  1
7/6/12
 50
90.0
 41
0.9
  7
Title light
100
AcDbText
  0
TEXT
  5
CC7C
330
CC48
100
AcDbEntity
 67
     1
  8
TITLE
  6
Continuous
100
AcDbText
 10
16.16641231995354
 20
7.162337425981231
 30
0.0
 40
0.0935834603515413
  1
FILE NAME:
 50
90.0
  7
TITLE
100
AcDbText
1001
AcDbBlockRepETag
1070
     1
1071
       22
1005
CC60
  0
ENDSEC
  0
SECTION
  2
OBJECTS
  0
DICTIONARY
  5
C
330
0
100
AcDbDictionary
281
     1
  3
ACAD_CIP_PREVIOUS_PRODUCT_INFO
350
CBDC
  3
ACAD_COLOR
350
541C
  3
ACAD_DETAILVIEWSTYLE
350
CB8A
  3
ACAD_GROUP
350
D
  3
ACAD_LAYOUT
350
1A
  3
ACAD_MATERIAL
350
53F2
  3
ACAD_MLEADERSTYLE
350
5441
  3
ACAD_MLINESTYLE
350
17
  3
ACAD_PLOTSETTINGS
350
19
  3
ACAD_PLOTSTYLENAME
350
1BB3
  3
ACAD_SCALELIST
350
541F
  3
ACAD_SECTIONVIEWSTYLE
350
CB88
  3
ACAD_TABLESTYLE
350
541D
  3
ACAD_VISUALSTYLE
350
540B
  3
AcadDim
350
1BDA
  3
ACDB_RECOMPOSE_DATA
350
CDB4
  3
AcDbVariableDictionary
350
1DC9
  3
AcDsDecomposeData
350
CDBA
  0
DICTIONARY
  5
1FD0
330
2
100
AcDbDictionary
280
     1
281
     1
  3
ACAD_LAYERFILTERS
360
CA70
  3
ACAD_LAYERSTATES
360
50A0
  3
ACLYDICTIONARY
360
CA6F
  0
DICTIONARY
  5
5445
330
10
100
AcDbDictionary
280
     1
281
     1
  3
ADSK_XREC_LAYER_RECONCILED
360
5446
  0
DICTIONARY
  5
5449
330
2C
100
AcDbDictionary
280
     1
281
     1
  3
ADSK_XREC_LAYER_RECONCILED
360
544A
  0
DICTIONARY
  5
544B
330
2D
100
AcDbDictionary
280
     1
281
     1
  3
ADSK_XREC_LAYER_RECONCILED
360
544C
  0
DICTIONARY
  5
544D
330
1664
100
AcDbDictionary
280
     1
281
     1
  3
ADSK_XREC_LAYER_RECONCILED
360
544E
  0
DICTIONARY
  5
1BAA
330
1F
100
AcDbDictionary
281
     1
  3
ACAD_LAYOUTSELFREF
350
1BAB
  3
ACAD_SORTENTS
350
6042
  0
DICTIONARY
  5
CC7D
330
CC48
100
AcDbDictionary
280
     1
281
     1
  0
DICTIONARY
  5
CC3A
330
CC39
100
AcDbDictionary
280
     1
281
     1
  3
ACAD_SORTENTS
360
CC7E
  0
XRECORD
  5
CBDC
102
{ACAD_REACTORS
330
C
102
}
330
C
100
AcDbXrecord
280
     1
300
ACDLT
300
2015
300
ACDLT_F_S
  0
DICTIONARY
  5
541C
102
{ACAD_REACTORS
330
C
102
}
330
C
100
AcDbDictionary
281
     1
  0
DICTIONARY
  5
CB8A
102
{ACAD_REACTORS
330
C
102
}
330
C
100
AcDbDictionary
281
     1
  3
Imperial24
350
CB8B
  0
DICTIONARY
  5
D
102
{ACAD_REACTORS
330
C
102
}
330
C
100
AcDbDictionary
281
     1
  0
DICTIONARY
  5
1A
102
{ACAD_REACTORS
330
C
102
}
330
C
100
AcDbDictionary
281
     1
  3
Layout1
350
CC46
  3
Model
350
1BB5
  0
DICTIONARY
  5
53F2
102
{ACAD_REACTORS
330
C
102
}
330
C
100
AcDbDictionary
281
     1
  3
ByBlock
350
53FB
  3
ByLayer
350
53F3
  3
Global
350
5403
  0
DICTIONARY
  5
5441
102
{ACAD_REACTORS
330
C
102
}
330
C
100
AcDbDictionary
281
     1
  3
Standard
350
5442
  0
DICTIONARY
  5
17
102
{ACAD_REACTORS
330
C
102
}
330
C
100
AcDbDictionary
281
     1
  3
STANDARD
350
18
  0
DICTIONARY
  5
19
102
{ACAD_REACTORS
330
C
102
}
330
C
100
AcDbDictionary
281
     1
  0
ACDBDICTIONARYWDFLT
  5
1BB3
102
{ACAD_REACTORS
330
C
102
}
330
C
100
AcDbDictionary
281
     1
  3
Normal
350
1BB4
100
AcDbDictionaryWithDefault
340
1BB4
  0
DICTIONARY
  5
541F
102
{ACAD_REACTORS
330
C
102
}
330
C
100
AcDbDictionary
281
     1
  3
*A1
350
6300
  3
*A2
350
6301
  3
*A3
350
6302
  3
*A4
350
6303
  3
*A5
350
6304
  3
*A6
350
6305
  3
A0
350
5420
  3
A1
350
5421
  3
A2
350
5422
  3
A3
350
5423
  3
A4
350
5424
  3
A5
350
5425
  3
A6
350
5426
  3
A7
350
5427
  3
A8
350
5428
  3
A9
350
5429
  3
B0
350
542A
  3
B1
350
542B
  3
B2
350
542C
  3
B3
350
542D
  3
B4
350
542E
  3
B5
350
542F
  3
B6
350
5430
  3
B7
350
5431
  3
B8
350
5432
  3
B9
350
5433
  3
C0
350
5434
  3
C1
350
5435
  3
C2
350
5436
  3
C3
350
5437
  3
C4
350
5438
  3
C5
350
5439
  3
C6
350
543A
  3
C7
350
543B
  3
C8
350
543C
  3
C9
350
543D
  3
D0
350
543E
  3
D1
350
543F
  3
D2
350
5440
  0
DICTIONARY
  5
CB88
102
{ACAD_REACTORS
330
C
102
}
330
C
100
AcDbDictionary
281
     1
  3
Imperial24
350
CB89
  0
DICTIONARY
  5
541D
102
{ACAD_REACTORS
330
C
102
}
330
C
100
AcDbDictionary
281
     1
  3
Standard
350
541E
  0
DICTIONARY
  5
540B
102
{ACAD_REACTORS
330
C
102
}
330
C
100
AcDbDictionary
281
     1
  3
2dWireframe
350
5411
  3
3D Hidden
350
5413
  3
3dWireframe
350
5412
  3
Basic
350
5410
  3
Brighten
350
5417
  3
ColorChange
350
541B
  3
Conceptual
350
5414
  3
Dim
350
5416
  3
EdgeColorOff
350
CB87
  3
Facepattern
350
541A
  3
Flat
350
540C
  3
FlatWithEdges
350
540D
  3
Gouraud
350
540E
  3
GouraudWithEdges
350
540F
  3
Hidden
350
CB7F
  3
JitterOff
350
CB85
  3
Linepattern
350
5419
  3
OverhangOff
350
CB86
  3
Realistic
350
5415
  3
Shaded
350
CB84
  3
Shaded with edges
350
CB83
  3
Shades of Gray
350
CB80
  3
Sketchy
350
CB81
  3
Thicken
350
5418
  3
Wireframe
350
CB7E
  3
X-Ray
350
CB82
  0
XRECORD
  5
1BDA
102
{ACAD_REACTORS
330
C
102
}
330
C
100
AcDbXrecord
280
     1
 90
   990106
  3

 60
     4
 61
     0
 62
     1
 63
     3
 64
     0
 65
     0
 66
     0
 67
     3
 68
     1
 69
     0
 70
     0
 71
     0
 72
     0
 40
0.0
170
     0
  0
XRECORD
  5
CDB4
102
{ACAD_REACTORS
330
C
102
}
330
C
100
AcDbXrecord
280
     1
 90
        1
330
541E
  0
DICTIONARY
  5
1DC9
102
{ACAD_REACTORS
330
C
102
}
330
C
100
AcDbDictionary
281
     1
  3
CANNOSCALE
350
5451
  3
CMLEADERSTYLE
350
5450
  3
CTABLESTYLE
350
544F
  3
CVIEWDETAILSTYLE
350
CBDF
  3
CVIEWSECTIONSTYLE
350
CBE0
  3
DIMASSOC
350
5453
  3
INDEXCTL
350
5452
  3
LAYEREVAL
350
CBE3
  3
LAYERNOTIFY
350
CBE4
  3
LIGHTINGUNITS
350
CBE2
  3
MSLTSCALE
350
CBE1
  3
SORTENTS
350
1DCA
  0
DICTIONARY
  5
CDBA
102
{ACAD_REACTORS
330
C
102
}
330
C
100
AcDbDictionary
281
     1
  3
AcDsRecords
350
CDBC
  3
AcDsSchemas
350
CDBB
1001
ACAD
1070
     2
  0
DICTIONARY
  5
CA70
102
{ACAD_REACTORS
330
1FD0
102
}
330
1FD0
100
AcDbDictionary
281
     1
  0
DICTIONARY
  5
50A0
102
{ACAD_REACTORS
330
1FD0
102
}
330
1FD0
100
AcDbDictionary
281
     1
  0
DICTIONARY
  5
CA6F
102
{ACAD_REACTORS
330
1FD0
102
}
330
1FD0
100
AcDbDictionary
281
     1
1001
ACAD
1000
<All
  0
XRECORD
  5
5446
102
{ACAD_REACTORS
330
5445
102
}
330
5445
100
AcDbXrecord
280
     1
290
     1
  0
XRECORD
  5
544A
102
{ACAD_REACTORS
330
5449
102
}
330
5449
100
AcDbXrecord
280
     1
290
     1
  0
XRECORD
  5
544C
102
{ACAD_REACTORS
330
544B
102
}
330
544B
100
AcDbXrecord
280
     1
290
     1
  0
XRECORD
  5
544E
102
{ACAD_REACTORS
330
544D
102
}
330
544D
100
AcDbXrecord
280
     1
290
     1
  0
XRECORD
  5
1BAB
102
{ACAD_REACTORS
330
1BAA
102
}
330
1BAA
100
AcDbXrecord
280
     1
340
1F
  0
SORTENTSTABLE
  5
6042
102
{ACAD_REACTORS
330
1BAA
102
}
330
1BAA
100
AcDbSortentsTable
330
1F
331
C6AE
  5
C6AE
331
C5FE
  5
C5FE
331
C7E8
  5
C7E8
331
C77D
  5
C77F
331
9576
  5
9576
331
9572
  5
9572
331
C7E4
  5
C7E4
331
CA43
  5
CA1D
331
9EFC
  5
9EFC
331
C7E0
  5
C7E0
331
9B8D
  5
9B8D
331
9EF8
  5
9EF8
331
9EF4
  5
9EF4
331
9492
  5
9492
331
9B89
  5
9B89
331
9EF0
  5
9EF0
331
CA3B
  5
CA15
331
C769
  5
C6BA
331
C7DC
  5
C7DC
331
9B85
  5
9B85
331
948E
  5
948E
331
C7D8
  5
C7D8
331
C761
  5
C764
331
C7D4
  5
C7D4
331
948A
  5
948A
331
9B81
  5
9B81
331
CA0B
  5
CA0B
331
9EEC
  5
9EEC
331
9486
  5
9486
331
C7D0
  5
C7D0
331
9F23
  5
9F23
331
9ED8
  5
9ED8
331
C586
  5
C586
331
C75D
  5
C760
331
CA07
  5
CA07
331
C759
  5
C6C8
331
C7CC
  5
C7CC
331
CA03
  5
CA03
331
C9FF
  5
C9FF
331
C57E
  5
C57E
331
9F1F
  5
9F1F
331
C7C8
  5
C7C8
331
C751
  5
C758
331
C7C4
  5
C7C4
331
9591
  5
9591
331
9ED4
  5
9ED4
331
9F1B
  5
9F1B
331
9F17
  5
9F17
331
958D
  5
958D
331
9F13
  5
9F13
331
52DA
  5
5726
331
9589
  5
9589
331
9BA0
  5
9BA0
331
CAB1
  5
CAB1
331
CA8D
  5
CA8D
331
C83F
  5
C83F
331
C6B9
  5
C6CB
331
C8A3
  5
C8A3
331
9585
  5
9585
331
9F0F
  5
9F0F
331
C6B5
  5
C6B5
331
9581
  5
9581
331
C883
  5
C883
331
9B9C
  5
9B9C
331
9F0B
  5
9F0B
331
C6B1
  5
C6B1
331
957D
  5
957D
331
9B98
  5
9B98
331
9F07
  5
9F07
331
9F03
  5
9F03
331
51DA
  5
51DC
331
9579
  5
9579
331
9B94
  5
9B94
331
9B90
  5
9B90
331
CA65
  5
CA40
331
CA61
  5
CA3C
331
C6AD
  5
C6AD
331
C87F
  5
C87F
331
9575
  5
9575
331
C7E7
  5
C7E7
331
9EFF
  5
9EFF
331
C7E3
  5
C7E3
331
CA42
  5
CA1C
331
9EFB
  5
9EFB
331
9495
  5
9495
331
9B8C
  5
9B8C
331
9EF7
  5
9EF7
331
53E8
  5
5727
331
9B88
  5
9B88
331
9EF3
  5
9EF3
331
9491
  5
9491
331
CA49
  5
CA23
331
C59D
  5
C59D
331
C7DF
  5
C7DF
331
CA3E
  5
CA18
331
C7DB
  5
C7DB
331
C7D7
  5
C7D7
331
9B84
  5
9B84
331
CA0E
  5
CA0E
331
9EEF
  5
9EEF
331
948D
  5
948D
331
C760
  5
C763
331
C7D3
  5
C7D3
331
9489
  5
9489
331
9B80
  5
9B80
331
CA0A
  5
CA0A
331
9EEB
  5
9EEB
331
C589
  5
C589
331
9F26
  5
9F26
331
9F22
  5
9F22
331
C585
  5
C585
331
C75C
  5
C75F
331
C7CF
  5
C7CF
331
CA06
  5
CA06
331
CA02
  5
CA02
331
C7CB
  5
C7CB
331
9594
  5
9594
331
9ED7
  5
9ED7
331
9F1E
  5
9F1E
331
C7C7
  5
C7C7
331
C750
  5
C757
331
C7C3
  5
C7C3
331
9590
  5
9590
331
9ED3
  5
9ED3
331
9F1A
  5
9F1A
331
9F16
  5
9F16
331
958C
  5
958C
331
9F12
  5
9F12
331
9588
  5
9588
331
CAB0
  5
CAB0
331
CA8C
  5
CA8C
331
A939
  5
A939
331
C6B8
  5
C6C9
331
C8A2
  5
C8A2
331
A935
  5
A935
331
C6B4
  5
C6B4
331
9584
  5
9584
331
9B9F
  5
9B9F
331
9F0E
  5
9F0E
331
C82E
  5
C82E
331
C6B0
  5
C6B0
331
9580
  5
9580
331
C882
  5
C882
331
9B9B
  5
9B9B
331
9F0A
  5
9F0A
331
9F06
  5
9F06
331
957C
  5
957C
331
9B97
  5
9B97
331
9F02
  5
9F02
331
51D9
  5
51DB
331
9578
  5
9578
331
9B93
  5
9B93
331
CA64
  5
CA3F
331
CA60
  5
CA3B
331
C7EA
  5
C7EA
331
C77F
  5
C786
331
9574
  5
9574
331
C7E6
  5
C7E6
331
CA45
  5
CA1F
331
9EFE
  5
9EFE
331
C7E2
  5
C7E2
331
9B8F
  5
9B8F
331
9EFA
  5
9EFA
331
9494
  5
9494
331
9B8B
  5
9B8B
331
9EF6
  5
9EF6
331
9EF2
  5
9EF2
331
A911
  5
A911
331
9490
  5
9490
331
C7DE
  5
C7DE
331
CA3D
  5
CA17
331
9B87
  5
9B87
331
C7DA
  5
C7DA
331
C7D6
  5
C7D6
331
948C
  5
948C
331
9B83
  5
9B83
331
9EEE
  5
9EEE
331
C7D2
  5
C7D2
331
9488
  5
9488
331
9B7F
  5
9B7F
331
CA09
  5
CA09
331
9EEA
  5
9EEA
331
C588
  5
C588
331
9F25
  5
9F25
331
9F21
  5
9F21
331
C584
  5
C584
331
C7CE
  5
C7CE
331
CA05
  5
CA05
331
CA01
  5
CA01
331
C7CA
  5
C7CA
331
C7C6
  5
C7C6
331
9593
  5
9593
331
C753
  5
C759
331
9ED6
  5
9ED6
331
9F1D
  5
9F1D
331
61EC
  5
6205
331
CA71
  5
CA71
331
C7C2
  5
C7C2
331
958F
  5
958F
331
9ED2
  5
9ED2
331
9F19
  5
9F19
331
9F15
  5
9F15
331
958B
  5
958B
331
9F11
  5
9F11
331
CAB3
  5
CAB3
331
CA8F
  5
CA8F
331
C78E
  5
C77D
331
A938
  5
A938
331
C6B7
  5
C6B7
331
9587
  5
9587
331
C6B3
  5
C6B3
331
9583
  5
9583
331
9B9E
  5
9B9E
331
9F0D
  5
9F0D
331
C786
  5
C788
331
957F
  5
957F
331
C881
  5
C881
331
9B9A
  5
9B9A
331
9F09
  5
9F09
331
9F05
  5
9F05
331
957B
  5
957B
331
9B96
  5
9B96
331
9B92
  5
9B92
331
9F01
  5
9F01
331
51D8
  5
51DA
331
CA67
  5
CA67
331
CA63
  5
CA3E
331
CA5F
  5
CA3A
331
C6AF
  5
C6AF
331
C5FF
  5
C5FF
331
C7E9
  5
C7E9
331
9577
  5
9577
331
9573
  5
9573
331
C7E5
  5
C7E5
331
CA44
  5
CA1E
331
9EFD
  5
9EFD
331
C7E1
  5
C7E1
331
9B8E
  5
9B8E
331
9EF9
  5
9EF9
331
9EF5
  5
9EF5
331
9493
  5
9493
331
9B8A
  5
9B8A
331
9EF1
  5
9EF1
331
C7DD
  5
C7DD
331
CA3C
  5
CA16
331
9B86
  5
9B86
331
948F
  5
948F
331
C7D9
  5
C7D9
331
C7D5
  5
C7D5
331
948B
  5
948B
331
9B82
  5
9B82
331
CA0C
  5
CA0C
331
9EED
  5
9EED
331
C7D1
  5
C7D1
331
A900
  5
A900
331
9487
  5
9487
331
9B7E
  5
9B7E
331
CA08
  5
CA08
331
9F24
  5
9F24
331
9F20
  5
9F20
331
C587
  5
C587
331
C583
  5
C583
331
C75A
  5
C75E
331
C7CD
  5
C7CD
331
CA04
  5
CA04
331
CA00
  5
CA00
331
C57F
  5
C57F
331
C756
  5
C75A
331
C7C9
  5
C7C9
331
C7C5
  5
C7C5
331
9592
  5
9592
331
9ED5
  5
9ED5
331
9F1C
  5
9F1C
331
C752
  5
C6CC
331
C7C1
  5
C7C1
331
958E
  5
958E
331
9F18
  5
9F18
331
9F14
  5
9F14
331
958A
  5
958A
331
9BA1
  5
9BA1
331
9F10
  5
9F10
331
CAB2
  5
CAB2
331
CA8E
  5
CA8E
331
C8A4
  5
C8A4
331
9586
  5
9586
331
C6B6
  5
C6B6
331
52D7
  5
53E8
331
9582
  5
9582
331
9B9D
  5
9B9D
331
9F0C
  5
9F0C
331
C6B2
  5
C6B2
331
957E
  5
957E
331
C880
  5
C880
331
9B99
  5
9B99
331
9F08
  5
9F08
331
9F04
  5
9F04
331
51DB
  5
51FA
331
957A
  5
957A
331
9B95
  5
9B95
331
9B91
  5
9B91
331
9F00
  5
9F00
331
CA66
  5
CA41
331
CA62
  5
CA3D
  0
SORTENTSTABLE
  5
CC7E
102
{ACAD_REACTORS
330
CC3A
102
}
330
CC3A
100
AcDbSortentsTable
330
CC39
  0
ACDBDETAILVIEWSTYLE
  5
CB8B
102
{ACAD_XDICTIONARY
360
CDF3
102
}
102
{ACAD_REACTORS
330
CB8A
102
}
330
CB8A
100
AcDbModelDocViewStyle
 70
     0
  3
Imperial24
290
     0
100
AcDbDetailViewStyle
 70
     0
 71
     0
 90
        3
 71
     1
340
11
 62
   256
 40
0.24
340
0
 62
   256
 40
0.24
300

 40
0.36
280
     3
 71
     2
340
16
 90
       25
 62
   256
 71
     3
340
11
 62
   256
 40
0.24
 90
        1
 40
0.75
 90
        1
300
%<\AcVar ViewType \f "%tc1">% %<\AcVar ViewDetailId>%\PSCALE %<\AcVar ViewScale \f "%sn">%
 71
     4
340
16
 90
       25
 62
   256
340
16
 90
       25
 62
   256
280
     0
  0
LAYOUT
  5
CC46
102
{ACAD_XDICTIONARY
360
CC47
102
}
102
{ACAD_REACTORS
330
1A
102
}
330
1A
100
AcDbPlotSettings
  1

  2
none_device
  4
none_user_media
  6

 40
5.746749877929687
 41
5.746737957000732
 42
5.365753173828125
 43
5.365753173828125
 44
279.3999938964844
 45
431.7999877929686
 46
0.0
 47
0.0
 48
0.0
 49
0.0
140
0.0
141
0.0
142
1.0
143
0.9984195989336861
 70
   688
 72
     0
 73
     1
 74
     1
  7

 75
     0
147
1.001582902687409
 76
     0
 77
     2
 78
   300
148
-4.425334828454538
149
-2.018286242846694
100
AcDbLayout
  1
Layout1
 70
     1
 71
     1
 10
-0.0366904843833107
 20
-0.146432341159373
 11
16.9364422176571
 21
10.83618300719504
 12
0.0
 22
0.0
 32
0.0
 14
0.1738679795558582
 24
0.079467426642001
 34
-0.0000000000112498
 15
16.70645962386034
 25
10.62452771048323
 35
0.0000000000002956
146
0.0
 13
0.0
 23
0.0
 33
0.0
 16
1.0
 26
0.0
 36
0.0
 17
0.0
 27
1.0
 37
0.0
 76
     0
330
CC48
331
CC49
1001
ACAD_PSEXT
1000
None
1000
None
1000
Not applicable
1000
The layout will not be plotted unless a new plotter configuration name is selected.
1070
     0
  0
LAYOUT
  5
1BB5
102
{ACAD_REACTORS
330
1A
102
}
330
1A
100
AcDbPlotSettings
  1

  2
none_device
  4
Letter_(8.50_x_11.00_Inches)
  6

 40
6.349999904632567
 41
6.349999904632567
 42
6.350006103515625
 43
6.350006103515625
 44
215.8999938964844
 45
279.3999938964844
 46
0.0
 47
0.0
 48
0.0
 49
0.0
140
0.0
141
0.0
142
1.0
143
5.667899123329505
 70
 11952
 72
     0
 73
     1
 74
     0
  7

 75
     0
147
0.1764322155777126
 76
     0
 77
     2
 78
   300
148
-54.77013702343043
149
44.14478637308872
100
AcDbLayout
  1
Model
 70
     1
 71
     0
 10
0.0
 20
0.0
 11
12.0
 21
9.0
 12
0.0
 22
0.0
 32
0.0
 14
0.0
 24
0.0
 34
0.0
 15
0.0
 25
0.0
 35
0.0
146
0.0
 13
0.0
 23
0.0
 33
0.0
 16
1.0
 26
0.0
 36
0.0
 17
0.0
 27
1.0
 37
0.0
 76
     0
330
1F
331
53EA
1001
ACAD_PSEXT
1000
None
1000
None
1000
Not applicable
1000
The layout will not be plotted unless a new plotter configuration name is selected.
1070
     0
  0
MATERIAL
  5
53FB
102
{ACAD_XDICTIONARY
360
53FC
102
}
102
{ACAD_REACTORS
330
53F2
102
}
330
53F2
100
AcDbMaterial
  1
ByBlock
 72
     0
 43
0.0208333333333333
 43
0.0
 43
0.0
 43
0.0
 43
0.0
 43
0.0208333333333333
 43
0.0
 43
0.0
 43
0.0
 43
0.0
 43
1.0
 43
0.0
 43
0.0
 43
0.0
 43
0.0
 43
1.0
 77
     0
 47
0.0208333333333333
 47
0.0
 47
0.0
 47
0.0
 47
0.0
 47
0.0208333333333333
 47
0.0
 47
0.0
 47
0.0
 47
0.0
 47
1.0
 47
0.0
 47
0.0
 47
0.0
 47
0.0
 47
1.0
171
     0
 49
0.0208333333333333
 49
0.0
 49
0.0
 49
0.0
 49
0.0
 49
0.0208333333333333
 49
0.0
 49
0.0
 49
0.0
 49
0.0
 49
1.0
 49
0.0
 49
0.0
 49
0.0
 49
0.0
 49
1.0
175
     0
142
0.0208333333333333
142
0.0
142
0.0
142
0.0
142
0.0
142
0.0208333333333333
142
0.0
142
0.0
142
0.0
142
0.0
142
1.0
142
0.0
142
0.0
142
0.0
142
0.0
142
1.0
179
     0
144
0.0208333333333333
144
0.0
144
0.0
144
0.0
144
0.0
144
0.0208333333333333
144
0.0
144
0.0
144
0.0
144
0.0
144
1.0
144
0.0
144
0.0
144
0.0
144
0.0
144
1.0
147
0.0208333333333333
147
0.0
147
0.0
147
0.0
147
0.0
147
0.0208333333333333
147
0.0
147
0.0
147
0.0
147
0.0
147
1.0
147
0.0
147
0.0
147
0.0
147
0.0
147
1.0
  0
MATERIAL
  5
53F3
102
{ACAD_XDICTIONARY
360
53F4
102
}
102
{ACAD_REACTORS
330
53F2
102
}
330
53F2
100
AcDbMaterial
  1
ByLayer
 72
     0
 43
0.0208333333333333
 43
0.0
 43
0.0
 43
0.0
 43
0.0
 43
0.0208333333333333
 43
0.0
 43
0.0
 43
0.0
 43
0.0
 43
1.0
 43
0.0
 43
0.0
 43
0.0
 43
0.0
 43
1.0
 77
     0
 47
0.0208333333333333
 47
0.0
 47
0.0
 47
0.0
 47
0.0
 47
0.0208333333333333
 47
0.0
 47
0.0
 47
0.0
 47
0.0
 47
1.0
 47
0.0
 47
0.0
 47
0.0
 47
0.0
 47
1.0
171
     0
 49
0.0208333333333333
 49
0.0
 49
0.0
 49
0.0
 49
0.0
 49
0.0208333333333333
 49
0.0
 49
0.0
 49
0.0
 49
0.0
 49
1.0
 49
0.0
 49
0.0
 49
0.0
 49
0.0
 49
1.0
175
     0
142
0.0208333333333333
142
0.0
142
0.0
142
0.0
142
0.0
142
0.0208333333333333
142
0.0
142
0.0
142
0.0
142
0.0
142
1.0
142
0.0
142
0.0
142
0.0
142
0.0
142
1.0
179
     0
144
0.0208333333333333
144
0.0
144
0.0
144
0.0
144
0.0
144
0.0208333333333333
144
0.0
144
0.0
144
0.0
144
0.0
144
1.0
144
0.0
144
0.0
144
0.0
144
0.0
144
1.0
147
0.0208333333333333
147
0.0
147
0.0
147
0.0
147
0.0
147
0.0208333333333333
147
0.0
147
0.0
147
0.0
147
0.0
147
1.0
147
0.0
147
0.0
147
0.0
147
0.0
147
1.0
  0
MATERIAL
  5
5403
102
{ACAD_XDICTIONARY
360
5404
102
}
102
{ACAD_REACTORS
330
53F2
102
}
330
53F2
100
AcDbMaterial
  1
Global
 72
     0
 43
0.0208333333333333
 43
0.0
 43
0.0
 43
0.0
 43
0.0
 43
0.0208333333333333
 43
0.0
 43
0.0
 43
0.0
 43
0.0
 43
1.0
 43
0.0
 43
0.0
 43
0.0
 43
0.0
 43
1.0
 77
     0
 47
0.0208333333333333
 47
0.0
 47
0.0
 47
0.0
 47
0.0
 47
0.0208333333333333
 47
0.0
 47
0.0
 47
0.0
 47
0.0
 47
1.0
 47
0.0
 47
0.0
 47
0.0
 47
0.0
 47
1.0
171
     0
 49
0.0208333333333333
 49
0.0
 49
0.0
 49
0.0
 49
0.0
 49
0.0208333333333333
 49
0.0
 49
0.0
 49
0.0
 49
0.0
 49
1.0
 49
0.0
 49
0.0
 49
0.0
 49
0.0
 49
1.0
175
     0
142
0.0208333333333333
142
0.0
142
0.0
142
0.0
142
0.0
142
0.0208333333333333
142
0.0
142
0.0
142
0.0
142
0.0
142
1.0
142
0.0
142
0.0
142
0.0
142
0.0
142
1.0
179
     0
144
0.0208333333333333
144
0.0
144
0.0
144
0.0
144
0.0
144
0.0208333333333333
144
0.0
144
0.0
144
0.0
144
0.0
144
1.0
144
0.0
144
0.0
144
0.0
144
0.0
144
1.0
147
0.0208333333333333
147
0.0
147
0.0
147
0.0
147
0.0
147
0.0208333333333333
147
0.0
147
0.0
147
0.0
147
0.0
147
1.0
147
0.0
147
0.0
147
0.0
147
0.0
147
1.0
  0
MLEADERSTYLE
  5
5442
102
{ACAD_REACTORS
330
5441
102
}
330
5441
100
AcDbMLeaderStyle
179
     2
170
     2
171
     1
172
     0
 90
        2
 40
0.0
 41
0.0
173
     1
 91
-1056964608
340
14
 92
       -2
290
     1
 42
0.09
291
     1
 43
0.36
  3
Standard
 44
0.18
300

342
11
174
     1
178
     6
175
     1
176
     0
 93
-1056964608
 45
0.18
292
     0
297
     0
 46
0.18
 94
-1056964608
 47
1.0
 49
1.0
140
1.0
293
     1
141
0.0
294
     1
177
     0
142
1.0
295
     0
296
     0
143
0.125
271
     0
272
     9
273
     9
1001
ACAD_MLEADERVER
1070
     2
  0
MLINESTYLE
  5
18
102
{ACAD_REACTORS
330
17
102
}
330
17
100
AcDbMlineStyle
  2
STANDARD
 70
     0
  3

 62
   256
 51
90.0
 52
90.0
 71
     2
 49
0.5
 62
   256
  6
BYLAYER
 49
-0.5
 62
   256
  6
BYLAYER
  0
ACDBPLACEHOLDER
  5
1BB4
102
{ACAD_REACTORS
330
1BB3
102
}
330
1BB3
  0
SCALE
  5
6300
102
{ACAD_REACTORS
330
541F
102
}
330
541F
100
AcDbScale
 70
     0
300
1:45
140
1.0
141
45.0
290
     0
  0
SCALE
  5
6301
102
{ACAD_REACTORS
330
541F
102
}
330
541F
100
AcDbScale
 70
     0
300
1:55
140
1.0
141
55.0
290
     0
  0
SCALE
  5
6302
102
{ACAD_REACTORS
330
541F
102
}
330
541F
100
AcDbScale
 70
     0
300
1:60
140
1.0
141
60.0
290
     0
  0
SCALE
  5
6303
102
{ACAD_REACTORS
330
541F
102
}
330
541F
100
AcDbScale
 70
     0
300
.018"
140
1.0
141
0.018
290
     0
  0
SCALE
  5
6304
102
{ACAD_REACTORS
330
541F
102
}
330
541F
100
AcDbScale
 70
     0
300
.016"
140
1.0
141
0.016
290
     0
  0
SCALE
  5
6305
102
{ACAD_REACTORS
330
541F
102
}
330
541F
100
AcDbScale
 70
     0
300
.0222"
140
1.0
141
0.0222
290
     0
  0
SCALE
  5
5420
102
{ACAD_REACTORS
330
541F
102
}
330
541F
100
AcDbScale
 70
     0
300
1:1
140
1.0
141
1.0
290
     1
  0
SCALE
  5
5421
102
{ACAD_REACTORS
330
541F
102
}
330
541F
100
AcDbScale
 70
     0
300
1:2
140
1.0
141
2.0
290
     0
  0
SCALE
  5
5422
102
{ACAD_REACTORS
330
541F
102
}
330
541F
100
AcDbScale
 70
     0
300
1:4
140
1.0
141
4.0
290
     0
  0
SCALE
  5
5423
102
{ACAD_REACTORS
330
541F
102
}
330
541F
100
AcDbScale
 70
     0
300
1:5
140
1.0
141
5.0
290
     0
  0
SCALE
  5
5424
102
{ACAD_REACTORS
330
541F
102
}
330
541F
100
AcDbScale
 70
     0
300
1:8
140
1.0
141
8.0
290
     0
  0
SCALE
  5
5425
102
{ACAD_REACTORS
330
541F
102
}
330
541F
100
AcDbScale
 70
     0
300
1:10
140
1.0
141
10.0
290
     0
  0
SCALE
  5
5426
102
{ACAD_REACTORS
330
541F
102
}
330
541F
100
AcDbScale
 70
     0
300
1:16
140
1.0
141
16.0
290
     0
  0
SCALE
  5
5427
102
{ACAD_REACTORS
330
541F
102
}
330
541F
100
AcDbScale
 70
     0
300
1:20
140
1.0
141
20.0
290
     0
  0
SCALE
  5
5428
102
{ACAD_REACTORS
330
541F
102
}
330
541F
100
AcDbScale
 70
     0
300
1:30
140
1.0
141
30.0
290
     0
  0
SCALE
  5
5429
102
{ACAD_REACTORS
330
541F
102
}
330
541F
100
AcDbScale
 70
     0
300
1:40
140
1.0
141
40.0
290
     0
  0
SCALE
  5
542A
102
{ACAD_REACTORS
330
541F
102
}
330
541F
100
AcDbScale
 70
     0
300
1:50
140
1.0
141
50.0
290
     0
  0
SCALE
  5
542B
102
{ACAD_REACTORS
330
541F
102
}
330
541F
100
AcDbScale
 70
     0
300
1:100
140
1.0
141
100.0
290
     0
  0
SCALE
  5
542C
102
{ACAD_REACTORS
330
541F
102
}
330
541F
100
AcDbScale
 70
     0
300
2:1
140
2.0
141
1.0
290
     0
  0
SCALE
  5
542D
102
{ACAD_REACTORS
330
541F
102
}
330
541F
100
AcDbScale
 70
     0
300
4:1
140
4.0
141
1.0
290
     0
  0
SCALE
  5
542E
102
{ACAD_REACTORS
330
541F
102
}
330
541F
100
AcDbScale
 70
     0
300
8:1
140
8.0
141
1.0
290
     0
  0
SCALE
  5
542F
102
{ACAD_REACTORS
330
541F
102
}
330
541F
100
AcDbScale
 70
     0
300
10:1
140
10.0
141
1.0
290
     0
  0
SCALE
  5
5430
102
{ACAD_REACTORS
330
541F
102
}
330
541F
100
AcDbScale
 70
     0
300
100:1
140
100.0
141
1.0
290
     0
  0
SCALE
  5
5431
102
{ACAD_REACTORS
330
541F
102
}
330
541F
100
AcDbScale
 70
     0
300
1/128" = 1'-0"
140
0.0078125
141
12.0
290
     0
  0
SCALE
  5
5432
102
{ACAD_REACTORS
330
541F
102
}
330
541F
100
AcDbScale
 70
     0
300
1/64" = 1'-0"
140
0.015625
141
12.0
290
     0
  0
SCALE
  5
5433
102
{ACAD_REACTORS
330
541F
102
}
330
541F
100
AcDbScale
 70
     0
300
1/32" = 1'-0"
140
0.03125
141
12.0
290
     0
  0
SCALE
  5
5434
102
{ACAD_REACTORS
330
541F
102
}
330
541F
100
AcDbScale
 70
     0
300
1/16" = 1'-0"
140
0.0625
141
12.0
290
     0
  0
SCALE
  5
5435
102
{ACAD_REACTORS
330
541F
102
}
330
541F
100
AcDbScale
 70
     0
300
3/32" = 1'-0"
140
0.09375
141
12.0
290
     0
  0
SCALE
  5
5436
102
{ACAD_REACTORS
330
541F
102
}
330
541F
100
AcDbScale
 70
     0
300
1/8" = 1'-0"
140
0.125
141
12.0
290
     0
  0
SCALE
  5
5437
102
{ACAD_REACTORS
330
541F
102
}
330
541F
100
AcDbScale
 70
     0
300
3/16" = 1'-0"
140
0.1875
141
12.0
290
     0
  0
SCALE
  5
5438
102
{ACAD_REACTORS
330
541F
102
}
330
541F
100
AcDbScale
 70
     0
300
1/4" = 1'-0"
140
0.25
141
12.0
290
     0
  0
SCALE
  5
5439
102
{ACAD_REACTORS
330
541F
102
}
330
541F
100
AcDbScale
 70
     0
300
3/8" = 1'-0"
140
0.375
141
12.0
290
     0
  0
SCALE
  5
543A
102
{ACAD_REACTORS
330
541F
102
}
330
541F
100
AcDbScale
 70
     0
300
1/2" = 1'-0"
140
0.5
141
12.0
290
     0
  0
SCALE
  5
543B
102
{ACAD_REACTORS
330
541F
102
}
330
541F
100
AcDbScale
 70
     0
300
3/4" = 1'-0"
140
0.75
141
12.0
290
     0
  0
SCALE
  5
543C
102
{ACAD_REACTORS
330
541F
102
}
330
541F
100
AcDbScale
 70
     0
300
1" = 1'-0"
140
1.0
141
12.0
290
     0
  0
SCALE
  5
543D
102
{ACAD_REACTORS
330
541F
102
}
330
541F
100
AcDbScale
 70
     0
300
1-1/2" = 1'-0"
140
1.5
141
12.0
290
     0
  0
SCALE
  5
543E
102
{ACAD_REACTORS
330
541F
102
}
330
541F
100
AcDbScale
 70
     0
300
3" = 1'-0"
140
3.0
141
12.0
290
     0
  0
SCALE
  5
543F
102
{ACAD_REACTORS
330
541F
102
}
330
541F
100
AcDbScale
 70
     0
300
6" = 1'-0"
140
6.0
141
12.0
290
     0
  0
SCALE
  5
5440
102
{ACAD_REACTORS
330
541F
102
}
330
541F
100
AcDbScale
 70
     0
300
1'-0" = 1'-0"
140
12.0
141
12.0
290
     0
  0
ACDBSECTIONVIEWSTYLE
  5
CB89
102
{ACAD_XDICTIONARY
360
CDF1
102
}
102
{ACAD_REACTORS
330
CB88
102
}
330
CB88
100
AcDbModelDocViewStyle
 70
     0
  3
Imperial24
290
     0
100
AcDbSectionViewStyle
 70
     0
 71
     0
 90
       78
 71
     1
340
11
 62
   256
 40
0.24
340
0
340
0
 62
   256
 40
0.24
300
I, O, Q, S, X, Z
 40
0.48
 90
        3
 40
0.18
 90
        1
 71
     2
340
16
 90
       25
 62
   256
340
16
 90
       50
 62
   256
 40
0.24
 40
0.0
 40
0.24
 71
     3
340
11
 62
   256
 40
0.24
 90
        1
 40
0.75
 90
        1
300
%<\AcVar ViewType \f "%tc1">% %<\AcVar ViewSectionStartId>%-%<\AcVar ViewSectionEndId>%\PSCALE %<\AcVar ViewScale \f "%sn">%
 71
     4
 62
   256
 62
   257
300
ANSI31
 40
1.0
 90
        0
290
     0
290
     0
 90
        6
 40
0.0
 40
1.570796326794896
 40
0.2617993877991494
 40
1.308996938995747
 40
-0.2617993877991494
 40
1.832595714594044
  0
TABLESTYLE
  5
541E
102
{ACAD_XDICTIONARY
360
612D
102
}
102
{ACAD_REACTORS
330
541D
102
}
330
541D
100
AcDbTableStyle
280
     0
  3
Standard
 70
     0
 71
     0
 40
0.06
 41
0.06
280
     0
281
     0
  7
STANDARD
140
0.18
170
     2
 62
     0
 63
     7
283
     0
 90
      512
 91
        0
  1

274
    -2
284
     1
 64
     0
275
    -2
285
     1
 65
     0
276
    -2
286
     1
 66
     0
277
    -2
287
     1
 67
     0
278
    -2
288
     1
 68
     0
279
    -2
289
     1
 69
     0
  7
STANDARD
140
0.25
170
     5
 62
     0
 63
     7
283
     0
 90
      512
 91
        0
  1

274
    -2
284
     1
 64
     0
275
    -2
285
     1
 65
     0
276
    -2
286
     1
 66
     0
277
    -2
287
     1
 67
     0
278
    -2
288
     1
 68
     0
279
    -2
289
     1
 69
     0
  7
STANDARD
140
0.18
170
     5
 62
     0
 63
     7
283
     0
 90
      512
 91
        0
  1

274
    -2
284
     1
 64
     0
275
    -2
285
     1
 65
     0
276
    -2
286
     1
 66
     0
277
    -2
287
     1
 67
     0
278
    -2
288
     1
 68
     0
279
    -2
289
     1
 69
     0
  0
VISUALSTYLE
  5
5411
102
{ACAD_XDICTIONARY
360
CDC7
102
}
102
{ACAD_REACTORS
330
540B
102
}
330
540B
100
AcDbVisualStyle
  2

 70
     4
177
     2
291
     0
 71
     0
176
     1
 72
     2
176
     1
 73
     0
176
     1
 90
        0
176
     1
 40
0.6
176
     1
 41
30.0
176
     1
 63
     7
176
     1
 74
     1
176
     1
 91
        4
176
     1
 64
     7
176
     1
 65
   257
176
     1
 75
     1
176
     1
175
     1
176
     1
 42
1.0
176
     1
 92
        0
176
     1
 66
   257
176
     1
 43
1.0
176
     1
 76
     1
176
     1
 77
     6
176
     1
 78
     2
176
     1
 67
     7
176
     1
 79
     5
176
     1
170
     0
176
     1
171
     0
176
     1
290
     0
176
     1
 93
        1
176
     1
 44
0.0
176
     1
173
     0
176
     1
1001
ACAD
1000
AcDbSavedByObjectVersion
1070
     0
  0
VISUALSTYLE
  5
5413
102
{ACAD_XDICTIONARY
360
CDCB
102
}
102
{ACAD_REACTORS
330
540B
102
}
330
540B
100
AcDbVisualStyle
  2

 70
     6
177
     2
291
     0
 71
     1
176
     1
 72
     2
176
     1
 73
     2
176
     1
 90
        0
176
     1
 40
0.6
176
     1
 41
30.0
176
     1
 63
     7
176
     1
 74
     2
176
     1
 91
        2
176
     1
 64
     7
176
     1
 65
   257
176
     1
 75
     2
176
     1
175
     1
176
     1
 42
40.0
176
     1
 92
        0
176
     1
 66
   257
176
     1
 43
1.0
176
     1
 76
     1
176
     1
 77
     6
176
     1
 78
     2
176
     1
 67
     7
176
     1
 79
     3
176
     1
170
     0
176
     1
171
     0
176
     1
290
     0
176
     1
 93
        1
176
     1
 44
0.0
176
     1
173
     0
176
     1
1001
ACAD
1000
AcDbSavedByObjectVersion
1070
     0
  0
VISUALSTYLE
  5
5412
102
{ACAD_XDICTIONARY
360
CDC9
102
}
102
{ACAD_REACTORS
330
540B
102
}
330
540B
100
AcDbVisualStyle
  2

 70
     5
177
     2
291
     0
 71
     0
176
     1
 72
     2
176
     1
 73
     0
176
     1
 90
        0
176
     1
 40
0.6
176
     1
 41
30.0
176
     1
 63
     7
176
     1
 74
     1
176
     1
 91
        4
176
     1
 64
     7
176
     1
 65
   257
176
     1
 75
     1
176
     1
175
     1
176
     1
 42
1.0
176
     1
 92
        0
176
     1
 66
   257
176
     1
 43
1.0
176
     1
 76
     1
176
     1
 77
     6
176
     1
 78
     2
176
     1
 67
     7
176
     1
 79
     5
176
     1
170
     0
176
     1
171
     0
176
     1
290
     0
176
     1
 93
        1
176
     1
 44
0.0
176
     1
173
     0
176
     1
1001
ACAD
1000
AcDbSavedByObjectVersion
1070
     0
  0
VISUALSTYLE
  5
5410
102
{ACAD_XDICTIONARY
360
CDC5
102
}
102
{ACAD_REACTORS
330
540B
102
}
330
540B
100
AcDbVisualStyle
  2

 70
     7
177
     2
291
     1
 71
     1
176
     1
 72
     0
176
     1
 73
     1
176
     1
 90
        0
176
     1
 40
0.6
176
     1
 41
30.0
176
     1
 63
     7
176
     1
 74
     0
176
     1
 91
        4
176
     1
 64
     7
176
     1
 65
   257
176
     1
 75
     1
176
     1
175
     1
176
     1
 42
1.0
176
     1
 92
        8
176
     1
 66
     7
176
     1
 43
1.0
176
     1
 76
     1
176
     1
 77
     6
176
     1
 78
     2
176
     1
 67
     7
176
     1
 79
     5
176
     1
170
     0
176
     1
171
     0
176
     1
290
     0
176
     1
 93
        1
176
     1
 44
0.0
176
     1
173
     0
176
     1
1001
ACAD
1000
AcDbSavedByObjectVersion
1070
     0
  0
VISUALSTYLE
  5
5417
102
{ACAD_XDICTIONARY
360
CDD3
102
}
102
{ACAD_REACTORS
330
540B
102
}
330
540B
100
AcDbVisualStyle
  2

 70
    12
177
     2
291
     1
 71
     2
176
     1
 72
     2
176
     1
 73
     0
176
     1
 90
        0
176
     1
 40
0.6
176
     1
 41
30.0
176
     1
 63
     7
176
     1
 74
     1
176
     1
 91
        4
176
     1
 64
     7
176
     1
 65
   257
176
     1
 75
     1
176
     1
175
     1
176
     1
 42
1.0
176
     1
 92
        8
176
     1
 66
     7
176
     1
 43
1.0
176
     1
 76
     1
176
     1
 77
     6
176
     1
 78
     2
176
     1
 67
     7
176
     1
 79
     5
176
     1
170
     0
176
     1
171
     0
176
     1
290
     0
176
     1
 93
        1
176
     1
 44
50.0
176
     1
173
     0
176
     1
1001
ACAD
1000
AcDbSavedByObjectVersion
1070
     0
  0
VISUALSTYLE
  5
541B
102
{ACAD_XDICTIONARY
360
CDDB
102
}
102
{ACAD_REACTORS
330
540B
102
}
330
540B
100
AcDbVisualStyle
  2

 70
    16
177
     2
291
     1
 71
     2
176
     1
 72
     2
176
     1
 73
     3
176
     1
 90
        0
176
     1
 40
0.6
176
     1
 41
30.0
176
     1
 63
     8
176
     1
 74
     1
176
     1
 91
        4
176
     1
 64
     7
176
     1
 65
   257
176
     1
 75
     1
176
     1
175
     1
176
     1
 42
1.0
176
     1
 92
        8
176
     1
 66
     8
176
     1
 43
1.0
176
     1
 76
     1
176
     1
 77
     6
176
     1
 78
     2
176
     1
 67
     7
176
     1
 79
     5
176
     1
170
     0
176
     1
171
     0
176
     1
290
     0
176
     1
 93
        1
176
     1
 44
0.0
176
     1
173
     0
176
     1
1001
ACAD
1000
AcDbSavedByObjectVersion
1070
     0
  0
VISUALSTYLE
  5
5414
102
{ACAD_XDICTIONARY
360
CDCD
102
}
102
{ACAD_REACTORS
330
540B
102
}
330
540B
100
AcDbVisualStyle
  2

 70
     9
177
     2
291
     0
 71
     3
176
     1
 72
     2
176
     1
 73
     0
176
     1
 90
        0
176
     1
 40
0.6
176
     1
 41
30.0
176
     1
 63
     7
176
     1
 74
     2
176
     1
 91
        2
176
     1
 64
     7
176
     1
 65
   257
176
     1
 75
     1
176
     1
175
     1
176
     1
 42
40.0
176
     1
 92
        8
176
     1
 66
     7
176
     1
 43
1.0
176
     1
 76
     1
176
     1
 77
     6
176
     1
 78
     2
176
     1
 67
     7
176
     1
 79
     3
176
     1
170
     0
176
     1
171
     0
176
     1
290
     0
176
     1
 93
        1
176
     1
 44
0.0
176
     1
173
     0
176
     1
1001
ACAD
1000
AcDbSavedByObjectVersion
1070
     0
  0
VISUALSTYLE
  5
5416
102
{ACAD_XDICTIONARY
360
CDD1
102
}
102
{ACAD_REACTORS
330
540B
102
}
330
540B
100
AcDbVisualStyle
  2

 70
    11
177
     2
291
     1
 71
     2
176
     1
 72
     2
176
     1
 73
     0
176
     1
 90
        0
176
     1
 40
0.6
176
     1
 41
30.0
176
     1
 63
     7
176
     1
 74
     1
176
     1
 91
        4
176
     1
 64
     7
176
     1
 65
   257
176
     1
 75
     1
176
     1
175
     1
176
     1
 42
1.0
176
     1
 92
        8
176
     1
 66
     7
176
     1
 43
1.0
176
     1
 76
     1
176
     1
 77
     6
176
     1
 78
     2
176
     1
 67
     7
176
     1
 79
     5
176
     1
170
     0
176
     1
171
     0
176
     1
290
     0
176
     1
 93
        1
176
     1
 44
-50.0
176
     1
173
     0
176
     1
1001
ACAD
1000
AcDbSavedByObjectVersion
1070
     0
  0
VISUALSTYLE
  5
CB87
102
{ACAD_XDICTIONARY
360
CDEF
102
}
102
{ACAD_REACTORS
330
540B
102
}
330
540B
100
AcDbVisualStyle
  2

 70
    22
177
     2
291
     1
 71
     2
176
     0
 72
     2
176
     0
 73
     0
176
     0
 90
        0
176
     0
 40
0.6
176
     0
 41
30.0
176
     0
 63
     7
421
 16777215
176
     0
 74
     1
176
     0
 91
        4
176
     0
 64
     7
176
     0
 65
   257
176
     0
 75
     1
176
     0
175
     1
176
     0
 42
1.0
176
     0
 92
        8
176
     2
 66
     7
176
     0
 43
1.0
176
     0
 76
     1
176
     0
 77
     6
176
     0
 78
     2
176
     0
 67
     7
176
     0
 79
     5
176
     0
170
     0
176
     0
171
     0
176
     0
290
     0
176
     0
 93
        1
176
     0
 44
0.0
176
     0
173
     0
176
     0
1001
ACAD
1000
AcDbSavedByObjectVersion
1070
     0
  0
VISUALSTYLE
  5
541A
102
{ACAD_XDICTIONARY
360
CDD9
102
}
102
{ACAD_REACTORS
330
540B
102
}
330
540B
100
AcDbVisualStyle
  2

 70
    15
177
     2
291
     1
 71
     2
176
     1
 72
     2
176
     1
 73
     0
176
     1
 90
        0
176
     1
 40
0.6
176
     1
 41
30.0
176
     1
 63
     7
176
     1
 74
     1
176
     1
 91
        4
176
     1
 64
     7
176
     1
 65
   257
176
     1
 75
     1
176
     1
175
     1
176
     1
 42
1.0
176
     1
 92
        8
176
     1
 66
     7
176
     1
 43
1.0
176
     1
 76
     1
176
     1
 77
     6
176
     1
 78
     2
176
     1
 67
     7
176
     1
 79
     5
176
     1
170
     0
176
     1
171
     0
176
     1
290
     0
176
     1
 93
        1
176
     1
 44
0.0
176
     1
173
     0
176
     1
1001
ACAD
1000
AcDbSavedByObjectVersion
1070
     0
  0
VISUALSTYLE
  5
540C
102
{ACAD_XDICTIONARY
360
CDBD
102
}
102
{ACAD_REACTORS
330
540B
102
}
330
540B
100
AcDbVisualStyle
  2

 70
     0
177
     2
291
     1
 71
     2
176
     1
 72
     1
176
     1
 73
     1
176
     1
 90
        2
176
     1
 40
0.6
176
     1
 41
30.0
176
     1
 63
     7
176
     1
 74
     0
176
     1
 91
        4
176
     1
 64
     7
176
     1
 65
   257
176
     1
 75
     1
176
     1
175
     1
176
     1
 42
1.0
176
     1
 92
        8
176
     1
 66
     7
176
     1
 43
1.0
176
     1
 76
     1
176
     1
 77
     6
176
     1
 78
     2
176
     1
 67
     7
176
     1
 79
     5
176
     1
170
     0
176
     1
171
     0
176
     1
290
     0
176
     1
 93
       13
176
     1
 44
0.0
176
     1
173
     0
176
     1
1001
ACAD
1000
AcDbSavedByObjectVersion
1070
     0
  0
VISUALSTYLE
  5
540D
102
{ACAD_XDICTIONARY
360
CDBF
102
}
102
{ACAD_REACTORS
330
540B
102
}
330
540B
100
AcDbVisualStyle
  2

 70
     1
177
     2
291
     1
 71
     2
176
     1
 72
     1
176
     1
 73
     1
176
     1
 90
        2
176
     1
 40
0.6
176
     1
 41
30.0
176
     1
 63
     7
176
     1
 74
     1
176
     1
 91
        4
176
     1
 64
     7
176
     1
 65
   257
176
     1
 75
     1
176
     1
175
     1
176
     1
 42
1.0
176
     1
 92
        0
176
     1
 66
   257
176
     1
 43
1.0
176
     1
 76
     1
176
     1
 77
     6
176
     1
 78
     2
176
     1
 67
     7
176
     1
 79
     5
176
     1
170
     0
176
     1
171
     0
176
     1
290
     0
176
     1
 93
       13
176
     1
 44
0.0
176
     1
173
     0
176
     1
1001
ACAD
1000
AcDbSavedByObjectVersion
1070
     0
  0
VISUALSTYLE
  5
540E
102
{ACAD_XDICTIONARY
360
CDC1
102
}
102
{ACAD_REACTORS
330
540B
102
}
330
540B
100
AcDbVisualStyle
  2

 70
     2
177
     2
291
     1
 71
     2
176
     1
 72
     2
176
     1
 73
     1
176
     1
 90
        2
176
     1
 40
0.6
176
     1
 41
30.0
176
     1
 63
     7
176
     1
 74
     0
176
     1
 91
        4
176
     1
 64
     7
176
     1
 65
   257
176
     1
 75
     1
176
     1
175
     1
176
     1
 42
1.0
176
     1
 92
        0
176
     1
 66
     7
176
     1
 43
1.0
176
     1
 76
     1
176
     1
 77
     6
176
     1
 78
     2
176
     1
 67
     7
176
     1
 79
     5
176
     1
170
     0
176
     1
171
     0
176
     1
290
     0
176
     1
 93
       13
176
     1
 44
0.0
176
     1
173
     0
176
     1
1001
ACAD
1000
AcDbSavedByObjectVersion
1070
     0
  0
VISUALSTYLE
  5
540F
102
{ACAD_XDICTIONARY
360
CDC3
102
}
102
{ACAD_REACTORS
330
540B
102
}
330
540B
100
AcDbVisualStyle
  2

 70
     3
177
     2
291
     1
 71
     2
176
     1
 72
     2
176
     1
 73
     1
176
     1
 90
        2
176
     1
 40
0.6
176
     1
 41
30.0
176
     1
 63
     7
176
     1
 74
     1
176
     1
 91
        4
176
     1
 64
     7
176
     1
 65
   257
176
     1
 75
     1
176
     1
175
     1
176
     1
 42
1.0
176
     1
 92
        0
176
     1
 66
   257
176
     1
 43
1.0
176
     1
 76
     1
176
     1
 77
     6
176
     1
 78
     2
176
     1
 67
     7
176
     1
 79
     5
176
     1
170
     0
176
     1
171
     0
176
     1
290
     0
176
     1
 93
       13
176
     1
 44
0.0
176
     1
173
     0
176
     1
1001
ACAD
1000
AcDbSavedByObjectVersion
1070
     0
  0
VISUALSTYLE
  5
CB7F
102
{ACAD_XDICTIONARY
360
CDDF
102
}
102
{ACAD_REACTORS
330
540B
102
}
330
540B
100
AcDbVisualStyle
  2

 70
     6
177
     2
291
     0
 71
     1
176
     1
 72
     2
176
     1
 73
     2
176
     1
 90
        0
176
     1
 40
0.6
176
     1
 41
30.0
176
     1
 63
     7
421
 16777215
176
     1
 74
     2
176
     1
 91
        2
176
     1
 64
     7
176
     1
 65
   257
176
     1
 75
     2
176
     1
175
     1
176
     1
 42
40.0
176
     1
 92
        0
176
     1
 66
   257
176
     1
 43
1.0
176
     1
 76
     1
176
     1
 77
     6
176
     1
 78
     2
176
     1
 67
     7
176
     1
 79
     3
176
     1
170
     0
176
     1
171
     0
176
     1
290
     0
176
     1
 93
        1
176
     1
 44
0.0
176
     1
173
     0
176
     1
1001
ACAD
1000
AcDbSavedByObjectVersion
1070
     0
  0
VISUALSTYLE
  5
CB85
102
{ACAD_XDICTIONARY
360
CDEB
102
}
102
{ACAD_REACTORS
330
540B
102
}
330
540B
100
AcDbVisualStyle
  2

 70
    20
177
     2
291
     1
 71
     2
176
     0
 72
     2
176
     0
 73
     0
176
     0
 90
        0
176
     0
 40
0.6
176
     0
 41
30.0
176
     0
 63
     7
421
 16777215
176
     0
 74
     1
176
     0
 91
        4
176
     0
 64
     7
176
     0
 65
   257
176
     0
 75
     1
176
     0
175
     1
176
     0
 42
1.0
176
     0
 92
       10
176
     2
 66
     7
176
     0
 43
1.0
176
     0
 76
     1
176
     0
 77
     6
176
     0
 78
     2
176
     0
 67
     7
176
     0
 79
     5
176
     0
170
     0
176
     0
171
     0
176
     0
290
     0
176
     0
 93
        1
176
     0
 44
0.0
176
     0
173
     0
176
     0
1001
ACAD
1000
AcDbSavedByObjectVersion
1070
     0
  0
VISUALSTYLE
  5
5419
102
{ACAD_XDICTIONARY
360
CDD7
102
}
102
{ACAD_REACTORS
330
540B
102
}
330
540B
100
AcDbVisualStyle
  2

 70
    14
177
     2
291
     1
 71
     2
176
     1
 72
     2
176
     1
 73
     0
176
     1
 90
        0
176
     1
 40
0.6
176
     1
 41
30.0
176
     1
 63
     7
176
     1
 74
     1
176
     1
 91
        4
176
     1
 64
     7
176
     1
 65
   257
176
     1
 75
     7
176
     1
175
     7
176
     1
 42
1.0
176
     1
 92
        8
176
     1
 66
     7
176
     1
 43
1.0
176
     1
 76
     1
176
     1
 77
     6
176
     1
 78
     2
176
     1
 67
     7
176
     1
 79
     5
176
     1
170
     0
176
     1
171
     0
176
     1
290
     0
176
     1
 93
        1
176
     1
 44
0.0
176
     1
173
     0
176
     1
1001
ACAD
1000
AcDbSavedByObjectVersion
1070
     0
  0
VISUALSTYLE
  5
CB86
102
{ACAD_XDICTIONARY
360
CDED
102
}
102
{ACAD_REACTORS
330
540B
102
}
330
540B
100
AcDbVisualStyle
  2

 70
    21
177
     2
291
     1
 71
     2
176
     0
 72
     2
176
     0
 73
     0
176
     0
 90
        0
176
     0
 40
0.6
176
     0
 41
30.0
176
     0
 63
     7
421
 16777215
176
     0
 74
     1
176
     0
 91
        4
176
     0
 64
     7
176
     0
 65
   257
176
     0
 75
     1
176
     0
175
     1
176
     0
 42
1.0
176
     0
 92
        9
176
     2
 66
     7
176
     0
 43
1.0
176
     0
 76
     1
176
     0
 77
     6
176
     0
 78
     2
176
     0
 67
     7
176
     0
 79
     5
176
     0
170
     0
176
     0
171
     0
176
     0
290
     0
176
     0
 93
        1
176
     0
 44
0.0
176
     0
173
     0
176
     0
1001
ACAD
1000
AcDbSavedByObjectVersion
1070
     0
  0
VISUALSTYLE
  5
5415
102
{ACAD_XDICTIONARY
360
CDCF
102
}
102
{ACAD_REACTORS
330
540B
102
}
330
540B
100
AcDbVisualStyle
  2

 70
     8
177
     2
291
     0
 71
     2
176
     1
 72
     2
176
     1
 73
     0
176
     1
 90
        0
176
     1
 40
0.6
176
     1
 41
30.0
176
     1
 63
     7
176
     1
 74
     1
176
     1
 91
        0
176
     1
 64
     7
176
     1
 65
   257
176
     1
 75
     1
176
     1
175
     1
176
     1
 42
1.0
176
     1
 92
        8
176
     1
 66
     8
176
     1
 43
1.0
176
     1
 76
     1
176
     1
 77
     6
176
     1
 78
     2
176
     1
 67
     7
176
     1
 79
     5
176
     1
170
     0
176
     1
171
     0
176
     1
290
     0
176
     1
 93
       13
176
     1
 44
0.0
176
     1
173
     0
176
     1
1001
ACAD
1000
AcDbSavedByObjectVersion
1070
     0
  0
VISUALSTYLE
  5
CB84
102
{ACAD_XDICTIONARY
360
CDE9
102
}
102
{ACAD_REACTORS
330
540B
102
}
330
540B
100
AcDbVisualStyle
  2

 70
    27
177
     2
291
     0
 71
     2
176
     1
 72
     2
176
     1
 73
     1
176
     1
 90
        2
176
     1
 40
0.6
176
     1
 41
30.0
176
     1
 63
     7
421
 16777215
176
     1
 74
     0
176
     1
 91
        4
176
     1
 64
     7
176
     1
 65
   257
176
     1
 75
     1
176
     1
175
     1
176
     1
 42
1.0
176
     1
 92
        8
176
     1
 66
   257
176
     1
 43
1.0
176
     1
 76
     1
176
     1
 77
     6
176
     1
 78
     2
176
     1
 67
     8
425
  7895160
176
     1
 79
     3
176
     1
170
     0
176
     1
171
     0
176
     1
290
     0
176
     1
 93
        5
176
     1
 44
0.0
176
     1
173
     0
176
     1
1001
ACAD
1000
AcDbSavedByObjectVersion
1070
     0
  0
VISUALSTYLE
  5
CB83
102
{ACAD_XDICTIONARY
360
CDE7
102
}
102
{ACAD_REACTORS
330
540B
102
}
330
540B
100
AcDbVisualStyle
  2

 70
    26
177
     2
291
     0
 71
     2
176
     1
 72
     2
176
     1
 73
     1
176
     1
 90
        2
176
     1
 40
0.6
176
     1
 41
30.0
176
     1
 63
     7
421
 16777215
176
     1
 74
     1
176
     1
 91
       10
176
     1
 64
     7
176
     1
 65
   257
176
     1
 75
     2
176
     1
175
     1
176
     1
 42
1.0
176
     1
 92
        8
176
     1
 66
   257
176
     1
 43
1.0
176
     1
 76
     1
176
     1
 77
     6
176
     1
 78
     2
176
     1
 67
     7
176
     1
 79
     3
176
     1
170
     0
176
     1
171
     0
176
     1
290
     0
176
     1
 93
        5
176
     1
 44
0.0
176
     1
173
     0
176
     1
1001
ACAD
1000
AcDbSavedByObjectVersion
1070
     0
  0
VISUALSTYLE
  5
CB80
102
{ACAD_XDICTIONARY
360
CDE1
102
}
102
{ACAD_REACTORS
330
540B
102
}
330
540B
100
AcDbVisualStyle
  2

 70
    23
177
     2
291
     0
 71
     2
176
     1
 72
     2
176
     1
 73
     3
176
     1
 90
        0
176
     1
 40
0.6
176
     1
 41
30.0
176
     1
 63
     7
421
 16777215
176
     1
 74
     2
176
     1
 91
        2
176
     1
 64
     7
176
     1
 65
     7
176
     1
 75
     1
176
     1
175
     1
176
     1
 42
40.0
176
     1
 92
        8
176
     1
 66
     7
176
     1
 43
1.0
176
     1
 76
     1
176
     1
 77
     6
176
     1
 78
     2
176
     1
 67
     7
176
     1
 79
     3
176
     1
170
     0
176
     1
171
     0
176
     1
290
     0
176
     1
 93
        1
176
     1
 44
0.0
176
     1
173
     0
176
     1
1001
ACAD
1000
AcDbSavedByObjectVersion
1070
     0
  0
VISUALSTYLE
  5
CB81
102
{ACAD_XDICTIONARY
360
CDE3
102
}
102
{ACAD_REACTORS
330
540B
102
}
330
540B
100
AcDbVisualStyle
  2

 70
    24
177
     2
291
     0
 71
     1
176
     1
 72
     2
176
     1
 73
     2
176
     1
 90
        0
176
     1
 40
0.6
176
     1
 41
30.0
176
     1
 63
     7
421
 16777215
176
     1
 74
     2
176
     1
 91
        2
176
     1
 64
     7
176
     1
 65
     7
176
     1
 75
     1
176
     1
175
     1
176
     1
 42
40.0
176
     1
 92
       11
176
     1
 66
     7
176
     1
 43
1.0
176
     1
 76
     1
176
     1
 77
     6
176
     1
 78
     2
176
     1
 67
     7
176
     1
 79
     6
176
     1
170
     0
176
     1
171
     0
176
     1
290
     0
176
     1
 93
        1
176
     1
 44
0.0
176
     1
173
     0
176
     1
1001
ACAD
1000
AcDbSavedByObjectVersion
1070
     0
  0
VISUALSTYLE
  5
5418
102
{ACAD_XDICTIONARY
360
CDD5
102
}
102
{ACAD_REACTORS
330
540B
102
}
330
540B
100
AcDbVisualStyle
  2

 70
    13
177
     2
291
     1
 71
     2
176
     1
 72
     2
176
     1
 73
     0
176
     1
 90
        0
176
     1
 40
0.6
176
     1
 41
30.0
176
     1
 63
     7
176
     1
 74
     1
176
     1
 91
        4
176
     1
 64
     7
176
     1
 65
   257
176
     1
 75
     1
176
     1
175
     1
176
     1
 42
1.0
176
     1
 92
       12
176
     1
 66
     7
176
     1
 43
1.0
176
     1
 76
     1
176
     1
 77
     6
176
     1
 78
     2
176
     1
 67
     7
176
     1
 79
     5
176
     1
170
     0
176
     1
171
     0
176
     1
290
     0
176
     1
 93
        1
176
     1
 44
0.0
176
     1
173
     0
176
     1
1001
ACAD
1000
AcDbSavedByObjectVersion
1070
     0
  0
VISUALSTYLE
  5
CB7E
102
{ACAD_XDICTIONARY
360
CDDD
102
}
102
{ACAD_REACTORS
330
540B
102
}
330
540B
100
AcDbVisualStyle
  2

 70
     5
177
     2
291
     0
 71
     0
176
     1
 72
     2
176
     1
 73
     0
176
     1
 90
        0
176
     1
 40
0.6
176
     1
 41
30.0
176
     1
 63
     7
421
 16777215
176
     1
 74
     1
176
     1
 91
        4
176
     1
 64
     7
176
     1
 65
   257
176
     1
 75
     1
176
     1
175
     1
176
     1
 42
1.0
176
     1
 92
        0
176
     1
 66
   257
176
     1
 43
1.0
176
     1
 76
     1
176
     1
 77
     6
176
     1
 78
     2
176
     1
 67
     7
176
     1
 79
     3
176
     1
170
     0
176
     1
171
     0
176
     1
290
     0
176
     1
 93
        1
176
     1
 44
0.0
176
     1
173
     0
176
     1
1001
ACAD
1000
AcDbSavedByObjectVersion
1070
     0
  0
VISUALSTYLE
  5
CB82
102
{ACAD_XDICTIONARY
360
CDE5
102
}
102
{ACAD_REACTORS
330
540B
102
}
330
540B
100
AcDbVisualStyle
  2

 70
    25
177
     2
291
     0
 71
     2
176
     1
 72
     2
176
     1
 73
     1
176
     1
 90
        1
176
     1
 40
0.5
176
     1
 41
30.0
176
     1
 63
     7
421
 16777215
176
     1
 74
     1
176
     1
 91
        0
176
     1
 64
     7
176
     1
 65
   257
176
     1
 75
     1
176
     1
175
     1
176
     1
 42
1.0
176
     1
 92
        8
176
     1
 66
     7
176
     1
 43
1.0
176
     1
 76
     1
176
     1
 77
     6
176
     1
 78
     2
176
     1
 67
     7
176
     1
 79
     3
176
     1
170
     0
176
     1
171
     0
176
     1
290
     0
176
     1
 93
       13
176
     1
 44
0.0
176
     1
173
     0
176
     1
1001
ACAD
1000
AcDbSavedByObjectVersion
1070
     0
  0
DICTIONARYVAR
  5
5451
102
{ACAD_REACTORS
330
1DC9
102
}
330
1DC9
100
DictionaryVariables
280
     0
  1
1:1
  0
DICTIONARYVAR
  5
5450
102
{ACAD_REACTORS
330
1DC9
102
}
330
1DC9
100
DictionaryVariables
280
     0
  1
STANDARD
  0
DICTIONARYVAR
  5
544F
102
{ACAD_REACTORS
330
1DC9
102
}
330
1DC9
100
DictionaryVariables
280
     0
  1
STANDARD
  0
DICTIONARYVAR
  5
CBDF
102
{ACAD_REACTORS
330
1DC9
102
}
330
1DC9
100
DictionaryVariables
280
     0
  1
Imperial24
  0
DICTIONARYVAR
  5
CBE0
102
{ACAD_REACTORS
330
1DC9
102
}
330
1DC9
100
DictionaryVariables
280
     0
  1
Imperial24
  0
DICTIONARYVAR
  5
5453
102
{ACAD_REACTORS
330
1DC9
102
}
330
1DC9
100
DictionaryVariables
280
     0
  1
1
  0
DICTIONARYVAR
  5
5452
102
{ACAD_REACTORS
330
1DC9
102
}
330
1DC9
100
DictionaryVariables
280
     0
  1
0
  0
DICTIONARYVAR
  5
CBE3
102
{ACAD_REACTORS
330
1DC9
102
}
330
1DC9
100
DictionaryVariables
280
     0
  1
1
  0
DICTIONARYVAR
  5
CBE4
102
{ACAD_REACTORS
330
1DC9
102
}
330
1DC9
100
DictionaryVariables
280
     0
  1
15
  0
DICTIONARYVAR
  5
CBE2
102
{ACAD_REACTORS
330
1DC9
102
}
330
1DC9
100
DictionaryVariables
280
     0
  1
0
  0
DICTIONARYVAR
  5
CBE1
102
{ACAD_REACTORS
330
1DC9
102
}
330
1DC9
100
DictionaryVariables
280
     0
  1
0
  0
DICTIONARYVAR
  5
1DCA
102
{ACAD_REACTORS
330
1DC9
102
}
330
1DC9
100
DictionaryVariables
280
     0
  1
96
  0
DICTIONARY
  5
CDBC
102
{ACAD_REACTORS
330
CDBA
102
}
330
CDBA
100
AcDbDictionary
281
     1
  0
DICTIONARY
  5
CDBB
102
{ACAD_REACTORS
330
CDBA
102
}
330
CDBA
100
AcDbDictionary
281
     1
  3
8796083631312
350
CDB5
  3
8796083631328
350
CDB6
  3
8796083631344
350
CDB7
  3
8796083631360
350
CDB8
  3
8796083631376
350
CDB9
  0
DICTIONARY
  5
CDF3
330
CB8B
100
AcDbDictionary
280
     1
281
     1
  3
ACAD_XREC_ROUNDTRIP
360
CDF4
  0
DICTIONARY
  5
CC47
330
CC46
100
AcDbDictionary
280
     1
281
     1
  0
DICTIONARY
  5
53FC
330
53FB
100
AcDbDictionary
280
     1
281
     1
  3
ACAD_XREC_ROUNDTRIP
360
613F
  3
BUMPTILE
360
53FE
  3
DIFFUSETILE
360
53FD
  3
OPACITYTILE
360
5401
  3
REFLECTIONTILE
360
5400
  3
REFRACTIONTILE
360
5402
  3
SPECULARTILE
360
53FF
  0
DICTIONARY
  5
53F4
330
53F3
100
AcDbDictionary
280
     1
281
     1
  3
ACAD_XREC_ROUNDTRIP
360
613E
  3
BUMPTILE
360
53F6
  3
DIFFUSETILE
360
53F5
  3
OPACITYTILE
360
53F9
  3
REFLECTIONTILE
360
53F8
  3
REFRACTIONTILE
360
53FA
  3
SPECULARTILE
360
53F7
  0
DICTIONARY
  5
5404
330
5403
100
AcDbDictionary
280
     1
281
     1
  3
ACAD_XREC_ROUNDTRIP
360
6140
  3
BUMPTILE
360
5406
  3
DIFFUSETILE
360
5405
  3
FBXASSET
360
CC8F
  3
OPACITYTILE
360
5409
  3
REFLECTIONTILE
360
5408
  3
REFRACTIONTILE
360
540A
  3
SPECULARTILE
360
5407
  0
DICTIONARY
  5
CDF1
330
CB89
100
AcDbDictionary
280
     1
281
     1
  3
ACAD_XREC_ROUNDTRIP
360
CDF2
  0
DICTIONARY
  5
612D
330
541E
100
AcDbDictionary
280
     1
281
     1
  3
ACAD_ROUNDTRIP_2008_TABLESTYLE_CELLSTYLEMAP
360
CDB3
  0
DICTIONARY
  5
CDC7
330
5411
100
AcDbDictionary
280
     1
281
     1
  3
ACAD_XREC_ROUNDTRIP
360
CDC8
  0
DICTIONARY
  5
CDCB
330
5413
100
AcDbDictionary
280
     1
281
     1
  3
ACAD_XREC_ROUNDTRIP
360
CDCC
  0
DICTIONARY
  5
CDC9
330
5412
100
AcDbDictionary
280
     1
281
     1
  3
ACAD_XREC_ROUNDTRIP
360
CDCA
  0
DICTIONARY
  5
CDC5
330
5410
100
AcDbDictionary
280
     1
281
     1
  3
ACAD_XREC_ROUNDTRIP
360
CDC6
  0
DICTIONARY
  5
CDD3
330
5417
100
AcDbDictionary
280
     1
281
     1
  3
ACAD_XREC_ROUNDTRIP
360
CDD4
  0
DICTIONARY
  5
CDDB
330
541B
100
AcDbDictionary
280
     1
281
     1
  3
ACAD_XREC_ROUNDTRIP
360
CDDC
  0
DICTIONARY
  5
CDCD
330
5414
100
AcDbDictionary
280
     1
281
     1
  3
ACAD_XREC_ROUNDTRIP
360
CDCE
  0
DICTIONARY
  5
CDD1
330
5416
100
AcDbDictionary
280
     1
281
     1
  3
ACAD_XREC_ROUNDTRIP
360
CDD2
  0
DICTIONARY
  5
CDEF
330
CB87
100
AcDbDictionary
280
     1
281
     1
  3
ACAD_XREC_ROUNDTRIP
360
CDF0
  0
DICTIONARY
  5
CDD9
330
541A
100
AcDbDictionary
280
     1
281
     1
  3
ACAD_XREC_ROUNDTRIP
360
CDDA
  0
DICTIONARY
  5
CDBD
330
540C
100
AcDbDictionary
280
     1
281
     1
  3
ACAD_XREC_ROUNDTRIP
360
CDBE
  0
DICTIONARY
  5
CDBF
330
540D
100
AcDbDictionary
280
     1
281
     1
  3
ACAD_XREC_ROUNDTRIP
360
CDC0
  0
DICTIONARY
  5
CDC1
330
540E
100
AcDbDictionary
280
     1
281
     1
  3
ACAD_XREC_ROUNDTRIP
360
CDC2
  0
DICTIONARY
  5
CDC3
330
540F
100
AcDbDictionary
280
     1
281
     1
  3
ACAD_XREC_ROUNDTRIP
360
CDC4
  0
DICTIONARY
  5
CDDF
330
CB7F
100
AcDbDictionary
280
     1
281
     1
  3
ACAD_XREC_ROUNDTRIP
360
CDE0
  0
DICTIONARY
  5
CDEB
330
CB85
100
AcDbDictionary
280
     1
281
     1
  3
ACAD_XREC_ROUNDTRIP
360
CDEC
  0
DICTIONARY
  5
CDD7
330
5419
100
AcDbDictionary
280
     1
281
     1
  3
ACAD_XREC_ROUNDTRIP
360
CDD8
  0
DICTIONARY
  5
CDED
330
CB86
100
AcDbDictionary
280
     1
281
     1
  3
ACAD_XREC_ROUNDTRIP
360
CDEE
  0
DICTIONARY
  5
CDCF
330
5415
100
AcDbDictionary
280
     1
281
     1
  3
ACAD_XREC_ROUNDTRIP
360
CDD0
  0
DICTIONARY
  5
CDE9
330
CB84
100
AcDbDictionary
280
     1
281
     1
  3
ACAD_XREC_ROUNDTRIP
360
CDEA
  0
DICTIONARY
  5
CDE7
330
CB83
100
AcDbDictionary
280
     1
281
     1
  3
ACAD_XREC_ROUNDTRIP
360
CDE8
  0
DICTIONARY
  5
CDE1
330
CB80
100
AcDbDictionary
280
     1
281
     1
  3
ACAD_XREC_ROUNDTRIP
360
CDE2
  0
DICTIONARY
  5
CDE3
330
CB81
100
AcDbDictionary
280
     1
281
     1
  3
ACAD_XREC_ROUNDTRIP
360
CDE4
  0
DICTIONARY
  5
CDD5
330
5418
100
AcDbDictionary
280
     1
281
     1
  3
ACAD_XREC_ROUNDTRIP
360
CDD6
  0
DICTIONARY
  5
CDDD
330
CB7E
100
AcDbDictionary
280
     1
281
     1
  3
ACAD_XREC_ROUNDTRIP
360
CDDE
  0
DICTIONARY
  5
CDE5
330
CB82
100
AcDbDictionary
280
     1
281
     1
  3
ACAD_XREC_ROUNDTRIP
360
CDE6
  0
XRECORD
  5
CDB5
102
{ACAD_REACTORS
330
CDBB
102
}
330
CDBB
100
AcDbXrecord
280
     1
  1
AcDb_Thumbnail_Schema
102
{ATTRRECORD
341
CDB6
  2
AcDbDs::TreatedAsObjectData
280
     1
291
     1
102
ATTRRECORD}
102
{ATTRRECORD
341
CDB7
  2
AcDbDs::Legacy
280
     1
291
     1
102
ATTRRECORD}
  2
AcDbDs::ID
280
    10
 91
        8
102
{ATTRRECORD
341
CDB8
  2
AcDs:Indexable
280
     1
291
     1
102
ATTRRECORD}
102
{ATTRRECORD
341
CDB9
  2
AcDbDs::HandleAttribute
280
     7
282
     1
102
ATTRRECORD}
  2
Thumbnail_Data
280
    15
 91
        0
  0
XRECORD
  5
CDB6
102
{ACAD_REACTORS
330
CDBB
102
}
330
CDBB
100
AcDbXrecord
280
     1
  1
AcDbDs::TreatedAsObjectDataSchema
  2
AcDbDs::TreatedAsObjectData
280
     1
 91
        0
  0
XRECORD
  5
CDB7
102
{ACAD_REACTORS
330
CDBB
102
}
330
CDBB
100
AcDbXrecord
280
     1
  1
AcDbDs::LegacySchema
  2
AcDbDs::Legacy
280
     1
 91
        0
  0
XRECORD
  5
CDB8
102
{ACAD_REACTORS
330
CDBB
102
}
330
CDBB
100
AcDbXrecord
280
     1
  1
AcDbDs::IndexedPropertySchema
  2
AcDs:Indexable
280
     1
 91
        0
  0
XRECORD
  5
CDB9
102
{ACAD_REACTORS
330
CDBB
102
}
330
CDBB
100
AcDbXrecord
280
     1
  1
AcDbDs::HandleAttributeSchema
  2
AcDbDs::HandleAttribute
280
     7
 91
        1
284
     1
  0
XRECORD
  5
CDF4
102
{ACAD_REACTORS
330
CDF3
102
}
330
CDF3
100
AcDbXrecord
280
     1
102
DISPLAYNAME
  1
Imperial24
102
FLAGS
 90
        0
  0
XRECORD
  5
613F
102
{ACAD_REACTORS
330
53FC
102
}
330
53FC
100
AcDbXrecord
280
     1
102
MATERIAL
148
0.0
149
0.0
149
0.0
 93
        0
 94
      127
282
     0
 72
     0
 77
     0
171
     0
175
     0
179
     0
273
     0
  0
XRECORD
  5
53FE
102
{ACAD_REACTORS
330
53FC
102
}
330
53FC
100
AcDbXrecord
280
     1
270
     1
271
     1
  0
XRECORD
  5
53FD
102
{ACAD_REACTORS
330
53FC
102
}
330
53FC
100
AcDbXrecord
280
     1
270
     1
271
     1
  0
XRECORD
  5
5401
102
{ACAD_REACTORS
330
53FC
102
}
330
53FC
100
AcDbXrecord
280
     1
270
     1
271
     1
  0
XRECORD
  5
5400
102
{ACAD_REACTORS
330
53FC
102
}
330
53FC
100
AcDbXrecord
280
     1
270
     1
271
     1
  0
XRECORD
  5
5402
102
{ACAD_REACTORS
330
53FC
102
}
330
53FC
100
AcDbXrecord
280
     1
270
     1
271
     1
  0
XRECORD
  5
53FF
102
{ACAD_REACTORS
330
53FC
102
}
330
53FC
100
AcDbXrecord
280
     1
270
     1
271
     1
  0
XRECORD
  5
613E
102
{ACAD_REACTORS
330
53F4
102
}
330
53F4
100
AcDbXrecord
280
     1
102
MATERIAL
148
0.0
149
0.0
149
0.0
 93
        0
 94
      127
282
     0
 72
     0
 77
     0
171
     0
175
     0
179
     0
273
     0
  0
XRECORD
  5
53F6
102
{ACAD_REACTORS
330
53F4
102
}
330
53F4
100
AcDbXrecord
280
     1
270
     1
271
     1
  0
XRECORD
  5
53F5
102
{ACAD_REACTORS
330
53F4
102
}
330
53F4
100
AcDbXrecord
280
     1
270
     1
271
     1
  0
XRECORD
  5
53F9
102
{ACAD_REACTORS
330
53F4
102
}
330
53F4
100
AcDbXrecord
280
     1
270
     1
271
     1
  0
XRECORD
  5
53F8
102
{ACAD_REACTORS
330
53F4
102
}
330
53F4
100
AcDbXrecord
280
     1
270
     1
271
     1
  0
XRECORD
  5
53FA
102
{ACAD_REACTORS
330
53F4
102
}
330
53F4
100
AcDbXrecord
280
     1
270
     1
271
     1
  0
XRECORD
  5
53F7
102
{ACAD_REACTORS
330
53F4
102
}
330
53F4
100
AcDbXrecord
280
     1
270
     1
271
     1
  0
XRECORD
  5
6140
102
{ACAD_REACTORS
330
5404
102
}
330
5404
100
AcDbXrecord
280
     1
102
MATERIAL
148
0.0
149
0.0
149
0.0
 93
        0
 94
      127
282
     0
 72
     0
 77
     0
171
     0
175
     0
179
     0
273
     0
  0
XRECORD
  5
5406
102
{ACAD_REACTORS
330
5404
102
}
330
5404
100
AcDbXrecord
280
     1
270
     1
271
     1
  0
XRECORD
  5
5405
102
{ACAD_REACTORS
330
5404
102
}
330
5404
100
AcDbXrecord
280
     1
270
     1
271
     1
  0
XRECORD
  5
CC8F
102
{ACAD_REACTORS
330
5404
102
}
330
5404
100
AcDbXrecord
280
     1
 70
     1
 90
652598616
 71
     1
  1
D1E04CC4-6363-4EC0-ADB5-81A6AAF58760
311
504B0304140006080800CE437548761CE9A4DA000000200100004F00000032463339444139462D374542372D344143442D393543442D3938394533463436333344412F4173736574446174612F446566696E6974696F6E4974657261746F7250726F706572746965732E62696E454E3D4FC3400C3D18400C0CFC83AAFB71D7
311
CB47D3A82D6A1285091698582AF7E2964897A4CA25122323FF1A6CB5A8969E9F3F9FFD2384F83D1B85E28AF04DFE9EF8195BEC6BFB663FB10171C315D7EDC0DD5E7AD714725AE01E4637F0D64BED2D3A072D76A37FB88C4E1A18480EDC232FDD11FE0B9E150EA7637CFF95C02F3143754C9FC07B1C566ABFFB5291C9CBB80C
311
0AB959145A8691CE6552CE33192FB2280EF370BE2932D5A3EFC6DEA25746E9ED59797B6C0F75B55E0E758393161A5C4D6D8FF453355D1B3D8BA50EA499BDEB240D746A928FA5E2C93F504B0304140006080800CE437548838877C912010000300200004500000032463339444139462D374542372D344143442D393543442D
311
3938394533463436333344412F4173736574446174612F496E7374616E636550726F706572746965732E62696EEB606060F80F0540260323103700495E20ED9E9A975A94991C9C9C919A9BA802147031743530717636D135333633D635717536D075747132D5B530743473747433B5303733604768046931363471713532B5
311
D4353531016A313332D475727372D13534373670367376B67474B5042A03DBCBA019D37FE8ABC6157B20CD04146B0062181F4C03F940F0C11EA29A8141C08141002C0426541C106CAC2CA046088033B02A030AC2157C6006F21A8018AAF50194E6010A610250382264E08660284CD9E98021862280A91564B406929A0FF62C
311
401E28B6F88038B83CB1243943D7A928312F253505247321F28635906208E8BA0EA62F7841E8005728ED05919FD004A51F5C83A8F380F243A0FAF7426931080D00504B0304140006080800CE43754828BB58AF800100009E0500003D00000032463339444139462D374542372D344143442D393543442D3938394533463436
311
333344412F536368656D61732F436F6D6D6F6E536368656D612E786D6CBD544D4FC23018BEFB2B96DE15493C78601010A34B880709DEDFB52FD0D8B54BD70DF6EFED3AC0B12E6442E2716BFB3CEFF3D18E26FB440405EA8C2B1992E1C323095052C5B8DC842437EBFB673219DF8DA659866649B798C078B48AE6410122242F
311
2A4994AC7F93815DF85C049C8564CA0A901499DD886B2EB9B1E02448F358701A9235880C49A0119892A20C89D1B9FD768815CAD268CB5E0355B40B1E47F3E37A2020464BED06AA57CE8FCC20C3C3446D46761A2632A8C1283D07031EFF2AE7CCB1BFEEE916E406DFAC8E36FFD99A9D60A6944090EEDC3B670C7DC13DE86B6B
311
2C5C240D6E503BB85ACD579D513F1B9F9A69DC9CC22AFA80C426D40AF0B21EA168559156B6276F0F726A6BFF04DCD513A87A62CAD41FB24FCB2858B3952E3D852084DA25B9303C15687973CC8E8AAE11DF2836C38C6A9E765E8C1BA1BFB1DC29CDFE518C8B5A7655A4ED7E77291ABEB80DBD82EC866ADE1B8D05AF9E35CF09
311
D7A061F38A986D9EC412B8F0F65E5D81534D9B231D1E5A8FE577A241F3A5FD01504B0304140006080800CE4375482CCEBD668A040000E01200003E00000032463339444139462D374542372D344143442D393543442D3938394533463436333344412F536368656D61732F47656E65726963536368656D612E786D6CD5586D
311
6FDB380CFE7EBF42F0F7A649B70E1B90744856B4970F450FCD7A5F05459613EDE4174872DADCAF3F522F8ED3B88D2F1D06AC4050DBA2493EE4438AF2F8EB73AEC8466823CB62928C06C384888297A92C5693A4B6D9D9E7E4EBD51FE3A931C22EF85AE4EC6AFC38BF261BA626C9AD288496DC3F4FCEAFC63366845F7A10452A
311
F41DB320C0D44EC26EAB20918735565582695670811A6A49643A49A6E9069FA4604A64B29016DC4B48552F95E4932463CA888468C1D2B250DB4962750DF7CE273069CE8363F1FF4EDB00E0A21999574AE4A2B00C353B93F3BD4777B8A61ED8F604ABFEDD79CE56A2B7BDFBDBC50996E0ADDE16FED26223C5D30956C29BDF4A
311
55EA686E5E58B112DA45CE67F76F4FA27EFA3FB672FD7372FC388FAECDCA5209E693CAD167BADCD272F943701B3812F8A3D852008B1D2E32DB927B2F833C6EA95879925356D254582695095A3CE982924720BE5774A3CB9CDCDB350427D2DF20DA1B5532EBE2D5D6288D75D4F7E4FD9890A0EF8E3D93EBB8F8BA4758158EF6
311
FB90A6F9520281C93DE7AAC6D24607DA296BB96018123F821A7D6A5C5884050C475DA4865442732C8B95684A50165CBB3A32F25F783A4A480ED59AD7F924B968AEA50131F46303223E6A397B0E52976030DC1DCA81D7E7C1EDEEA42C19FF27635C505E2BD5198A599020DF50A2330FCB3AAF28CB0124108429553EF1B22880
311
2E2265D8F7CC2401042B155BCC7070F1E5C55F13B4A9577362CCCE46C32174E010C3C378C44841A4BDA00FE3A12006CE11EE6AEC59894D3526DDE1CD59D503ECC324017F8061B7F162162FA62EDD81AE3308617770796DCBDAD2B2625C5AE8A63DE20B2C8AA5E95E76E5730823955956E33E705425A2187C185D36489A1B44
311
D3DCEC2172F6BA2105C3546287A7194B2331768EBBE64F6E70A9930ABE0ADEA89E9E2C38523B810287AD67A54A039C1606EAFE68F8304610BB9093DBDDABC0B2AE4E290DCDA15376D7E39F72B556F0B32EAB5D3D498B4C41ABADEC3A1434C422D87E8025A84BDCB2B1417ED750FAE4DA8976863974C577C7F902D3F156AD35
311
4DEA3540DE6BEAE2BEA52F7A2EB4CA43802ECE5BF2CE2EDC9347179FFB023CE412E60BE16DA0BE29B374988A553F561DC04615DD35F7D2C8979F60E5955CE93DF29DED8AFA1EE6642D53418086C03C47C377910F75F7E8F5EF665F70B60FFB22AEDF897D119E8423C773E819A3C1E55E550599EE6EDCA34D0C86FD72057DF2
311
CD46F16A470682471C164E4346D5306BF12D7D12D82CFF673D41636C347443FEB51B50D72EA171A8E4A58623A4A16E0FA2B8B10A0D23268D87C33896EE8FB73305A74BF224EDBADFA0BD674AB354D63DB7BD5D83426761C077DE767728235446A552754EB93B755891C3C4CC6CADE37CF0E912A7BB38DBA010F9DE1282EDF4
311
70CA69A9CDA482E334C4A6EA4107987980B17E72F31730EBF88BBD39E7C629F56797A3C0009C2C5AE7951D9A05A02773440F02EEB4DE396A3B6A570C72CCFBCD823B0B8ED3F1D5CEDDFED772FA70236C83FB7D86C385D570B87107535572A60A96035F8F7C6A7192F13007246BBE0521855E6AC46F3E27689CEE7D186A6FD6
311
79D98CDCAD13333E04EBE7ED6F55FF01504B0304140006080800CE4375486180134D5F0100006B0300004500000032463339444139462D374542372D344143442D393543442D3938394533463436333344412F536368656D61732F52656E6465724D6174657269616C536368656D612E786D6CA5934D6FC2300C86EFFB1551
311
EEE343DBA41D1A103009551ADAD40EAE28A4A68D9426284961FCFBE5A340113B2071746D3F765EBF4DC6BFB5407BD0862B49F0B037C0082453059725C18DDD3EBFE3F1E829991803366715D474942CD30FB4A782E00C64017A412D684E454CE3FE28995203B162A6EA5AC94B66997D225E109CD63B0135484BAD1B3C07E908
311
0CA35DB3119C11BCA5C200461A68A1A438126C75E3E230D40FF81FB3F03C91D1E3A3A0AF79FE28E25BC39EC3E17E4C2A2D94A0833A51AF55BCCA7D88572FCBAC529C4140B020FC3AAFA886621DCED7EAD7664CC86024E806DC297DA1BB393E4156543457A4537DB8817349A70F8ACBF09B3EEE2CB2F33E91B65D60786E4E3B
311
39B77E3FEEEF5650424525DA657FB8B46BE6BF064646F0A0F7327C0BC1BC1B4CBBC1C419FA3CCB23500007872A2580CAAE5461865565294E4EDB4617B62FF579DF9A5B2F54E834076A597573A020912FED777F9B3F504B0304140006080800CE4375483522E5E251000000570000004700000032463339444139462D374542
311
372D344143442D393543442D3938394533463436333344412F4173736574446174612F41737365745461626C654F66436F6E74656E74732E62696E536160607031743530717636D135333633D635717536D075747132D5B530743473747433B53037331002AACB4D2C492DCA4CCC492C28484D2C4ACC4B4E050A82012F9074
311
4FCD03CA26072767A4E6260200504B0304140006080800CE437548F865834058000000680000004500000032463339444139462D374542372D344143442D393543442D3938394533463436333344412F4173736574446174612F53747265616D56657273696F6E5461626C652E696E66558CBD0A80300C06F73E4B117FB66E
311
451741D041DC5BF98480A492E4FDD18EAEC7DD4555D89EF28DF51A0B1BD8340C4DE7DD848B988C0ACF0649566493F2408C508DDEBB99D5129FF8F1AF8CF5B9503E20FAE5A16B5AF702504B0304140006080800CE437548C9759023340100009A0400003600000032463339444139462D374542372D344143442D393543442D
311
3938394533463436333344412F4173736574446174612F636E782E786D6CCD94314FC3301085FF4AE43D76D24AA8AA1C5708964E205131B05D9D4BB1EAD8917D41F0EFB1930CA022A60E5DCFEFCECF9FFC4EEE3E7B5B7C6088C6BB86D5BC62053AED5BE34E0D1BA92B37ACD82919BCA71F325638E8B161B9CC943C053F0E4B
311
A9C50E469BABD6B8F352BC8F11E900478B4FDD8377848E222BB485181B16F53BF6C06124DF623CF3160878CD03463F068D6912991E97493A2010B64CADAAFAAEACD6E5AA3E549BEDBADAAE366F5264A59247EFEDA237E9B2E08742CFB7325549918F951C835934F92D4CFDE5911F8D932229958C141293A583BE86D401C360
311
8D064AE884D784542611422FC52C56526406BF483C62679CC92DFB640CC887E7640F0319BC3922FF79BD3E99BD8B044EE3EDF2B874787D0A2FD30F7A9D033925E6D67272E9901BD75D2125625A23293479ABA86F504B0304140006080800CE43754883A3BAE9080100004F0300003400000032463339444139462D37454237
311
2D344143442D393543442D3938394533463436333344412F536368656D61732F636E782E786D6CCD93BD4E042114855F65423FCCCF2666B261D8C2C2CA46ADEC90B9BB9205EEE40246DF5E182976133B2DB683C31772CEE1220E9FCE361F40C1A09FD9C07BD680D7B8187F9A598AC77662CD410A428C17186BBC7230B32233
311
294E8469ADD20247956C51ADF1E72ADEA373E89FF53B38C51A6D5508330BDB96AB14718170E68B8A8A0F9C2060220DF986681CD41B34818AB03039F6C35DDBEFDA7178E9A7FDAEDF8FD3ABE80A29C51BA2ADBCF11108D746635EF86CA7175D39962291A94CC9C0E4A5379EDB105D26A408917207958C5F6B26D5BA5AA355CC
311
55751BF8C348D195A857811FC003197D9B89AFCCFD5BE427F00BD0637E2532CADE66F2DF3CFEAD806E9BFD3C02E52BC86F504B0304140006080800CE437548410A3D5871000000A40000002C00000032463339444139462D374542372D344143442D393543442D3938394533463436333344412F636E782E786D6C55CC4D0E
311
82301086E1AB34B31774E7A22D31F1069E60020334B633A63FC6E34B0909B07DDE2F9FEE7EC1AB2FC5E4840DDC9A2B28E25E06C7938192C7CB1D54677514C9871928C640062A83D55394F2D968A0118BAFEA1DBF377CA444F98919176EAB9FEAAB9F2960DA5BBB1E2ED3FA6FFF504B0304140006080800CE437548D8291F25
311
7E000000A300000007000000636E782E786D6C4D8C4D0E83201844AF42BE3DFDC3564900438BDCC35434A4080D8AE9F10B8D8B6EE6252F33C3DACFECD066E26283E7703E9C0019FF0C83F51387B48EB801D40A164358FF6A807C3F1B0E458360530CE9BDABC18C7D72C53AEB5FBBBC684295A41AD7DDBDC6957C284CAF251A
311
DA115DDD0851322F8E6592F1FBCB2CF7E20B504B0304140006080800CE43754816E99B5DA600000035010000130000005B436F6E74656E745F54797065735D2E786D6C9590410E82301045AFD2740F4517C6180A0BF5065E60AC53688469D30E066F6F91AD9AB89CF9FFFD3F99BA9DC7413C3026E749CB4D59498164FCCD51
311
A7E5C4B6D84BD136F5E5193089ECA5A465CF1C0E4A25D3E308A9F401292BD6C711388FB15301CC1D3A54DBAADA29E38991B8E0254336F5092D4C038BF39CD76B6FC6A538AEBEA54A4B08617006389FA516557DE4AE8E7E70DE30729138228C5F021CD93F02D4FB0DCD0B504B0304140006080800CE4375483DEE336E640000
311
00790000001B0000006175746F6465736B2D64657369676E2D7061636B6167652E786D6C35CBC10E83200C00D05F21DCA56CA76D41FC96062B120735B69A7DBE268BB7777961F8D5AF396893C2ADB70FE7ADA196782C2DF776D7A97B5933C430F15651E5469C55D70F80A4992A3ADC954792C525AE70A1E4D6AD9816CC044F
311
EFDF01FE3FDE907802504B0304140006080800CE43754862C407D2F8000000960100003700000032463339444139462D374542372D344143442D393543442D3938394533463436333344412F4173736574446174612F636F72652E786D6C8550CB6E833010FC15B47783B18190C8382A7D7C414FBD59C62156828DFCA8FAF9
311
B50395DA534FBB9A9D99DD1D76FE5AEEC5A7725E5B33405D6228949176D2661E20860BEAA13873E6AC0DBF685018B1A801320C9CCDCEC67587A43541998C1A3BA91D14DEAB0085BCA766002FAF6A11A5882131FCAD5C85BC89599575B9F1388B514FBB544FC94D5FB472C0DBF1F076ECE9333A1E08410DA51D1A9B638BDAD7
311
BEEB464C096D6A56653167412F3FDBA55322A80938C175873045A47EC7FD89E213E93F5895999CF9E0D2CFFBD2FC1DF0A77CF58B088255DBF48F6B5CA7FF5DA3368192DD755378E0F9C8C780B32AA794CA23C25473A2FC1B504B0304140006080800CE4375485D8447E6F6000000940100003500000032463339444139462D
311
374542372D344143442D393543442D3938394533463436333344412F536368656D61732F636F72652E786D6C8550CB6E833010FC15B47783B18190C8381255FB03EDA937CB38D44AB0911F553FBF3650A93DF5B4ABD999D9DD61D7AFE5517C2AE7B53503D42586421969276DE60162B8A11E8A2B67CEDAF08B0685118B1A20
311
C3C0D9EC6C5C0F485A1394C9A8B1933A40E1BD0A50C8476A06F0F2432DA214312486BF97AB907731ABB22E771E6731EAE990EA29B9E99B560E783B9E5ECE3D7D42E71321A8A1B44363736E51FBDC77DD8829A14DCDAA2CE62CE8E567BB744A04350127B8EE10A688D46FB8BF507C21FD3BAB3293331F5CFAF9589ABF03FEBA
311
DDE959B5CFFE78C675FADF336A1328393C7785079E4FDC069C5539A354B60053CD79F26F504B0304140006080800CE437548DAE79C21FF000000D70100002D00000032463339444139462D374542372D344143442D393543442D3938394533463436333344412F636F72652E786D6C9551C952C42014FC158A3BD998259922
311
4C4533F9024FDE30BC89D44C20C562F9F98289A5DEF40254D3DDD0FDD8F97DBEA337B04E19DDE2322B30023D1AA9F4D4E2E0AFA4C6E8CC9935C6FFA061A4C50C2D4E30E66CB2262C1B341AED4127541B091B289C038FD1788F8716BBF115669189E023C3DDB2458C37314156662B8F33AFE62FE96841789098574579200525
311
55F954D4275A9CAAFA99E589C95950DAD36A7B0CE61790C82C3E46C27CCFF2F536B282921B47C9F847755560A3F1409BBE6B0672BC3C1CC9AE7BEC49B34F4BDD5CE8B03B50DA77D1248A3973DEC6663693D4C15FE5ABF057B2B0C87F265B150EF3F23B549E6AE62CFF9C41DCD348F807504B0304140006080800CE4375488C
311
A6245006010000B201000008000000636F72652E786D6C8D50C16E842014FC15F2EE2882BABA4136B169BFA0A7DEA8B096AC8211DCB47F5F586DD2DE7A7A6466DE9B61F8E5739ED05DAFDE38DB41911140DA0E4E193B76B0852B6E005D045F9D0BBF6480AC9C75070906C1C7D56DCB010DCE066D136A9DD20728BDD701D030
311
C547077EF8D0B3CCE416A2C2DFB2450E3739EAACC8769DE0C1CC3FABC3AA65D00A0425458D09C3B47825CD9991336DDE789E94826F9B51879551D1DD5C8D5E4154FDE9A56DD8136E4F94E292B11AF7655BE1EAB9A9EB9E30CACA82E76959701FD6F8E7E348CC199097F7E4CBF39D12FCDDB9E910C4500A393B7D81203C4FC4
311
9FD0DBA2FE11DAD8C0E87170DFF02052A007118D5383713CEA8D33B52DBE01504B01021400140006080800CE437548761CE9A4DA000000200100004F000000000000000000000000000000000032463339444139462D374542372D344143442D393543442D3938394533463436333344412F4173736574446174612F446566
311
696E6974696F6E4974657261746F7250726F706572746965732E62696E504B01021400140006080800CE437548838877C9120100003002000045000000000000000000000000004701000032463339444139462D374542372D344143442D393543442D3938394533463436333344412F4173736574446174612F496E737461
311
6E636550726F706572746965732E62696E504B01021400140006080800CE43754828BB58AF800100009E0500003D00000000000000000000000000BC02000032463339444139462D374542372D344143442D393543442D3938394533463436333344412F536368656D61732F436F6D6D6F6E536368656D612E786D6C504B01
311
021400140006080800CE4375482CCEBD668A040000E01200003E000000000000000000000000009704000032463339444139462D374542372D344143442D393543442D3938394533463436333344412F536368656D61732F47656E65726963536368656D612E786D6C504B01021400140006080800CE4375486180134D5F01
311
00006B03000045000000000000000000000000007D09000032463339444139462D374542372D344143442D393543442D3938394533463436333344412F536368656D61732F52656E6465724D6174657269616C536368656D612E786D6C504B01021400140006080800CE4375483522E5E25100000057000000470000000000
311
00000000000000003F0B000032463339444139462D374542372D344143442D393543442D3938394533463436333344412F4173736574446174612F41737365745461626C654F66436F6E74656E74732E62696E504B01021400140006080800CE437548F865834058000000680000004500000000000000000000000000F50B
311
000032463339444139462D374542372D344143442D393543442D3938394533463436333344412F4173736574446174612F53747265616D56657273696F6E5461626C652E696E66504B01021400140006080800CE437548C9759023340100009A0400003600000000000000000000000000B00C000032463339444139462D37
311
4542372D344143442D393543442D3938394533463436333344412F4173736574446174612F636E782E786D6C504B01021400140006080800CE43754883A3BAE9080100004F0300003400000000000000000000000000380E000032463339444139462D374542372D344143442D393543442D3938394533463436333344412F
311
536368656D61732F636E782E786D6C504B01021400140006080800CE437548410A3D5871000000A40000002C00000000000000000000000000920F000032463339444139462D374542372D344143442D393543442D3938394533463436333344412F636E782E786D6C504B01021400140006080800CE437548D8291F257E00
311
0000A300000007000000000000000000000000004D100000636E782E786D6C504B01021400140006080800CE43754816E99B5DA6000000350100001300000000000000000000000000F01000005B436F6E74656E745F54797065735D2E786D6C504B01021400140006080800CE4375483DEE336E64000000790000001B0000
311
0000000000000000000000C71100006175746F6465736B2D64657369676E2D7061636B6167652E786D6C504B01021400140006080800CE43754862C407D2F80000009601000037000000000000000000000000006412000032463339444139462D374542372D344143442D393543442D3938394533463436333344412F4173
311
736574446174612F636F72652E786D6C504B01021400140006080800CE4375485D8447E6F6000000940100003500000000000000000000000000B113000032463339444139462D374542372D344143442D393543442D3938394533463436333344412F536368656D61732F636F72652E786D6C504B01021400140006080800
311
CE437548DAE79C21FF000000D70100002D00000000000000000000000000FA14000032463339444139462D374542372D344143442D393543442D3938394533463436333344412F636F72652E786D6C504B01021400140006080800CE4375488CA6245006010000B2010000080000000000000000000000000044160000636F
311
72652E786D6C504B050600000000110011005A060000701700000000
310
504B0304140006080800CE437548000000000000000000000000370000006662782F39434434353045332D433632432D343836312D423438362D3943464236454142343030442F617474726962757465732E62696E504B0304140006080800CE437548000000000000000000000000350000006662782F3943443435304533
310
2D433632432D343836312D423438362D3943464236454142343030442F76657274696365732E62696E504B0304140006080800CE437548F270F1330600000004000000360000006662782F39434434353045332D433632432D343836312D423438362D3943464236454142343030442F747269616E676C65732E62696E6366
310
60600000504B0304140006080800CE43754851464CB48900000043010000360000006662782F39434434353045332D433632432D343836312D423438362D3943464236454142343030442F6469726563746F72792E786D6C9D8F310EC2300C45AF127987122606C71DD918B841D4B851A43646695A717C52A85029031293A5
310
A76FBF6FACEF7DA7264E43906840EF0FA03836E242F406C6DCEE4EA06AC22492573150D1F66C60C640E8938CB705396EEDD86DE9B5042FE27813D640EA63BB001C722AF6E55CB61E4863F58284D5D3F53DD715CE1C3985E63FD7F1B7EBDD617E9F1E504B0304140006080800CE4375480DF42F143C070000201C0000340000
310
006662782F39434434353045332D433632432D343836312D423438362D3943464236454142343030442F6F626A656374732E786D6CDD59596FDB3810FE2B84F665F74197AFD885E3C2B193C228D21635BAD837819669871BEA002525CEFEFA1D52A42C2AB2ADF400169B00B14391C3996FEED1F4FD2162E889F08C26F1B5E5
310
3B9E85481C265B1AEFAFAD22DFD9630BBD9FA1294F92BCB6CF42318EC8B52596ADD974CF9322554B5BB2C3056BAEDEDDFC85B290C4C44221C359766D65E10389B0838B3CD992ECD1D9E21C3BFBDDC1F19D72A34976CF71FAD0B82AC59CC439B00AEB3150511CF8E6BF20923B9BBA6283B1ADDF6D5BEFCC36570A6E324AE32C
310
C771F88AABC675BD135C35AEEBFB83E56D6F38B1878341DF1E8C7ABE7D7377B3B4FDABBEB7182D1693F9EDC442B3E9264958A58094C45BD0E28B35F3A7AE785289AF5068E33B4CE298840ACDB60D5BA2E8529235313180F5A568358594B2D616FA1D853FB1AD1328064B06DA5A38FD59B7DE64F337809075B1529E1161E559
310
CE41D70AFBD21FBCA95BAE1A7AA1198A704E38C50C31BAE1988382606BA920838CF016410A09CCA41635BD3AAF60D8977DA98DCB5DC198F05F6B263D2D007F24792639A3FF107EE4BE7E1BF004D21634CEC74AD8FC25051293A92B17CB67FD9E7A580289760CEFC15A404CB1A9DF6BE0B510B160B5B4661FEF3687B5880FED
310
97A73C4909CF85E54967567EA73558332D30BE0EA094B89ABA3BA2F215A0FF04C857BCA029688ED3C3E030D0B2731C67BB8447A01DE421DB833F1E125F5F7D9BBAD5E1194246AC3C8529B8ED4FC2D410C3B8BB06E96CFA04469FF0BE126E1D6206367D4F63E1E760288825B004F17EB73958B31504535884539881F4F03B75
310
C557041F251D88370D0DB585DF0E8AD20ED3F4B3A3AE3E80CD701A56AA32643C85EFF0A7E03B5FAE3FAE0BBEC321B9578EBD243B1AD31C92693B4306E886CB7F5B7D921EF981251BCC8EA78D4D215CB34F44DC6851CB5AA90549BD0027220D979A912BF714BC9D311C93A4C8D47A5B9C0A1396F060F312942EDC7AD79FDA06
310
CACB9401B4C63248EE21A7A9C0C49A296D5581D0A9090A1686B9B2C07DA9D56053446980A3A48845A87D6D8A4D3E20CE084B04AA929A366CEDB59AEC96EE764506C1AB95E4C20052F9B3265C5AF800E2581BBF9CEC3886249AC401851C0CCED27A83714105DE799E33C2760165AC88821D6590478208A727E87794A09EB91E
310
C9CB73C2B7AD044DCBD23EA96D4800AE80D520E96C55C67CA5534E9EA82833653ED3D9C0D8A1EA506B3638912E44A66801541B6369F8FEAD37582C06F6A83F828AE976E1D9F3E5CDD01EFBF3D17C7E371C5F8D8E5622113846AB7ABE03558A32C7F0BFFCA1883631A60C1E08B1F1367DF75E66CF6B1742A33BEC2DEE4677FD
310
A53D9F2C3D7B30F416F6F8EEEAC61E4D6E86A3C16270059CB89C6449C14392B93DD70BB449A6F1BE89DEE5180A65CDE564A7F5D514E67F1C439B39C150E27F35885656D95210760DA2E2683384E2F051A4A82084AAAFD57D1A41B4C9475B9C7B635CF69CBE277F7C7FD2F326BDF1645419FBD9402DEFF9E138D72641087D67
310
9107498A439AB727D4062E1DE3F49B728BD3F78708D0A9FE56979CCF33EA928046784F821D165D424B60BC24416B0EDBB324CB684C32D9E5BDAAFE1A343D078A2933E7B61821CD8288E4F87BEC4FB60D0D9B86D8CC02E847733111B858155406AD3A90531445F70B895BCAFF1264384A59D9E95EC2C0EF6908748FD3667182
310
6971C513D85B80F3C0DB1239B8B844BD625FD707AD5A6B529F7C37F913F0E8BAE617C2A3AFE85E3A39437F227EC610544643BF7FA51571092B7D552EFA385640E719BE04CF84EE1F3A159ADD74522BD9CAA23A2711B4B1382F78277F1D0DBD5717A9B8D07088DA4D6F2C0E65FFA63B38404F3670A7CADBDA355087D218E65C
310
9D04792545AB094B5DC8999E185DBDC1AFCF2ABB4EF587E3E52FAF98EBCE17C9E1CF651CA05A2E03B08A3E464DDD5A751BF550F68CF31002E95A7EDA37E0115BB23D366606B9B6125DD7A997AAE79508A8114C6CB188B3F7E20BFB8A41D5D03D67EE87B26873CBF595486C0E0CA78F7C184C9BB43E7F5837A8C04AE7D35F04
310
46E4B94141AD2E44377C86D4B7D5B1E76F5050127D5B9D39FE9FE828B4026B633498066709A33094275BB42709646F183B74E8367844329995C1785590D26F043A9C7E2A67AA39DE307D3A7CC0309866AA172B42188A42C6BCB6D43AFA0DC6A06212298753CE23B4612A8659A8E0F4DA028BCD29745BCE06C659727828A937
310
C695E0D838DE8B7C5F9EAAFE3F1E13E840543ACA55EDE9828B92CC7026286C53F99E00AABEF2C16CFAFDA26B7610CEE1EBA6C82B618E0B47691408FA8540291C4CFD1E15BC072828CECBE53B728F0149A7C9FC593B28A9DA39E67B395EAFE13D5F7E71C5647CF519A5ACD80B759EEB7E0D4AB6E8BA59514EA1A660184ACC14
310
8B1A72F1CEFDC21378C514A13B0A46807E3F8C477FB88B248A92B85C72E7EA45155A3FC06BA7ADAB477ED0C67BFED095530035D60F3638230EDE668FB000AAE554CC464B880D03A8A269CD00B446842EE098B17FB544AA36AA4D48EA6157C02367FA081C49BCCB116E53DF501B40822F0057F2E1F18B5E98BA1C86E0B37F01
310
504B0304140006080800CE43754845D14F3B3E01000046050000300000006662782F39434434353045332D433632432D343836312D423438362D3943464236454142343030442F636E782E786D6CCD94C16A032110865F65F1BEBA9B4009C135D0439FA087D29BEB4EB636AE2E3A96E6EDABA9495B4A4A0F81E426E33FF07F
310
333FC337EF93A9DEC007ED6C475ADA900AAC7283B66347226EEB15A936827BE7F09B8C54564ED0915C26828FDEC5B99406D8CA6872D568BB2B4589E8751F1102A99491217424A81798249511DD006147078992B6D44370D12B48FDA82728FDCA834418885834ED5DDD2CEB45FBD8ACD6CB66BD583D73969582F7CE99A2D716
310
C1BBB9522E3D6C32D37096BF058F5E174D2620E2CB19EDB5E52CFD0B1E925B3B161DEEE7AC9B67A395C43426E61402D6490472E2EC532C38CBBC3FA81FEE9F8E0EAA417B50E8FCFE4A0368CF0DE0648CA624FC8FFF20FC1BDBF5AF09F75ADB3E0B5B6C5D0CF598D690E2FA7BFF2945D28EE6F6427F3276F9CCA753825ADD1E
310
F2D1D78588D9E1E4A5A5E70B283E00504B0304140006080800CE437548B72CAE247E000000A30000000B0000006662782F636E782E786D6C4D8CD10A832018855F45FE7B375B4E0AD4486BEF11CB42663A5C8E3DFE7474B19BF3C1C73987779FCDA1B7892F1BBC80EA4400197F0FB3F5AB80B42FB801D4491E43D8FF6A80FC
310
B419014583E46B0CE979A8D92C5372C53AEB1F876CF540AF64ACB166178D69C32AAC72E256DF141B7B450919F2E25C2619BFBFCC722FBF504B0304140006080800CE437548A6D797065F0000008200000007000000636E782E786D6C4DCB3B0E80201045D1AD90E9FD7516806B51190811670C8A61F982B1B0BAC9C97B72CA
310
7B1037C6D3332918DA1E04D2CAC69353902EDB8C20262D23F3F59B81A079470595414B17391D1F19B4730A5583A7ED43BBE4025D9592775E5ADFFA01504B0304140006080800CE4375484FEB6A7CA0000000F4000000130000005B436F6E74656E745F54797065735D2E786D6C7D8F4B0EC2300C44AF1279DFA6B0400835ED
310
02B8011730C16D239A8F121795DB93D02D6269CFBC19BBED573B8B17C564BC53B0AB1B10E4B47F18372A5878A88E20FAAEBDBD032591BD2E299898C349CAA427B2986A1FC86565F0D122E7318E32A07EE24872DF3407A9BD63725C71C980AEBDD080CBCCE2BAE6F5D69B7110E7CD57AA146008B3D1C8F92C5954F993BB1BF7
310
87F39A89ABC491D09600F9FDA2FB00504B0304140006080800CE4375483DEE336E64000000790000001B0000006175746F6465736B2D64657369676E2D7061636B6167652E786D6C35CBC10E83200C00D05F21DCA56CA76D41FC96062B120735B69A7DBE268BB7777961F8D5AF396893C2ADB70FE7ADA196782C2DF776D7A9
310
7B5933C430F15651E5469C55D70F80A4992A3ADC954792C525AE70A1E4D6AD9816CC044FEFDF01FE3FDE907802504B0304140006080800CE4375485F7ED95AF9000000960100003B0000006662782F39434434353045332D433632432D343836312D423438362D3943464236454142343030442F7265736F75726365732F63
310
6F72652E786D6C8550CB6E833010FC15B477830D8442641C5549F3053DF566990DB112ECC88FAA9F5F3B50A93DF5B4ABD999D9DDE187AFE55E7CA2F3DA9A115849A140A3ECA4CD3C420C17D2437110DC591B7ED1A03072C111320C82CFCEC6C706296B029A8C1A3BE1064AEF3140A1EEA919C1AB2B2EB294312486BF950FA9
310
6E72C692952B4FF018F5B449F594DCF445A303319CBB61773A1EC9EBCBAE262DAD0732B0534BDA8E1DCFF4AD6D7ADAF22A8B050F7AF9D9AE1CCA8013889AB28ED086D4EC9DF6FB86EEEBFE83579929B80F2EFDBC2DCDDF8170E86D740A3DAFD6E91FD7F898FE778DDA84A6DE5C578507C1D291CF81E0554E29956784A9E644
310
C537504B0304140006080800CE437548D191DF1EF2000000B1010000310000006662782F39434434353045332D433632432D343836312D423438362D3943464236454142343030442F636F72652E786D6C8D504B6EC32014BC8AF5F6D860BB961361A2DA494FD0557708888B1283C5A7EAF10BB12BB5BB6C78689861E60D3D
310
7D2FF7E24B39AFAD198094180A658495DACC03C470453D1427469DB5E10F0D0AC31735408681D1D9D9B8EE90B02628935163A5DA41EEBD0A50887BBA0CE0C5A75A78C963480C7F2B572E6E7C562529371EA3412FBF52E1140F4A02AB31E9106E504DDE717F6CF0B1EE3F6895998CC6A8E56EA56572D757AD1CB0C3746E5FF0
310
A54153574FA8ED3B82C674A2C3F4367697D7B1C5F84CAB2C66D4079776DE3FC9DB3D2BDF84FF32C7553E91599BD0D4BBE1A6F0C048CAF37860B4CA05A6F16837CD5C36FB01504B0304140006080800CE4375486869B36A54010000DD0200000C0000006662782F636F72652E786D6C8D52DB8E832014FC15C33B8A9776B541
310
9A4DBBFD827DDA378AD4922A1804D3CF5FF012D787ED6E4C90CC3967E6CC047C7CB64D3070DD0B254B108708045C3255095997C09A1BCC417024582B657EB48140D29697C0C380E05A2BDBCD1053D270E951A92A3E83B4EFB901016BDCA5043DBBF39686D41AD7D13FC28EB207AD791887531FC1D68A6A1E1595631337C135
310
20C5655FECCEA7137C7FDB25304349018BF89CC16C1F9F2EE8234B7394E1C80F136C44BBA833CDA9E11520098AF710A530893F517E48D121C9BF70E43B09EE8D769E6751EF0E90DBF589A309DFF0D9AEFA9BCF0A69D264E69B267A4062B7DE582038F2F9B8DF18DE364327ECF233F4DA2C161E0E1A38334A67AE5229BB9606
310
DA58EEA851307E389AAA8E7924F88D2779C1F39AC3054565ED56A3C65DAFD678F5ED4E1DD77030CF402ADDD2665D6E5A713D57A18DA5659CA946E9FF4C2F56973023FF30C937504B0304140006080800CE437548714387A807010000B201000008000000636F72652E786D6C8D50C16E842014FC15F2EE28A86B75836C1AB7
310
FB053DF54685B564158CE0A6FDFBC24A93F6D6D32333F3DE0CC34E9FF384EE6A75DA9A0E684600293358A9CDD8C1E6AFB80174E26CB5D6FF92013262561D4418381B57BB2D091AACF1CA44D458A912289C531ED0308547076EF850B3C8C4E683C2DDB2450C3731AA8C66BB8E33AFE79FD56155C22B09BC20B4C6A4C4057D25
310
CDB124C7A27963795472B66D5A262B2D83BBBE6AB5026F2F757B38F73D7E7E3A14B822458B5B7AAE7055D3FE425EAAB22115CBE33267CEAFE1CFE948C8E99113F7E8CBF29DE2ECDDDA2909422889AC99BE80139647E24FE86D91FF08AD8D2F8B7470DF70C06908F42082716C308C47BD61C6B6F937504B0102140014000608
310
0800CE4375480000000000000000000000003700000000000000000000000000000000006662782F39434434353045332D433632432D343836312D423438362D3943464236454142343030442F617474726962757465732E62696E504B01021400140006080800CE4375480000000000000000000000003500000000000000
310
000000000000550000006662782F39434434353045332D433632432D343836312D423438362D3943464236454142343030442F76657274696365732E62696E504B01021400140006080800CE437548F270F13306000000040000003600000000000000000000000000A80000006662782F39434434353045332D433632432D
310
343836312D423438362D3943464236454142343030442F747269616E676C65732E62696E504B01021400140006080800CE43754851464CB489000000430100003600000000000000000000000000020100006662782F39434434353045332D433632432D343836312D423438362D3943464236454142343030442F64697265
310
63746F72792E786D6C504B01021400140006080800CE4375480DF42F143C070000201C00003400000000000000000000000000DF0100006662782F39434434353045332D433632432D343836312D423438362D3943464236454142343030442F6F626A656374732E786D6C504B01021400140006080800CE43754845D14F3B
310
3E0100004605000030000000000000000000000000006D0900006662782F39434434353045332D433632432D343836312D423438362D3943464236454142343030442F636E782E786D6C504B01021400140006080800CE437548B72CAE247E000000A30000000B00000000000000000000000000F90A00006662782F636E78
310
2E786D6C504B01021400140006080800CE437548A6D797065F000000820000000700000000000000000000000000A00B0000636E782E786D6C504B01021400140006080800CE4375484FEB6A7CA0000000F40000001300000000000000000000000000240C00005B436F6E74656E745F54797065735D2E786D6C504B010214
310
00140006080800CE4375483DEE336E64000000790000001B00000000000000000000000000F50C00006175746F6465736B2D64657369676E2D7061636B6167652E786D6C504B01021400140006080800CE4375485F7ED95AF9000000960100003B00000000000000000000000000920D00006662782F39434434353045332D
310
433632432D343836312D423438362D3943464236454142343030442F7265736F75726365732F636F72652E786D6C504B01021400140006080800CE437548D191DF1EF2000000B10100003100000000000000000000000000E40E00006662782F39434434353045332D433632432D343836312D423438362D39434642364541
310
42343030442F636F72652E786D6C504B01021400140006080800CE4375486869B36A54010000DD0200000C00000000000000000000000000251000006662782F636F72652E786D6C504B01021400140006080800CE437548714387A807010000B20100000800000000000000000000000000A3110000636F72652E786D6C50
310
4B0506000000000E000E0080040000D01200000000
  0
XRECORD
  5
5409
102
{ACAD_REACTORS
330
5404
102
}
330
5404
100
AcDbXrecord
280
     1
270
     1
271
     1
  0
XRECORD
  5
5408
102
{ACAD_REACTORS
330
5404
102
}
330
5404
100
AcDbXrecord
280
     1
270
     1
271
     1
  0
XRECORD
  5
540A
102
{ACAD_REACTORS
330
5404
102
}
330
5404
100
AcDbXrecord
280
     1
270
     1
271
     1
  0
XRECORD
  5
5407
102
{ACAD_REACTORS
330
5404
102
}
330
5404
100
AcDbXrecord
280
     1
270
     1
271
     1
  0
XRECORD
  5
CDF2
102
{ACAD_REACTORS
330
CDF1
102
}
330
CDF1
100
AcDbXrecord
280
     1
102
DISPLAYNAME
  1
Imperial24
102
FLAGS
 90
        0
  0
CELLSTYLEMAP
  5
CDB3
102
{ACAD_REACTORS
330
612D
102
}
330
612D
100
AcDbCellStyleMap
 90
        3
300
CELLSTYLE
  1
TABLEFORMAT_BEGIN
 90
        5
170
     1
 91
        0
 92
    32768
 62
   257
 93
        1
300
CONTENTFORMAT
  1
CONTENTFORMAT_BEGIN
 90
        0
 91
        0
 92
      512
 93
        0
300

 40
0.0
140
1.0
 94
        5
 62
     0
340
11
144
0.25
309
CONTENTFORMAT_END
171
     1
301
MARGIN
  1
CELLMARGIN_BEGIN
 40
0.06
 40
0.06
 40
0.06
 40
0.06
 40
0.18
 40
0.18
309
CELLMARGIN_END
 94
        6
 95
        1
302
GRIDFORMAT
  1
GRIDFORMAT_BEGIN
 90
        0
 91
        1
 62
     0
 92
       -2
340
0
 93
        0
 40
0.045
309
GRIDFORMAT_END
 95
        2
302
GRIDFORMAT
  1
GRIDFORMAT_BEGIN
 90
        0
 91
        1
 62
     0
 92
       -2
340
0
 93
        0
 40
0.045
309
GRIDFORMAT_END
 95
        4
302
GRIDFORMAT
  1
GRIDFORMAT_BEGIN
 90
        0
 91
        1
 62
     0
 92
       -2
340
0
 93
        0
 40
0.045
309
GRIDFORMAT_END
 95
        8
302
GRIDFORMAT
  1
GRIDFORMAT_BEGIN
 90
        0
 91
        1
 62
     0
 92
       -2
340
0
 93
        0
 40
0.045
309
GRIDFORMAT_END
 95
       16
302
GRIDFORMAT
  1
GRIDFORMAT_BEGIN
 90
        0
 91
        1
 62
     0
 92
       -2
340
0
 93
        0
 40
0.045
309
GRIDFORMAT_END
 95
       32
302
GRIDFORMAT
  1
GRIDFORMAT_BEGIN
 90
        0
 91
        1
 62
     0
 92
       -2
340
0
 93
        0
 40
0.045
309
GRIDFORMAT_END
309
TABLEFORMAT_END
  1
CELLSTYLE_BEGIN
 90
        1
 91
        1
300
_TITLE
309
CELLSTYLE_END
300
CELLSTYLE
  1
TABLEFORMAT_BEGIN
 90
        5
170
     1
 91
        0
 92
        0
 62
   257
 93
        1
300
CONTENTFORMAT
  1
CONTENTFORMAT_BEGIN
 90
        0
 91
        0
 92
      512
 93
        0
300

 40
0.0
140
1.0
 94
        5
 62
     0
340
11
144
0.18
309
CONTENTFORMAT_END
171
     1
301
MARGIN
  1
CELLMARGIN_BEGIN
 40
0.06
 40
0.06
 40
0.06
 40
0.06
 40
0.18
 40
0.18
309
CELLMARGIN_END
 94
        6
 95
        1
302
GRIDFORMAT
  1
GRIDFORMAT_BEGIN
 90
        0
 91
        1
 62
     0
 92
       -2
340
0
 93
        0
 40
0.045
309
GRIDFORMAT_END
 95
        2
302
GRIDFORMAT
  1
GRIDFORMAT_BEGIN
 90
        0
 91
        1
 62
     0
 92
       -2
340
0
 93
        0
 40
0.045
309
GRIDFORMAT_END
 95
        4
302
GRIDFORMAT
  1
GRIDFORMAT_BEGIN
 90
        0
 91
        1
 62
     0
 92
       -2
340
0
 93
        0
 40
0.045
309
GRIDFORMAT_END
 95
        8
302
GRIDFORMAT
  1
GRIDFORMAT_BEGIN
 90
        0
 91
        1
 62
     0
 92
       -2
340
0
 93
        0
 40
0.045
309
GRIDFORMAT_END
 95
       16
302
GRIDFORMAT
  1
GRIDFORMAT_BEGIN
 90
        0
 91
        1
 62
     0
 92
       -2
340
0
 93
        0
 40
0.045
309
GRIDFORMAT_END
 95
       32
302
GRIDFORMAT
  1
GRIDFORMAT_BEGIN
 90
        0
 91
        1
 62
     0
 92
       -2
340
0
 93
        0
 40
0.045
309
GRIDFORMAT_END
309
TABLEFORMAT_END
  1
CELLSTYLE_BEGIN
 90
        2
 91
        1
300
_HEADER
309
CELLSTYLE_END
300
CELLSTYLE
  1
TABLEFORMAT_BEGIN
 90
        5
170
     1
 91
        0
 92
        0
 62
   257
 93
        1
300
CONTENTFORMAT
  1
CONTENTFORMAT_BEGIN
 90
        0
 91
        0
 92
      512
 93
        0
300

 40
0.0
140
1.0
 94
        2
 62
     0
340
11
144
0.18
309
CONTENTFORMAT_END
171
     1
301
MARGIN
  1
CELLMARGIN_BEGIN
 40
0.06
 40
0.06
 40
0.06
 40
0.06
 40
0.18
 40
0.18
309
CELLMARGIN_END
 94
        6
 95
        1
302
GRIDFORMAT
  1
GRIDFORMAT_BEGIN
 90
        0
 91
        1
 62
     0
 92
       -2
340
0
 93
        0
 40
0.045
309
GRIDFORMAT_END
 95
        2
302
GRIDFORMAT
  1
GRIDFORMAT_BEGIN
 90
        0
 91
        1
 62
     0
 92
       -2
340
0
 93
        0
 40
0.045
309
GRIDFORMAT_END
 95
        4
302
GRIDFORMAT
  1
GRIDFORMAT_BEGIN
 90
        0
 91
        1
 62
     0
 92
       -2
340
0
 93
        0
 40
0.045
309
GRIDFORMAT_END
 95
        8
302
GRIDFORMAT
  1
GRIDFORMAT_BEGIN
 90
        0
 91
        1
 62
     0
 92
       -2
340
0
 93
        0
 40
0.045
309
GRIDFORMAT_END
 95
       16
302
GRIDFORMAT
  1
GRIDFORMAT_BEGIN
 90
        0
 91
        1
 62
     0
 92
       -2
340
0
 93
        0
 40
0.045
309
GRIDFORMAT_END
 95
       32
302
GRIDFORMAT
  1
GRIDFORMAT_BEGIN
 90
        0
 91
        1
 62
     0
 92
       -2
340
0
 93
        0
 40
0.045
309
GRIDFORMAT_END
309
TABLEFORMAT_END
  1
CELLSTYLE_BEGIN
 90
        3
 91
        2
300
_DATA
309
CELLSTYLE_END
  0
XRECORD
  5
CDC8
102
{ACAD_REACTORS
330
CDC7
102
}
330
CDC7
100
AcDbXrecord
280
     1
102
RTVSPost2010Prop28
280
     1
102
RTVSPost2010PropOp28
 70
     1
102
RTVSPost2010Prop29
280
     1
102
RTVSPost2010PropOp29
 70
     1
102
RTVSPost2010Prop30
280
     0
102
RTVSPost2010PropOp30
 70
     1
102
RTVSPost2010Prop31
280
     0
102
RTVSPost2010PropOp31
 70
     1
102
RTVSPost2010Prop32
280
     0
102
RTVSPost2010PropOp32
 70
     1
102
RTVSPost2010Prop33
280
     0
102
RTVSPost2010PropOp33
 70
     1
102
RTVSPost2010Prop34
280
     0
102
RTVSPost2010PropOp34
 70
     1
102
RTVSPost2010Prop35
280
     0
102
RTVSPost2010PropOp35
 70
     1
102
RTVSPost2010Prop36
280
     0
102
RTVSPost2010PropOp36
 70
     1
102
RTVSPost2010Prop37
 90
       50
102
RTVSPost2010PropOp37
 70
     1
102
RTVSPost2010Prop38
140
0.0
102
RTVSPost2010PropOp38
 70
     1
102
RTVSPost2010Prop39
140
1.0
102
RTVSPost2010PropOp39
 70
     1
102
RTVSPost2010Prop40
 90
        0
102
RTVSPost2010PropOp40
 70
     1
102
RTVSPost2010Prop41ColorIndex
 90
       18
102
RTVSPost2010Prop41ColorRGB
 90
-16777216
102
RTVSPost2010PropOp41
 70
     1
102
RTVSPost2010Prop42
 90
       50
102
RTVSPost2010PropOp42
 70
     1
102
RTVSPost2010Prop43
 90
        3
102
RTVSPost2010PropOp43
 70
     1
102
RTVSPost2010Prop44ColorIndex
 90
        5
102
RTVSPost2010Prop44ColorRGB
 90
      255
102
RTVSPost2010PropOp44
 70
     1
102
RTVSPost2010Prop45
280
     0
102
RTVSPost2010PropOp45
 70
     1
102
RTVSPost2010Prop46
 90
       50
102
RTVSPost2010PropOp46
 70
     1
102
RTVSPost2010Prop47
 90
       50
102
RTVSPost2010PropOp47
 70
     1
102
RTVSPost2010Prop48
 90
       50
102
RTVSPost2010PropOp48
 70
     1
102
RTVSPost2010Prop49
280
     0
102
RTVSPost2010PropOp49
 70
     1
102
RTVSPost2010Prop50
 90
       50
102
RTVSPost2010PropOp50
 70
     1
102
RTVSPost2010Prop51ColorIndex
 90
      256
102
RTVSPost2010Prop51ColorRGB
 90
-16777216
102
RTVSPost2010PropOp51
 70
     0
102
RTVSPost2010Prop52
140
1.0
102
RTVSPost2010PropOp52
 70
     0
102
RTVSPost2010Prop53
 90
        2
102
RTVSPost2010PropOp53
 70
     1
102
RTVSPost2010Prop54
  1
strokes_ogs.tif
102
RTVSPost2010PropOp54
 70
     1
102
RTVSPost2010Prop55
280
     0
102
RTVSPost2010PropOp55
 70
     1
102
RTVSPost2010Prop56
140
1.0
102
RTVSPost2010PropOp56
 70
     1
102
RTVSPost2010Prop57
140
1.0
102
RTVSPost2010PropOp57
 70
     1
  0
XRECORD
  5
CDCC
102
{ACAD_REACTORS
330
CDCB
102
}
330
CDCB
100
AcDbXrecord
280
     1
102
RTVSPost2010Prop28
280
     0
102
RTVSPost2010PropOp28
 70
     1
102
RTVSPost2010Prop29
280
     1
102
RTVSPost2010PropOp29
 70
     1
102
RTVSPost2010Prop30
280
     1
102
RTVSPost2010PropOp30
 70
     1
102
RTVSPost2010Prop31
280
     0
102
RTVSPost2010PropOp31
 70
     1
102
RTVSPost2010Prop32
280
     0
102
RTVSPost2010PropOp32
 70
     1
102
RTVSPost2010Prop33
280
     0
102
RTVSPost2010PropOp33
 70
     1
102
RTVSPost2010Prop34
280
     0
102
RTVSPost2010PropOp34
 70
     1
102
RTVSPost2010Prop35
280
     0
102
RTVSPost2010PropOp35
 70
     1
102
RTVSPost2010Prop36
280
     0
102
RTVSPost2010PropOp36
 70
     1
102
RTVSPost2010Prop37
 90
       50
102
RTVSPost2010PropOp37
 70
     1
102
RTVSPost2010Prop38
140
0.0
102
RTVSPost2010PropOp38
 70
     1
102
RTVSPost2010Prop39
140
1.0
102
RTVSPost2010PropOp39
 70
     1
102
RTVSPost2010Prop40
 90
        0
102
RTVSPost2010PropOp40
 70
     1
102
RTVSPost2010Prop41ColorIndex
 90
       18
102
RTVSPost2010Prop41ColorRGB
 90
-16777216
102
RTVSPost2010PropOp41
 70
     1
102
RTVSPost2010Prop42
 90
       50
102
RTVSPost2010PropOp42
 70
     1
102
RTVSPost2010Prop43
 90
        3
102
RTVSPost2010PropOp43
 70
     1
102
RTVSPost2010Prop44ColorIndex
 90
        5
102
RTVSPost2010Prop44ColorRGB
 90
      255
102
RTVSPost2010PropOp44
 70
     1
102
RTVSPost2010Prop45
280
     0
102
RTVSPost2010PropOp45
 70
     1
102
RTVSPost2010Prop46
 90
       50
102
RTVSPost2010PropOp46
 70
     1
102
RTVSPost2010Prop47
 90
       50
102
RTVSPost2010PropOp47
 70
     1
102
RTVSPost2010Prop48
 90
       50
102
RTVSPost2010PropOp48
 70
     1
102
RTVSPost2010Prop49
280
     0
102
RTVSPost2010PropOp49
 70
     1
102
RTVSPost2010Prop50
 90
       50
102
RTVSPost2010PropOp50
 70
     1
102
RTVSPost2010Prop51ColorIndex
 90
      256
102
RTVSPost2010Prop51ColorRGB
 90
-16777216
102
RTVSPost2010PropOp51
 70
     0
102
RTVSPost2010Prop52
140
1.0
102
RTVSPost2010PropOp52
 70
     0
102
RTVSPost2010Prop53
 90
        2
102
RTVSPost2010PropOp53
 70
     1
102
RTVSPost2010Prop54
  1
strokes_ogs.tif
102
RTVSPost2010PropOp54
 70
     1
102
RTVSPost2010Prop55
280
     0
102
RTVSPost2010PropOp55
 70
     1
102
RTVSPost2010Prop56
140
1.0
102
RTVSPost2010PropOp56
 70
     1
102
RTVSPost2010Prop57
140
1.0
102
RTVSPost2010PropOp57
 70
     1
  0
XRECORD
  5
CDCA
102
{ACAD_REACTORS
330
CDC9
102
}
330
CDC9
100
AcDbXrecord
280
     1
102
RTVSPost2010Prop28
280
     0
102
RTVSPost2010PropOp28
 70
     1
102
RTVSPost2010Prop29
280
     1
102
RTVSPost2010PropOp29
 70
     1
102
RTVSPost2010Prop30
280
     1
102
RTVSPost2010PropOp30
 70
     1
102
RTVSPost2010Prop31
280
     0
102
RTVSPost2010PropOp31
 70
     1
102
RTVSPost2010Prop32
280
     0
102
RTVSPost2010PropOp32
 70
     1
102
RTVSPost2010Prop33
280
     0
102
RTVSPost2010PropOp33
 70
     1
102
RTVSPost2010Prop34
280
     0
102
RTVSPost2010PropOp34
 70
     1
102
RTVSPost2010Prop35
280
     0
102
RTVSPost2010PropOp35
 70
     1
102
RTVSPost2010Prop36
280
     0
102
RTVSPost2010PropOp36
 70
     1
102
RTVSPost2010Prop37
 90
       50
102
RTVSPost2010PropOp37
 70
     1
102
RTVSPost2010Prop38
140
0.0
102
RTVSPost2010PropOp38
 70
     1
102
RTVSPost2010Prop39
140
1.0
102
RTVSPost2010PropOp39
 70
     1
102
RTVSPost2010Prop40
 90
        0
102
RTVSPost2010PropOp40
 70
     1
102
RTVSPost2010Prop41ColorIndex
 90
       18
102
RTVSPost2010Prop41ColorRGB
 90
-16777216
102
RTVSPost2010PropOp41
 70
     1
102
RTVSPost2010Prop42
 90
       50
102
RTVSPost2010PropOp42
 70
     1
102
RTVSPost2010Prop43
 90
        3
102
RTVSPost2010PropOp43
 70
     1
102
RTVSPost2010Prop44ColorIndex
 90
        5
102
RTVSPost2010Prop44ColorRGB
 90
      255
102
RTVSPost2010PropOp44
 70
     1
102
RTVSPost2010Prop45
280
     0
102
RTVSPost2010PropOp45
 70
     1
102
RTVSPost2010Prop46
 90
       50
102
RTVSPost2010PropOp46
 70
     1
102
RTVSPost2010Prop47
 90
       50
102
RTVSPost2010PropOp47
 70
     1
102
RTVSPost2010Prop48
 90
       50
102
RTVSPost2010PropOp48
 70
     1
102
RTVSPost2010Prop49
280
     0
102
RTVSPost2010PropOp49
 70
     1
102
RTVSPost2010Prop50
 90
       50
102
RTVSPost2010PropOp50
 70
     1
102
RTVSPost2010Prop51ColorIndex
 90
      256
102
RTVSPost2010Prop51ColorRGB
 90
-16777216
102
RTVSPost2010PropOp51
 70
     0
102
RTVSPost2010Prop52
140
1.0
102
RTVSPost2010PropOp52
 70
     0
102
RTVSPost2010Prop53
 90
        2
102
RTVSPost2010PropOp53
 70
     1
102
RTVSPost2010Prop54
  1
strokes_ogs.tif
102
RTVSPost2010PropOp54
 70
     1
102
RTVSPost2010Prop55
280
     0
102
RTVSPost2010PropOp55
 70
     1
102
RTVSPost2010Prop56
140
1.0
102
RTVSPost2010PropOp56
 70
     1
102
RTVSPost2010Prop57
140
1.0
102
RTVSPost2010PropOp57
 70
     1
  0
XRECORD
  5
CDC6
102
{ACAD_REACTORS
330
CDC5
102
}
330
CDC5
100
AcDbXrecord
280
     1
102
RTVSPost2010Prop28
280
     0
102
RTVSPost2010PropOp28
 70
     1
102
RTVSPost2010Prop29
280
     1
102
RTVSPost2010PropOp29
 70
     1
102
RTVSPost2010Prop30
280
     1
102
RTVSPost2010PropOp30
 70
     1
102
RTVSPost2010Prop31
280
     0
102
RTVSPost2010PropOp31
 70
     1
102
RTVSPost2010Prop32
280
     0
102
RTVSPost2010PropOp32
 70
     1
102
RTVSPost2010Prop33
280
     0
102
RTVSPost2010PropOp33
 70
     1
102
RTVSPost2010Prop34
280
     0
102
RTVSPost2010PropOp34
 70
     1
102
RTVSPost2010Prop35
280
     0
102
RTVSPost2010PropOp35
 70
     1
102
RTVSPost2010Prop36
280
     0
102
RTVSPost2010PropOp36
 70
     1
102
RTVSPost2010Prop37
 90
       50
102
RTVSPost2010PropOp37
 70
     1
102
RTVSPost2010Prop38
140
0.0
102
RTVSPost2010PropOp38
 70
     1
102
RTVSPost2010Prop39
140
1.0
102
RTVSPost2010PropOp39
 70
     1
102
RTVSPost2010Prop40
 90
        0
102
RTVSPost2010PropOp40
 70
     1
102
RTVSPost2010Prop41ColorIndex
 90
       18
102
RTVSPost2010Prop41ColorRGB
 90
-16777216
102
RTVSPost2010PropOp41
 70
     1
102
RTVSPost2010Prop42
 90
       50
102
RTVSPost2010PropOp42
 70
     1
102
RTVSPost2010Prop43
 90
        3
102
RTVSPost2010PropOp43
 70
     1
102
RTVSPost2010Prop44ColorIndex
 90
        5
102
RTVSPost2010Prop44ColorRGB
 90
      255
102
RTVSPost2010PropOp44
 70
     1
102
RTVSPost2010Prop45
280
     0
102
RTVSPost2010PropOp45
 70
     1
102
RTVSPost2010Prop46
 90
       50
102
RTVSPost2010PropOp46
 70
     1
102
RTVSPost2010Prop47
 90
       50
102
RTVSPost2010PropOp47
 70
     1
102
RTVSPost2010Prop48
 90
       50
102
RTVSPost2010PropOp48
 70
     1
102
RTVSPost2010Prop49
280
     0
102
RTVSPost2010PropOp49
 70
     1
102
RTVSPost2010Prop50
 90
       50
102
RTVSPost2010PropOp50
 70
     1
102
RTVSPost2010Prop51ColorIndex
 90
      256
102
RTVSPost2010Prop51ColorRGB
 90
-16777216
102
RTVSPost2010PropOp51
 70
     0
102
RTVSPost2010Prop52
140
1.0
102
RTVSPost2010PropOp52
 70
     0
102
RTVSPost2010Prop53
 90
        2
102
RTVSPost2010PropOp53
 70
     1
102
RTVSPost2010Prop54
  1
strokes_ogs.tif
102
RTVSPost2010PropOp54
 70
     1
102
RTVSPost2010Prop55
280
     0
102
RTVSPost2010PropOp55
 70
     1
102
RTVSPost2010Prop56
140
1.0
102
RTVSPost2010PropOp56
 70
     1
102
RTVSPost2010Prop57
140
1.0
102
RTVSPost2010PropOp57
 70
     1
  0
XRECORD
  5
CDD4
102
{ACAD_REACTORS
330
CDD3
102
}
330
CDD3
100
AcDbXrecord
280
     1
102
RTVSPost2010Prop28
280
     0
102
RTVSPost2010PropOp28
 70
     1
102
RTVSPost2010Prop29
280
     1
102
RTVSPost2010PropOp29
 70
     1
102
RTVSPost2010Prop30
280
     1
102
RTVSPost2010PropOp30
 70
     1
102
RTVSPost2010Prop31
280
     0
102
RTVSPost2010PropOp31
 70
     1
102
RTVSPost2010Prop32
280
     0
102
RTVSPost2010PropOp32
 70
     1
102
RTVSPost2010Prop33
280
     0
102
RTVSPost2010PropOp33
 70
     1
102
RTVSPost2010Prop34
280
     0
102
RTVSPost2010PropOp34
 70
     1
102
RTVSPost2010Prop35
280
     0
102
RTVSPost2010PropOp35
 70
     1
102
RTVSPost2010Prop36
280
     0
102
RTVSPost2010PropOp36
 70
     1
102
RTVSPost2010Prop37
 90
       50
102
RTVSPost2010PropOp37
 70
     1
102
RTVSPost2010Prop38
140
0.0
102
RTVSPost2010PropOp38
 70
     1
102
RTVSPost2010Prop39
140
1.0
102
RTVSPost2010PropOp39
 70
     1
102
RTVSPost2010Prop40
 90
        0
102
RTVSPost2010PropOp40
 70
     1
102
RTVSPost2010Prop41ColorIndex
 90
       18
102
RTVSPost2010Prop41ColorRGB
 90
-16777216
102
RTVSPost2010PropOp41
 70
     1
102
RTVSPost2010Prop42
 90
       50
102
RTVSPost2010PropOp42
 70
     1
102
RTVSPost2010Prop43
 90
        3
102
RTVSPost2010PropOp43
 70
     1
102
RTVSPost2010Prop44ColorIndex
 90
        5
102
RTVSPost2010Prop44ColorRGB
 90
      255
102
RTVSPost2010PropOp44
 70
     1
102
RTVSPost2010Prop45
280
     0
102
RTVSPost2010PropOp45
 70
     1
102
RTVSPost2010Prop46
 90
       50
102
RTVSPost2010PropOp46
 70
     1
102
RTVSPost2010Prop47
 90
       50
102
RTVSPost2010PropOp47
 70
     1
102
RTVSPost2010Prop48
 90
       50
102
RTVSPost2010PropOp48
 70
     1
102
RTVSPost2010Prop49
280
     0
102
RTVSPost2010PropOp49
 70
     1
102
RTVSPost2010Prop50
 90
       50
102
RTVSPost2010PropOp50
 70
     1
102
RTVSPost2010Prop51ColorIndex
 90
      256
102
RTVSPost2010Prop51ColorRGB
 90
-16777216
102
RTVSPost2010PropOp51
 70
     0
102
RTVSPost2010Prop52
140
1.0
102
RTVSPost2010PropOp52
 70
     0
102
RTVSPost2010Prop53
 90
        2
102
RTVSPost2010PropOp53
 70
     1
102
RTVSPost2010Prop54
  1
strokes_ogs.tif
102
RTVSPost2010PropOp54
 70
     1
102
RTVSPost2010Prop55
280
     0
102
RTVSPost2010PropOp55
 70
     1
102
RTVSPost2010Prop56
140
1.0
102
RTVSPost2010PropOp56
 70
     1
102
RTVSPost2010Prop57
140
1.0
102
RTVSPost2010PropOp57
 70
     1
  0
XRECORD
  5
CDDC
102
{ACAD_REACTORS
330
CDDB
102
}
330
CDDB
100
AcDbXrecord
280
     1
102
RTVSPost2010Prop28
280
     0
102
RTVSPost2010PropOp28
 70
     1
102
RTVSPost2010Prop29
280
     1
102
RTVSPost2010PropOp29
 70
     1
102
RTVSPost2010Prop30
280
     1
102
RTVSPost2010PropOp30
 70
     1
102
RTVSPost2010Prop31
280
     0
102
RTVSPost2010PropOp31
 70
     1
102
RTVSPost2010Prop32
280
     0
102
RTVSPost2010PropOp32
 70
     1
102
RTVSPost2010Prop33
280
     0
102
RTVSPost2010PropOp33
 70
     1
102
RTVSPost2010Prop34
280
     0
102
RTVSPost2010PropOp34
 70
     1
102
RTVSPost2010Prop35
280
     0
102
RTVSPost2010PropOp35
 70
     1
102
RTVSPost2010Prop36
280
     0
102
RTVSPost2010PropOp36
 70
     1
102
RTVSPost2010Prop37
 90
       50
102
RTVSPost2010PropOp37
 70
     1
102
RTVSPost2010Prop38
140
0.0
102
RTVSPost2010PropOp38
 70
     1
102
RTVSPost2010Prop39
140
1.0
102
RTVSPost2010PropOp39
 70
     1
102
RTVSPost2010Prop40
 90
        0
102
RTVSPost2010PropOp40
 70
     1
102
RTVSPost2010Prop41ColorIndex
 90
       18
102
RTVSPost2010Prop41ColorRGB
 90
-16777216
102
RTVSPost2010PropOp41
 70
     1
102
RTVSPost2010Prop42
 90
       50
102
RTVSPost2010PropOp42
 70
     1
102
RTVSPost2010Prop43
 90
        3
102
RTVSPost2010PropOp43
 70
     1
102
RTVSPost2010Prop44ColorIndex
 90
        5
102
RTVSPost2010Prop44ColorRGB
 90
      255
102
RTVSPost2010PropOp44
 70
     1
102
RTVSPost2010Prop45
280
     0
102
RTVSPost2010PropOp45
 70
     1
102
RTVSPost2010Prop46
 90
       50
102
RTVSPost2010PropOp46
 70
     1
102
RTVSPost2010Prop47
 90
       50
102
RTVSPost2010PropOp47
 70
     1
102
RTVSPost2010Prop48
 90
       50
102
RTVSPost2010PropOp48
 70
     1
102
RTVSPost2010Prop49
280
     0
102
RTVSPost2010PropOp49
 70
     1
102
RTVSPost2010Prop50
 90
       50
102
RTVSPost2010PropOp50
 70
     1
102
RTVSPost2010Prop51ColorIndex
 90
      256
102
RTVSPost2010Prop51ColorRGB
 90
-16777216
102
RTVSPost2010PropOp51
 70
     0
102
RTVSPost2010Prop52
140
1.0
102
RTVSPost2010PropOp52
 70
     0
102
RTVSPost2010Prop53
 90
        2
102
RTVSPost2010PropOp53
 70
     1
102
RTVSPost2010Prop54
  1
strokes_ogs.tif
102
RTVSPost2010PropOp54
 70
     1
102
RTVSPost2010Prop55
280
     0
102
RTVSPost2010PropOp55
 70
     1
102
RTVSPost2010Prop56
140
1.0
102
RTVSPost2010PropOp56
 70
     1
102
RTVSPost2010Prop57
140
1.0
102
RTVSPost2010PropOp57
 70
     1
  0
XRECORD
  5
CDCE
102
{ACAD_REACTORS
330
CDCD
102
}
330
CDCD
100
AcDbXrecord
280
     1
102
RTVSPost2010Prop28
280
     0
102
RTVSPost2010PropOp28
 70
     1
102
RTVSPost2010Prop29
280
     1
102
RTVSPost2010PropOp29
 70
     1
102
RTVSPost2010Prop30
280
     1
102
RTVSPost2010PropOp30
 70
     1
102
RTVSPost2010Prop31
280
     0
102
RTVSPost2010PropOp31
 70
     1
102
RTVSPost2010Prop32
280
     0
102
RTVSPost2010PropOp32
 70
     1
102
RTVSPost2010Prop33
280
     0
102
RTVSPost2010PropOp33
 70
     1
102
RTVSPost2010Prop34
280
     0
102
RTVSPost2010PropOp34
 70
     1
102
RTVSPost2010Prop35
280
     0
102
RTVSPost2010PropOp35
 70
     1
102
RTVSPost2010Prop36
280
     0
102
RTVSPost2010PropOp36
 70
     1
102
RTVSPost2010Prop37
 90
       50
102
RTVSPost2010PropOp37
 70
     1
102
RTVSPost2010Prop38
140
0.0
102
RTVSPost2010PropOp38
 70
     1
102
RTVSPost2010Prop39
140
1.0
102
RTVSPost2010PropOp39
 70
     1
102
RTVSPost2010Prop40
 90
        0
102
RTVSPost2010PropOp40
 70
     1
102
RTVSPost2010Prop41ColorIndex
 90
       18
102
RTVSPost2010Prop41ColorRGB
 90
-16777216
102
RTVSPost2010PropOp41
 70
     1
102
RTVSPost2010Prop42
 90
       50
102
RTVSPost2010PropOp42
 70
     1
102
RTVSPost2010Prop43
 90
        3
102
RTVSPost2010PropOp43
 70
     1
102
RTVSPost2010Prop44ColorIndex
 90
        5
102
RTVSPost2010Prop44ColorRGB
 90
      255
102
RTVSPost2010PropOp44
 70
     1
102
RTVSPost2010Prop45
280
     0
102
RTVSPost2010PropOp45
 70
     1
102
RTVSPost2010Prop46
 90
       50
102
RTVSPost2010PropOp46
 70
     1
102
RTVSPost2010Prop47
 90
       50
102
RTVSPost2010PropOp47
 70
     1
102
RTVSPost2010Prop48
 90
       50
102
RTVSPost2010PropOp48
 70
     1
102
RTVSPost2010Prop49
280
     0
102
RTVSPost2010PropOp49
 70
     1
102
RTVSPost2010Prop50
 90
       50
102
RTVSPost2010PropOp50
 70
     1
102
RTVSPost2010Prop51ColorIndex
 90
      256
102
RTVSPost2010Prop51ColorRGB
 90
-16777216
102
RTVSPost2010PropOp51
 70
     0
102
RTVSPost2010Prop52
140
1.0
102
RTVSPost2010PropOp52
 70
     0
102
RTVSPost2010Prop53
 90
        2
102
RTVSPost2010PropOp53
 70
     1
102
RTVSPost2010Prop54
  1
strokes_ogs.tif
102
RTVSPost2010PropOp54
 70
     1
102
RTVSPost2010Prop55
280
     0
102
RTVSPost2010PropOp55
 70
     1
102
RTVSPost2010Prop56
140
1.0
102
RTVSPost2010PropOp56
 70
     1
102
RTVSPost2010Prop57
140
1.0
102
RTVSPost2010PropOp57
 70
     1
  0
XRECORD
  5
CDD2
102
{ACAD_REACTORS
330
CDD1
102
}
330
CDD1
100
AcDbXrecord
280
     1
102
RTVSPost2010Prop28
280
     0
102
RTVSPost2010PropOp28
 70
     1
102
RTVSPost2010Prop29
280
     1
102
RTVSPost2010PropOp29
 70
     1
102
RTVSPost2010Prop30
280
     1
102
RTVSPost2010PropOp30
 70
     1
102
RTVSPost2010Prop31
280
     0
102
RTVSPost2010PropOp31
 70
     1
102
RTVSPost2010Prop32
280
     0
102
RTVSPost2010PropOp32
 70
     1
102
RTVSPost2010Prop33
280
     0
102
RTVSPost2010PropOp33
 70
     1
102
RTVSPost2010Prop34
280
     0
102
RTVSPost2010PropOp34
 70
     1
102
RTVSPost2010Prop35
280
     0
102
RTVSPost2010PropOp35
 70
     1
102
RTVSPost2010Prop36
280
     0
102
RTVSPost2010PropOp36
 70
     1
102
RTVSPost2010Prop37
 90
       50
102
RTVSPost2010PropOp37
 70
     1
102
RTVSPost2010Prop38
140
0.0
102
RTVSPost2010PropOp38
 70
     1
102
RTVSPost2010Prop39
140
1.0
102
RTVSPost2010PropOp39
 70
     1
102
RTVSPost2010Prop40
 90
        0
102
RTVSPost2010PropOp40
 70
     1
102
RTVSPost2010Prop41ColorIndex
 90
       18
102
RTVSPost2010Prop41ColorRGB
 90
-16777216
102
RTVSPost2010PropOp41
 70
     1
102
RTVSPost2010Prop42
 90
       50
102
RTVSPost2010PropOp42
 70
     1
102
RTVSPost2010Prop43
 90
        3
102
RTVSPost2010PropOp43
 70
     1
102
RTVSPost2010Prop44ColorIndex
 90
        5
102
RTVSPost2010Prop44ColorRGB
 90
      255
102
RTVSPost2010PropOp44
 70
     1
102
RTVSPost2010Prop45
280
     0
102
RTVSPost2010PropOp45
 70
     1
102
RTVSPost2010Prop46
 90
       50
102
RTVSPost2010PropOp46
 70
     1
102
RTVSPost2010Prop47
 90
       50
102
RTVSPost2010PropOp47
 70
     1
102
RTVSPost2010Prop48
 90
       50
102
RTVSPost2010PropOp48
 70
     1
102
RTVSPost2010Prop49
280
     0
102
RTVSPost2010PropOp49
 70
     1
102
RTVSPost2010Prop50
 90
       50
102
RTVSPost2010PropOp50
 70
     1
102
RTVSPost2010Prop51ColorIndex
 90
      256
102
RTVSPost2010Prop51ColorRGB
 90
-16777216
102
RTVSPost2010PropOp51
 70
     0
102
RTVSPost2010Prop52
140
1.0
102
RTVSPost2010PropOp52
 70
     0
102
RTVSPost2010Prop53
 90
        2
102
RTVSPost2010PropOp53
 70
     1
102
RTVSPost2010Prop54
  1
strokes_ogs.tif
102
RTVSPost2010PropOp54
 70
     1
102
RTVSPost2010Prop55
280
     0
102
RTVSPost2010PropOp55
 70
     1
102
RTVSPost2010Prop56
140
1.0
102
RTVSPost2010PropOp56
 70
     1
102
RTVSPost2010Prop57
140
1.0
102
RTVSPost2010PropOp57
 70
     1
  0
XRECORD
  5
CDF0
102
{ACAD_REACTORS
330
CDEF
102
}
330
CDEF
100
AcDbXrecord
280
     1
102
RTVSPost2010Prop28
280
     0
102
RTVSPost2010PropOp28
 70
     1
102
RTVSPost2010Prop29
280
     1
102
RTVSPost2010PropOp29
 70
     1
102
RTVSPost2010Prop30
280
     1
102
RTVSPost2010PropOp30
 70
     1
102
RTVSPost2010Prop31
280
     0
102
RTVSPost2010PropOp31
 70
     1
102
RTVSPost2010Prop32
280
     0
102
RTVSPost2010PropOp32
 70
     1
102
RTVSPost2010Prop33
280
     0
102
RTVSPost2010PropOp33
 70
     1
102
RTVSPost2010Prop34
280
     0
102
RTVSPost2010PropOp34
 70
     1
102
RTVSPost2010Prop35
280
     0
102
RTVSPost2010PropOp35
 70
     1
102
RTVSPost2010Prop36
280
     0
102
RTVSPost2010PropOp36
 70
     1
102
RTVSPost2010Prop37
 90
       50
102
RTVSPost2010PropOp37
 70
     0
102
RTVSPost2010Prop38
140
0.0
102
RTVSPost2010PropOp38
 70
     0
102
RTVSPost2010Prop39
140
1.0
102
RTVSPost2010PropOp39
 70
     0
102
RTVSPost2010Prop40
 90
        0
102
RTVSPost2010PropOp40
 70
     0
102
RTVSPost2010Prop41ColorIndex
 90
       18
102
RTVSPost2010Prop41ColorRGB
 90
-16777216
102
RTVSPost2010PropOp41
 70
     0
102
RTVSPost2010Prop42
 90
       50
102
RTVSPost2010PropOp42
 70
     0
102
RTVSPost2010Prop43
 90
        3
102
RTVSPost2010PropOp43
 70
     0
102
RTVSPost2010Prop44ColorIndex
 90
        5
102
RTVSPost2010Prop44ColorRGB
 90
      255
102
RTVSPost2010PropOp44
 70
     0
102
RTVSPost2010Prop45
280
     0
102
RTVSPost2010PropOp45
 70
     1
102
RTVSPost2010Prop46
 90
       50
102
RTVSPost2010PropOp46
 70
     0
102
RTVSPost2010Prop47
 90
       50
102
RTVSPost2010PropOp47
 70
     0
102
RTVSPost2010Prop48
 90
       50
102
RTVSPost2010PropOp48
 70
     0
102
RTVSPost2010Prop49
280
     0
102
RTVSPost2010PropOp49
 70
     1
102
RTVSPost2010Prop50
 90
       50
102
RTVSPost2010PropOp50
 70
     0
102
RTVSPost2010Prop51ColorIndex
 90
      256
102
RTVSPost2010Prop51ColorRGB
 90
-16777216
102
RTVSPost2010PropOp51
 70
     0
102
RTVSPost2010Prop52
140
1.0
102
RTVSPost2010PropOp52
 70
     0
102
RTVSPost2010Prop53
 90
        2
102
RTVSPost2010PropOp53
 70
     0
102
RTVSPost2010Prop54
  1
strokes_ogs.tif
102
RTVSPost2010PropOp54
 70
     0
102
RTVSPost2010Prop55
280
     0
102
RTVSPost2010PropOp55
 70
     1
102
RTVSPost2010Prop56
140
1.0
102
RTVSPost2010PropOp56
 70
     0
102
RTVSPost2010Prop57
140
1.0
102
RTVSPost2010PropOp57
 70
     0
  0
XRECORD
  5
CDDA
102
{ACAD_REACTORS
330
CDD9
102
}
330
CDD9
100
AcDbXrecord
280
     1
102
RTVSPost2010Prop28
280
     0
102
RTVSPost2010PropOp28
 70
     1
102
RTVSPost2010Prop29
280
     1
102
RTVSPost2010PropOp29
 70
     1
102
RTVSPost2010Prop30
280
     1
102
RTVSPost2010PropOp30
 70
     1
102
RTVSPost2010Prop31
280
     0
102
RTVSPost2010PropOp31
 70
     1
102
RTVSPost2010Prop32
280
     0
102
RTVSPost2010PropOp32
 70
     1
102
RTVSPost2010Prop33
280
     0
102
RTVSPost2010PropOp33
 70
     1
102
RTVSPost2010Prop34
280
     0
102
RTVSPost2010PropOp34
 70
     1
102
RTVSPost2010Prop35
280
     0
102
RTVSPost2010PropOp35
 70
     1
102
RTVSPost2010Prop36
280
     0
102
RTVSPost2010PropOp36
 70
     1
102
RTVSPost2010Prop37
 90
       50
102
RTVSPost2010PropOp37
 70
     1
102
RTVSPost2010Prop38
140
0.0
102
RTVSPost2010PropOp38
 70
     1
102
RTVSPost2010Prop39
140
1.0
102
RTVSPost2010PropOp39
 70
     1
102
RTVSPost2010Prop40
 90
        0
102
RTVSPost2010PropOp40
 70
     1
102
RTVSPost2010Prop41ColorIndex
 90
       18
102
RTVSPost2010Prop41ColorRGB
 90
-16777216
102
RTVSPost2010PropOp41
 70
     1
102
RTVSPost2010Prop42
 90
       50
102
RTVSPost2010PropOp42
 70
     1
102
RTVSPost2010Prop43
 90
        3
102
RTVSPost2010PropOp43
 70
     1
102
RTVSPost2010Prop44ColorIndex
 90
        5
102
RTVSPost2010Prop44ColorRGB
 90
      255
102
RTVSPost2010PropOp44
 70
     1
102
RTVSPost2010Prop45
280
     0
102
RTVSPost2010PropOp45
 70
     1
102
RTVSPost2010Prop46
 90
       50
102
RTVSPost2010PropOp46
 70
     1
102
RTVSPost2010Prop47
 90
       50
102
RTVSPost2010PropOp47
 70
     1
102
RTVSPost2010Prop48
 90
       50
102
RTVSPost2010PropOp48
 70
     1
102
RTVSPost2010Prop49
280
     0
102
RTVSPost2010PropOp49
 70
     1
102
RTVSPost2010Prop50
 90
       50
102
RTVSPost2010PropOp50
 70
     1
102
RTVSPost2010Prop51ColorIndex
 90
      256
102
RTVSPost2010Prop51ColorRGB
 90
-16777216
102
RTVSPost2010PropOp51
 70
     0
102
RTVSPost2010Prop52
140
1.0
102
RTVSPost2010PropOp52
 70
     0
102
RTVSPost2010Prop53
 90
        2
102
RTVSPost2010PropOp53
 70
     1
102
RTVSPost2010Prop54
  1
strokes_ogs.tif
102
RTVSPost2010PropOp54
 70
     1
102
RTVSPost2010Prop55
280
     0
102
RTVSPost2010PropOp55
 70
     1
102
RTVSPost2010Prop56
140
1.0
102
RTVSPost2010PropOp56
 70
     1
102
RTVSPost2010Prop57
140
1.0
102
RTVSPost2010PropOp57
 70
     1
  0
XRECORD
  5
CDBE
102
{ACAD_REACTORS
330
CDBD
102
}
330
CDBD
100
AcDbXrecord
280
     1
102
RTVSPost2010Prop28
280
     0
102
RTVSPost2010PropOp28
 70
     1
102
RTVSPost2010Prop29
280
     1
102
RTVSPost2010PropOp29
 70
     1
102
RTVSPost2010Prop30
280
     1
102
RTVSPost2010PropOp30
 70
     1
102
RTVSPost2010Prop31
280
     0
102
RTVSPost2010PropOp31
 70
     1
102
RTVSPost2010Prop32
280
     0
102
RTVSPost2010PropOp32
 70
     1
102
RTVSPost2010Prop33
280
     0
102
RTVSPost2010PropOp33
 70
     1
102
RTVSPost2010Prop34
280
     0
102
RTVSPost2010PropOp34
 70
     1
102
RTVSPost2010Prop35
280
     0
102
RTVSPost2010PropOp35
 70
     1
102
RTVSPost2010Prop36
280
     0
102
RTVSPost2010PropOp36
 70
     1
102
RTVSPost2010Prop37
 90
       50
102
RTVSPost2010PropOp37
 70
     1
102
RTVSPost2010Prop38
140
0.0
102
RTVSPost2010PropOp38
 70
     1
102
RTVSPost2010Prop39
140
1.0
102
RTVSPost2010PropOp39
 70
     1
102
RTVSPost2010Prop40
 90
        0
102
RTVSPost2010PropOp40
 70
     1
102
RTVSPost2010Prop41ColorIndex
 90
       18
102
RTVSPost2010Prop41ColorRGB
 90
-16777216
102
RTVSPost2010PropOp41
 70
     1
102
RTVSPost2010Prop42
 90
       50
102
RTVSPost2010PropOp42
 70
     1
102
RTVSPost2010Prop43
 90
        3
102
RTVSPost2010PropOp43
 70
     1
102
RTVSPost2010Prop44ColorIndex
 90
        5
102
RTVSPost2010Prop44ColorRGB
 90
      255
102
RTVSPost2010PropOp44
 70
     1
102
RTVSPost2010Prop45
280
     0
102
RTVSPost2010PropOp45
 70
     1
102
RTVSPost2010Prop46
 90
       50
102
RTVSPost2010PropOp46
 70
     1
102
RTVSPost2010Prop47
 90
       50
102
RTVSPost2010PropOp47
 70
     1
102
RTVSPost2010Prop48
 90
       50
102
RTVSPost2010PropOp48
 70
     1
102
RTVSPost2010Prop49
280
     0
102
RTVSPost2010PropOp49
 70
     1
102
RTVSPost2010Prop50
 90
       50
102
RTVSPost2010PropOp50
 70
     1
102
RTVSPost2010Prop51ColorIndex
 90
      256
102
RTVSPost2010Prop51ColorRGB
 90
-16777216
102
RTVSPost2010PropOp51
 70
     0
102
RTVSPost2010Prop52
140
1.0
102
RTVSPost2010PropOp52
 70
     0
102
RTVSPost2010Prop53
 90
        2
102
RTVSPost2010PropOp53
 70
     1
102
RTVSPost2010Prop54
  1
strokes_ogs.tif
102
RTVSPost2010PropOp54
 70
     1
102
RTVSPost2010Prop55
280
     0
102
RTVSPost2010PropOp55
 70
     1
102
RTVSPost2010Prop56
140
1.0
102
RTVSPost2010PropOp56
 70
     1
102
RTVSPost2010Prop57
140
1.0
102
RTVSPost2010PropOp57
 70
     1
  0
XRECORD
  5
CDC0
102
{ACAD_REACTORS
330
CDBF
102
}
330
CDBF
100
AcDbXrecord
280
     1
102
RTVSPost2010Prop28
280
     0
102
RTVSPost2010PropOp28
 70
     1
102
RTVSPost2010Prop29
280
     1
102
RTVSPost2010PropOp29
 70
     1
102
RTVSPost2010Prop30
280
     1
102
RTVSPost2010PropOp30
 70
     1
102
RTVSPost2010Prop31
280
     0
102
RTVSPost2010PropOp31
 70
     1
102
RTVSPost2010Prop32
280
     0
102
RTVSPost2010PropOp32
 70
     1
102
RTVSPost2010Prop33
280
     0
102
RTVSPost2010PropOp33
 70
     1
102
RTVSPost2010Prop34
280
     0
102
RTVSPost2010PropOp34
 70
     1
102
RTVSPost2010Prop35
280
     0
102
RTVSPost2010PropOp35
 70
     1
102
RTVSPost2010Prop36
280
     0
102
RTVSPost2010PropOp36
 70
     1
102
RTVSPost2010Prop37
 90
       50
102
RTVSPost2010PropOp37
 70
     1
102
RTVSPost2010Prop38
140
0.0
102
RTVSPost2010PropOp38
 70
     1
102
RTVSPost2010Prop39
140
1.0
102
RTVSPost2010PropOp39
 70
     1
102
RTVSPost2010Prop40
 90
        0
102
RTVSPost2010PropOp40
 70
     1
102
RTVSPost2010Prop41ColorIndex
 90
       18
102
RTVSPost2010Prop41ColorRGB
 90
-16777216
102
RTVSPost2010PropOp41
 70
     1
102
RTVSPost2010Prop42
 90
       50
102
RTVSPost2010PropOp42
 70
     1
102
RTVSPost2010Prop43
 90
        3
102
RTVSPost2010PropOp43
 70
     1
102
RTVSPost2010Prop44ColorIndex
 90
        5
102
RTVSPost2010Prop44ColorRGB
 90
      255
102
RTVSPost2010PropOp44
 70
     1
102
RTVSPost2010Prop45
280
     0
102
RTVSPost2010PropOp45
 70
     1
102
RTVSPost2010Prop46
 90
       50
102
RTVSPost2010PropOp46
 70
     1
102
RTVSPost2010Prop47
 90
       50
102
RTVSPost2010PropOp47
 70
     1
102
RTVSPost2010Prop48
 90
       50
102
RTVSPost2010PropOp48
 70
     1
102
RTVSPost2010Prop49
280
     0
102
RTVSPost2010PropOp49
 70
     1
102
RTVSPost2010Prop50
 90
       50
102
RTVSPost2010PropOp50
 70
     1
102
RTVSPost2010Prop51ColorIndex
 90
      256
102
RTVSPost2010Prop51ColorRGB
 90
-16777216
102
RTVSPost2010PropOp51
 70
     0
102
RTVSPost2010Prop52
140
1.0
102
RTVSPost2010PropOp52
 70
     0
102
RTVSPost2010Prop53
 90
        2
102
RTVSPost2010PropOp53
 70
     1
102
RTVSPost2010Prop54
  1
strokes_ogs.tif
102
RTVSPost2010PropOp54
 70
     1
102
RTVSPost2010Prop55
280
     0
102
RTVSPost2010PropOp55
 70
     1
102
RTVSPost2010Prop56
140
1.0
102
RTVSPost2010PropOp56
 70
     1
102
RTVSPost2010Prop57
140
1.0
102
RTVSPost2010PropOp57
 70
     1
  0
XRECORD
  5
CDC2
102
{ACAD_REACTORS
330
CDC1
102
}
330
CDC1
100
AcDbXrecord
280
     1
102
RTVSPost2010Prop28
280
     0
102
RTVSPost2010PropOp28
 70
     1
102
RTVSPost2010Prop29
280
     1
102
RTVSPost2010PropOp29
 70
     1
102
RTVSPost2010Prop30
280
     1
102
RTVSPost2010PropOp30
 70
     1
102
RTVSPost2010Prop31
280
     0
102
RTVSPost2010PropOp31
 70
     1
102
RTVSPost2010Prop32
280
     0
102
RTVSPost2010PropOp32
 70
     1
102
RTVSPost2010Prop33
280
     0
102
RTVSPost2010PropOp33
 70
     1
102
RTVSPost2010Prop34
280
     0
102
RTVSPost2010PropOp34
 70
     1
102
RTVSPost2010Prop35
280
     0
102
RTVSPost2010PropOp35
 70
     1
102
RTVSPost2010Prop36
280
     0
102
RTVSPost2010PropOp36
 70
     1
102
RTVSPost2010Prop37
 90
       50
102
RTVSPost2010PropOp37
 70
     1
102
RTVSPost2010Prop38
140
0.0
102
RTVSPost2010PropOp38
 70
     1
102
RTVSPost2010Prop39
140
1.0
102
RTVSPost2010PropOp39
 70
     1
102
RTVSPost2010Prop40
 90
        0
102
RTVSPost2010PropOp40
 70
     1
102
RTVSPost2010Prop41ColorIndex
 90
       18
102
RTVSPost2010Prop41ColorRGB
 90
-16777216
102
RTVSPost2010PropOp41
 70
     1
102
RTVSPost2010Prop42
 90
       50
102
RTVSPost2010PropOp42
 70
     1
102
RTVSPost2010Prop43
 90
        3
102
RTVSPost2010PropOp43
 70
     1
102
RTVSPost2010Prop44ColorIndex
 90
        5
102
RTVSPost2010Prop44ColorRGB
 90
      255
102
RTVSPost2010PropOp44
 70
     1
102
RTVSPost2010Prop45
280
     0
102
RTVSPost2010PropOp45
 70
     1
102
RTVSPost2010Prop46
 90
       50
102
RTVSPost2010PropOp46
 70
     1
102
RTVSPost2010Prop47
 90
       50
102
RTVSPost2010PropOp47
 70
     1
102
RTVSPost2010Prop48
 90
       50
102
RTVSPost2010PropOp48
 70
     1
102
RTVSPost2010Prop49
280
     0
102
RTVSPost2010PropOp49
 70
     1
102
RTVSPost2010Prop50
 90
       50
102
RTVSPost2010PropOp50
 70
     1
102
RTVSPost2010Prop51ColorIndex
 90
      256
102
RTVSPost2010Prop51ColorRGB
 90
-16777216
102
RTVSPost2010PropOp51
 70
     0
102
RTVSPost2010Prop52
140
1.0
102
RTVSPost2010PropOp52
 70
     0
102
RTVSPost2010Prop53
 90
        2
102
RTVSPost2010PropOp53
 70
     1
102
RTVSPost2010Prop54
  1
strokes_ogs.tif
102
RTVSPost2010PropOp54
 70
     1
102
RTVSPost2010Prop55
280
     0
102
RTVSPost2010PropOp55
 70
     1
102
RTVSPost2010Prop56
140
1.0
102
RTVSPost2010PropOp56
 70
     1
102
RTVSPost2010Prop57
140
1.0
102
RTVSPost2010PropOp57
 70
     1
  0
XRECORD
  5
CDC4
102
{ACAD_REACTORS
330
CDC3
102
}
330
CDC3
100
AcDbXrecord
280
     1
102
RTVSPost2010Prop28
280
     0
102
RTVSPost2010PropOp28
 70
     1
102
RTVSPost2010Prop29
280
     1
102
RTVSPost2010PropOp29
 70
     1
102
RTVSPost2010Prop30
280
     1
102
RTVSPost2010PropOp30
 70
     1
102
RTVSPost2010Prop31
280
     0
102
RTVSPost2010PropOp31
 70
     1
102
RTVSPost2010Prop32
280
     0
102
RTVSPost2010PropOp32
 70
     1
102
RTVSPost2010Prop33
280
     0
102
RTVSPost2010PropOp33
 70
     1
102
RTVSPost2010Prop34
280
     0
102
RTVSPost2010PropOp34
 70
     1
102
RTVSPost2010Prop35
280
     0
102
RTVSPost2010PropOp35
 70
     1
102
RTVSPost2010Prop36
280
     0
102
RTVSPost2010PropOp36
 70
     1
102
RTVSPost2010Prop37
 90
       50
102
RTVSPost2010PropOp37
 70
     1
102
RTVSPost2010Prop38
140
0.0
102
RTVSPost2010PropOp38
 70
     1
102
RTVSPost2010Prop39
140
1.0
102
RTVSPost2010PropOp39
 70
     1
102
RTVSPost2010Prop40
 90
        0
102
RTVSPost2010PropOp40
 70
     1
102
RTVSPost2010Prop41ColorIndex
 90
       18
102
RTVSPost2010Prop41ColorRGB
 90
-16777216
102
RTVSPost2010PropOp41
 70
     1
102
RTVSPost2010Prop42
 90
       50
102
RTVSPost2010PropOp42
 70
     1
102
RTVSPost2010Prop43
 90
        3
102
RTVSPost2010PropOp43
 70
     1
102
RTVSPost2010Prop44ColorIndex
 90
        5
102
RTVSPost2010Prop44ColorRGB
 90
      255
102
RTVSPost2010PropOp44
 70
     1
102
RTVSPost2010Prop45
280
     0
102
RTVSPost2010PropOp45
 70
     1
102
RTVSPost2010Prop46
 90
       50
102
RTVSPost2010PropOp46
 70
     1
102
RTVSPost2010Prop47
 90
       50
102
RTVSPost2010PropOp47
 70
     1
102
RTVSPost2010Prop48
 90
       50
102
RTVSPost2010PropOp48
 70
     1
102
RTVSPost2010Prop49
280
     0
102
RTVSPost2010PropOp49
 70
     1
102
RTVSPost2010Prop50
 90
       50
102
RTVSPost2010PropOp50
 70
     1
102
RTVSPost2010Prop51ColorIndex
 90
      256
102
RTVSPost2010Prop51ColorRGB
 90
-16777216
102
RTVSPost2010PropOp51
 70
     0
102
RTVSPost2010Prop52
140
1.0
102
RTVSPost2010PropOp52
 70
     0
102
RTVSPost2010Prop53
 90
        2
102
RTVSPost2010PropOp53
 70
     1
102
RTVSPost2010Prop54
  1
strokes_ogs.tif
102
RTVSPost2010PropOp54
 70
     1
102
RTVSPost2010Prop55
280
     0
102
RTVSPost2010PropOp55
 70
     1
102
RTVSPost2010Prop56
140
1.0
102
RTVSPost2010PropOp56
 70
     1
102
RTVSPost2010Prop57
140
1.0
102
RTVSPost2010PropOp57
 70
     1
  0
XRECORD
  5
CDE0
102
{ACAD_REACTORS
330
CDDF
102
}
330
CDDF
100
AcDbXrecord
280
     1
102
RTVSPost2010Prop28
280
     0
102
RTVSPost2010PropOp28
 70
     1
102
RTVSPost2010Prop29
280
     1
102
RTVSPost2010PropOp29
 70
     1
102
RTVSPost2010Prop30
280
     1
102
RTVSPost2010PropOp30
 70
     1
102
RTVSPost2010Prop31
280
     0
102
RTVSPost2010PropOp31
 70
     1
102
RTVSPost2010Prop32
280
     0
102
RTVSPost2010PropOp32
 70
     1
102
RTVSPost2010Prop33
280
     0
102
RTVSPost2010PropOp33
 70
     1
102
RTVSPost2010Prop34
280
     0
102
RTVSPost2010PropOp34
 70
     1
102
RTVSPost2010Prop35
280
     0
102
RTVSPost2010PropOp35
 70
     1
102
RTVSPost2010Prop36
280
     0
102
RTVSPost2010PropOp36
 70
     1
102
RTVSPost2010Prop37
 90
       50
102
RTVSPost2010PropOp37
 70
     1
102
RTVSPost2010Prop38
140
0.0
102
RTVSPost2010PropOp38
 70
     1
102
RTVSPost2010Prop39
140
1.0
102
RTVSPost2010PropOp39
 70
     1
102
RTVSPost2010Prop40
 90
        0
102
RTVSPost2010PropOp40
 70
     1
102
RTVSPost2010Prop41ColorIndex
 90
       18
102
RTVSPost2010Prop41ColorRGB
 90
-16777216
102
RTVSPost2010PropOp41
 70
     1
102
RTVSPost2010Prop42
 90
       50
102
RTVSPost2010PropOp42
 70
     1
102
RTVSPost2010Prop43
 90
        3
102
RTVSPost2010PropOp43
 70
     1
102
RTVSPost2010Prop44ColorIndex
 90
        5
102
RTVSPost2010Prop44ColorRGB
 90
      255
102
RTVSPost2010PropOp44
 70
     1
102
RTVSPost2010Prop45
280
     0
102
RTVSPost2010PropOp45
 70
     1
102
RTVSPost2010Prop46
 90
       50
102
RTVSPost2010PropOp46
 70
     1
102
RTVSPost2010Prop47
 90
       50
102
RTVSPost2010PropOp47
 70
     1
102
RTVSPost2010Prop48
 90
       50
102
RTVSPost2010PropOp48
 70
     1
102
RTVSPost2010Prop49
280
     0
102
RTVSPost2010PropOp49
 70
     1
102
RTVSPost2010Prop50
 90
       50
102
RTVSPost2010PropOp50
 70
     1
102
RTVSPost2010Prop51ColorIndex
 90
      256
102
RTVSPost2010Prop51ColorRGB
 90
-16777216
102
RTVSPost2010PropOp51
 70
     0
102
RTVSPost2010Prop52
140
1.0
102
RTVSPost2010PropOp52
 70
     0
102
RTVSPost2010Prop53
 90
        2
102
RTVSPost2010PropOp53
 70
     1
102
RTVSPost2010Prop54
  1
strokes_ogs.tif
102
RTVSPost2010PropOp54
 70
     1
102
RTVSPost2010Prop55
280
     0
102
RTVSPost2010PropOp55
 70
     1
102
RTVSPost2010Prop56
140
1.0
102
RTVSPost2010PropOp56
 70
     1
102
RTVSPost2010Prop57
140
1.0
102
RTVSPost2010PropOp57
 70
     1
  0
XRECORD
  5
CDEC
102
{ACAD_REACTORS
330
CDEB
102
}
330
CDEB
100
AcDbXrecord
280
     1
102
RTVSPost2010Prop28
280
     0
102
RTVSPost2010PropOp28
 70
     1
102
RTVSPost2010Prop29
280
     1
102
RTVSPost2010PropOp29
 70
     1
102
RTVSPost2010Prop30
280
     1
102
RTVSPost2010PropOp30
 70
     1
102
RTVSPost2010Prop31
280
     0
102
RTVSPost2010PropOp31
 70
     1
102
RTVSPost2010Prop32
280
     0
102
RTVSPost2010PropOp32
 70
     1
102
RTVSPost2010Prop33
280
     0
102
RTVSPost2010PropOp33
 70
     1
102
RTVSPost2010Prop34
280
     0
102
RTVSPost2010PropOp34
 70
     1
102
RTVSPost2010Prop35
280
     0
102
RTVSPost2010PropOp35
 70
     1
102
RTVSPost2010Prop36
280
     0
102
RTVSPost2010PropOp36
 70
     1
102
RTVSPost2010Prop37
 90
       50
102
RTVSPost2010PropOp37
 70
     0
102
RTVSPost2010Prop38
140
0.0
102
RTVSPost2010PropOp38
 70
     0
102
RTVSPost2010Prop39
140
1.0
102
RTVSPost2010PropOp39
 70
     0
102
RTVSPost2010Prop40
 90
        0
102
RTVSPost2010PropOp40
 70
     0
102
RTVSPost2010Prop41ColorIndex
 90
       18
102
RTVSPost2010Prop41ColorRGB
 90
-16777216
102
RTVSPost2010PropOp41
 70
     0
102
RTVSPost2010Prop42
 90
       50
102
RTVSPost2010PropOp42
 70
     0
102
RTVSPost2010Prop43
 90
        3
102
RTVSPost2010PropOp43
 70
     0
102
RTVSPost2010Prop44ColorIndex
 90
        5
102
RTVSPost2010Prop44ColorRGB
 90
      255
102
RTVSPost2010PropOp44
 70
     0
102
RTVSPost2010Prop45
280
     0
102
RTVSPost2010PropOp45
 70
     1
102
RTVSPost2010Prop46
 90
       50
102
RTVSPost2010PropOp46
 70
     0
102
RTVSPost2010Prop47
 90
       50
102
RTVSPost2010PropOp47
 70
     0
102
RTVSPost2010Prop48
 90
       50
102
RTVSPost2010PropOp48
 70
     0
102
RTVSPost2010Prop49
280
     0
102
RTVSPost2010PropOp49
 70
     1
102
RTVSPost2010Prop50
 90
       50
102
RTVSPost2010PropOp50
 70
     0
102
RTVSPost2010Prop51ColorIndex
 90
      256
102
RTVSPost2010Prop51ColorRGB
 90
-16777216
102
RTVSPost2010PropOp51
 70
     0
102
RTVSPost2010Prop52
140
1.0
102
RTVSPost2010PropOp52
 70
     0
102
RTVSPost2010Prop53
 90
        2
102
RTVSPost2010PropOp53
 70
     0
102
RTVSPost2010Prop54
  1
strokes_ogs.tif
102
RTVSPost2010PropOp54
 70
     0
102
RTVSPost2010Prop55
280
     0
102
RTVSPost2010PropOp55
 70
     1
102
RTVSPost2010Prop56
140
1.0
102
RTVSPost2010PropOp56
 70
     0
102
RTVSPost2010Prop57
140
1.0
102
RTVSPost2010PropOp57
 70
     0
  0
XRECORD
  5
CDD8
102
{ACAD_REACTORS
330
CDD7
102
}
330
CDD7
100
AcDbXrecord
280
     1
102
RTVSPost2010Prop28
280
     0
102
RTVSPost2010PropOp28
 70
     1
102
RTVSPost2010Prop29
280
     1
102
RTVSPost2010PropOp29
 70
     1
102
RTVSPost2010Prop30
280
     1
102
RTVSPost2010PropOp30
 70
     1
102
RTVSPost2010Prop31
280
     0
102
RTVSPost2010PropOp31
 70
     1
102
RTVSPost2010Prop32
280
     0
102
RTVSPost2010PropOp32
 70
     1
102
RTVSPost2010Prop33
280
     0
102
RTVSPost2010PropOp33
 70
     1
102
RTVSPost2010Prop34
280
     0
102
RTVSPost2010PropOp34
 70
     1
102
RTVSPost2010Prop35
280
     0
102
RTVSPost2010PropOp35
 70
     1
102
RTVSPost2010Prop36
280
     0
102
RTVSPost2010PropOp36
 70
     1
102
RTVSPost2010Prop37
 90
       50
102
RTVSPost2010PropOp37
 70
     1
102
RTVSPost2010Prop38
140
0.0
102
RTVSPost2010PropOp38
 70
     1
102
RTVSPost2010Prop39
140
1.0
102
RTVSPost2010PropOp39
 70
     1
102
RTVSPost2010Prop40
 90
        0
102
RTVSPost2010PropOp40
 70
     1
102
RTVSPost2010Prop41ColorIndex
 90
       18
102
RTVSPost2010Prop41ColorRGB
 90
-16777216
102
RTVSPost2010PropOp41
 70
     1
102
RTVSPost2010Prop42
 90
       50
102
RTVSPost2010PropOp42
 70
     1
102
RTVSPost2010Prop43
 90
        3
102
RTVSPost2010PropOp43
 70
     1
102
RTVSPost2010Prop44ColorIndex
 90
        5
102
RTVSPost2010Prop44ColorRGB
 90
      255
102
RTVSPost2010PropOp44
 70
     1
102
RTVSPost2010Prop45
280
     0
102
RTVSPost2010PropOp45
 70
     1
102
RTVSPost2010Prop46
 90
       50
102
RTVSPost2010PropOp46
 70
     1
102
RTVSPost2010Prop47
 90
       50
102
RTVSPost2010PropOp47
 70
     1
102
RTVSPost2010Prop48
 90
       50
102
RTVSPost2010PropOp48
 70
     1
102
RTVSPost2010Prop49
280
     0
102
RTVSPost2010PropOp49
 70
     1
102
RTVSPost2010Prop50
 90
       50
102
RTVSPost2010PropOp50
 70
     1
102
RTVSPost2010Prop51ColorIndex
 90
      256
102
RTVSPost2010Prop51ColorRGB
 90
-16777216
102
RTVSPost2010PropOp51
 70
     0
102
RTVSPost2010Prop52
140
1.0
102
RTVSPost2010PropOp52
 70
     0
102
RTVSPost2010Prop53
 90
        2
102
RTVSPost2010PropOp53
 70
     1
102
RTVSPost2010Prop54
  1
strokes_ogs.tif
102
RTVSPost2010PropOp54
 70
     1
102
RTVSPost2010Prop55
280
     0
102
RTVSPost2010PropOp55
 70
     1
102
RTVSPost2010Prop56
140
1.0
102
RTVSPost2010PropOp56
 70
     1
102
RTVSPost2010Prop57
140
1.0
102
RTVSPost2010PropOp57
 70
     1
  0
XRECORD
  5
CDEE
102
{ACAD_REACTORS
330
CDED
102
}
330
CDED
100
AcDbXrecord
280
     1
102
RTVSPost2010Prop28
280
     0
102
RTVSPost2010PropOp28
 70
     1
102
RTVSPost2010Prop29
280
     1
102
RTVSPost2010PropOp29
 70
     1
102
RTVSPost2010Prop30
280
     1
102
RTVSPost2010PropOp30
 70
     1
102
RTVSPost2010Prop31
280
     0
102
RTVSPost2010PropOp31
 70
     1
102
RTVSPost2010Prop32
280
     0
102
RTVSPost2010PropOp32
 70
     1
102
RTVSPost2010Prop33
280
     0
102
RTVSPost2010PropOp33
 70
     1
102
RTVSPost2010Prop34
280
     0
102
RTVSPost2010PropOp34
 70
     1
102
RTVSPost2010Prop35
280
     0
102
RTVSPost2010PropOp35
 70
     1
102
RTVSPost2010Prop36
280
     0
102
RTVSPost2010PropOp36
 70
     1
102
RTVSPost2010Prop37
 90
       50
102
RTVSPost2010PropOp37
 70
     0
102
RTVSPost2010Prop38
140
0.0
102
RTVSPost2010PropOp38
 70
     0
102
RTVSPost2010Prop39
140
1.0
102
RTVSPost2010PropOp39
 70
     0
102
RTVSPost2010Prop40
 90
        0
102
RTVSPost2010PropOp40
 70
     0
102
RTVSPost2010Prop41ColorIndex
 90
       18
102
RTVSPost2010Prop41ColorRGB
 90
-16777216
102
RTVSPost2010PropOp41
 70
     0
102
RTVSPost2010Prop42
 90
       50
102
RTVSPost2010PropOp42
 70
     0
102
RTVSPost2010Prop43
 90
        3
102
RTVSPost2010PropOp43
 70
     0
102
RTVSPost2010Prop44ColorIndex
 90
        5
102
RTVSPost2010Prop44ColorRGB
 90
      255
102
RTVSPost2010PropOp44
 70
     0
102
RTVSPost2010Prop45
280
     0
102
RTVSPost2010PropOp45
 70
     1
102
RTVSPost2010Prop46
 90
       50
102
RTVSPost2010PropOp46
 70
     0
102
RTVSPost2010Prop47
 90
       50
102
RTVSPost2010PropOp47
 70
     0
102
RTVSPost2010Prop48
 90
       50
102
RTVSPost2010PropOp48
 70
     0
102
RTVSPost2010Prop49
280
     0
102
RTVSPost2010PropOp49
 70
     1
102
RTVSPost2010Prop50
 90
       50
102
RTVSPost2010PropOp50
 70
     0
102
RTVSPost2010Prop51ColorIndex
 90
      256
102
RTVSPost2010Prop51ColorRGB
 90
-16777216
102
RTVSPost2010PropOp51
 70
     0
102
RTVSPost2010Prop52
140
1.0
102
RTVSPost2010PropOp52
 70
     0
102
RTVSPost2010Prop53
 90
        2
102
RTVSPost2010PropOp53
 70
     0
102
RTVSPost2010Prop54
  1
strokes_ogs.tif
102
RTVSPost2010PropOp54
 70
     0
102
RTVSPost2010Prop55
280
     0
102
RTVSPost2010PropOp55
 70
     1
102
RTVSPost2010Prop56
140
1.0
102
RTVSPost2010PropOp56
 70
     0
102
RTVSPost2010Prop57
140
1.0
102
RTVSPost2010PropOp57
 70
     0
  0
XRECORD
  5
CDD0
102
{ACAD_REACTORS
330
CDCF
102
}
330
CDCF
100
AcDbXrecord
280
     1
102
RTVSPost2010Prop28
280
     0
102
RTVSPost2010PropOp28
 70
     1
102
RTVSPost2010Prop29
280
     1
102
RTVSPost2010PropOp29
 70
     1
102
RTVSPost2010Prop30
280
     1
102
RTVSPost2010PropOp30
 70
     1
102
RTVSPost2010Prop31
280
     0
102
RTVSPost2010PropOp31
 70
     1
102
RTVSPost2010Prop32
280
     0
102
RTVSPost2010PropOp32
 70
     1
102
RTVSPost2010Prop33
280
     0
102
RTVSPost2010PropOp33
 70
     1
102
RTVSPost2010Prop34
280
     0
102
RTVSPost2010PropOp34
 70
     1
102
RTVSPost2010Prop35
280
     0
102
RTVSPost2010PropOp35
 70
     1
102
RTVSPost2010Prop36
280
     0
102
RTVSPost2010PropOp36
 70
     1
102
RTVSPost2010Prop37
 90
       50
102
RTVSPost2010PropOp37
 70
     1
102
RTVSPost2010Prop38
140
0.0
102
RTVSPost2010PropOp38
 70
     1
102
RTVSPost2010Prop39
140
1.0
102
RTVSPost2010PropOp39
 70
     1
102
RTVSPost2010Prop40
 90
        0
102
RTVSPost2010PropOp40
 70
     1
102
RTVSPost2010Prop41ColorIndex
 90
       18
102
RTVSPost2010Prop41ColorRGB
 90
-16777216
102
RTVSPost2010PropOp41
 70
     1
102
RTVSPost2010Prop42
 90
       50
102
RTVSPost2010PropOp42
 70
     1
102
RTVSPost2010Prop43
 90
        3
102
RTVSPost2010PropOp43
 70
     1
102
RTVSPost2010Prop44ColorIndex
 90
        5
102
RTVSPost2010Prop44ColorRGB
 90
      255
102
RTVSPost2010PropOp44
 70
     1
102
RTVSPost2010Prop45
280
     0
102
RTVSPost2010PropOp45
 70
     1
102
RTVSPost2010Prop46
 90
       50
102
RTVSPost2010PropOp46
 70
     1
102
RTVSPost2010Prop47
 90
       50
102
RTVSPost2010PropOp47
 70
     1
102
RTVSPost2010Prop48
 90
       50
102
RTVSPost2010PropOp48
 70
     1
102
RTVSPost2010Prop49
280
     0
102
RTVSPost2010PropOp49
 70
     1
102
RTVSPost2010Prop50
 90
       50
102
RTVSPost2010PropOp50
 70
     1
102
RTVSPost2010Prop51ColorIndex
 90
      256
102
RTVSPost2010Prop51ColorRGB
 90
-16777216
102
RTVSPost2010PropOp51
 70
     0
102
RTVSPost2010Prop52
140
1.0
102
RTVSPost2010PropOp52
 70
     0
102
RTVSPost2010Prop53
 90
        2
102
RTVSPost2010PropOp53
 70
     1
102
RTVSPost2010Prop54
  1
strokes_ogs.tif
102
RTVSPost2010PropOp54
 70
     1
102
RTVSPost2010Prop55
280
     0
102
RTVSPost2010PropOp55
 70
     1
102
RTVSPost2010Prop56
140
1.0
102
RTVSPost2010PropOp56
 70
     1
102
RTVSPost2010Prop57
140
1.0
102
RTVSPost2010PropOp57
 70
     1
  0
XRECORD
  5
CDEA
102
{ACAD_REACTORS
330
CDE9
102
}
330
CDE9
100
AcDbXrecord
280
     1
102
RTVSPost2010Prop28
280
     0
102
RTVSPost2010PropOp28
 70
     1
102
RTVSPost2010Prop29
280
     1
102
RTVSPost2010PropOp29
 70
     1
102
RTVSPost2010Prop30
280
     1
102
RTVSPost2010PropOp30
 70
     1
102
RTVSPost2010Prop31
280
     0
102
RTVSPost2010PropOp31
 70
     1
102
RTVSPost2010Prop32
280
     0
102
RTVSPost2010PropOp32
 70
     1
102
RTVSPost2010Prop33
280
     0
102
RTVSPost2010PropOp33
 70
     1
102
RTVSPost2010Prop34
280
     0
102
RTVSPost2010PropOp34
 70
     1
102
RTVSPost2010Prop35
280
     0
102
RTVSPost2010PropOp35
 70
     1
102
RTVSPost2010Prop36
280
     0
102
RTVSPost2010PropOp36
 70
     1
102
RTVSPost2010Prop37
 90
       50
102
RTVSPost2010PropOp37
 70
     1
102
RTVSPost2010Prop38
140
0.0
102
RTVSPost2010PropOp38
 70
     1
102
RTVSPost2010Prop39
140
1.0
102
RTVSPost2010PropOp39
 70
     1
102
RTVSPost2010Prop40
 90
        0
102
RTVSPost2010PropOp40
 70
     1
102
RTVSPost2010Prop41ColorIndex
 90
       18
102
RTVSPost2010Prop41ColorRGB
 90
-16777216
102
RTVSPost2010PropOp41
 70
     1
102
RTVSPost2010Prop42
 90
       50
102
RTVSPost2010PropOp42
 70
     1
102
RTVSPost2010Prop43
 90
        3
102
RTVSPost2010PropOp43
 70
     1
102
RTVSPost2010Prop44ColorIndex
 90
        5
102
RTVSPost2010Prop44ColorRGB
 90
      255
102
RTVSPost2010PropOp44
 70
     1
102
RTVSPost2010Prop45
280
     0
102
RTVSPost2010PropOp45
 70
     1
102
RTVSPost2010Prop46
 90
       50
102
RTVSPost2010PropOp46
 70
     1
102
RTVSPost2010Prop47
 90
       50
102
RTVSPost2010PropOp47
 70
     1
102
RTVSPost2010Prop48
 90
       50
102
RTVSPost2010PropOp48
 70
     1
102
RTVSPost2010Prop49
280
     0
102
RTVSPost2010PropOp49
 70
     1
102
RTVSPost2010Prop50
 90
       50
102
RTVSPost2010PropOp50
 70
     1
102
RTVSPost2010Prop51ColorIndex
 90
      256
102
RTVSPost2010Prop51ColorRGB
 90
-16777216
102
RTVSPost2010PropOp51
 70
     0
102
RTVSPost2010Prop52
140
1.0
102
RTVSPost2010PropOp52
 70
     0
102
RTVSPost2010Prop53
 90
        2
102
RTVSPost2010PropOp53
 70
     1
102
RTVSPost2010Prop54
  1
strokes_ogs.tif
102
RTVSPost2010PropOp54
 70
     1
102
RTVSPost2010Prop55
280
     0
102
RTVSPost2010PropOp55
 70
     1
102
RTVSPost2010Prop56
140
1.0
102
RTVSPost2010PropOp56
 70
     1
102
RTVSPost2010Prop57
140
1.0
102
RTVSPost2010PropOp57
 70
     1
  0
XRECORD
  5
CDE8
102
{ACAD_REACTORS
330
CDE7
102
}
330
CDE7
100
AcDbXrecord
280
     1
102
RTVSPost2010Prop28
280
     0
102
RTVSPost2010PropOp28
 70
     1
102
RTVSPost2010Prop29
280
     1
102
RTVSPost2010PropOp29
 70
     1
102
RTVSPost2010Prop30
280
     1
102
RTVSPost2010PropOp30
 70
     1
102
RTVSPost2010Prop31
280
     0
102
RTVSPost2010PropOp31
 70
     1
102
RTVSPost2010Prop32
280
     0
102
RTVSPost2010PropOp32
 70
     1
102
RTVSPost2010Prop33
280
     0
102
RTVSPost2010PropOp33
 70
     1
102
RTVSPost2010Prop34
280
     0
102
RTVSPost2010PropOp34
 70
     1
102
RTVSPost2010Prop35
280
     0
102
RTVSPost2010PropOp35
 70
     1
102
RTVSPost2010Prop36
280
     0
102
RTVSPost2010PropOp36
 70
     1
102
RTVSPost2010Prop37
 90
       50
102
RTVSPost2010PropOp37
 70
     1
102
RTVSPost2010Prop38
140
0.0
102
RTVSPost2010PropOp38
 70
     1
102
RTVSPost2010Prop39
140
1.0
102
RTVSPost2010PropOp39
 70
     1
102
RTVSPost2010Prop40
 90
        0
102
RTVSPost2010PropOp40
 70
     1
102
RTVSPost2010Prop41ColorIndex
 90
       18
102
RTVSPost2010Prop41ColorRGB
 90
-16777216
102
RTVSPost2010PropOp41
 70
     1
102
RTVSPost2010Prop42
 90
       50
102
RTVSPost2010PropOp42
 70
     1
102
RTVSPost2010Prop43
 90
        3
102
RTVSPost2010PropOp43
 70
     1
102
RTVSPost2010Prop44ColorIndex
 90
        5
102
RTVSPost2010Prop44ColorRGB
 90
      255
102
RTVSPost2010PropOp44
 70
     1
102
RTVSPost2010Prop45
280
     0
102
RTVSPost2010PropOp45
 70
     1
102
RTVSPost2010Prop46
 90
       50
102
RTVSPost2010PropOp46
 70
     1
102
RTVSPost2010Prop47
 90
       50
102
RTVSPost2010PropOp47
 70
     1
102
RTVSPost2010Prop48
 90
       50
102
RTVSPost2010PropOp48
 70
     1
102
RTVSPost2010Prop49
280
     0
102
RTVSPost2010PropOp49
 70
     1
102
RTVSPost2010Prop50
 90
       50
102
RTVSPost2010PropOp50
 70
     1
102
RTVSPost2010Prop51ColorIndex
 90
      256
102
RTVSPost2010Prop51ColorRGB
 90
-16777216
102
RTVSPost2010PropOp51
 70
     0
102
RTVSPost2010Prop52
140
1.0
102
RTVSPost2010PropOp52
 70
     0
102
RTVSPost2010Prop53
 90
        2
102
RTVSPost2010PropOp53
 70
     1
102
RTVSPost2010Prop54
  1
strokes_ogs.tif
102
RTVSPost2010PropOp54
 70
     1
102
RTVSPost2010Prop55
280
     0
102
RTVSPost2010PropOp55
 70
     1
102
RTVSPost2010Prop56
140
1.0
102
RTVSPost2010PropOp56
 70
     1
102
RTVSPost2010Prop57
140
1.0
102
RTVSPost2010PropOp57
 70
     1
  0
XRECORD
  5
CDE2
102
{ACAD_REACTORS
330
CDE1
102
}
330
CDE1
100
AcDbXrecord
280
     1
102
RTVSPost2010Prop28
280
     0
102
RTVSPost2010PropOp28
 70
     1
102
RTVSPost2010Prop29
280
     1
102
RTVSPost2010PropOp29
 70
     1
102
RTVSPost2010Prop30
280
     1
102
RTVSPost2010PropOp30
 70
     1
102
RTVSPost2010Prop31
280
     0
102
RTVSPost2010PropOp31
 70
     1
102
RTVSPost2010Prop32
280
     0
102
RTVSPost2010PropOp32
 70
     1
102
RTVSPost2010Prop33
280
     0
102
RTVSPost2010PropOp33
 70
     1
102
RTVSPost2010Prop34
280
     0
102
RTVSPost2010PropOp34
 70
     1
102
RTVSPost2010Prop35
280
     0
102
RTVSPost2010PropOp35
 70
     1
102
RTVSPost2010Prop36
280
     0
102
RTVSPost2010PropOp36
 70
     1
102
RTVSPost2010Prop37
 90
       50
102
RTVSPost2010PropOp37
 70
     1
102
RTVSPost2010Prop38
140
0.0
102
RTVSPost2010PropOp38
 70
     1
102
RTVSPost2010Prop39
140
1.0
102
RTVSPost2010PropOp39
 70
     1
102
RTVSPost2010Prop40
 90
        0
102
RTVSPost2010PropOp40
 70
     1
102
RTVSPost2010Prop41ColorIndex
 90
       18
102
RTVSPost2010Prop41ColorRGB
 90
-16777216
102
RTVSPost2010PropOp41
 70
     1
102
RTVSPost2010Prop42
 90
       50
102
RTVSPost2010PropOp42
 70
     1
102
RTVSPost2010Prop43
 90
        3
102
RTVSPost2010PropOp43
 70
     1
102
RTVSPost2010Prop44ColorIndex
 90
        5
102
RTVSPost2010Prop44ColorRGB
 90
      255
102
RTVSPost2010PropOp44
 70
     1
102
RTVSPost2010Prop45
280
     0
102
RTVSPost2010PropOp45
 70
     1
102
RTVSPost2010Prop46
 90
       50
102
RTVSPost2010PropOp46
 70
     1
102
RTVSPost2010Prop47
 90
       50
102
RTVSPost2010PropOp47
 70
     1
102
RTVSPost2010Prop48
 90
       50
102
RTVSPost2010PropOp48
 70
     1
102
RTVSPost2010Prop49
280
     0
102
RTVSPost2010PropOp49
 70
     1
102
RTVSPost2010Prop50
 90
       50
102
RTVSPost2010PropOp50
 70
     1
102
RTVSPost2010Prop51ColorIndex
 90
      256
102
RTVSPost2010Prop51ColorRGB
 90
-16777216
102
RTVSPost2010PropOp51
 70
     0
102
RTVSPost2010Prop52
140
1.0
102
RTVSPost2010PropOp52
 70
     0
102
RTVSPost2010Prop53
 90
        2
102
RTVSPost2010PropOp53
 70
     1
102
RTVSPost2010Prop54
  1
strokes_ogs.tif
102
RTVSPost2010PropOp54
 70
     1
102
RTVSPost2010Prop55
280
     0
102
RTVSPost2010PropOp55
 70
     1
102
RTVSPost2010Prop56
140
1.0
102
RTVSPost2010PropOp56
 70
     1
102
RTVSPost2010Prop57
140
1.0
102
RTVSPost2010PropOp57
 70
     1
  0
XRECORD
  5
CDE4
102
{ACAD_REACTORS
330
CDE3
102
}
330
CDE3
100
AcDbXrecord
280
     1
102
RTVSPost2010Prop28
280
     0
102
RTVSPost2010PropOp28
 70
     1
102
RTVSPost2010Prop29
280
     1
102
RTVSPost2010PropOp29
 70
     1
102
RTVSPost2010Prop30
280
     1
102
RTVSPost2010PropOp30
 70
     1
102
RTVSPost2010Prop31
280
     0
102
RTVSPost2010PropOp31
 70
     1
102
RTVSPost2010Prop32
280
     0
102
RTVSPost2010PropOp32
 70
     1
102
RTVSPost2010Prop33
280
     0
102
RTVSPost2010PropOp33
 70
     1
102
RTVSPost2010Prop34
280
     0
102
RTVSPost2010PropOp34
 70
     1
102
RTVSPost2010Prop35
280
     0
102
RTVSPost2010PropOp35
 70
     1
102
RTVSPost2010Prop36
280
     0
102
RTVSPost2010PropOp36
 70
     1
102
RTVSPost2010Prop37
 90
       50
102
RTVSPost2010PropOp37
 70
     1
102
RTVSPost2010Prop38
140
0.0
102
RTVSPost2010PropOp38
 70
     1
102
RTVSPost2010Prop39
140
1.0
102
RTVSPost2010PropOp39
 70
     1
102
RTVSPost2010Prop40
 90
        0
102
RTVSPost2010PropOp40
 70
     1
102
RTVSPost2010Prop41ColorIndex
 90
       18
102
RTVSPost2010Prop41ColorRGB
 90
-16777216
102
RTVSPost2010PropOp41
 70
     1
102
RTVSPost2010Prop42
 90
       50
102
RTVSPost2010PropOp42
 70
     1
102
RTVSPost2010Prop43
 90
        3
102
RTVSPost2010PropOp43
 70
     1
102
RTVSPost2010Prop44ColorIndex
 90
        5
102
RTVSPost2010Prop44ColorRGB
 90
      255
102
RTVSPost2010PropOp44
 70
     1
102
RTVSPost2010Prop45
280
     0
102
RTVSPost2010PropOp45
 70
     1
102
RTVSPost2010Prop46
 90
       50
102
RTVSPost2010PropOp46
 70
     1
102
RTVSPost2010Prop47
 90
       50
102
RTVSPost2010PropOp47
 70
     1
102
RTVSPost2010Prop48
 90
       50
102
RTVSPost2010PropOp48
 70
     1
102
RTVSPost2010Prop49
280
     0
102
RTVSPost2010PropOp49
 70
     1
102
RTVSPost2010Prop50
 90
       50
102
RTVSPost2010PropOp50
 70
     1
102
RTVSPost2010Prop51ColorIndex
 90
      256
102
RTVSPost2010Prop51ColorRGB
 90
-16777216
102
RTVSPost2010PropOp51
 70
     0
102
RTVSPost2010Prop52
140
1.0
102
RTVSPost2010PropOp52
 70
     0
102
RTVSPost2010Prop53
 90
        2
102
RTVSPost2010PropOp53
 70
     1
102
RTVSPost2010Prop54
  1
strokes_ogs.tif
102
RTVSPost2010PropOp54
 70
     1
102
RTVSPost2010Prop55
280
     0
102
RTVSPost2010PropOp55
 70
     1
102
RTVSPost2010Prop56
140
1.0
102
RTVSPost2010PropOp56
 70
     1
102
RTVSPost2010Prop57
140
1.0
102
RTVSPost2010PropOp57
 70
     1
  0
XRECORD
  5
CDD6
102
{ACAD_REACTORS
330
CDD5
102
}
330
CDD5
100
AcDbXrecord
280
     1
102
RTVSPost2010Prop28
280
     0
102
RTVSPost2010PropOp28
 70
     1
102
RTVSPost2010Prop29
280
     1
102
RTVSPost2010PropOp29
 70
     1
102
RTVSPost2010Prop30
280
     1
102
RTVSPost2010PropOp30
 70
     1
102
RTVSPost2010Prop31
280
     0
102
RTVSPost2010PropOp31
 70
     1
102
RTVSPost2010Prop32
280
     0
102
RTVSPost2010PropOp32
 70
     1
102
RTVSPost2010Prop33
280
     0
102
RTVSPost2010PropOp33
 70
     1
102
RTVSPost2010Prop34
280
     0
102
RTVSPost2010PropOp34
 70
     1
102
RTVSPost2010Prop35
280
     0
102
RTVSPost2010PropOp35
 70
     1
102
RTVSPost2010Prop36
280
     0
102
RTVSPost2010PropOp36
 70
     1
102
RTVSPost2010Prop37
 90
       50
102
RTVSPost2010PropOp37
 70
     1
102
RTVSPost2010Prop38
140
0.0
102
RTVSPost2010PropOp38
 70
     1
102
RTVSPost2010Prop39
140
1.0
102
RTVSPost2010PropOp39
 70
     1
102
RTVSPost2010Prop40
 90
        0
102
RTVSPost2010PropOp40
 70
     1
102
RTVSPost2010Prop41ColorIndex
 90
       18
102
RTVSPost2010Prop41ColorRGB
 90
-16777216
102
RTVSPost2010PropOp41
 70
     1
102
RTVSPost2010Prop42
 90
       50
102
RTVSPost2010PropOp42
 70
     1
102
RTVSPost2010Prop43
 90
        3
102
RTVSPost2010PropOp43
 70
     1
102
RTVSPost2010Prop44ColorIndex
 90
        5
102
RTVSPost2010Prop44ColorRGB
 90
      255
102
RTVSPost2010PropOp44
 70
     1
102
RTVSPost2010Prop45
280
     0
102
RTVSPost2010PropOp45
 70
     1
102
RTVSPost2010Prop46
 90
       50
102
RTVSPost2010PropOp46
 70
     1
102
RTVSPost2010Prop47
 90
       50
102
RTVSPost2010PropOp47
 70
     1
102
RTVSPost2010Prop48
 90
       50
102
RTVSPost2010PropOp48
 70
     1
102
RTVSPost2010Prop49
280
     0
102
RTVSPost2010PropOp49
 70
     1
102
RTVSPost2010Prop50
 90
       50
102
RTVSPost2010PropOp50
 70
     1
102
RTVSPost2010Prop51ColorIndex
 90
      256
102
RTVSPost2010Prop51ColorRGB
 90
-16777216
102
RTVSPost2010PropOp51
 70
     0
102
RTVSPost2010Prop52
140
1.0
102
RTVSPost2010PropOp52
 70
     0
102
RTVSPost2010Prop53
 90
        2
102
RTVSPost2010PropOp53
 70
     1
102
RTVSPost2010Prop54
  1
strokes_ogs.tif
102
RTVSPost2010PropOp54
 70
     1
102
RTVSPost2010Prop55
280
     0
102
RTVSPost2010PropOp55
 70
     1
102
RTVSPost2010Prop56
140
1.0
102
RTVSPost2010PropOp56
 70
     1
102
RTVSPost2010Prop57
140
1.0
102
RTVSPost2010PropOp57
 70
     1
  0
XRECORD
  5
CDDE
102
{ACAD_REACTORS
330
CDDD
102
}
330
CDDD
100
AcDbXrecord
280
     1
102
RTVSPost2010Prop28
280
     0
102
RTVSPost2010PropOp28
 70
     1
102
RTVSPost2010Prop29
280
     1
102
RTVSPost2010PropOp29
 70
     1
102
RTVSPost2010Prop30
280
     1
102
RTVSPost2010PropOp30
 70
     1
102
RTVSPost2010Prop31
280
     0
102
RTVSPost2010PropOp31
 70
     1
102
RTVSPost2010Prop32
280
     0
102
RTVSPost2010PropOp32
 70
     1
102
RTVSPost2010Prop33
280
     0
102
RTVSPost2010PropOp33
 70
     1
102
RTVSPost2010Prop34
280
     0
102
RTVSPost2010PropOp34
 70
     1
102
RTVSPost2010Prop35
280
     0
102
RTVSPost2010PropOp35
 70
     1
102
RTVSPost2010Prop36
280
     0
102
RTVSPost2010PropOp36
 70
     1
102
RTVSPost2010Prop37
 90
       50
102
RTVSPost2010PropOp37
 70
     1
102
RTVSPost2010Prop38
140
0.0
102
RTVSPost2010PropOp38
 70
     1
102
RTVSPost2010Prop39
140
1.0
102
RTVSPost2010PropOp39
 70
     1
102
RTVSPost2010Prop40
 90
        0
102
RTVSPost2010PropOp40
 70
     1
102
RTVSPost2010Prop41ColorIndex
 90
       18
102
RTVSPost2010Prop41ColorRGB
 90
-16777216
102
RTVSPost2010PropOp41
 70
     1
102
RTVSPost2010Prop42
 90
       50
102
RTVSPost2010PropOp42
 70
     1
102
RTVSPost2010Prop43
 90
        3
102
RTVSPost2010PropOp43
 70
     1
102
RTVSPost2010Prop44ColorIndex
 90
        5
102
RTVSPost2010Prop44ColorRGB
 90
      255
102
RTVSPost2010PropOp44
 70
     1
102
RTVSPost2010Prop45
280
     0
102
RTVSPost2010PropOp45
 70
     1
102
RTVSPost2010Prop46
 90
       50
102
RTVSPost2010PropOp46
 70
     1
102
RTVSPost2010Prop47
 90
       50
102
RTVSPost2010PropOp47
 70
     1
102
RTVSPost2010Prop48
 90
       50
102
RTVSPost2010PropOp48
 70
     1
102
RTVSPost2010Prop49
280
     0
102
RTVSPost2010PropOp49
 70
     1
102
RTVSPost2010Prop50
 90
       50
102
RTVSPost2010PropOp50
 70
     1
102
RTVSPost2010Prop51ColorIndex
 90
      256
102
RTVSPost2010Prop51ColorRGB
 90
-16777216
102
RTVSPost2010PropOp51
 70
     0
102
RTVSPost2010Prop52
140
1.0
102
RTVSPost2010PropOp52
 70
     0
102
RTVSPost2010Prop53
 90
        2
102
RTVSPost2010PropOp53
 70
     1
102
RTVSPost2010Prop54
  1
strokes_ogs.tif
102
RTVSPost2010PropOp54
 70
     1
102
RTVSPost2010Prop55
280
     0
102
RTVSPost2010PropOp55
 70
     1
102
RTVSPost2010Prop56
140
1.0
102
RTVSPost2010PropOp56
 70
     1
102
RTVSPost2010Prop57
140
1.0
102
RTVSPost2010PropOp57
 70
     1
  0
XRECORD
  5
CDE6
102
{ACAD_REACTORS
330
CDE5
102
}
330
CDE5
100
AcDbXrecord
280
     1
102
RTVSPost2010Prop28
280
     0
102
RTVSPost2010PropOp28
 70
     1
102
RTVSPost2010Prop29
280
     1
102
RTVSPost2010PropOp29
 70
     1
102
RTVSPost2010Prop30
280
     1
102
RTVSPost2010PropOp30
 70
     1
102
RTVSPost2010Prop31
280
     0
102
RTVSPost2010PropOp31
 70
     1
102
RTVSPost2010Prop32
280
     0
102
RTVSPost2010PropOp32
 70
     1
102
RTVSPost2010Prop33
280
     0
102
RTVSPost2010PropOp33
 70
     1
102
RTVSPost2010Prop34
280
     0
102
RTVSPost2010PropOp34
 70
     1
102
RTVSPost2010Prop35
280
     0
102
RTVSPost2010PropOp35
 70
     1
102
RTVSPost2010Prop36
280
     0
102
RTVSPost2010PropOp36
 70
     1
102
RTVSPost2010Prop37
 90
       50
102
RTVSPost2010PropOp37
 70
     1
102
RTVSPost2010Prop38
140
0.0
102
RTVSPost2010PropOp38
 70
     1
102
RTVSPost2010Prop39
140
1.0
102
RTVSPost2010PropOp39
 70
     1
102
RTVSPost2010Prop40
 90
        0
102
RTVSPost2010PropOp40
 70
     1
102
RTVSPost2010Prop41ColorIndex
 90
       18
102
RTVSPost2010Prop41ColorRGB
 90
-16777216
102
RTVSPost2010PropOp41
 70
     1
102
RTVSPost2010Prop42
 90
       50
102
RTVSPost2010PropOp42
 70
     1
102
RTVSPost2010Prop43
 90
        3
102
RTVSPost2010PropOp43
 70
     1
102
RTVSPost2010Prop44ColorIndex
 90
        5
102
RTVSPost2010Prop44ColorRGB
 90
      255
102
RTVSPost2010PropOp44
 70
     1
102
RTVSPost2010Prop45
280
     0
102
RTVSPost2010PropOp45
 70
     1
102
RTVSPost2010Prop46
 90
       50
102
RTVSPost2010PropOp46
 70
     1
102
RTVSPost2010Prop47
 90
       50
102
RTVSPost2010PropOp47
 70
     1
102
RTVSPost2010Prop48
 90
       50
102
RTVSPost2010PropOp48
 70
     1
102
RTVSPost2010Prop49
280
     0
102
RTVSPost2010PropOp49
 70
     1
102
RTVSPost2010Prop50
 90
       50
102
RTVSPost2010PropOp50
 70
     1
102
RTVSPost2010Prop51ColorIndex
 90
      256
102
RTVSPost2010Prop51ColorRGB
 90
-16777216
102
RTVSPost2010PropOp51
 70
     0
102
RTVSPost2010Prop52
140
1.0
102
RTVSPost2010PropOp52
 70
     0
102
RTVSPost2010Prop53
 90
        2
102
RTVSPost2010PropOp53
 70
     1
102
RTVSPost2010Prop54
  1
strokes_ogs.tif
102
RTVSPost2010PropOp54
 70
     1
102
RTVSPost2010Prop55
280
     0
102
RTVSPost2010PropOp55
 70
     1
102
RTVSPost2010Prop56
140
1.0
102
RTVSPost2010PropOp56
 70
     1
102
RTVSPost2010Prop57
140
1.0
102
RTVSPost2010PropOp57
 70
     1
  0
ENDSEC
  0
EOF
