  0
SECTION
  2
HEADER
  9
$ACADVER
  1
AC1027
  9
$ACADMAINTVER
 70
    81
  9
$DWGCODEPAGE
  3
ANSI_1252
  9
$LASTSAVEDBY
  1
jproulx
  9
$REQUIREDVERSIONS
160
                 0
  9
$INSBASE
 10
0.0
 20
0.0
 30
0.0
  9
$EXTMIN
 10
41.60938331651721
 20
-26.85676072633223
 30
0.0
  9
$EXTMAX
 10
74.71952143974575
 20
-3.408716404808401
 30
0.0
  9
$LIMMIN
 10
0.0
 20
0.0
  9
$LIMMAX
 10
66.10000000000001
 20
41.5
  9
$ORTHOMODE
 70
     1
  9
$REGENMODE
 70
     1
  9
$FILLMODE
 70
     1
  9
$QTEXTMODE
 70
     0
  9
$MIRRTEXT
 70
     1
  9
$LTSCALE
 40
1.0
  9
$ATTMODE
 70
     1
  9
$TEXTSIZE
 40
0.4
  9
$TRACEWID
 40
0.05
  9
$TEXTSTYLE
  7
STANDARD
  9
$CLAYER
  8
DIM
  9
$CELTYPE
  6
ByLayer
  9
$CECOLOR
 62
   256
  9
$CELTSCALE
 40
1.0
  9
$DISPSILH
 70
     0
  9
$DIMSCALE
 40
1.0
  9
$DIMASZ
 40
0.5
  9
$DIMEXO
 40
0.12
  9
$DIMDLI
 40
0.38
  9
$DIMRND
 40
0.0
  9
$DIMDLE
 40
0.0
  9
$DIMEXE
 40
0.1
  9
$DIMTP
 40
0.0
  9
$DIMTM
 40
0.0
  9
$DIMTXT
 40
0.4
  9
$DIMCEN
 40
0.125
  9
$DIMTSZ
 40
0.0
  9
$DIMTOL
 70
     0
  9
$DIMLIM
 70
     0
  9
$DIMTIH
 70
     1
  9
$DIMTOH
 70
     1
  9
$DIMSE1
 70
     0
  9
$DIMSE2
 70
     0
  9
$DIMTAD
 70
     0
  9
$DIMZIN
 70
     0
  9
$DIMBLK
  1

  9
$DIMASO
 70
     1
  9
$DIMSHO
 70
     1
  9
$DIMPOST
  1
"
  9
$DIMAPOST
  1

  9
$DIMALT
 70
     0
  9
$DIMALTD
 70
     2
  9
$DIMALTF
 40
25.4
  9
$DIMLFAC
 40
1.0
  9
$DIMTOFL
 70
     0
  9
$DIMTVP
 40
0.0
  9
$DIMTIX
 70
     0
  9
$DIMSOXD
 70
     0
  9
$DIMSAH
 70
     0
  9
$DIMBLK1
  1

  9
$DIMBLK2
  1

  9
$DIMSTYLE
  2
Standard
  9
$DIMCLRD
 70
   256
  9
$DIMCLRE
 70
   256
  9
$DIMCLRT
 70
   256
  9
$DIMTFAC
 40
1.0
  9
$DIMGAP
 40
0.25
  9
$DIMJUST
 70
     0
  9
$DIMSD1
 70
     0
  9
$DIMSD2
 70
     0
  9
$DIMTOLJ
 70
     1
  9
$DIMTZIN
 70
     0
  9
$DIMALTZ
 70
     0
  9
$DIMALTTZ
 70
     0
  9
$DIMUPT
 70
     0
  9
$DIMDEC
 70
     4
  9
$DIMTDEC
 70
     4
  9
$DIMALTU
 70
     2
  9
$DIMALTTD
 70
     2
  9
$DIMTXSTY
  7
STANDARD
  9
$DIMAUNIT
 70
     0
  9
$DIMADEC
 70
     0
  9
$DIMALTRND
 40
0.0
  9
$DIMAZIN
 70
     1
  9
$DIMDSEP
 70
    46
  9
$DIMATFIT
 70
     3
  9
$DIMFRAC
 70
     1
  9
$DIMLDRBLK
  1

  9
$DIMLUNIT
 70
     5
  9
$DIMLWD
 70
    -1
  9
$DIMLWE
 70
    20
  9
$DIMTMOVE
 70
     0
  9
$DIMFXL
 40
1.0
  9
$DIMFXLON
 70
     0
  9
$DIMJOGANG
 40
0.7853981633974483
  9
$DIMTFILL
 70
     0
  9
$DIMTFILLCLR
 70
     0
  9
$DIMARCSYM
 70
     0
  9
$DIMLTYPE
  6

  9
$DIMLTEX1
  6

  9
$DIMLTEX2
  6

  9
$DIMTXTDIRECTION
 70
     0
  9
$LUNITS
 70
     2
  9
$LUPREC
 70
     3
  9
$SKETCHINC
 40
0.1
  9
$FILLETRAD
 40
0.0
  9
$AUNITS
 70
     0
  9
$AUPREC
 70
     0
  9
$MENU
  1
acad
  9
$ELEVATION
 40
0.0
  9
$PELEVATION
 40
0.0
  9
$THICKNESS
 40
0.0
  9
$LIMCHECK
 70
     0
  9
$CHAMFERA
 40
0.021
  9
$CHAMFERB
 40
0.021
  9
$CHAMFERC
 40
0.0
  9
$CHAMFERD
 40
0.0
  9
$SKPOLY
 70
     0
  9
$TDCREATE
 40
2311942.560442801
  9
$TDUCREATE
 40
2311942.852109468
  9
$TDUPDATE
 40
2457240.600014988
  9
$TDUUPDATE
 40
2457240.891681655
  9
$TDINDWG
 40
3.7924371644
  9
$TDUSRTIMER
 40
3.7924328935
  9
$USRTIMER
 70
     1
  9
$ANGBASE
 50
0.0
  9
$ANGDIR
 70
     0
  9
$PDMODE
 70
     0
  9
$PDSIZE
 40
0.0
  9
$PLINEWID
 40
0.0
  9
$SPLFRAME
 70
     0
  9
$SPLINETYPE
 70
     6
  9
$SPLINESEGS
 70
     8
  9
$HANDSEED
  5
128C6
  9
$SURFTAB1
 70
     6
  9
$SURFTAB2
 70
     6
  9
$SURFTYPE
 70
     6
  9
$SURFU
 70
     6
  9
$SURFV
 70
     6
  9
$UCSBASE
  2

  9
$UCSNAME
  2

  9
$UCSORG
 10
0.0
 20
0.0
 30
0.0
  9
$UCSXDIR
 10
1.0
 20
0.0
 30
0.0
  9
$UCSYDIR
 10
0.0
 20
1.0
 30
0.0
  9
$UCSORTHOREF
  2

  9
$UCSORTHOVIEW
 70
     0
  9
$UCSORGTOP
 10
0.0
 20
0.0
 30
0.0
  9
$UCSORGBOTTOM
 10
0.0
 20
0.0
 30
0.0
  9
$UCSORGLEFT
 10
0.0
 20
0.0
 30
0.0
  9
$UCSORGRIGHT
 10
0.0
 20
0.0
 30
0.0
  9
$UCSORGFRONT
 10
0.0
 20
0.0
 30
0.0
  9
$UCSORGBACK
 10
0.0
 20
0.0
 30
0.0
  9
$PUCSBASE
  2

  9
$PUCSNAME
  2

  9
$PUCSORG
 10
0.0
 20
0.0
 30
0.0
  9
$PUCSXDIR
 10
1.0
 20
0.0
 30
0.0
  9
$PUCSYDIR
 10
0.0
 20
1.0
 30
0.0
  9
$PUCSORTHOREF
  2

  9
$PUCSORTHOVIEW
 70
     0
  9
$PUCSORGTOP
 10
0.0
 20
0.0
 30
0.0
  9
$PUCSORGBOTTOM
 10
0.0
 20
0.0
 30
0.0
  9
$PUCSORGLEFT
 10
0.0
 20
0.0
 30
0.0
  9
$PUCSORGRIGHT
 10
0.0
 20
0.0
 30
0.0
  9
$PUCSORGFRONT
 10
0.0
 20
0.0
 30
0.0
  9
$PUCSORGBACK
 10
0.0
 20
0.0
 30
0.0
  9
$USERI1
 70
     0
  9
$USERI2
 70
     0
  9
$USERI3
 70
     0
  9
$USERI4
 70
     0
  9
$USERI5
 70
     0
  9
$USERR1
 40
0.0
  9
$USERR2
 40
0.0
  9
$USERR3
 40
0.0
  9
$USERR4
 40
0.0
  9
$USERR5
 40
0.0
  9
$WORLDVIEW
 70
     1
  9
$SHADEDGE
 70
     3
  9
$SHADEDIF
 70
    70
  9
$TILEMODE
 70
     0
  9
$MAXACTVP
 70
    16
  9
$PINSBASE
 10
0.0
 20
0.0
 30
0.0
  9
$PLIMCHECK
 70
     0
  9
$PEXTMIN
 10
0.2634280014781911
 20
0.7996674969068148
 30
0.0
  9
$PEXTMAX
 10
10.2364280014782
 20
7.159261699805374
 30
0.0
  9
$PLIMMIN
 10
0.1887025275534379
 20
0.7048111453807693
  9
$PLIMMAX
 10
10.31089215465157
 20
7.254463299114172
  9
$UNITMODE
 70
     0
  9
$VISRETAIN
 70
     0
  9
$PLINEGEN
 70
     0
  9
$PSLTSCALE
 70
     0
  9
$TREEDEPTH
 70
  3020
  9
$CMLSTYLE
  2
Standard
  9
$CMLJUST
 70
     0
  9
$CMLSCALE
 40
1.0
  9
$PROXYGRAPHICS
 70
     1
  9
$MEASUREMENT
 70
     0
  9
$CELWEIGHT
370
    -1
  9
$ENDCAPS
280
     0
  9
$JOINSTYLE
280
     0
  9
$LWDISPLAY
290
     1
  9
$INSUNITS
 70
     0
  9
$HYPERLINKBASE
  1

  9
$STYLESHEET
  1

  9
$XEDIT
290
     1
  9
$CEPSNTYPE
380
     0
  9
$PSTYLEMODE
290
     1
  9
$FINGERPRINTGUID
  2
{320D6187-D83E-4B0B-934E-58E275B97F63}
  9
$VERSIONGUID
  2
{38CD3FA3-43CA-4871-8D33-7D979F094B23}
  9
$EXTNAMES
290
     1
  9
$PSVPSCALE
 40
0.0
  9
$OLESTARTUP
290
     0
  9
$SORTENTS
280
    96
  9
$INDEXCTL
280
     0
  9
$HIDETEXT
280
     0
  9
$XCLIPFRAME
280
     0
  9
$HALOGAP
280
     0
  9
$OBSCOLOR
 70
   257
  9
$OBSLTYPE
280
     0
  9
$INTERSECTIONDISPLAY
280
     0
  9
$INTERSECTIONCOLOR
 70
   257
  9
$DIMASSOC
280
     1
  9
$PROJECTNAME
  1

  9
$CAMERADISPLAY
290
     0
  9
$LENSLENGTH
 40
50.0
  9
$CAMERAHEIGHT
 40
0.0
  9
$STEPSPERSEC
 40
2.0
  9
$STEPSIZE
 40
6.0
  9
$3DDWFPREC
 40
2.0
  9
$PSOLWIDTH
 40
0.25
  9
$PSOLHEIGHT
 40
4.0
  9
$LOFTANG1
 40
1.570795999999999
  9
$LOFTANG2
 40
1.570795999999999
  9
$LOFTMAG1
 40
0.0
  9
$LOFTMAG2
 40
0.0
  9
$LOFTPARAM
 70
     7
  9
$LOFTNORMALS
280
     1
  9
$LATITUDE
 40
37.795
  9
$LONGITUDE
 40
-122.394
  9
$NORTHDIRECTION
 40
0.0
  9
$TIMEZONE
 70
 -8000
  9
$LIGHTGLYPHDISPLAY
280
     1
  9
$TILEMODELIGHTSYNCH
280
     1
  9
$CMATERIAL
347
77E7
  9
$SOLIDHIST
280
     1
  9
$SHOWHIST
280
     1
  9
$DWFFRAME
280
     2
  9
$DGNFRAME
280
     0
  9
$REALWORLDSCALE
290
     1
  9
$INTERFERECOLOR
 62
     1
  9
$INTERFEREOBJVS
345
7809
  9
$INTERFEREVPVS
346
7806
  9
$CSHADOW
280
     0
  9
$SHADOWPLANELOCATION
 40
0.0
  0
ENDSEC
  0
SECTION
  2
CLASSES
  0
CLASS
  1
ACDBDICTIONARYWDFLT
  2
AcDbDictionaryWithDefault
  3
ObjectDBX Classes
 90
        0
 91
        1
280
     0
281
     0
  0
CLASS
  1
DICTIONARYVAR
  2
AcDbDictionaryVar
  3
ObjectDBX Classes
 90
        0
 91
       15
280
     0
281
     0
  0
CLASS
  1
MATERIAL
  2
AcDbMaterial
  3
ObjectDBX Classes
 90
     1153
 91
        3
280
     0
281
     0
  0
CLASS
  1
VISUALSTYLE
  2
AcDbVisualStyle
  3
ObjectDBX Classes
 90
     4095
 91
       26
280
     0
281
     0
  0
CLASS
  1
TABLESTYLE
  2
AcDbTableStyle
  3
ObjectDBX Classes
 90
     4095
 91
        1
280
     0
281
     0
  0
CLASS
  1
SCALE
  2
AcDbScale
  3
ObjectDBX Classes
 90
     1153
 91
       33
280
     0
281
     0
  0
CLASS
  1
MLEADERSTYLE
  2
AcDbMLeaderStyle
  3
ACDB_MLEADERSTYLE_CLASS
 90
     4095
 91
        1
280
     0
281
     0
  0
CLASS
  1
CELLSTYLEMAP
  2
AcDbCellStyleMap
  3
ObjectDBX Classes
 90
     1152
 91
        2
280
     0
281
     0
  0
CLASS
  1
SORTENTSTABLE
  2
AcDbSortentsTable
  3
ObjectDBX Classes
 90
        0
 91
        2
280
     0
281
     0
  0
CLASS
  1
ACDBSECTIONVIEWSTYLE
  2
AcDbSectionViewStyle
  3
ObjectDBX Classes
 90
     1025
 91
        1
280
     0
281
     0
  0
CLASS
  1
ACDBDETAILVIEWSTYLE
  2
AcDbDetailViewStyle
  3
ObjectDBX Classes
 90
     1025
 91
        1
280
     0
281
     0
  0
CLASS
  1
ACAD_EVALUATION_GRAPH
  2
AcDbEvalGraph
  3
ObjectDBX Classes
 90
     1153
 91
        0
280
     0
281
     0
  0
CLASS
  1
ACAECUSTOBJ
  2
AcAeEditorObj
  3
AcAeEditorObj
 90
     1024
 91
        0
280
     0
281
     0
  0
CLASS
  1
ACDB_DYNAMICBLOCKPURGEPREVENTER_VERSION
  2
AcDbDynamicBlockPurgePreventer
  3
ObjectDBX Classes
 90
     1153
 91
        0
280
     0
281
     0
  0
ENDSEC
  0
SECTION
  2
TABLES
  0
TABLE
  2
VPORT
  5
8
330
0
100
AcDbSymbolTable
 70
     1
  0
VPORT
  5
77E0
330
8
100
AcDbSymbolTableRecord
100
AcDbViewportTableRecord
  2
*Active
 70
     0
 10
0.0
 20
0.0
 11
1.0
 21
1.0
 12
60.00107409669213
 22
-17.30773099222426
 13
0.0
 23
0.0
 14
0.1
 24
0.1
 15
1.0
 25
1.0
 16
0.0
 26
0.0
 36
1.0
 17
0.0
 27
0.0
 37
0.0
 40
33.01245656023832
 41
1.670846394984326
 42
50.0
 43
0.0
 44
0.0
 50
0.0
 51
0.0
 71
     0
 72
   100
 73
     1
 74
     1
 75
     0
 76
     0
 77
     0
 78
     0
281
     0
 65
     1
110
0.0
120
0.0
130
0.0
111
1.0
121
0.0
131
0.0
112
0.0
122
1.0
132
0.0
 79
     0
146
0.0
348
7805
 60
     3
 61
     5
292
     1
282
     1
141
0.0
142
0.0
 63
   250
421
  3355443
1001
ACAD_NAV_VCDISPLAY
1070
     3
  0
ENDTAB
  0
TABLE
  2
LTYPE
  5
5
330
0
100
AcDbSymbolTable
 70
     4
  0
LTYPE
  5
13
330
5
100
AcDbSymbolTableRecord
100
AcDbLinetypeTableRecord
  2
ByBlock
 70
     0
  3

 72
    65
 73
     0
 40
0.0
  0
LTYPE
  5
14
330
5
100
AcDbSymbolTableRecord
100
AcDbLinetypeTableRecord
  2
ByLayer
 70
     0
  3

 72
    65
 73
     0
 40
0.0
  0
LTYPE
  5
15
330
5
100
AcDbSymbolTableRecord
100
AcDbLinetypeTableRecord
  2
CONTINUOUS
 70
     0
  3
Solid line
 72
    65
 73
     0
 40
0.0
  0
LTYPE
  5
8615
330
5
100
AcDbSymbolTableRecord
100
AcDbLinetypeTableRecord
  2
CENTER
 70
     0
  3
Center ____ _ ____ _ ____ _ ____ _ ____ _ ____
 72
    65
 73
     4
 40
2.0
 49
1.25
 74
     0
 49
-0.25
 74
     0
 49
0.25
 74
     0
 49
-0.25
 74
     0
  0
LTYPE
  5
BB1B
330
5
100
AcDbSymbolTableRecord
100
AcDbLinetypeTableRecord
  2
PHANTOM2
 70
     0
  3
___ _ _ ___ _ _ ___ _ _ ___ _ _
 72
    65
 73
     6
 40
1.25
 49
0.625
 74
     0
 49
-0.125
 74
     0
 49
0.125
 74
     0
 49
-0.125
 74
     0
 49
0.125
 74
     0
 49
-0.125
 74
     0
  0
ENDTAB
  0
TABLE
  2
LAYER
  5
2
102
{ACAD_XDICTIONARY
360
345A
102
}
330
0
100
AcDbSymbolTable
 70
     6
  0
LAYER
  5
10
102
{ACAD_XDICTIONARY
360
7838
102
}
330
2
100
AcDbSymbolTableRecord
100
AcDbLayerTableRecord
  2
0
 70
     0
 62
     1
  6
CONTINUOUS
370
    -3
390
F
347
77F7
348
0
  0
LAYER
  5
22
102
{ACAD_XDICTIONARY
360
783A
102
}
330
2
100
AcDbSymbolTableRecord
100
AcDbLayerTableRecord
  2
DIM
 70
     0
 62
     1
  6
CONTINUOUS
370
    20
390
F
347
77F7
348
0
  0
LAYER
  5
21E
330
2
100
AcDbSymbolTableRecord
100
AcDbLayerTableRecord
  2
Defpoints
 70
     0
 62
     7
  6
CONTINUOUS
290
     0
370
    -3
390
F
347
77F7
348
0
  0
LAYER
  5
246
102
{ACAD_XDICTIONARY
360
783C
102
}
330
2
100
AcDbSymbolTableRecord
100
AcDbLayerTableRecord
  2
TITLE
 70
     0
 62
     7
  6
CONTINUOUS
370
    -3
390
F
347
77F7
348
0
  0
LAYER
  5
2135
102
{ACAD_XDICTIONARY
360
783E
102
}
330
2
100
AcDbSymbolTableRecord
100
AcDbLayerTableRecord
  2
PART
 70
     0
 62
     7
  6
CONTINUOUS
370
    40
390
F
347
77F7
348
0
  0
LAYER
  5
F248
330
2
100
AcDbSymbolTableRecord
100
AcDbLayerTableRecord
  2
TEXT
 70
     0
 62
     1
  6
CONTINUOUS
370
    25
390
F
347
77F7
348
0
1001
AcAecLayerStandard
1000

1000

  0
ENDTAB
  0
TABLE
  2
STYLE
  5
3
330
0
100
AcDbSymbolTable
 70
     4
  0
STYLE
  5
11
330
3
100
AcDbSymbolTableRecord
100
AcDbTextStyleTableRecord
  2
STANDARD
 70
     0
 40
0.0
 41
1.0
 50
0.0
 71
     0
 42
0.4
  3
simplex.shx
  4

  0
STYLE
  5
249
330
3
100
AcDbSymbolTableRecord
100
AcDbTextStyleTableRecord
  2
Title
 70
     0
 40
0.0
 41
1.0
 50
0.0
 71
     0
 42
0.1
  3
arial.ttf
  4

1001
ACAD
1000
Arial
1071
       34
  0
STYLE
  5
24A
330
3
100
AcDbSymbolTableRecord
100
AcDbTextStyleTableRecord
  2
Title Bold
 70
     0
 40
0.0
 41
1.0
 50
0.0
 71
     0
 42
0.09
  3
arialbd.ttf
  4

1001
ACAD
1000
Arial
1071
 33554466
  0
STYLE
  5
24B
330
3
100
AcDbSymbolTableRecord
100
AcDbTextStyleTableRecord
  2
Title light
 70
     0
 40
0.0
 41
1.0
 50
0.0
 71
     0
 42
0.2
  3
simplex.shx
  4

  0
ENDTAB
  0
TABLE
  2
VIEW
  5
6
330
0
100
AcDbSymbolTable
 70
     0
  0
ENDTAB
  0
TABLE
  2
UCS
  5
7
330
0
100
AcDbSymbolTable
 70
     0
  0
ENDTAB
  0
TABLE
  2
APPID
  5
9
330
0
100
AcDbSymbolTable
 70
    18
  0
APPID
  5
12
330
9
100
AcDbSymbolTableRecord
100
AcDbRegAppTableRecord
  2
ACAD
 70
     0
  0
APPID
  5
7837
330
9
100
AcDbSymbolTableRecord
100
AcDbRegAppTableRecord
  2
ACAD_MLEADERVER
 70
     0
  0
APPID
  5
7DB7
330
9
100
AcDbSymbolTableRecord
100
AcDbRegAppTableRecord
  2
ACAD_DSTYLE_DIMJAG
 70
     0
  0
APPID
  5
7DB8
330
9
100
AcDbSymbolTableRecord
100
AcDbRegAppTableRecord
  2
ACAD_DSTYLE_DIMTALN
 70
     0
  0
APPID
  5
7DE4
330
9
100
AcDbSymbolTableRecord
100
AcDbRegAppTableRecord
  2
AcAecLayerStandard
 70
     0
  0
APPID
  5
7F3C
330
9
100
AcDbSymbolTableRecord
100
AcDbRegAppTableRecord
  2
ACAD_EXEMPT_FROM_CAD_STANDARDS
 70
     0
  0
APPID
  5
8C55
330
9
100
AcDbSymbolTableRecord
100
AcDbRegAppTableRecord
  2
ACAD_PSEXT
 70
     0
  0
APPID
  5
BB2B
330
9
100
AcDbSymbolTableRecord
100
AcDbRegAppTableRecord
  2
ACAD_NAV_VCDISPLAY
 70
     0
  0
APPID
  5
C0AB
330
9
100
AcDbSymbolTableRecord
100
AcDbRegAppTableRecord
  2
ACAUTHENVIRON
 70
     0
  0
APPID
  5
C0AF
330
9
100
AcDbSymbolTableRecord
100
AcDbRegAppTableRecord
  2
AcDbDynamicBlockTrueName
 70
     0
  0
APPID
  5
C0B0
330
9
100
AcDbSymbolTableRecord
100
AcDbRegAppTableRecord
  2
AcDbDynamicBlockGUID
 70
     0
  0
APPID
  5
C146
330
9
100
AcDbSymbolTableRecord
100
AcDbRegAppTableRecord
  2
AcadAnnoAV
 70
     0
  0
APPID
  5
C5B3
330
9
100
AcDbSymbolTableRecord
100
AcDbRegAppTableRecord
  2
AcDbBlockRepETag
 70
     0
  0
APPID
  5
C5BD
330
9
100
AcDbSymbolTableRecord
100
AcDbRegAppTableRecord
  2
ACAD_DSTYLE_DIMBREAK
 70
     0
  0
APPID
  5
F38B
330
9
100
AcDbSymbolTableRecord
100
AcDbRegAppTableRecord
  2
AcCmTransparency
 70
     0
  0
APPID
  5
F396
330
9
100
AcDbSymbolTableRecord
100
AcDbRegAppTableRecord
  2
AcLayerTools
 70
     0
  0
APPID
  5
FF3F
330
9
100
AcDbSymbolTableRecord
100
AcDbRegAppTableRecord
  2
AcadAnnoMonitorAlertIconDisabled
 70
     0
  0
APPID
  5
10CE9
330
9
100
AcDbSymbolTableRecord
100
AcDbRegAppTableRecord
  2
ACAD_DSTYLE_DIMRADIAL_EXTENSION
 70
     0
  0
ENDTAB
  0
TABLE
  2
DIMSTYLE
  5
A
330
0
100
AcDbSymbolTable
 70
     1
100
AcDbDimStyleTable
 71
     1
340
24C
  0
DIMSTYLE
105
24C
102
{ACAD_REACTORS
330
1132D
330
1133B
330
11357
330
11403
330
11533
330
11534
330
11535
330
11536
330
11537
330
115B7
102
}
330
A
100
AcDbSymbolTableRecord
100
AcDbDimStyleTableRecord
  2
Standard
 70
     0
  3
"
 41
0.5
 42
0.12
 44
0.1
 79
     1
140
0.4
141
0.125
147
0.25
176
   256
177
   256
178
   256
276
     1
277
     5
340
11
371
    -1
372
    20
1001
ACAD_DSTYLE_DIMBREAK
1070
   391
1040
0.5
1001
ACAD_DSTYLE_DIMJAG
1070
   388
1040
1.5
1001
ACAD_DSTYLE_DIMTALN
1070
   392
1070
     0
  0
ENDTAB
  0
TABLE
  2
BLOCK_RECORD
  5
1
330
0
100
AcDbSymbolTable
 70
    13
  0
BLOCK_RECORD
  5
1E
102
{ACAD_XDICTIONARY
360
7F75
102
}
330
1
100
AcDbSymbolTableRecord
100
AcDbBlockTableRecord
  2
*Model_Space
340
21
 70
     0
280
     1
281
     0
  0
BLOCK_RECORD
  5
1A
330
1
100
AcDbSymbolTableRecord
100
AcDbBlockTableRecord
  2
*Paper_Space
340
1D
 70
     0
280
     1
281
     0
  0
BLOCK_RECORD
  5
785B
102
{ACAD_XDICTIONARY
360
C17D
102
}
330
1
100
AcDbSymbolTableRecord
100
AcDbBlockTableRecord
  2
Tabloid Submittal (11 x 17)
340
0
102
{BLKREFS
331
C0C7
102
}
 70
     1
280
     1
281
     0
1001
AcDbDynamicBlockGUID
1000
{688B0879-2949-41E6-9BA8-2485A9AF8A04}
1001
AcDbBlockRepETag
1070
     1
1071
       41
  0
BLOCK_RECORD
  5
C4DE
330
1
100
AcDbSymbolTableRecord
100
AcDbBlockTableRecord
  2
bega
340
0
310
2800000020000000200000000100080000000000000400000000000000000000000000000000000000000000000080000080000000808000800000008000800080800000C0C0C000C0DCC000F0CAA6000020400000206000002080000020A0000020C0000020E00000400000004020000040400000406000004080000040A0
310
000040C0000040E00000600000006020000060400000606000006080000060A0000060C0000060E00000800000008020000080400000806000008080000080A0000080C0000080E00000A0000000A0200000A0400000A0600000A0800000A0A00000A0C00000A0E00000C0000000C0200000C0400000C0600000C0800000C0
310
A00000C0C00000C0E00000E0000000E0200000E0400000E0600000E0800000E0A00000E0C00000E0E00040000000400020004000400040006000400080004000A0004000C0004000E00040200000402020004020400040206000402080004020A0004020C0004020E000404000004040200040404000404060004040800040
310
40A0004040C0004040E00040600000406020004060400040606000406080004060A0004060C0004060E00040800000408020004080400040806000408080004080A0004080C0004080E00040A0000040A0200040A0400040A0600040A0800040A0A00040A0C00040A0E00040C0000040C0200040C0400040C0600040C08000
310
40C0A00040C0C00040C0E00040E0000040E0200040E0400040E0600040E0800040E0A00040E0C00040E0E00080000000800020008000400080006000800080008000A0008000C0008000E00080200000802020008020400080206000802080008020A0008020C0008020E00080400000804020008040400080406000804080
310
008040A0008040C0008040E00080600000806020008060400080606000806080008060A0008060C0008060E00080800000808020008080400080806000808080008080A0008080C0008080E00080A0000080A0200080A0400080A0600080A0800080A0A00080A0C00080A0E00080C0000080C0200080C0400080C0600080C0
310
800080C0A00080C0C00080C0E00080E0000080E0200080E0400080E0600080E0800080E0A00080E0C00080E0E000C0000000C0002000C0004000C0006000C0008000C000A000C000C000C000E000C0200000C0202000C0204000C0206000C0208000C020A000C020C000C020E000C0400000C0402000C0404000C0406000C0
310
408000C040A000C040C000C040E000C0600000C0602000C0604000C0606000C0608000C060A000C060C000C060E000C0800000C0802000C0804000C0806000C0808000C080A000C080C000C080E000C0A00000C0A02000C0A04000C0A06000C0A08000C0A0A000C0A0C000C0A0E000C0C00000C0C02000C0C04000C0C06000
310
C0C08000C0C0A000F0FBFF00A4A0A000808080000000FF0000FF000000FFFF00FF000000FF00FF00FFFF0000FFFFFF0000000000000000000000000000000000000000000000000000000000000000000000000000000000000000000000000000000000000000000000000000000000000000000000000000000000000000
310
00000000000000000000000000000000000000000000000000000000000000000000000000000000000000000000000000000000000000000000000000000000000000000000000000000000000000000000000000000000000000000000000000000000000000000000000000000000000000000000000000000000000000
310
00000000000000000000000000000000000000000000000000000000000000000000000000000000000000000000000000000000000000000000000000000000000000000000000000000000000000000000000000000000000000000000000000000000000000000000000000000000000000000000000000000000000000
310
000000000000000000000000000000000000000000000000000000000000000000000000FFFFFF00000000000000000000000000FFFFFFFFFFFFFFFFFFFFFFFFFFFF00FFFFFFFFFFFFFFFFFF000000FFFFFF0000FFFFFFFFFFFFFFFFFFFFFFFFFFFFFFFFFFFFFFFFFFFFFFFFFFFFFFFFFFFF0000FFFFFF0000FFFFFFFFFF00
310
000000FFFFFF0000FFFFFFFFFFFFFFFFFFFF000000FFFFFFFFFFFFFFFFFFFFFFFFFFFFFFFF00FFFFFFFFFFFFFFFFFFFFFFFF000000FFFFFFFFFFFFFFFFFFFFFFFFFFFFFFFF00FFFFFFFFFF00FFFF00FFFF00000000FFFFFF00FFFFFFFFFFFF00000000FFFFFF0000FFFFFF00FFFFFFFFFF00000000FFFFFFFFFFFFFFFFFFFF
310
FFFFFFFFFFFFFFFFFFFFFF000000FFFFFF0000000000FFFFFFFFFFFFFFFFFFFFFFFFFFFF00FFFFFFFFFFFF000000FFFFFF000000000000000000000000000000000000000000FFFFFF000000000000000000000000000000000000000000000000000000000000000000000000000000000000000000000000000000000000
310
00000000000000000000000000000000000000000000000000000000000000000000000000000000000000000000000000000000000000000000000000000000000000000000000000000000000000000000000000000000000000000000000000000000000000000000000000000000000000000000000000000000000000
310
00000000000000000000000000000000000000000000000000000000000000000000000000000000000000000000000000000000000000000000000000000000000000000000000000000000000000000000000000000000000000000000000000000000000000000000000000000000000000000000000000000000000000
310
0000000000000000000000000000000000000000000000000000000000000000000000000000000000000000000000000000000000000000
102
{BLKREFS
331
C53F
102
}
 70
     1
280
     1
281
     0
  0
BLOCK_RECORD
  5
C53E
102
{ACAD_XDICTIONARY
360
C540
102
}
330
1
100
AcDbSymbolTableRecord
100
AcDbBlockTableRecord
  2
bega logo
340
0
102
{BLKREFS
331
C545
102
}
 70
     1
280
     1
281
     0
  0
BLOCK_RECORD
  5
1132E
330
1
100
AcDbSymbolTableRecord
100
AcDbBlockTableRecord
  2
*D3
340
0
 70
     0
280
     1
281
     0
  0
BLOCK_RECORD
  5
1133C
330
1
100
AcDbSymbolTableRecord
100
AcDbBlockTableRecord
  2
*D4
340
0
 70
     0
280
     1
281
     0
  0
BLOCK_RECORD
  5
11358
330
1
100
AcDbSymbolTableRecord
100
AcDbBlockTableRecord
  2
*D5
340
0
 70
     0
280
     1
281
     0
  0
BLOCK_RECORD
  5
11404
330
1
100
AcDbSymbolTableRecord
100
AcDbBlockTableRecord
  2
*D6
340
0
 70
     0
280
     1
281
     0
  0
BLOCK_RECORD
  5
11538
330
1
100
AcDbSymbolTableRecord
100
AcDbBlockTableRecord
  2
*D7
340
0
 70
     0
280
     1
281
     0
  0
BLOCK_RECORD
  5
11545
330
1
100
AcDbSymbolTableRecord
100
AcDbBlockTableRecord
  2
*D8
340
0
 70
     0
280
     1
281
     0
  0
BLOCK_RECORD
  5
11550
330
1
100
AcDbSymbolTableRecord
100
AcDbBlockTableRecord
  2
*D9
340
0
 70
     0
280
     1
281
     0
  0
BLOCK_RECORD
  5
1155D
330
1
100
AcDbSymbolTableRecord
100
AcDbBlockTableRecord
  2
*D10
340
0
 70
     0
280
     1
281
     0
  0
BLOCK_RECORD
  5
1156A
330
1
100
AcDbSymbolTableRecord
100
AcDbBlockTableRecord
  2
*D11
340
0
 70
     0
280
     1
281
     0
  0
BLOCK_RECORD
  5
115B8
330
1
100
AcDbSymbolTableRecord
100
AcDbBlockTableRecord
  2
*D12
340
0
 70
     0
280
     1
281
     0
  0
ENDTAB
  0
ENDSEC
  0
SECTION
  2
BLOCKS
  0
BLOCK
  5
1F
330
1E
100
AcDbEntity
  8
0
100
AcDbBlockBegin
  2
*Model_Space
 70
     0
 10
0.0
 20
0.0
 30
0.0
  3
*Model_Space
  1

  0
ENDBLK
  5
20
330
1E
100
AcDbEntity
  8
0
100
AcDbBlockEnd
  0
BLOCK
  5
1B
330
1A
100
AcDbEntity
 67
     1
  8
0
100
AcDbBlockBegin
  2
*Paper_Space
 70
     0
 10
0.0
 20
0.0
 30
0.0
  3
*Paper_Space
  1

  0
ENDBLK
  5
1C
330
1A
100
AcDbEntity
 67
     1
  8
0
100
AcDbBlockEnd
  0
BLOCK
  5
785C
330
785B
100
AcDbEntity
  8
0
100
AcDbBlockBegin
  2
Tabloid Submittal (11 x 17)
 70
     0
 10
0.0
 20
0.0
 30
0.0
  3
Tabloid Submittal (11 x 17)
  1

  0
LINE
  5
C14A
330
785B
100
AcDbEntity
  8
TITLE
  6
Continuous
100
AcDbLine
 10
16.76999999999998
 20
0.2499999999999996
 30
0.0
 11
0.2099999999999991
 21
0.2499999999999996
 31
0.0
1001
AcDbBlockRepETag
1070
     1
1071
        0
1005
C14A
  0
LINE
  5
C14B
330
785B
100
AcDbEntity
  8
TITLE
  6
Continuous
100
AcDbLine
 10
0.2099999999999991
 20
0.2499999999999996
 30
0.0
 11
0.2100000000000002
 21
10.81
 31
0.0
1001
AcDbBlockRepETag
1070
     1
1071
        1
1005
C14B
  0
LINE
  5
C14C
330
785B
100
AcDbEntity
  8
TITLE
  6
Continuous
100
AcDbLine
 10
16.00597655206839
 20
5.184545991836441
 30
0.0
 11
16.0059765520684
 21
9.205
 31
0.0
1001
AcDbBlockRepETag
1070
     1
1071
        2
1005
C14C
  0
LINE
  5
C14D
330
785B
100
AcDbEntity
  8
TITLE
  6
Continuous
100
AcDbLine
 10
15.76980151342427
 20
5.187499999999998
 30
0.0
 11
15.76980151342428
 21
9.205
 31
0.0
1001
AcDbBlockRepETag
1070
     1
1071
        3
1005
C14D
  0
LINE
  5
C14E
330
785B
100
AcDbEntity
  8
TITLE
  6
Continuous
100
AcDbLine
 10
15.51980151342426
 20
5.0625
 30
0.0
 11
15.51980151342426
 21
9.205000000000003
 31
0.0
1001
AcDbBlockRepETag
1070
     1
1071
        4
1005
C14E
  0
LINE
  5
C14F
330
785B
100
AcDbEntity
  8
TITLE
  6
Continuous
100
AcDbLine
 10
15.255
 20
10.81
 30
0.0
 11
15.255
 21
0.25
 31
0.0
1001
AcDbBlockRepETag
1070
     1
1071
        5
1005
C14F
  0
LINE
  5
C150
330
785B
100
AcDbEntity
  8
TITLE
  6
Continuous
100
AcDbLine
 10
15.71749999999999
 20
1.626531582664471
 30
0.0
 11
15.71749999999999
 21
4.063583231516509
 31
0.0
1001
AcDbBlockRepETag
1070
     1
1071
        6
1005
C150
  0
TEXT
  5
C151
330
785B
100
AcDbEntity
  8
TITLE
  6
Continuous
100
AcDbText
 10
15.4875170007043
 20
0.8987379925370396
 30
0.0
 40
0.15
  1
SUBMITTAL APPROVAL
 50
90.0
 41
1.199999999999999
  7
Title Bold
100
AcDbText
1001
AcDbBlockRepETag
1070
     1
1071
        7
1005
C151
  0
TEXT
  5
C152
330
785B
100
AcDbEntity
  8
TITLE
  6
Continuous
100
AcDbText
 10
16.333
 20
1.6875
 30
0.0
 40
0.09375
  1
DESCRIPTION
 50
90.0
  7
Title
100
AcDbText
1001
AcDbBlockRepETag
1070
     1
1071
        8
1005
C152
  0
LINE
  5
C153
330
785B
100
AcDbEntity
  8
TITLE
  6
Continuous
100
AcDbLine
 10
16.1925
 20
0.25
 30
0.0
 11
16.1925
 21
4.375
 31
0.0
1001
AcDbBlockRepETag
1070
     1
1071
        9
1005
C153
  0
LINE
  5
C154
330
785B
100
AcDbEntity
  8
TITLE
  6
Continuous
100
AcDbLine
 10
16.005
 20
0.25
 30
0.0
 11
16.00499999999999
 21
4.375
 31
0.0
1001
AcDbBlockRepETag
1070
     1
1071
       10
1005
C154
  0
TEXT
  5
C155
330
785B
100
AcDbEntity
  8
TITLE
  6
Continuous
100
AcDbText
 10
15.9175
 20
0.5033168384209468
 30
0.0
 40
0.09
  1
SIGNED:
 50
90.0
  7
Title
100
AcDbText
1001
AcDbBlockRepETag
1070
     1
1071
       11
1005
C155
  0
TEXT
  5
C156
330
785B
100
AcDbEntity
  8
TITLE
  6
Continuous
100
AcDbText
 10
15.6790112921469
 20
0.6299407769738857
 30
0.0
 40
0.09
  1
APPROVED BY:
 50
90.0
  7
Title
100
AcDbText
1001
AcDbBlockRepETag
1070
     1
1071
       12
1005
C156
  0
TEXT
  5
C157
330
785B
100
AcDbEntity
  8
TITLE
  6
Continuous
100
AcDbText
 10
16.333
 20
0.3125
 30
0.0
 40
0.09375
  1
REV.
 50
90.0
  7
Title
100
AcDbText
1001
AcDbBlockRepETag
1070
     1
1071
       13
1005
C157
  0
TEXT
  5
C158
330
785B
100
AcDbEntity
  8
TITLE
  6
Continuous
100
AcDbText
 10
16.333
 20
0.8125
 30
0.0
 40
0.09375
  1
DATE
 50
90.0
  7
Title
100
AcDbText
1001
AcDbBlockRepETag
1070
     1
1071
       14
1005
C158
  0
LINE
  5
C159
330
785B
100
AcDbEntity
  8
TITLE
  6
Continuous
100
AcDbLine
 10
16.37999999999999
 20
0.75
 30
0.0
 11
16.005
 21
0.75
 31
0.0
1001
AcDbBlockRepETag
1070
     1
1071
       15
1005
C159
  0
LINE
  5
C15A
330
785B
100
AcDbEntity
  8
TITLE
  6
Continuous
100
AcDbLine
 10
16.37999999999999
 20
1.625
 30
0.0
 11
16.005
 21
1.625
 31
0.0
1001
AcDbBlockRepETag
1070
     1
1071
       16
1005
C15A
  0
TEXT
  5
C15B
330
785B
100
AcDbEntity
  8
TITLE
  6
Continuous
100
AcDbText
 10
15.98625
 20
4.4375
 30
0.0
 40
0.09375
  1
LOCATION:
 50
90.0
  7
Title
100
AcDbText
1001
AcDbBlockRepETag
1070
     1
1071
       17
1005
C15B
  0
LINE
  5
C15C
330
785B
100
AcDbEntity
  8
TITLE
  6
Continuous
100
AcDbLine
 10
16.37999999999999
 20
4.375
 30
0.0
 11
15.255
 21
4.375
 31
0.0
1001
AcDbBlockRepETag
1070
     1
1071
       18
1005
C15C
  0
TEXT
  5
C15D
330
785B
100
AcDbEntity
  8
TITLE
  6
Continuous
100
AcDbText
 10
15.9175
 20
2.966202077614363
 30
0.0
 40
0.09
  1
DATE:
 50
90.0
  7
Title
100
AcDbText
1001
AcDbBlockRepETag
1070
     1
1071
       19
1005
C15D
  0
TEXT
  5
C15E
330
785B
100
AcDbEntity
  8
TITLE
  6
Continuous
100
AcDbText
 10
15.7425
 20
4.4375
 30
0.0
 40
0.09375
  1
PROJECT: 
 50
90.0
  7
Title
100
AcDbText
1001
AcDbBlockRepETag
1070
     1
1071
       20
1005
C15E
  0
TEXT
  5
C15F
330
785B
100
AcDbEntity
  8
TITLE
  6
Continuous
100
AcDbText
 10
15.49875
 20
4.4375
 30
0.0
 40
0.09375
  1
CAT NO.:
 50
90.0
  7
Title
100
AcDbText
1001
AcDbBlockRepETag
1070
     1
1071
       21
1005
C15F
  0
TEXT
  5
C160
330
785B
100
AcDbEntity
  8
TITLE
  6
Continuous
100
AcDbText
 10
16.22999899999999
 20
4.4375
 30
0.0
 40
0.09375
  1
DRAWN:
 50
90.0
  7
Title
100
AcDbText
1001
AcDbBlockRepETag
1070
     1
1071
       22
1005
C160
  0
POLYLINE
  5
C169
330
785B
100
AcDbEntity
  8
TITLE
  6
Continuous
100
AcDb3dPolyline
 66
     1
 10
0.0
 20
0.0
 30
0.0
 70
     8
1001
AcDbBlockRepETag
1070
     1
1071
       23
1005
C169
  0
VERTEX
  5
C16A
330
C169
100
AcDbEntity
  8
TITLE
  6
Continuous
100
AcDbVertex
100
AcDb3dPolylineVertex
 10
15.85499999999998
 20
10.80499999999999
 30
0.0
 70
    32
  0
VERTEX
  5
C16B
330
C169
100
AcDbEntity
  8
TITLE
  6
Continuous
100
AcDbVertex
100
AcDb3dPolylineVertex
 10
15.85499999999998
 20
9.205
 30
0.0
 70
    32
  0
SEQEND
  5
C16C
330
C169
100
AcDbEntity
  8
TITLE
  6
Continuous
  0
LINE
  5
C16D
330
785B
100
AcDbEntity
  8
TITLE
  6
Continuous
100
AcDbLine
 10
15.25499999999999
 20
9.205
 30
0.0
 11
16.36964585231884
 21
9.205
 31
0.0
1001
AcDbBlockRepETag
1070
     1
1071
       24
1005
C16D
  0
TEXT
  5
C16E
330
785B
100
AcDbEntity
  8
TITLE
  6
Continuous
100
AcDbText
 10
16.22999899999999
 20
6.041926288453423
 30
0.0
 40
0.09375
  1
DATE:
 50
90.0
  7
Title
100
AcDbText
1001
AcDbBlockRepETag
1070
     1
1071
       25
1005
C16E
  0
LINE
  5
C16F
330
785B
100
AcDbEntity
  8
TITLE
  6
Continuous
100
AcDbLine
 10
16.292499
 20
5.949813424672798
 30
0.0
 11
16.292499
 21
4.98686106646417
 31
0.0
1001
AcDbBlockRepETag
1070
     1
1071
       26
1005
C16F
  0
LINE
  5
C170
330
785B
100
AcDbEntity
  8
TITLE
  6
Continuous
100
AcDbLine
 10
16.29216747152271
 20
6.442672359146097
 30
0.0
 11
16.29216747152272
 21
7.284820569518225
 31
0.0
1001
AcDbBlockRepETag
1070
     1
1071
       27
1005
C170
  0
TEXT
  5
C171
330
785B
100
AcDbEntity
  8
TITLE
  6
Continuous
100
AcDbText
 10
16.0001090549661
 20
9.496129554854851
 30
0.0
 40
0.1
  1
1000 Bega Way
 50
90.0
  7
Title
100
AcDbText
1001
AcDbBlockRepETag
1070
     1
1071
       28
1005
C171
  0
TEXT
  5
C172
330
785B
100
AcDbEntity
  8
TITLE
  6
Continuous
100
AcDbText
 10
16.16075025551181
 20
9.336231968673896
 30
0.0
 40
0.1
  1
Carpinteria, Ca. 93013
 50
90.0
  7
Title
100
AcDbText
1001
AcDbBlockRepETag
1070
     1
1071
       29
1005
C172
  0
TEXT
  5
C173
330
785B
100
AcDbEntity
  8
TITLE
  6
Continuous
100
AcDbText
 10
16.32139145605751
 20
9.516116743162447
 30
0.0
 40
0.1
  1
(805) 684-0533
 50
90.0
  7
Title
100
AcDbText
1001
AcDbBlockRepETag
1070
     1
1071
       30
1005
C173
  0
LINE
  5
C174
330
785B
100
AcDbEntity
  8
TITLE
100
AcDbLine
 10
16.37999999999999
 20
0.2499999999999996
 30
0.0
 11
16.37999999999999
 21
10.81
 31
0.0
1001
AcDbBlockRepETag
1070
     1
1071
       31
1005
C174
  0
TEXT
  5
C175
330
785B
100
AcDbEntity
  8
TITLE
100
AcDbText
 10
16.54312790891764
 20
1.16077209706627
 30
0.0
 40
0.09
  1
This print contains confidential information which is the property of BEGA U.S.  By acception this information,
 50
90.0
 41
1.1
  7
Title light
100
AcDbText
1001
AcDbBlockRepETag
1070
     1
1071
       32
1005
C175
  0
TEXT
  5
C176
330
785B
100
AcDbEntity
  8
TITLE
100
AcDbText
 10
15.08455463558403
 20
0.4465869233911591
 30
0.0
 40
0.2
  1
TYPE:
 50
90.0
  7
Title Bold
100
AcDbText
1001
AcDbBlockRepETag
1070
     1
1071
       33
1005
C176
  0
LINE
  5
C177
330
785B
100
AcDbEntity
  8
0
100
AcDbLine
 10
15.13167492131488
 20
1.37556601420562
 30
0.0
 11
15.13167492131488
 21
3.301947850782372
 31
0.0
1001
AcDbBlockRepETag
1070
     1
1071
       34
1005
C177
  0
LINE
  5
C178
330
785B
100
AcDbEntity
  8
TITLE
  6
Continuous
100
AcDbLine
 10
16.77
 20
10.80999999999999
 30
0.0
 11
0.2100000000000002
 21
10.81
 31
0.0
1001
AcDbBlockRepETag
1070
     1
1071
       35
1005
C178
  0
TEXT
  5
C179
330
785B
100
AcDbEntity
  8
TITLE
  6
Continuous
100
AcDbText
 10
16.22999899999999
 20
7.388539952482142
 30
0.0
 40
0.09375
  1
File Name:
 50
90.0
 41
0.9
  7
Title light
100
AcDbText
1001
AcDbBlockRepETag
1070
     1
1071
       36
1005
C179
  0
LINE
  5
C17A
330
785B
100
AcDbEntity
  8
TITLE
  6
Continuous
100
AcDbLine
 10
16.29216747152272
 20
8.120960284649104
 30
0.0
 11
16.29216747152272
 21
9.070380015566758
 31
0.0
1001
AcDbBlockRepETag
1070
     1
1071
       37
1005
C17A
  0
TEXT
  5
C17B
330
785B
100
AcDbEntity
  8
TITLE
100
AcDbText
 10
16.69501123957599
 20
1.351357065619774
 30
0.0
 40
0.09
  1
the borrower agrees that it will not be used for any other purpose other than that which is was loaned.
 50
90.0
 41
1.1
  7
Title light
100
AcDbText
1001
AcDbBlockRepETag
1070
     1
1071
       38
1005
C17B
  0
LINE
  5
C17C
330
785B
100
AcDbEntity
  8
TITLE
  6
Continuous
100
AcDbLine
 10
16.76999999999998
 20
0.2499999999999996
 30
0.0
 11
16.77
 21
10.80999999999999
 31
0.0
1001
AcDbBlockRepETag
1070
     1
1071
       39
1005
C17C
  0
INSERT
  5
C545
330
785B
100
AcDbEntity
  8
0
100
AcDbBlockReference
  2
bega logo
 10
15.93530099606815
 20
9.335079095538807
 30
0.0
 41
0.12890625
 42
0.12890625
 43
0.12890625
 50
90.0
1001
AcDbBlockRepETag
1070
     1
1071
       40
1005
C545
  0
ENDBLK
  5
7DB6
330
785B
100
AcDbEntity
  8
0
100
AcDbBlockEnd
  0
BLOCK
  5
C4DF
330
C4DE
100
AcDbEntity
  8
0
100
AcDbBlockBegin
  2
bega
 70
     0
 10
0.0
 20
0.0
 30
0.0
  3
bega
  1

  0
HATCH
  5
C4E0
330
C4DE
100
AcDbEntity
  8
0
100
AcDbHatch
 10
0.0
 20
0.0
 30
0.0
210
0.0
220
0.0
230
1.0
  2
SOLID
 70
     1
 71
     1
 91
       17
 92
        1
 93
       15
 72
     4
 94
        3
 73
     0
 74
     0
 95
        8
 96
        4
 40
0.0
 40
0.0
 40
0.0
 40
0.0
 40
11.8016654154607
 40
11.8016654154607
 40
11.8016654154607
 40
11.8016654154607
 10
7.035577472388887
 20
-2.481201227998744
 10
7.03544731696475
 20
-2.515837259605794
 10
7.057892042171959
 20
-2.536879190038558
 10
7.085416479737973
 20
-2.536946076400318
 97
        0
 72
     4
 94
        3
 73
     0
 74
     0
 95
        8
 96
        4
 40
0.0
 40
0.0
 40
0.0
 40
0.0
 40
4.629221768901988
 40
4.629221768901988
 40
4.629221768901988
 40
4.629221768901988
 10
7.085416479737973
 20
-2.536946076400318
 10
7.097963906578137
 20
-2.536974998711921
 10
7.108408947015837
 20
-2.530141796392404
 10
7.11448471464611
 20
-2.520470461122103
 97
        0
 72
     1
 10
7.114484698988838
 20
-2.520470459082845
 11
7.115377742088837
 21
-2.534389948782845
 72
     1
 10
7.115377742088837
 20
-2.534389948782845
 11
7.132486064388837
 21
-2.534389948782845
 72
     1
 10
7.132486064388837
 20
-2.534389948782845
 11
7.132486064388837
 21
-2.477715932982845
 72
     1
 10
7.132486064388837
 20
-2.477715932982845
 11
7.087956329888837
 21
-2.477715932982845
 72
     1
 10
7.087956329888837
 20
-2.477715932982845
 11
7.087958138788838
 21
-2.494699516782845
 72
     1
 10
7.087958138788838
 20
-2.494699516782845
 11
7.113098177288837
 21
-2.494695898982845
 72
     4
 94
        3
 73
     0
 74
     0
 95
        8
 96
        4
 40
0.0
 40
0.0
 40
0.0
 40
0.0
 40
5.368284882327459
 40
5.368284882327459
 40
5.368284882327459
 40
5.368284882327459
 10
7.113098188924324
 20
-2.494695903011865
 10
7.11051313902058
 20
-2.50987357154594
 10
7.099232931340701
 20
-2.518830852691102
 10
7.086763235643485
 20
-2.518830853589292
 97
        0
 72
     4
 94
        3
 73
     0
 74
     0
 95
        8
 96
        4
 40
0.0
 40
0.0
 40
0.0
 40
0.0
 40
7.529152638125497
 40
7.529152638125497
 40
7.529152638125497
 40
7.529152638125497
 10
7.086763235643485
 20
-2.518830853589292
 10
7.067988192731542
 20
-2.518830851715375
 10
7.057864927154875
 20
-2.501946693631877
 10
7.057864926982067
 20
-2.481123495794018
 97
        0
 72
     4
 94
        3
 73
     0
 74
     0
 95
        8
 96
        4
 40
0.0
 40
0.0
 40
0.0
 40
0.0
 40
7.504907119165637
 40
7.504907119165637
 40
7.504907119165637
 40
7.504907119165637
 10
7.057864926982067
 20
-2.481123495794018
 10
7.057864927298699
 20
-2.460296682434186
 10
7.068394930943732
 20
-2.443412524496772
 10
7.086763235643485
 20
-2.443412522539423
 97
        0
 72
     4
 94
        3
 73
     0
 74
     0
 95
        8
 96
        4
 40
0.0
 40
0.0
 40
0.0
 40
0.0
 40
4.530982702601268
 40
4.530982702601268
 40
4.530982702601268
 40
4.530982702601268
 10
7.086763235643485
 20
-2.443412522539423
 10
7.09740893442861
 20
-2.443412519965713
 10
7.106062518978284
 20
-2.447807106512711
 10
7.111010265302276
 20
-2.462312298444937
 97
        0
 72
     1
 10
7.111010254688837
 20
-2.462312297582845
 11
7.132261911388837
 21
-2.462310488682845
 72
     4
 94
        3
 73
     0
 74
     0
 95
        8
 96
        4
 40
0.0
 40
0.0
 40
0.0
 40
0.0
 40
8.922377717083382
 40
8.922377717083382
 40
8.922377717083382
 40
8.922377717083382
 10
7.13226189286133
 20
-2.462310490728403
 10
7.125898696395945
 20
-2.436047847076395
 10
7.106955536142994
 20
-2.425476264021082
 10
7.085416479737973
 20
-2.425458187342576
 97
        0
 72
     4
 94
        3
 73
     0
 74
     0
 95
        8
 96
        4
 40
0.0
 40
0.0
 40
0.0
 40
0.0
 40
11.8149668603718
 40
11.8149668603718
 40
11.8149668603718
 40
11.8149668603718
 10
7.085416479737973
 20
-2.425458187342576
 10
7.054224166378205
 20
-2.42542926477272
 10
7.035693167191277
 20
-2.450697657733943
 10
7.035577472388887
 20
-2.481201227998744
 97
        0
 97
       15
330
C517
330
C4E2
330
C4E1
330
C4F0
330
C4EA
330
C4E8
330
C4E9
330
C4E7
330
C4E5
330
C4F7
330
C4F8
330
C4EB
330
C4EC
330
C4EE
330
C4EF
 92
       17
 93
        2
 72
     4
 94
        3
 73
     0
 74
     0
 95
        8
 96
        4
 40
0.0
 40
0.0
 40
0.0
 40
0.0
 40
7.529152638125497
 40
7.529152638125497
 40
7.529152638125497
 40
7.529152638125497
 10
7.057864926982067
 20
-2.481123495794018
 10
7.057864927154875
 20
-2.501946693631877
 10
7.067988192731542
 20
-2.518830851715375
 10
7.086763235643485
 20
-2.518830853589292
 97
        0
 72
     4
 94
        3
 73
     0
 74
     0
 95
        8
 96
        4
 40
0.0
 40
0.0
 40
0.0
 40
0.0
 40
7.529152638125497
 40
7.529152638125497
 40
7.529152638125497
 40
7.529152638125497
 10
7.086763235643485
 20
-2.518830853589292
 10
7.067988192731542
 20
-2.518830851715375
 10
7.057864927154875
 20
-2.501946693631877
 10
7.057864926982067
 20
-2.481123495794018
 97
        0
 97
        1
330
C4F7
 92
       49
 93
        2
 72
     4
 94
        3
 73
     0
 74
     0
 95
        8
 96
        4
 40
0.0
 40
0.0
 40
0.0
 40
0.0
 40
7.504907119165637
 40
7.504907119165637
 40
7.504907119165637
 40
7.504907119165637
 10
7.057864926982067
 20
-2.481123495794018
 10
7.057864927298699
 20
-2.460296682434186
 10
7.068394930943732
 20
-2.443412524496772
 10
7.086763235643485
 20
-2.443412522539423
 97
        0
 72
     4
 94
        3
 73
     0
 74
     0
 95
        8
 96
        4
 40
0.0
 40
0.0
 40
0.0
 40
0.0
 40
7.504907119165637
 40
7.504907119165637
 40
7.504907119165637
 40
7.504907119165637
 10
7.057864926982067
 20
-2.481123495794018
 10
7.057864927298699
 20
-2.460296682434186
 10
7.068394930943732
 20
-2.443412524496772
 10
7.086763235643485
 20
-2.443412522539423
 97
        0
 97
        1
330
C4F8
 92
       49
 93
        2
 72
     4
 94
        3
 73
     0
 74
     0
 95
        8
 96
        4
 40
0.0
 40
0.0
 40
0.0
 40
0.0
 40
4.530982702601268
 40
4.530982702601268
 40
4.530982702601268
 40
4.530982702601268
 10
7.086763235643485
 20
-2.443412522539423
 10
7.09740893442861
 20
-2.443412519965713
 10
7.106062518978284
 20
-2.447807106512711
 10
7.111010265302276
 20
-2.462312298444937
 97
        0
 72
     4
 94
        3
 73
     0
 74
     0
 95
        8
 96
        4
 40
0.0
 40
0.0
 40
0.0
 40
0.0
 40
4.530982702601268
 40
4.530982702601268
 40
4.530982702601268
 40
4.530982702601268
 10
7.086763235643485
 20
-2.443412522539423
 10
7.09740893442861
 20
-2.443412519965713
 10
7.106062518978284
 20
-2.447807106512711
 10
7.111010265302276
 20
-2.462312298444937
 97
        0
 97
        1
330
C4EB
 92
       17
 93
        2
 72
     4
 94
        3
 73
     0
 74
     0
 95
        8
 96
        4
 40
0.0
 40
0.0
 40
0.0
 40
0.0
 40
8.922377717083382
 40
8.922377717083382
 40
8.922377717083382
 40
8.922377717083382
 10
7.085416479737973
 20
-2.425458187342576
 10
7.106955536142994
 20
-2.425476264021082
 10
7.125898696395945
 20
-2.436047847076395
 10
7.13226189286133
 20
-2.462310490728403
 97
        0
 72
     4
 94
        3
 73
     0
 74
     0
 95
        8
 96
        4
 40
0.0
 40
0.0
 40
0.0
 40
0.0
 40
8.922377717083382
 40
8.922377717083382
 40
8.922377717083382
 40
8.922377717083382
 10
7.13226189286133
 20
-2.462310490728403
 10
7.125898696395945
 20
-2.436047847076395
 10
7.106955536142994
 20
-2.425476264021082
 10
7.085416479737973
 20
-2.425458187342576
 97
        0
 97
        1
330
C4EE
 92
       49
 93
        2
 72
     4
 94
        3
 73
     0
 74
     0
 95
        8
 96
        4
 40
0.0
 40
0.0
 40
0.0
 40
0.0
 40
5.368284882327459
 40
5.368284882327459
 40
5.368284882327459
 40
5.368284882327459
 10
7.113098188924324
 20
-2.494695903011865
 10
7.11051313902058
 20
-2.50987357154594
 10
7.099232931340701
 20
-2.518830852691102
 10
7.086763235643485
 20
-2.518830853589292
 97
        0
 72
     4
 94
        3
 73
     0
 74
     0
 95
        8
 96
        4
 40
0.0
 40
0.0
 40
0.0
 40
0.0
 40
5.368284882327459
 40
5.368284882327459
 40
5.368284882327459
 40
5.368284882327459
 10
7.113098188924324
 20
-2.494695903011865
 10
7.11051313902058
 20
-2.50987357154594
 10
7.099232931340701
 20
-2.518830852691102
 10
7.086763235643485
 20
-2.518830853589292
 97
        0
 97
        1
330
C4E5
 92
       49
 93
        2
 72
     1
 10
7.087958138788838
 20
-2.494699516782845
 11
7.113098177288837
 21
-2.494695898982845
 72
     1
 10
7.087958138788838
 20
-2.494699516782845
 11
7.113098177288837
 21
-2.494695898982845
 97
        1
330
C4E7
 92
       49
 93
        2
 72
     1
 10
7.087956329888837
 20
-2.477715932982845
 11
7.087958138788838
 21
-2.494699516782845
 72
     1
 10
7.087956329888837
 20
-2.477715932982845
 11
7.087958138788838
 21
-2.494699516782845
 97
        1
330
C4E9
 92
       49
 93
        2
 72
     1
 10
7.132486064388837
 20
-2.477715932982845
 11
7.087956329888837
 21
-2.477715932982845
 72
     1
 10
7.132486064388837
 20
-2.477715932982845
 11
7.087956329888837
 21
-2.477715932982845
 97
        1
330
C4E8
 92
       49
 93
        2
 72
     1
 10
7.132486064388837
 20
-2.534389948782845
 11
7.132486064388837
 21
-2.477715932982845
 72
     1
 10
7.132486064388837
 20
-2.534389948782845
 11
7.132486064388837
 21
-2.477715932982845
 97
        1
330
C4EA
 92
       49
 93
        2
 72
     1
 10
7.115377742088837
 20
-2.534389948782845
 11
7.132486064388837
 21
-2.534389948782845
 72
     1
 10
7.115377742088837
 20
-2.534389948782845
 11
7.132486064388837
 21
-2.534389948782845
 97
        1
330
C4F0
 92
       49
 93
        2
 72
     1
 10
7.114484698988838
 20
-2.520470459082845
 11
7.115377742088837
 21
-2.534389948782845
 72
     1
 10
7.114484698988838
 20
-2.520470459082845
 11
7.115377742088837
 21
-2.534389948782845
 97
        1
330
C4E1
 92
       49
 93
        2
 72
     4
 94
        3
 73
     0
 74
     0
 95
        8
 96
        4
 40
0.0
 40
0.0
 40
0.0
 40
0.0
 40
4.629221768901988
 40
4.629221768901988
 40
4.629221768901988
 40
4.629221768901988
 10
7.085416479737973
 20
-2.536946076400318
 10
7.097963906578137
 20
-2.536974998711921
 10
7.108408947015837
 20
-2.530141796392404
 10
7.11448471464611
 20
-2.520470461122103
 97
        0
 72
     4
 94
        3
 73
     0
 74
     0
 95
        8
 96
        4
 40
0.0
 40
0.0
 40
0.0
 40
0.0
 40
4.629221768901988
 40
4.629221768901988
 40
4.629221768901988
 40
4.629221768901988
 10
7.085416479737973
 20
-2.536946076400318
 10
7.097963906578137
 20
-2.536974998711921
 10
7.108408947015837
 20
-2.530141796392404
 10
7.11448471464611
 20
-2.520470461122103
 97
        0
 97
        1
330
C4E2
 92
       49
 93
        2
 72
     4
 94
        3
 73
     0
 74
     0
 95
        8
 96
        4
 40
0.0
 40
0.0
 40
0.0
 40
0.0
 40
11.8016654154607
 40
11.8016654154607
 40
11.8016654154607
 40
11.8016654154607
 10
7.035577472388887
 20
-2.481201227998744
 10
7.03544731696475
 20
-2.515837259605794
 10
7.057892042171959
 20
-2.536879190038558
 10
7.085416479737973
 20
-2.536946076400318
 97
        0
 72
     4
 94
        3
 73
     0
 74
     0
 95
        8
 96
        4
 40
0.0
 40
0.0
 40
0.0
 40
0.0
 40
11.8016654154607
 40
11.8016654154607
 40
11.8016654154607
 40
11.8016654154607
 10
7.035577472388887
 20
-2.481201227998744
 10
7.03544731696475
 20
-2.515837259605794
 10
7.057892042171959
 20
-2.536879190038558
 10
7.085416479737973
 20
-2.536946076400318
 97
        0
 97
        1
330
C517
 92
       49
 93
        2
 72
     4
 94
        3
 73
     0
 74
     0
 95
        8
 96
        4
 40
0.0
 40
0.0
 40
0.0
 40
0.0
 40
11.8149668603718
 40
11.8149668603718
 40
11.8149668603718
 40
11.8149668603718
 10
7.085416479737973
 20
-2.425458187342576
 10
7.054224166378205
 20
-2.42542926477272
 10
7.035693167191277
 20
-2.450697657733943
 10
7.035577472388887
 20
-2.481201227998744
 97
        0
 72
     4
 94
        3
 73
     0
 74
     0
 95
        8
 96
        4
 40
0.0
 40
0.0
 40
0.0
 40
0.0
 40
11.8149668603718
 40
11.8149668603718
 40
11.8149668603718
 40
11.8149668603718
 10
7.085416479737973
 20
-2.425458187342576
 10
7.054224166378205
 20
-2.42542926477272
 10
7.035693167191277
 20
-2.450697657733943
 10
7.035577472388887
 20
-2.481201227998744
 97
        0
 97
        1
330
C4EF
 92
       48
 93
        2
 72
     1
 10
7.111010254688837
 20
-2.462312297582845
 11
7.132261911388837
 21
-2.462310488682845
 72
     1
 10
7.111010254688837
 20
-2.462312297582845
 11
7.132261911388837
 21
-2.462310488682845
 97
        1
330
C4EC
 92
       48
 93
        1
 72
     1
 10
7.085416385888837
 20
-2.425562919882845
 11
7.085416483688838
 21
-2.425458188882845
 97
        4
330
C4EC
330
C4EC
330
C4EC
330
C4ED
 75
     0
 76
     1
 98
        1
 10
0.0
 20
0.0
450
        0
451
        0
460
0.0
461
0.0
452
        1
462
1.0
453
        2
463
0.0
 63
     5
421
      255
463
1.0
 63
    51
421
 16777113
470
LINEAR
1001
ACAD
1010
0.0
1020
0.0
1030
0.0
  0
LINE
  5
C4E1
102
{ACAD_REACTORS
330
C4E0
102
}
330
C4DE
100
AcDbEntity
  8
0
  6
Continuous
 62
     7
370
    15
100
AcDbLine
 10
7.114484698988838
 20
-2.520470459082845
 30
0.0
 11
7.115377742088837
 21
-2.534389948782845
 31
0.0
  0
SPLINE
  5
C4E2
102
{ACAD_REACTORS
330
C4E0
102
}
330
C4DE
100
AcDbEntity
  8
0
  6
Continuous
 62
     7
370
    15
100
AcDbSpline
210
0.0
220
0.0
230
1.0
 70
     8
 71
     3
 72
     8
 73
     4
 74
     0
 42
0.000000001
 43
0.0000000001
 40
0.0
 40
0.0
 40
0.0
 40
0.0
 40
4.629221768901988
 40
4.629221768901988
 40
4.629221768901988
 40
4.629221768901988
 10
7.085416479737973
 20
-2.536946076400318
 30
0.0
 10
7.097963906578137
 20
-2.536974998711921
 30
0.0
 10
7.108408947015837
 20
-2.530141796392404
 30
0.0
 10
7.11448471464611
 20
-2.520470461122103
 30
0.0
  0
HATCH
  5
C4E3
330
C4DE
100
AcDbEntity
  8
0
100
AcDbHatch
 10
0.0
 20
0.0
 30
0.0
210
0.0
220
0.0
230
1.0
  2
SOLID
 70
     1
 71
     1
 91
        3
 92
       16
 93
        8
 72
     1
 10
6.876636387927156
 20
-2.446783116982845
 11
6.876636387927156
 21
-2.470859895482845
 72
     1
 10
6.876636387927156
 20
-2.470859895482845
 11
6.899094999627157
 21
-2.470859895482845
 72
     2
 10
6.899095014227156
 20
-2.449481463082845
 40
0.021378434297707
 50
270.0000000507
 51
302.7538327093
 73
     1
 72
     2
 10
6.905897067027157
 20
-2.459258813382845
 40
0.0094853188547192
 50
300.1513158430999
 51
360.8238440749
 73
     1
 72
     1
 10
6.915381362527152
 20
-2.459122432182845
 11
6.915366891627156
 21
-2.458110981682845
 72
     4
 94
        3
 73
     0
 74
     0
 95
        8
 96
        4
 40
0.0
 40
0.0
 40
0.0
 40
0.0
 40
1.234817782031019
 40
1.234817782031019
 40
1.234817782031019
 40
1.234817782031019
 10
6.915366860976281
 20
-2.458110979461423
 10
6.915260831578787
 20
-2.45496133154696
 10
6.913756238899043
 20
-2.451889956249106
 10
6.911329683810924
 20
-2.449879146679267
 97
        0
 72
     2
 10
6.901452276727156
 20
-2.464087284082844
 40
0.0173041711593509
 50
55.19321811040001
 51
89.99999999280001
 73
     1
 72
     1
 10
6.901452296827157
 20
-2.446783116982845
 11
6.876636387927156
 21
-2.446783116982845
 97
        8
330
C523
330
C516
330
C51D
330
C51E
330
C4E6
330
C4E4
330
C521
330
C522
 92
       16
 93
        8
 72
     1
 10
6.876636387927156
 20
-2.516801268082845
 11
6.900384184727156
 21
-2.516801268082845
 72
     2
 10
6.900384175127157
 20
-2.493727653982845
 40
0.0230736156625213
 50
270.0000000021
 51
299.6729218121
 73
     1
 72
     2
 10
6.905084866927158
 20
-2.503065769382845
 40
0.0126444541283982
 50
302.1139766277
 51
357.5033071323001
 73
     1
 72
     4
 94
        3
 73
     0
 74
     0
 95
        8
 96
        4
 40
0.0
 40
0.0
 40
0.0
 40
0.0
 40
1.0
 40
1.0
 40
1.0
 40
1.0
 10
6.917717318165067
 20
-2.503616583572982
 10
6.917765569072273
 20
-2.502509988822556
 10
6.917734181256207
 20
-2.501405648970588
 10
6.917623430238558
 20
-2.500303536250148
 97
        0
 72
     4
 94
        3
 73
     0
 74
     0
 95
       10
 96
        6
 40
0.0
 40
0.0
 40
0.0
 40
0.0
 40
0.5
 40
0.5
 40
1.0
 40
1.0
 40
1.0
 40
1.0
 10
6.917623430238558
 20
-2.500303536250148
 10
6.917405671676237
 20
-2.49813656654854
 10
6.916659848823567
 20
-2.49602188163258
 10
6.914280738359588
 20
-2.492370764145272
 10
6.912647447353577
 20
-2.490834326364914
 10
6.910753031288428
 20
-2.489759943258022
 97
        0
 72
     2
 10
6.900262396127157
 20
-2.510424799282845
 40
0.023175195852144
 50
63.08510597700003
 51
89.99999999290002
 73
     1
 72
     1
 10
6.900262355027152
 20
-2.487249608382845
 11
6.876636387927156
 21
-2.487249608382845
 72
     1
 10
6.876636387927156
 20
-2.487249608382845
 11
6.876636387927156
 21
-2.516801268082845
 97
        8
330
C51C
330
C507
330
C508
330
C509
330
C518
330
C519
330
C51A
330
C51B
 92
        1
 93
        9
 72
     2
 10
6.911145075327156
 20
-2.503482871582844
 40
0.0281849953663461
 50
358.2750093542999
 51
429.1859787467999
 73
     1
 72
     2
 10
6.910344636927157
 20
-2.454425532082845
 40
0.025155504803769
 50
295.4642982438
 51
359.8582049783
 73
     1
 72
     2
 10
6.910101396227156
 20
-2.454545993682845
 40
0.0253987350977654
 50
0.13130661799998
 51
52.56383084060001
 73
     1
 72
     2
 10
6.907353580927157
 20
-2.464020839782845
 40
0.0347769093137198
 50
58.46861031739998
 51
93.09517018550002
 73
     1
 72
     1
 10
6.905475805927157
 20
-2.429294663382845
 11
6.855860219027157
 21
-2.429294663382845
 72
     1
 10
6.855860219027157
 20
-2.429294663382845
 11
6.855860219027157
 21
-2.534285101682845
 72
     1
 10
6.855860219027157
 20
-2.534285101682845
 11
6.906167477927156
 21
-2.534285101682845
 72
     2
 10
6.906153707627155
 20
-2.490937190982845
 40
0.0433479148632238
 50
270.0181584594
 51
289.8507158831
 73
     1
 72
     2
 10
6.911384295927157
 20
-2.505415203482844
 40
0.0279540238095668
 50
289.8435790134
 51
362.222167714
 73
     1
 97
        9
330
C506
330
C4FE
330
C4FF
330
C500
330
C501
330
C502
330
C503
330
C504
330
C505
 75
     0
 76
     1
 98
        1
 10
0.0
 20
0.0
450
        0
451
        0
460
0.0
461
0.0
452
        1
462
1.0
453
        2
463
0.0
 63
     5
421
      255
463
1.0
 63
    51
421
 16777113
470
LINEAR
1001
ACAD
1010
0.0
1020
0.0
1030
0.0
  0
SPLINE
  5
C4E4
102
{ACAD_REACTORS
330
C4E3
102
}
330
C4DE
100
AcDbEntity
  8
0
  6
Continuous
 62
     7
370
    15
100
AcDbSpline
210
0.0
220
0.0
230
1.0
 70
     8
 71
     3
 72
     8
 73
     4
 74
     0
 42
0.000000001
 43
0.0000000001
 40
0.0
 40
0.0
 40
0.0
 40
0.0
 40
1.234817782031019
 40
1.234817782031019
 40
1.234817782031019
 40
1.234817782031019
 10
6.915366860976281
 20
-2.458110979461423
 30
0.0
 10
6.915260831578787
 20
-2.45496133154696
 30
0.0
 10
6.913756238899043
 20
-2.451889956249106
 30
0.0
 10
6.911329683810924
 20
-2.449879146679267
 30
0.0
  0
SPLINE
  5
C4E5
102
{ACAD_REACTORS
330
C4E0
102
}
330
C4DE
100
AcDbEntity
  8
0
  6
Continuous
 62
     7
370
    15
100
AcDbSpline
210
0.0
220
0.0
230
1.0
 70
     8
 71
     3
 72
     8
 73
     4
 74
     0
 42
0.000000001
 43
0.0000000001
 40
0.0
 40
0.0
 40
0.0
 40
0.0
 40
5.368284882327459
 40
5.368284882327459
 40
5.368284882327459
 40
5.368284882327459
 10
7.113098188924324
 20
-2.494695903011865
 30
0.0
 10
7.11051313902058
 20
-2.50987357154594
 30
0.0
 10
7.099232931340701
 20
-2.518830852691102
 30
0.0
 10
7.086763235643485
 20
-2.518830853589292
 30
0.0
  0
LINE
  5
C4E6
102
{ACAD_REACTORS
330
C4E3
102
}
330
C4DE
100
AcDbEntity
  8
0
  6
Continuous
 62
     7
370
    15
100
AcDbLine
 10
6.915381362527152
 20
-2.459122432182845
 30
0.0
 11
6.915366891627156
 21
-2.458110981682845
 31
0.0
  0
LINE
  5
C4E7
102
{ACAD_REACTORS
330
C4E0
102
}
330
C4DE
100
AcDbEntity
  8
0
  6
Continuous
 62
     7
370
    15
100
AcDbLine
 10
7.087958138788838
 20
-2.494699516782845
 30
0.0
 11
7.113098177288837
 21
-2.494695898982845
 31
0.0
  0
LINE
  5
C4E8
102
{ACAD_REACTORS
330
C4E0
102
}
330
C4DE
100
AcDbEntity
  8
0
  6
Continuous
 62
     7
370
    15
100
AcDbLine
 10
7.132486064388837
 20
-2.477715932982845
 30
0.0
 11
7.087956329888837
 21
-2.477715932982845
 31
0.0
  0
LINE
  5
C4E9
102
{ACAD_REACTORS
330
C4E0
102
}
330
C4DE
100
AcDbEntity
  8
0
  6
Continuous
 62
     7
370
    15
100
AcDbLine
 10
7.087956329888837
 20
-2.477715932982845
 30
0.0
 11
7.087958138788838
 21
-2.494699516782845
 31
0.0
  0
LINE
  5
C4EA
102
{ACAD_REACTORS
330
C4E0
102
}
330
C4DE
100
AcDbEntity
  8
0
  6
Continuous
 62
     7
370
    15
100
AcDbLine
 10
7.132486064388837
 20
-2.534389948782845
 30
0.0
 11
7.132486064388837
 21
-2.477715932982845
 31
0.0
  0
SPLINE
  5
C4EB
102
{ACAD_REACTORS
330
C4E0
102
}
330
C4DE
100
AcDbEntity
  8
0
  6
Continuous
 62
     7
370
    15
100
AcDbSpline
210
0.0
220
0.0
230
1.0
 70
     8
 71
     3
 72
     8
 73
     4
 74
     0
 42
0.000000001
 43
0.0000000001
 40
0.0
 40
0.0
 40
0.0
 40
0.0
 40
4.530982702601268
 40
4.530982702601268
 40
4.530982702601268
 40
4.530982702601268
 10
7.086763235643485
 20
-2.443412522539423
 30
0.0
 10
7.09740893442861
 20
-2.443412519965713
 30
0.0
 10
7.106062518978284
 20
-2.447807106512711
 30
0.0
 10
7.111010265302276
 20
-2.462312298444937
 30
0.0
  0
LINE
  5
C4EC
102
{ACAD_REACTORS
330
C4E0
102
}
330
C4DE
100
AcDbEntity
  8
0
  6
Continuous
 62
     7
370
    15
100
AcDbLine
 10
7.111010254688837
 20
-2.462312297582845
 30
0.0
 11
7.132261911388837
 21
-2.462310488682845
 31
0.0
  0
LINE
  5
C4ED
102
{ACAD_REACTORS
330
C4E0
102
}
330
C4DE
100
AcDbEntity
  8
0
  6
Continuous
 62
     7
370
    15
100
AcDbLine
 10
7.085416385888837
 20
-2.425562919882845
 30
0.0
 11
7.085416483688838
 21
-2.425458188882845
 31
0.0
  0
SPLINE
  5
C4EE
102
{ACAD_REACTORS
330
C4E0
102
}
330
C4DE
100
AcDbEntity
  8
0
  6
Continuous
 62
     7
370
    15
100
AcDbSpline
210
0.0
220
0.0
230
1.0
 70
     8
 71
     3
 72
     8
 73
     4
 74
     0
 42
0.000000001
 43
0.0000000001
 40
0.0
 40
0.0
 40
0.0
 40
0.0
 40
8.922377717083382
 40
8.922377717083382
 40
8.922377717083382
 40
8.922377717083382
 10
7.13226189286133
 20
-2.462310490728403
 30
0.0
 10
7.125898696395945
 20
-2.436047847076395
 30
0.0
 10
7.106955536142994
 20
-2.425476264021082
 30
0.0
 10
7.085416479737973
 20
-2.425458187342576
 30
0.0
  0
SPLINE
  5
C4EF
102
{ACAD_REACTORS
330
C4E0
102
}
330
C4DE
100
AcDbEntity
  8
0
  6
Continuous
 62
     7
370
    15
100
AcDbSpline
210
0.0
220
0.0
230
1.0
 70
     8
 71
     3
 72
     8
 73
     4
 74
     0
 42
0.000000001
 43
0.0000000001
 40
0.0
 40
0.0
 40
0.0
 40
0.0
 40
11.8149668603718
 40
11.8149668603718
 40
11.8149668603718
 40
11.8149668603718
 10
7.085416479737973
 20
-2.425458187342576
 30
0.0
 10
7.054224166378205
 20
-2.42542926477272
 30
0.0
 10
7.035693167191277
 20
-2.450697657733943
 30
0.0
 10
7.035577472388887
 20
-2.481201227998744
 30
0.0
  0
LINE
  5
C4F0
102
{ACAD_REACTORS
330
C4E0
102
}
330
C4DE
100
AcDbEntity
  8
0
  6
Continuous
 62
     7
370
    15
100
AcDbLine
 10
7.115377742088837
 20
-2.534389948782845
 30
0.0
 11
7.132486064388837
 21
-2.534389948782845
 31
0.0
  0
HATCH
  5
C4F1
330
C4DE
100
AcDbEntity
  8
0
100
AcDbHatch
 10
0.0
 20
0.0
 30
0.0
210
0.0
220
0.0
230
1.0
  2
SOLID
 70
     1
 71
     1
 91
        1
 92
        1
 93
       12
 72
     1
 10
6.973973432327157
 20
-2.486165240882845
 11
7.023188770527157
 21
-2.486165240882845
 72
     1
 10
7.023188770527157
 20
-2.486165240882845
 11
7.023188770527157
 21
-2.468666459682845
 72
     1
 10
7.023188770527157
 20
-2.468666459682845
 11
6.973973432327157
 21
-2.468666459682845
 72
     1
 10
6.973973432327157
 20
-2.468666459682845
 11
6.973973432327157
 21
-2.446794776782845
 72
     1
 10
6.973973432327157
 20
-2.446794776782845
 11
7.029747236927157
 21
-2.446794776782845
 72
     1
 10
7.029747236927157
 20
-2.446794776782845
 11
7.029747236927157
 21
-2.429294186782845
 72
     1
 10
7.029747236927157
 20
-2.429294186782845
 11
6.952099965027157
 21
-2.429294186782845
 72
     1
 10
6.952099965027157
 20
-2.429294186782845
 11
6.952099965027157
 21
-2.534285107782844
 72
     1
 10
6.952099965027157
 20
-2.534285107782844
 11
7.029747236927157
 21
-2.534285107782844
 72
     1
 10
7.029747236927157
 20
-2.534285107782844
 11
7.029747236927157
 21
-2.516788129382845
 72
     1
 10
7.029747236927157
 20
-2.516788129382845
 11
6.973973432327157
 21
-2.516788129382845
 72
     1
 10
6.973973432327157
 20
-2.516788129382845
 11
6.973973432327157
 21
-2.486165240882845
 97
       12
330
C512
330
C4F9
330
C4FA
330
C4FB
330
C4FC
330
C4FD
330
C4F2
330
C4F3
330
C4F4
330
C4F5
330
C4F6
330
C511
 75
     0
 76
     1
 98
        1
 10
0.0
 20
0.0
450
        0
451
        0
460
0.0
461
0.0
452
        1
462
1.0
453
        2
463
0.0
 63
     5
421
      255
463
1.0
 63
    51
421
 16777113
470
LINEAR
1001
ACAD
1010
0.0
1020
0.0
1030
0.0
  0
LINE
  5
C4F2
102
{ACAD_REACTORS
330
C4F1
102
}
330
C4DE
100
AcDbEntity
  8
0
  6
Continuous
 62
     7
370
    15
100
AcDbLine
 10
7.029747236927157
 20
-2.429294186782845
 30
0.0
 11
6.952099965027157
 21
-2.429294186782845
 31
0.0
  0
LINE
  5
C4F3
102
{ACAD_REACTORS
330
C4F1
102
}
330
C4DE
100
AcDbEntity
  8
0
  6
Continuous
 62
     7
370
    15
100
AcDbLine
 10
6.952099965027157
 20
-2.429294186782845
 30
0.0
 11
6.952099965027157
 21
-2.534285107782844
 31
0.0
  0
LINE
  5
C4F4
102
{ACAD_REACTORS
330
C4F1
102
}
330
C4DE
100
AcDbEntity
  8
0
  6
Continuous
 62
     7
370
    15
100
AcDbLine
 10
6.952099965027157
 20
-2.534285107782844
 30
0.0
 11
7.029747236927157
 21
-2.534285107782844
 31
0.0
  0
LINE
  5
C4F5
102
{ACAD_REACTORS
330
C4F1
102
}
330
C4DE
100
AcDbEntity
  8
0
  6
Continuous
 62
     7
370
    15
100
AcDbLine
 10
7.029747236927157
 20
-2.534285107782844
 30
0.0
 11
7.029747236927157
 21
-2.516788129382845
 31
0.0
  0
LINE
  5
C4F6
102
{ACAD_REACTORS
330
C4F1
102
}
330
C4DE
100
AcDbEntity
  8
0
  6
Continuous
 62
     7
370
    15
100
AcDbLine
 10
7.029747236927157
 20
-2.516788129382845
 30
0.0
 11
6.973973432327157
 21
-2.516788129382845
 31
0.0
  0
SPLINE
  5
C4F7
102
{ACAD_REACTORS
330
C4E0
102
}
330
C4DE
100
AcDbEntity
  8
0
  6
Continuous
 62
     7
370
    15
100
AcDbSpline
210
0.0
220
0.0
230
1.0
 70
     8
 71
     3
 72
     8
 73
     4
 74
     0
 42
0.000000001
 43
0.0000000001
 40
0.0
 40
0.0
 40
0.0
 40
0.0
 40
7.529152638125497
 40
7.529152638125497
 40
7.529152638125497
 40
7.529152638125497
 10
7.086763235643485
 20
-2.518830853589292
 30
0.0
 10
7.067988192731542
 20
-2.518830851715375
 30
0.0
 10
7.057864927154875
 20
-2.501946693631877
 30
0.0
 10
7.057864926982067
 20
-2.481123495794018
 30
0.0
  0
SPLINE
  5
C4F8
102
{ACAD_REACTORS
330
C4E0
102
}
330
C4DE
100
AcDbEntity
  8
0
  6
Continuous
 62
     7
370
    15
100
AcDbSpline
210
0.0
220
0.0
230
1.0
 70
     8
 71
     3
 72
     8
 73
     4
 74
     0
 42
0.000000001
 43
0.0000000001
 40
0.0
 40
0.0
 40
0.0
 40
0.0
 40
7.504907119165637
 40
7.504907119165637
 40
7.504907119165637
 40
7.504907119165637
 10
7.057864926982067
 20
-2.481123495794018
 30
0.0
 10
7.057864927298699
 20
-2.460296682434186
 30
0.0
 10
7.068394930943732
 20
-2.443412524496772
 30
0.0
 10
7.086763235643485
 20
-2.443412522539423
 30
0.0
  0
LINE
  5
C4F9
102
{ACAD_REACTORS
330
C4F1
102
}
330
C4DE
100
AcDbEntity
  8
0
  6
Continuous
 62
     7
370
    15
100
AcDbLine
 10
7.023188770527157
 20
-2.486165240882845
 30
0.0
 11
7.023188770527157
 21
-2.468666459682845
 31
0.0
  0
LINE
  5
C4FA
102
{ACAD_REACTORS
330
C4F1
102
}
330
C4DE
100
AcDbEntity
  8
0
  6
Continuous
 62
     7
370
    15
100
AcDbLine
 10
7.023188770527157
 20
-2.468666459682845
 30
0.0
 11
6.973973432327157
 21
-2.468666459682845
 31
0.0
  0
LINE
  5
C4FB
102
{ACAD_REACTORS
330
C4F1
102
}
330
C4DE
100
AcDbEntity
  8
0
  6
Continuous
 62
     7
370
    15
100
AcDbLine
 10
6.973973432327157
 20
-2.468666459682845
 30
0.0
 11
6.973973432327157
 21
-2.446794776782845
 31
0.0
  0
LINE
  5
C4FC
102
{ACAD_REACTORS
330
C4F1
102
}
330
C4DE
100
AcDbEntity
  8
0
  6
Continuous
 62
     7
370
    15
100
AcDbLine
 10
6.973973432327157
 20
-2.446794776782845
 30
0.0
 11
7.029747236927157
 21
-2.446794776782845
 31
0.0
  0
LINE
  5
C4FD
102
{ACAD_REACTORS
330
C4F1
102
}
330
C4DE
100
AcDbEntity
  8
0
  6
Continuous
 62
     7
370
    15
100
AcDbLine
 10
7.029747236927157
 20
-2.446794776782845
 30
0.0
 11
7.029747236927157
 21
-2.429294186782845
 31
0.0
  0
ARC
  5
C4FE
102
{ACAD_REACTORS
330
C4E3
102
}
330
C4DE
100
AcDbEntity
  8
0
  6
Continuous
 62
     7
370
    15
100
AcDbCircle
 10
6.910344636927157
 20
-2.454425532082845
 30
0.0
 40
0.025155504803769
100
AcDbArc
 50
295.4642982438
 51
359.8582049783
  0
ARC
  5
C4FF
102
{ACAD_REACTORS
330
C4E3
102
}
330
C4DE
100
AcDbEntity
  8
0
  6
Continuous
 62
     7
370
    15
100
AcDbCircle
 10
6.910101396227156
 20
-2.454545993682845
 30
0.0
 40
0.0253987350977654
100
AcDbArc
 50
0.13130661799998
 51
52.56383084060001
  0
ARC
  5
C500
102
{ACAD_REACTORS
330
C4E3
102
}
330
C4DE
100
AcDbEntity
  8
0
  6
Continuous
 62
     7
370
    15
100
AcDbCircle
 10
6.907353580927157
 20
-2.464020839782845
 30
0.0
 40
0.0347769093137198
100
AcDbArc
 50
58.46861031739998
 51
93.09517018550002
  0
LINE
  5
C501
102
{ACAD_REACTORS
330
C4E3
102
}
330
C4DE
100
AcDbEntity
  8
0
  6
Continuous
 62
     7
370
    15
100
AcDbLine
 10
6.905475805927157
 20
-2.429294663382845
 30
0.0
 11
6.855860219027157
 21
-2.429294663382845
 31
0.0
  0
LINE
  5
C502
102
{ACAD_REACTORS
330
C4E3
102
}
330
C4DE
100
AcDbEntity
  8
0
  6
Continuous
 62
     7
370
    15
100
AcDbLine
 10
6.855860219027157
 20
-2.429294663382845
 30
0.0
 11
6.855860219027157
 21
-2.534285101682845
 31
0.0
  0
LINE
  5
C503
102
{ACAD_REACTORS
330
C4E3
102
}
330
C4DE
100
AcDbEntity
  8
0
  6
Continuous
 62
     7
370
    15
100
AcDbLine
 10
6.855860219027157
 20
-2.534285101682845
 30
0.0
 11
6.906167477927156
 21
-2.534285101682845
 31
0.0
  0
ARC
  5
C504
102
{ACAD_REACTORS
330
C4E3
102
}
330
C4DE
100
AcDbEntity
  8
0
  6
Continuous
 62
     7
370
    15
100
AcDbCircle
 10
6.906153707627155
 20
-2.490937190982845
 30
0.0
 40
0.0433479148632238
100
AcDbArc
 50
270.0181584594
 51
289.8507158831
  0
ARC
  5
C505
102
{ACAD_REACTORS
330
C4E3
102
}
330
C4DE
100
AcDbEntity
  8
0
  6
Continuous
 62
     7
370
    15
100
AcDbCircle
 10
6.911384295927157
 20
-2.505415203482844
 30
0.0
 40
0.0279540238095668
100
AcDbArc
 50
289.8435790134
 51
2.222167713999982
  0
ARC
  5
C506
102
{ACAD_REACTORS
330
C4E3
102
}
330
C4DE
100
AcDbEntity
  8
0
  6
Continuous
 62
     7
370
    15
100
AcDbCircle
 10
6.911145075327156
 20
-2.503482871582844
 30
0.0
 40
0.0281849953663461
100
AcDbArc
 50
358.2750093542999
 51
69.1859787468
  0
ARC
  5
C507
102
{ACAD_REACTORS
330
C4E3
102
}
330
C4DE
100
AcDbEntity
  8
0
  6
Continuous
 62
     7
370
    15
100
AcDbCircle
 10
6.900384175127157
 20
-2.493727653982845
 30
0.0
 40
0.0230736156625213
100
AcDbArc
 50
270.0000000021
 51
299.6729218121
  0
ARC
  5
C508
102
{ACAD_REACTORS
330
C4E3
102
}
330
C4DE
100
AcDbEntity
  8
0
  6
Continuous
 62
     7
370
    15
100
AcDbCircle
 10
6.905084866927158
 20
-2.503065769382845
 30
0.0
 40
0.0126444541283982
100
AcDbArc
 50
302.1139766277
 51
357.5033071323001
  0
SPLINE
  5
C509
102
{ACAD_REACTORS
330
C4E3
102
}
330
C4DE
100
AcDbEntity
  8
0
  6
Continuous
 62
     7
370
    15
100
AcDbSpline
210
0.0
220
0.0
230
1.0
 70
     8
 71
     3
 72
     8
 73
     4
 74
     0
 42
0.000000001
 43
0.0000000001
 40
0.0
 40
0.0
 40
0.0
 40
0.0
 40
1.0
 40
1.0
 40
1.0
 40
1.0
 10
6.917717318165067
 20
-2.503616583572982
 30
0.0
 10
6.917765569072273
 20
-2.502509988822556
 30
0.0
 10
6.917734181256207
 20
-2.501405648970588
 30
0.0
 10
6.917623430238558
 20
-2.500303536250148
 30
0.0
  0
HATCH
  5
C50A
330
C4DE
100
AcDbEntity
  8
0
100
AcDbHatch
 10
0.0
 20
0.0
 30
0.0
210
0.0
220
0.0
230
1.0
  2
SOLID
 70
     1
 71
     1
 91
        2
 92
        1
 93
        8
 72
     1
 10
7.219521596025813
 20
-2.534285107782844
 11
7.242488792925811
 21
-2.534285107782844
 72
     1
 10
7.242488792925811
 20
-2.534285107782844
 11
7.205305653525812
 21
-2.429294186782845
 72
     1
 10
7.205305653525812
 20
-2.429294186782845
 11
7.181246633725812
 21
-2.429294186782845
 72
     1
 10
7.181246633725812
 20
-2.429294186782845
 11
7.144061685525811
 21
-2.534285107782844
 72
     1
 10
7.144061685525811
 20
-2.534285107782844
 11
7.167027073525813
 21
-2.534285107782844
 72
     1
 10
7.167027073525813
 20
-2.534285107782844
 11
7.174684598425812
 21
-2.511317941482845
 72
     1
 10
7.174684598425812
 20
-2.511317941482845
 11
7.211213318625812
 21
-2.511317941482845
 72
     1
 10
7.211213318625812
 20
-2.511317941482845
 11
7.219521596025813
 21
-2.534285107782844
 97
        8
330
C520
330
C50B
330
C50C
330
C50D
330
C50E
330
C50F
330
C510
330
C51F
 92
       16
 93
        3
 72
     1
 10
7.193275263625812
 20
-2.451167666282845
 11
7.180152953025811
 21
-2.494916446482845
 72
     1
 10
7.180152953025811
 20
-2.494916446482845
 11
7.206401143125813
 21
-2.494916446482845
 72
     1
 10
7.206401143125813
 20
-2.494916446482845
 11
7.193275263625812
 21
-2.451167666282845
 97
        3
330
C515
330
C513
330
C514
 75
     0
 76
     1
 98
        1
 10
0.0
 20
0.0
450
        0
451
        0
460
0.0
461
0.0
452
        1
462
1.0
453
        2
463
0.0
 63
     5
421
      255
463
1.0
 63
    51
421
 16777113
470
LINEAR
1001
ACAD
1010
0.0
1020
0.0
1030
0.0
  0
LINE
  5
C50B
102
{ACAD_REACTORS
330
C50A
102
}
330
C4DE
100
AcDbEntity
  8
0
  6
Continuous
 62
     7
370
    15
100
AcDbLine
 10
7.242488792925811
 20
-2.534285107782844
 30
0.0
 11
7.205305653525812
 21
-2.429294186782845
 31
0.0
  0
LINE
  5
C50C
102
{ACAD_REACTORS
330
C50A
102
}
330
C4DE
100
AcDbEntity
  8
0
  6
Continuous
 62
     7
370
    15
100
AcDbLine
 10
7.205305653525812
 20
-2.429294186782845
 30
0.0
 11
7.181246633725812
 21
-2.429294186782845
 31
0.0
  0
LINE
  5
C50D
102
{ACAD_REACTORS
330
C50A
102
}
330
C4DE
100
AcDbEntity
  8
0
  6
Continuous
 62
     7
370
    15
100
AcDbLine
 10
7.181246633725812
 20
-2.429294186782845
 30
0.0
 11
7.144061685525811
 21
-2.534285107782844
 31
0.0
  0
LINE
  5
C50E
102
{ACAD_REACTORS
330
C50A
102
}
330
C4DE
100
AcDbEntity
  8
0
  6
Continuous
 62
     7
370
    15
100
AcDbLine
 10
7.144061685525811
 20
-2.534285107782844
 30
0.0
 11
7.167027073525813
 21
-2.534285107782844
 31
0.0
  0
LINE
  5
C50F
102
{ACAD_REACTORS
330
C50A
102
}
330
C4DE
100
AcDbEntity
  8
0
  6
Continuous
 62
     7
370
    15
100
AcDbLine
 10
7.167027073525813
 20
-2.534285107782844
 30
0.0
 11
7.174684598425812
 21
-2.511317941482845
 31
0.0
  0
LINE
  5
C510
102
{ACAD_REACTORS
330
C50A
102
}
330
C4DE
100
AcDbEntity
  8
0
  6
Continuous
 62
     7
370
    15
100
AcDbLine
 10
7.174684598425812
 20
-2.511317941482845
 30
0.0
 11
7.211213318625812
 21
-2.511317941482845
 31
0.0
  0
LINE
  5
C511
102
{ACAD_REACTORS
330
C4F1
102
}
330
C4DE
100
AcDbEntity
  8
0
  6
Continuous
 62
     7
370
    15
100
AcDbLine
 10
6.973973432327157
 20
-2.516788129382845
 30
0.0
 11
6.973973432327157
 21
-2.486165240882845
 31
0.0
  0
LINE
  5
C512
102
{ACAD_REACTORS
330
C4F1
102
}
330
C4DE
100
AcDbEntity
  8
0
  6
Continuous
 62
     7
370
    15
100
AcDbLine
 10
6.973973432327157
 20
-2.486165240882845
 30
0.0
 11
7.023188770527157
 21
-2.486165240882845
 31
0.0
  0
LINE
  5
C513
102
{ACAD_REACTORS
330
C50A
102
}
330
C4DE
100
AcDbEntity
  8
0
  6
Continuous
 62
     7
370
    15
100
AcDbLine
 10
7.180152953025811
 20
-2.494916446482845
 30
0.0
 11
7.206401143125813
 21
-2.494916446482845
 31
0.0
  0
LINE
  5
C514
102
{ACAD_REACTORS
330
C50A
102
}
330
C4DE
100
AcDbEntity
  8
0
  6
Continuous
 62
     7
370
    15
100
AcDbLine
 10
7.206401143125813
 20
-2.494916446482845
 30
0.0
 11
7.193275263625812
 21
-2.451167666282845
 31
0.0
  0
LINE
  5
C515
102
{ACAD_REACTORS
330
C50A
102
}
330
C4DE
100
AcDbEntity
  8
0
  6
Continuous
 62
     7
370
    15
100
AcDbLine
 10
7.193275263625812
 20
-2.451167666282845
 30
0.0
 11
7.180152953025811
 21
-2.494916446482845
 31
0.0
  0
LINE
  5
C516
102
{ACAD_REACTORS
330
C4E3
102
}
330
C4DE
100
AcDbEntity
  8
0
  6
Continuous
 62
     7
370
    15
100
AcDbLine
 10
6.876636387927156
 20
-2.470859895482845
 30
0.0
 11
6.899094999627157
 21
-2.470859895482845
 31
0.0
  0
SPLINE
  5
C517
102
{ACAD_REACTORS
330
C4E0
102
}
330
C4DE
100
AcDbEntity
  8
0
  6
Continuous
 62
     7
370
    15
100
AcDbSpline
210
0.0
220
0.0
230
1.0
 70
     8
 71
     3
 72
     8
 73
     4
 74
     0
 42
0.000000001
 43
0.0000000001
 40
0.0
 40
0.0
 40
0.0
 40
0.0
 40
11.8016654154607
 40
11.8016654154607
 40
11.8016654154607
 40
11.8016654154607
 10
7.035577472388887
 20
-2.481201227998744
 30
0.0
 10
7.03544731696475
 20
-2.515837259605794
 30
0.0
 10
7.057892042171959
 20
-2.536879190038558
 30
0.0
 10
7.085416479737973
 20
-2.536946076400318
 30
0.0
  0
SPLINE
  5
C518
102
{ACAD_REACTORS
330
C4E3
102
}
330
C4DE
100
AcDbEntity
  8
0
  6
Continuous
 62
     7
370
    15
100
AcDbSpline
210
0.0
220
0.0
230
1.0
 70
     8
 71
     3
 72
    10
 73
     6
 74
     0
 42
0.000000001
 43
0.0000000001
 40
0.0
 40
0.0
 40
0.0
 40
0.0
 40
0.5
 40
0.5
 40
1.0
 40
1.0
 40
1.0
 40
1.0
 10
6.917623430238558
 20
-2.500303536250148
 30
0.0
 10
6.917405671676237
 20
-2.49813656654854
 30
0.0
 10
6.916659848823567
 20
-2.49602188163258
 30
0.0
 10
6.914280738359588
 20
-2.492370764145272
 30
0.0
 10
6.912647447353577
 20
-2.490834326364914
 30
0.0
 10
6.910753031288428
 20
-2.489759943258022
 30
0.0
  0
ARC
  5
C519
102
{ACAD_REACTORS
330
C4E3
102
}
330
C4DE
100
AcDbEntity
  8
0
  6
Continuous
 62
     7
370
    15
100
AcDbCircle
 10
6.900262396127157
 20
-2.510424799282845
 30
0.0
 40
0.023175195852144
100
AcDbArc
 50
63.08510597700003
 51
89.99999999290002
  0
LINE
  5
C51A
102
{ACAD_REACTORS
330
C4E3
102
}
330
C4DE
100
AcDbEntity
  8
0
  6
Continuous
 62
     7
370
    15
100
AcDbLine
 10
6.900262355027152
 20
-2.487249608382845
 30
0.0
 11
6.876636387927156
 21
-2.487249608382845
 31
0.0
  0
LINE
  5
C51B
102
{ACAD_REACTORS
330
C4E3
102
}
330
C4DE
100
AcDbEntity
  8
0
  6
Continuous
 62
     7
370
    15
100
AcDbLine
 10
6.876636387927156
 20
-2.487249608382845
 30
0.0
 11
6.876636387927156
 21
-2.516801268082845
 31
0.0
  0
LINE
  5
C51C
102
{ACAD_REACTORS
330
C4E3
102
}
330
C4DE
100
AcDbEntity
  8
0
  6
Continuous
 62
     7
370
    15
100
AcDbLine
 10
6.876636387927156
 20
-2.516801268082845
 30
0.0
 11
6.900384184727156
 21
-2.516801268082845
 31
0.0
  0
ARC
  5
C51D
102
{ACAD_REACTORS
330
C4E3
102
}
330
C4DE
100
AcDbEntity
  8
0
  6
Continuous
 62
     7
370
    15
100
AcDbCircle
 10
6.899095014227156
 20
-2.449481463082845
 30
0.0
 40
0.021378434297707
100
AcDbArc
 50
270.0000000507
 51
302.7538327093
  0
ARC
  5
C51E
102
{ACAD_REACTORS
330
C4E3
102
}
330
C4DE
100
AcDbEntity
  8
0
  6
Continuous
 62
     7
370
    15
100
AcDbCircle
 10
6.905897067027157
 20
-2.459258813382845
 30
0.0
 40
0.0094853188547192
100
AcDbArc
 50
300.1513158430999
 51
0.8238440749000069
  0
LINE
  5
C51F
102
{ACAD_REACTORS
330
C50A
102
}
330
C4DE
100
AcDbEntity
  8
0
  6
Continuous
 62
     7
370
    15
100
AcDbLine
 10
7.211213318625812
 20
-2.511317941482845
 30
0.0
 11
7.219521596025813
 21
-2.534285107782844
 31
0.0
  0
LINE
  5
C520
102
{ACAD_REACTORS
330
C50A
102
}
330
C4DE
100
AcDbEntity
  8
0
  6
Continuous
 62
     7
370
    15
100
AcDbLine
 10
7.219521596025813
 20
-2.534285107782844
 30
0.0
 11
7.242488792925811
 21
-2.534285107782844
 31
0.0
  0
ARC
  5
C521
102
{ACAD_REACTORS
330
C4E3
102
}
330
C4DE
100
AcDbEntity
  8
0
  6
Continuous
 62
     7
370
    15
100
AcDbCircle
 10
6.901452276727156
 20
-2.464087284082844
 30
0.0
 40
0.0173041711593509
100
AcDbArc
 50
55.19321811040001
 51
89.99999999280001
  0
LINE
  5
C522
102
{ACAD_REACTORS
330
C4E3
102
}
330
C4DE
100
AcDbEntity
  8
0
  6
Continuous
 62
     7
370
    15
100
AcDbLine
 10
6.901452296827157
 20
-2.446783116982845
 30
0.0
 11
6.876636387927156
 21
-2.446783116982845
 31
0.0
  0
LINE
  5
C523
102
{ACAD_REACTORS
330
C4E3
102
}
330
C4DE
100
AcDbEntity
  8
0
  6
Continuous
 62
     7
370
    15
100
AcDbLine
 10
6.876636387927156
 20
-2.446783116982845
 30
0.0
 11
6.876636387927156
 21
-2.470859895482845
 31
0.0
  0
ENDBLK
  5
C524
330
C4DE
100
AcDbEntity
  8
0
100
AcDbBlockEnd
  0
BLOCK
  5
C542
330
C53E
100
AcDbEntity
  8
0
100
AcDbBlockBegin
  2
bega logo
 70
     0
 10
0.0
 20
0.0
 30
0.0
  3
bega logo
  1

  0
INSERT
  5
C53F
330
C53E
100
AcDbEntity
  8
0
100
AcDbBlockReference
  2
bega
 10
-138.8202300585621
 20
53.61275461362001
 30
0.0
 41
20.43278469033529
 42
20.43278469033529
 43
20.43278469033529
  0
ENDBLK
  5
C543
330
C53E
100
AcDbEntity
  8
0
100
AcDbBlockEnd
  0
BLOCK
  5
1132F
330
1132E
100
AcDbEntity
  8
0
100
AcDbBlockBegin
  2
*D3
 70
     1
 10
0.0
 20
0.0
 30
0.0
  3
*D3
  1

  0
LINE
  5
1284C
330
1132E
100
AcDbEntity
  8
DIM
440
 16777216
370
    20
100
AcDbLine
 10
55.46502344608414
 20
-17.90709268640377
 30
0.0
 11
54.27027423894837
 21
-17.90709268640377
 31
0.0
  0
LINE
  5
1284D
330
1132E
100
AcDbEntity
  8
DIM
440
 16777216
370
    20
100
AcDbLine
 10
55.46502344608414
 20
-19.34995753710445
 30
0.0
 11
54.27027423894837
 21
-19.34995753710445
 31
0.0
  0
LINE
  5
1284E
330
1132E
100
AcDbEntity
  8
DIM
440
 16777216
100
AcDbLine
 10
54.37027423894836
 20
-17.65709268640377
 30
0.0
 11
54.37027423894836
 21
-17.40709268640377
 31
0.0
  0
LINE
  5
1284F
330
1132E
100
AcDbEntity
  8
DIM
440
 16777216
100
AcDbLine
 10
54.37027423894836
 20
-19.59995753710445
 30
0.0
 11
54.37027423894836
 21
-19.84995753710444
 31
0.0
  0
SOLID
  5
12850
330
1132E
100
AcDbEntity
  8
DIM
440
 16777216
100
AcDbTrace
 10
54.3286075722817
 20
-17.65709268640377
 30
0.0
 11
54.41194090561503
 21
-17.65709268640377
 31
0.0
 12
54.37027423894836
 22
-17.90709268640377
 32
0.0
 13
54.37027423894836
 23
-17.90709268640377
 33
0.0
  0
SOLID
  5
12851
330
1132E
100
AcDbEntity
  8
DIM
440
 16777216
100
AcDbTrace
 10
54.3286075722817
 20
-19.59995753710445
 30
0.0
 11
54.41194090561503
 21
-19.59995753710445
 31
0.0
 12
54.37027423894836
 22
-19.34995753710445
 32
0.0
 13
54.37027423894836
 23
-19.34995753710445
 33
0.0
  0
MTEXT
  5
12852
330
1132E
100
AcDbEntity
  8
DIM
440
 16777216
100
AcDbMText
 10
54.37027423894836
 20
-18.6285251117541
 30
0.0
 40
0.25
 41
0.0
 46
0.0
 71
     5
 72
     1
  1
\A1;1{\H1.000000x;\S1#2;}"
 11
0.0000000000000001
 21
1.0
 31
0.0
 73
     1
 44
1.0
  0
POINT
  5
12853
330
1132E
100
AcDbEntity
  8
Defpoints
 62
     0
440
 16777216
100
AcDbPoint
 10
55.58502344608411
 20
-17.90709268640377
 30
0.0
  0
POINT
  5
12854
330
1132E
100
AcDbEntity
  8
Defpoints
 62
     0
440
 16777216
100
AcDbPoint
 10
55.58502344608411
 20
-19.34995753710445
 30
0.0
  0
POINT
  5
12855
330
1132E
100
AcDbEntity
  8
Defpoints
 62
     0
440
 16777216
100
AcDbPoint
 10
54.37027423894836
 20
-19.34995753710445
 30
0.0
  0
ENDBLK
  5
11330
330
1132E
100
AcDbEntity
  8
0
100
AcDbBlockEnd
  0
BLOCK
  5
1133D
330
1133C
100
AcDbEntity
  8
0
100
AcDbBlockBegin
  2
*D4
 70
     1
 10
0.0
 20
0.0
 30
0.0
  3
*D4
  1

  0
LINE
  5
113C1
330
1133C
100
AcDbEntity
  8
DIM
440
 16777216
370
    20
100
AcDbLine
 10
44.03004438737215
 20
-5.961334218792427
 30
0.0
 11
44.03004438737215
 21
-4.499192595284592
 31
0.0
  0
LINE
  5
113C2
330
1133C
100
AcDbEntity
  8
DIM
440
 16777216
370
    20
100
AcDbLine
 10
71.04993175883965
 20
-5.947418055554927
 30
0.0
 11
71.04993175883965
 21
-4.499192595284592
 31
0.0
  0
LINE
  5
113C3
330
1133C
100
AcDbEntity
  8
DIM
440
 16777216
100
AcDbLine
 10
44.53004438737216
 20
-4.59919259528459
 30
0.0
 11
56.985226168344
 21
-4.59919259528459
 31
0.0
  0
LINE
  5
113C4
330
1133C
100
AcDbEntity
  8
DIM
440
 16777216
100
AcDbLine
 10
70.54993175883964
 20
-4.59919259528459
 30
0.0
 11
58.09474997786781
 21
-4.59919259528459
 31
0.0
  0
SOLID
  5
113C5
330
1133C
100
AcDbEntity
  8
DIM
440
 16777216
100
AcDbTrace
 10
44.53004438737216
 20
-4.515859261951256
 30
0.0
 11
44.53004438737216
 21
-4.682525928617923
 31
0.0
 12
44.03004438737215
 22
-4.59919259528459
 32
0.0
 13
44.03004438737215
 23
-4.59919259528459
 33
0.0
  0
SOLID
  5
113C6
330
1133C
100
AcDbEntity
  8
DIM
440
 16777216
100
AcDbTrace
 10
70.54993175883964
 20
-4.515859261951256
 30
0.0
 11
70.54993175883964
 21
-4.682525928617923
 31
0.0
 12
71.04993175883965
 22
-4.59919259528459
 32
0.0
 13
71.04993175883965
 23
-4.59919259528459
 33
0.0
  0
MTEXT
  5
113C7
330
1133C
100
AcDbEntity
  8
DIM
440
 16777216
100
AcDbMText
 10
57.5399880731059
 20
-4.59919259528459
 30
0.0
 40
0.4
 41
0.0
 46
0.0
 71
     5
 72
     1
  1
\A1;27 1/2"
 11
0.0000000000000001
 21
1.0
 31
0.0
 73
     1
 44
1.0
  0
POINT
  5
113C8
330
1133C
100
AcDbEntity
  8
Defpoints
 62
     0
440
 16777216
100
AcDbPoint
 10
44.03004438737215
 20
-6.081334218792427
 30
0.0
  0
POINT
  5
113C9
330
1133C
100
AcDbEntity
  8
Defpoints
 62
     0
440
 16777216
100
AcDbPoint
 10
71.04993175883965
 20
-6.067418055554927
 30
0.0
  0
POINT
  5
113CA
330
1133C
100
AcDbEntity
  8
Defpoints
 62
     0
440
 16777216
100
AcDbPoint
 10
71.04993175883965
 20
-4.59919259528459
 30
0.0
  0
ENDBLK
  5
1133E
330
1133C
100
AcDbEntity
  8
0
100
AcDbBlockEnd
  0
BLOCK
  5
11359
330
11358
100
AcDbEntity
  8
0
100
AcDbBlockBegin
  2
*D5
 70
     1
 10
0.0
 20
0.0
 30
0.0
  3
*D5
  1

  0
LINE
  5
113A2
330
11358
100
AcDbEntity
  8
DIM
440
 16777216
370
    20
100
AcDbLine
 10
45.54380195145465
 20
-8.232773055309927
 30
0.0
 11
41.90938331651721
 21
-8.232773055309925
 31
0.0
  0
LINE
  5
113A3
330
11358
100
AcDbEntity
  8
DIM
440
 16777216
370
    20
100
AcDbLine
 10
43.91004438737216
 20
-6.081334218792427
 30
0.0
 11
41.90938331651721
 21
-6.081334218792425
 31
0.0
  0
LINE
  5
113A4
330
11358
100
AcDbEntity
  8
DIM
440
 16777216
100
AcDbLine
 10
42.00938331651721
 20
-8.732773055309925
 30
0.0
 11
42.00938331651721
 21
-9.232773055309923
 31
0.0
  0
LINE
  5
113A5
330
11358
100
AcDbEntity
  8
DIM
440
 16777216
100
AcDbLine
 10
42.00938331651721
 20
-5.581334218792425
 30
0.0
 11
42.00938331651721
 21
-5.081334218792425
 31
0.0
  0
SOLID
  5
113A6
330
11358
100
AcDbEntity
  8
DIM
440
 16777216
100
AcDbTrace
 10
41.92604998318386
 20
-8.732773055309925
 30
0.0
 11
42.09271664985053
 21
-8.732773055309925
 31
0.0
 12
42.00938331651721
 22
-8.232773055309925
 32
0.0
 13
42.00938331651721
 23
-8.232773055309925
 33
0.0
  0
SOLID
  5
113A7
330
11358
100
AcDbEntity
  8
DIM
440
 16777216
100
AcDbTrace
 10
41.92604998318386
 20
-5.581334218792425
 30
0.0
 11
42.09271664985053
 21
-5.581334218792425
 31
0.0
 12
42.00938331651721
 22
-6.081334218792427
 32
0.0
 13
42.00938331651721
 23
-6.081334218792427
 33
0.0
  0
MTEXT
  5
113A8
330
11358
100
AcDbEntity
  8
DIM
440
 16777216
100
AcDbMText
 10
42.00938331651721
 20
-7.157053637051178
 30
0.0
 40
0.4
 41
0.0
 46
0.0
 71
     5
 72
     1
  1
\A1;2{\H1.000000x;\S1#8;}"
 11
0.0000000000000001
 21
1.0
 31
0.0
 73
     1
 44
1.0
  0
POINT
  5
113A9
330
11358
100
AcDbEntity
  8
Defpoints
 62
     0
440
 16777216
100
AcDbPoint
 10
45.66380195145463
 20
-8.232773055309927
 30
0.0
  0
POINT
  5
113AA
330
11358
100
AcDbEntity
  8
Defpoints
 62
     0
440
 16777216
100
AcDbPoint
 10
44.03004438737215
 20
-6.081334218792427
 30
0.0
  0
POINT
  5
113AB
330
11358
100
AcDbEntity
  8
Defpoints
 62
     0
440
 16777216
100
AcDbPoint
 10
42.00938331651721
 20
-6.081334218792427
 30
0.0
  0
ENDBLK
  5
1135A
330
11358
100
AcDbEntity
  8
0
100
AcDbBlockEnd
  0
BLOCK
  5
11405
330
11404
100
AcDbEntity
  8
0
100
AcDbBlockBegin
  2
*D6
 70
     1
 10
0.0
 20
0.0
 30
0.0
  3
*D6
  1

  0
LINE
  5
1142F
330
11404
100
AcDbEntity
  8
DIM
440
 16777216
370
    20
100
AcDbLine
 10
71.7015291945122
 20
-6.063243206583677
 30
0.0
 11
72.80905802428097
 21
-6.063243206583677
 31
0.0
  0
LINE
  5
11430
330
11404
100
AcDbEntity
  8
DIM
440
 16777216
370
    20
100
AcDbLine
 10
71.7015291945122
 20
-10.40230290403618
 30
0.0
 11
72.80905802428097
 21
-10.40230290403618
 31
0.0
  0
LINE
  5
11431
330
11404
100
AcDbEntity
  8
DIM
440
 16777216
100
AcDbLine
 10
72.70905802428099
 20
-6.563243206583677
 30
0.0
 11
72.70905802428099
 21
-7.325630198167074
 31
0.0
  0
LINE
  5
11432
330
11404
100
AcDbEntity
  8
DIM
440
 16777216
100
AcDbLine
 10
72.70905802428099
 20
-9.902302904036179
 30
0.0
 11
72.70905802428099
 21
-9.139915912452787
 31
0.0
  0
SOLID
  5
11433
330
11404
100
AcDbEntity
  8
DIM
440
 16777216
100
AcDbTrace
 10
72.62572469094767
 20
-6.563243206583677
 30
0.0
 11
72.79239135761432
 21
-6.563243206583677
 31
0.0
 12
72.70905802428099
 22
-6.063243206583677
 32
0.0
 13
72.70905802428099
 23
-6.063243206583677
 33
0.0
  0
SOLID
  5
11434
330
11404
100
AcDbEntity
  8
DIM
440
 16777216
100
AcDbTrace
 10
72.62572469094767
 20
-9.902302904036179
 30
0.0
 11
72.79239135761432
 21
-9.902302904036179
 31
0.0
 12
72.70905802428099
 22
-10.40230290403618
 32
0.0
 13
72.70905802428099
 23
-10.40230290403618
 33
0.0
  0
MTEXT
  5
11435
330
11404
100
AcDbEntity
  8
DIM
440
 16777216
100
AcDbMText
 10
72.70905802428099
 20
-8.23277305530992
 30
0.0
 40
0.4
 41
0.0
 46
0.0
 71
     5
 72
     1
  1
\A1;4{\H1.000000x;\S3#8;}"
 11
0.0000000000000001
 21
1.0
 31
0.0
 73
     1
 44
1.0
  0
POINT
  5
11436
330
11404
100
AcDbEntity
  8
Defpoints
 62
     0
440
 16777216
100
AcDbPoint
 10
71.5815291945122
 20
-6.063243206583677
 30
0.0
  0
POINT
  5
11437
330
11404
100
AcDbEntity
  8
Defpoints
 62
     0
440
 16777216
100
AcDbPoint
 10
71.5815291945122
 20
-10.40230290403618
 30
0.0
  0
POINT
  5
11438
330
11404
100
AcDbEntity
  8
Defpoints
 62
     0
440
 16777216
100
AcDbPoint
 10
72.70905802428099
 20
-10.40230290403618
 30
0.0
  0
ENDBLK
  5
11406
330
11404
100
AcDbEntity
  8
0
100
AcDbBlockEnd
  0
BLOCK
  5
11539
330
11538
100
AcDbEntity
  8
0
100
AcDbBlockBegin
  2
*D7
 70
     1
 10
0.0
 20
0.0
 30
0.0
  3
*D7
  1

  0
LINE
  5
12825
330
11538
100
AcDbEntity
  8
DIM
440
 16777216
370
    20
100
AcDbLine
 10
65.11605194313904
 20
-17.25124320995057
 30
0.0
 11
61.08566798855065
 21
-17.25124320995057
 31
0.0
  0
LINE
  5
12826
330
11538
100
AcDbEntity
  8
DIM
440
 16777216
370
    20
100
AcDbLine
 10
65.15146776347116
 20
-20.00580701355765
 30
0.0
 11
61.08566798855065
 21
-20.00580701355765
 31
0.0
  0
LINE
  5
12827
330
11538
100
AcDbEntity
  8
DIM
440
 16777216
100
AcDbLine
 10
61.18566798855064
 20
-17.50124320995057
 30
0.0
 11
61.18566798855064
 21
-17.96185844508746
 31
0.0
  0
LINE
  5
12828
330
11538
100
AcDbEntity
  8
DIM
440
 16777216
100
AcDbLine
 10
61.18566798855064
 20
-19.75580701355765
 30
0.0
 11
61.18566798855064
 21
-19.29519177842079
 31
0.0
  0
SOLID
  5
12829
330
11538
100
AcDbEntity
  8
DIM
440
 16777216
100
AcDbTrace
 10
61.14400132188396
 20
-17.50124320995057
 30
0.0
 11
61.22733465521729
 21
-17.50124320995057
 31
0.0
 12
61.18566798855064
 22
-17.25124320995057
 32
0.0
 13
61.18566798855064
 23
-17.25124320995057
 33
0.0
  0
SOLID
  5
1282A
330
11538
100
AcDbEntity
  8
DIM
440
 16777216
100
AcDbTrace
 10
61.14400132188396
 20
-19.75580701355765
 30
0.0
 11
61.22733465521729
 21
-19.75580701355765
 31
0.0
 12
61.18566798855064
 22
-20.00580701355765
 32
0.0
 13
61.18566798855064
 23
-20.00580701355765
 33
0.0
  0
MTEXT
  5
1282B
330
11538
100
AcDbEntity
  8
DIM
440
 16777216
100
AcDbMText
 10
61.18566798855064
 20
-18.62852511175411
 30
0.0
 40
0.25
 41
0.0
 46
0.0
 71
     5
 72
     1
  1
\A1;2{\H1.000000x;\S3#4;}"
 11
0.0000000000000001
 21
1.0
 31
0.0
 73
     1
 44
1.0
  0
POINT
  5
1282C
330
11538
100
AcDbEntity
  8
Defpoints
 62
     0
440
 16777216
100
AcDbPoint
 10
65.23605194313905
 20
-17.25124320995057
 30
0.0
  0
POINT
  5
1282D
330
11538
100
AcDbEntity
  8
Defpoints
 62
     0
440
 16777216
100
AcDbPoint
 10
65.27146776347115
 20
-20.00580701355765
 30
0.0
  0
POINT
  5
1282E
330
11538
100
AcDbEntity
  8
Defpoints
 62
     0
440
 16777216
100
AcDbPoint
 10
61.18566798855064
 20
-20.00580701355765
 30
0.0
  0
ENDBLK
  5
1153A
330
11538
100
AcDbEntity
  8
0
100
AcDbBlockEnd
  0
BLOCK
  5
11546
330
11545
100
AcDbEntity
  8
0
100
AcDbBlockBegin
  2
*D8
 70
     1
 10
0.0
 20
0.0
 30
0.0
  3
*D8
  1

  0
LINE
  5
12844
330
11545
100
AcDbEntity
  8
DIM
440
 16777216
100
AcDbLine
 10
68.73876370634123
 20
-15.91829977284791
 30
0.0
 11
67.65304942062707
 21
-15.91829977284791
 31
0.0
  0
LINE
  5
12845
330
11545
100
AcDbEntity
  8
DIM
440
 16777216
100
AcDbLine
 10
67.65304942062707
 20
-15.91829977284791
 30
0.0
 11
66.08374949257494
 21
-17.36406029160251
 31
0.0
  0
MTEXT
  5
12846
330
11545
100
AcDbEntity
  8
DIM
440
 16777216
100
AcDbMText
 10
69.9649541825317
 20
-15.9182997728479
 30
0.0
 40
0.25
 41
0.0
 46
0.0
 71
     5
 72
     1
  1
\A1;3/16" STD
 11
0.0000000000000001
 21
1.0
 31
0.0
 73
     1
 44
1.0
  0
SOLID
  5
12847
330
11545
100
AcDbEntity
  8
DIM
440
 16777216
100
AcDbTrace
 10
66.05551761022626
 20
-17.33341601105685
 30
0.0
 11
66.11198137492363
 21
-17.39470457214818
 31
0.0
 12
65.89988380930093
 22
-17.5334515856946
 32
0.0
 13
65.89988380930093
 23
-17.5334515856946
 33
0.0
  0
LINE
  5
12848
330
11545
100
AcDbEntity
  8
DIM
440
 16777216
370
    20
100
AcDbLine
 10
65.69541297861849
 20
-17.60666626399762
 30
0.0
 11
65.94541297861851
 21
-17.60666626399764
 31
0.0
  0
LINE
  5
12849
330
11545
100
AcDbEntity
  8
DIM
440
 16777216
370
    20
100
AcDbLine
 10
65.82041297861849
 20
-17.73166626399763
 30
0.0
 11
65.82041297861849
 21
-17.48166626399763
 31
0.0
  0
POINT
  5
1284A
330
11545
100
AcDbEntity
  8
Defpoints
 62
     0
440
 16777216
100
AcDbPoint
 10
65.89988380930093
 20
-17.5334515856946
 30
0.0
  0
POINT
  5
1284B
330
11545
100
AcDbEntity
  8
Defpoints
 62
     0
440
 16777216
100
AcDbPoint
 10
65.74094214793607
 20
-17.67988094230066
 30
0.0
  0
ENDBLK
  5
11547
330
11545
100
AcDbEntity
  8
0
100
AcDbBlockEnd
  0
BLOCK
  5
11551
330
11550
100
AcDbEntity
  8
0
100
AcDbBlockBegin
  2
*D9
 70
     1
 10
0.0
 20
0.0
 30
0.0
  3
*D9
  1

  0
LINE
  5
1283A
330
11550
100
AcDbEntity
  8
DIM
440
 16777216
370
    20
100
AcDbLine
 10
65.82041297861855
 20
-17.48666626399764
 30
0.0
 11
65.82041297861855
 21
-14.74452535644197
 31
0.0
  0
LINE
  5
1283B
330
11550
100
AcDbEntity
  8
DIM
440
 16777216
370
    20
100
AcDbLine
 10
65.230149306417
 20
-17.48666626399764
 30
0.0
 11
65.230149306417
 21
-14.74452535644197
 31
0.0
  0
LINE
  5
1283C
330
11550
100
AcDbEntity
  8
DIM
440
 16777216
100
AcDbLine
 10
66.07041297861854
 20
-14.84452535644197
 30
0.0
 11
66.32041297861855
 21
-14.84452535644197
 31
0.0
  0
LINE
  5
1283D
330
11550
100
AcDbEntity
  8
DIM
440
 16777216
100
AcDbLine
 10
64.980149306417
 20
-14.84452535644197
 30
0.0
 11
64.08014930641702
 21
-14.84452535644197
 31
0.0
  0
SOLID
  5
1283E
330
11550
100
AcDbEntity
  8
DIM
440
 16777216
100
AcDbTrace
 10
66.07041297861854
 20
-14.80285868977531
 30
0.0
 11
66.07041297861854
 21
-14.88619202310864
 31
0.0
 12
65.82041297861855
 22
-14.84452535644197
 32
0.0
 13
65.82041297861855
 23
-14.84452535644197
 33
0.0
  0
SOLID
  5
1283F
330
11550
100
AcDbEntity
  8
DIM
440
 16777216
100
AcDbTrace
 10
64.980149306417
 20
-14.80285868977531
 30
0.0
 11
64.980149306417
 21
-14.88619202310864
 31
0.0
 12
65.230149306417
 22
-14.84452535644197
 32
0.0
 13
65.230149306417
 23
-14.84452535644197
 33
0.0
  0
MTEXT
  5
12840
330
11550
100
AcDbEntity
  8
DIM
440
 16777216
100
AcDbMText
 10
63.58014930641701
 20
-14.84452535644197
 30
0.0
 40
0.25
 41
0.0
 46
0.0
 71
     5
 72
     1
  1
\A1;{\H1.000000x;\S5#8;}"
 11
0.0000000000000001
 21
1.0
 31
0.0
 73
     1
 44
1.0
  0
POINT
  5
12841
330
11550
100
AcDbEntity
  8
Defpoints
 62
     0
440
 16777216
100
AcDbPoint
 10
65.82041297861855
 20
-17.60666626399764
 30
0.0
  0
POINT
  5
12842
330
11550
100
AcDbEntity
  8
Defpoints
 62
     0
440
 16777216
100
AcDbPoint
 10
65.230149306417
 20
-17.60666626399764
 30
0.0
  0
POINT
  5
12843
330
11550
100
AcDbEntity
  8
Defpoints
 62
     0
440
 16777216
100
AcDbPoint
 10
65.230149306417
 20
-14.84452535644197
 30
0.0
  0
ENDBLK
  5
11552
330
11550
100
AcDbEntity
  8
0
100
AcDbBlockEnd
  0
BLOCK
  5
1155E
330
1155D
100
AcDbEntity
  8
0
100
AcDbBlockBegin
  2
*D10
 70
     1
 10
0.0
 20
0.0
 30
0.0
  3
*D10
  1

  0
LINE
  5
1282F
330
1155D
100
AcDbEntity
  8
DIM
440
 16777216
370
    20
100
AcDbLine
 10
65.70041297861853
 20
-17.60666626399764
 30
0.0
 11
63.0472595664886
 21
-17.60666626399764
 31
0.0
  0
LINE
  5
12830
330
1155D
100
AcDbEntity
  8
DIM
440
 16777216
370
    20
100
AcDbLine
 10
63.38140908696668
 20
-18.62852511175411
 30
0.0
 11
63.0472595664886
 21
-18.62852511175411
 31
0.0
  0
LINE
  5
12831
330
1155D
100
AcDbEntity
  8
DIM
440
 16777216
100
AcDbLine
 10
63.1472595664886
 20
-17.85666626399764
 30
0.0
 11
63.1472595664886
 21
-18.37852511175411
 31
0.0
  0
LINE
  5
12832
330
1155D
100
AcDbEntity
  8
DIM
440
 16777216
100
AcDbLine
 10
63.1472595664886
 20
-18.62852511175411
 30
0.0
 11
63.1472595664886
 21
-18.87852511175411
 31
0.0
  0
LINE
  5
12833
330
1155D
100
AcDbEntity
  8
DIM
440
 16777216
100
AcDbLine
 10
63.1472595664886
 20
-18.87852511175411
 30
0.0
 11
62.8972595664886
 21
-18.87852511175411
 31
0.0
  0
SOLID
  5
12834
330
1155D
100
AcDbEntity
  8
DIM
440
 16777216
100
AcDbTrace
 10
63.10559289982194
 20
-17.85666626399764
 30
0.0
 11
63.18892623315527
 21
-17.85666626399764
 31
0.0
 12
63.1472595664886
 22
-17.60666626399764
 32
0.0
 13
63.1472595664886
 23
-17.60666626399764
 33
0.0
  0
SOLID
  5
12835
330
1155D
100
AcDbEntity
  8
DIM
440
 16777216
100
AcDbTrace
 10
63.10559289982194
 20
-18.37852511175411
 30
0.0
 11
63.18892623315527
 21
-18.37852511175411
 31
0.0
 12
63.1472595664886
 22
-18.62852511175411
 32
0.0
 13
63.1472595664886
 23
-18.62852511175411
 33
0.0
  0
MTEXT
  5
12836
330
1155D
100
AcDbEntity
  8
DIM
440
 16777216
100
AcDbMText
 10
62.49845004267908
 20
-18.8785251117541
 30
0.0
 40
0.25
 41
0.0
 46
0.0
 71
     5
 72
     1
  1
\A1;1"
 11
0.0000000000000001
 21
1.0
 31
0.0
 73
     1
 44
1.0
  0
POINT
  5
12837
330
1155D
100
AcDbEntity
  8
Defpoints
 62
     0
440
 16777216
100
AcDbPoint
 10
65.82041297861855
 20
-17.60666626399764
 30
0.0
  0
POINT
  5
12838
330
1155D
100
AcDbEntity
  8
Defpoints
 62
     0
440
 16777216
100
AcDbPoint
 10
63.50140908696666
 20
-18.62852511175411
 30
0.0
  0
POINT
  5
12839
330
1155D
100
AcDbEntity
  8
Defpoints
 62
     0
440
 16777216
100
AcDbPoint
 10
63.1472595664886
 20
-18.62852511175411
 30
0.0
  0
ENDBLK
  5
1155F
330
1155D
100
AcDbEntity
  8
0
100
AcDbBlockEnd
  0
BLOCK
  5
1156B
330
1156A
100
AcDbEntity
  8
0
100
AcDbBlockBegin
  2
*D11
 70
     1
 10
0.0
 20
0.0
 30
0.0
  3
*D11
  1

  0
LINE
  5
12810
330
1156A
100
AcDbEntity
  8
DIM
440
 16777216
370
    20
100
AcDbLine
 10
64.04962196201397
 20
-18.74852511175411
 30
0.0
 11
64.04962196201397
 21
-21.43256767305728
 31
0.0
  0
LINE
  5
12811
330
1156A
100
AcDbEntity
  8
DIM
440
 16777216
370
    20
100
AcDbLine
 10
65.230149306417
 20
-20.47726533120445
 30
0.0
 11
65.230149306417
 21
-21.43256767305728
 31
0.0
  0
LINE
  5
12812
330
1156A
100
AcDbEntity
  8
DIM
440
 16777216
100
AcDbLine
 10
64.29962196201397
 20
-21.33256767305728
 30
0.0
 11
64.980149306417
 21
-21.33256767305728
 31
0.0
  0
LINE
  5
12813
330
1156A
100
AcDbEntity
  8
DIM
440
 16777216
100
AcDbLine
 10
65.230149306417
 20
-21.33256767305728
 30
0.0
 11
65.480149306417
 21
-21.33256767305728
 31
0.0
  0
SOLID
  5
12814
330
1156A
100
AcDbEntity
  8
DIM
440
 16777216
100
AcDbTrace
 10
64.29962196201397
 20
-21.29090100639061
 30
0.0
 11
64.29962196201397
 21
-21.37423433972394
 31
0.0
 12
64.04962196201397
 22
-21.33256767305728
 32
0.0
 13
64.04962196201397
 23
-21.33256767305728
 33
0.0
  0
SOLID
  5
12815
330
1156A
100
AcDbEntity
  8
DIM
440
 16777216
100
AcDbTrace
 10
64.980149306417
 20
-21.29090100639061
 30
0.0
 11
64.980149306417
 21
-21.37423433972394
 31
0.0
 12
65.230149306417
 22
-21.33256767305728
 32
0.0
 13
65.230149306417
 23
-21.33256767305728
 33
0.0
  0
MTEXT
  5
12816
330
1156A
100
AcDbEntity
  8
DIM
440
 16777216
100
AcDbMText
 10
65.980149306417
 20
-21.33256767305728
 30
0.0
 40
0.25
 41
0.0
 46
0.0
 71
     5
 72
     1
  1
\A1;1{\H1.000000x;\S1#8;}"
 11
0.0000000000000001
 21
1.0
 31
0.0
 73
     1
 44
1.0
  0
POINT
  5
12817
330
1156A
100
AcDbEntity
  8
Defpoints
 62
     0
440
 16777216
100
AcDbPoint
 10
64.04962196201397
 20
-18.62852511175411
 30
0.0
  0
POINT
  5
12818
330
1156A
100
AcDbEntity
  8
Defpoints
 62
     0
440
 16777216
100
AcDbPoint
 10
65.230149306417
 20
-20.35726533120445
 30
0.0
  0
POINT
  5
12819
330
1156A
100
AcDbEntity
  8
Defpoints
 62
     0
440
 16777216
100
AcDbPoint
 10
65.230149306417
 20
-21.33256767305728
 30
0.0
  0
ENDBLK
  5
1156C
330
1156A
100
AcDbEntity
  8
0
100
AcDbBlockEnd
  0
BLOCK
  5
115B9
330
115B8
100
AcDbEntity
  8
0
100
AcDbBlockBegin
  2
*D12
 70
     1
 10
0.0
 20
0.0
 30
0.0
  3
*D12
  1

  0
LINE
  5
1281A
330
115B8
100
AcDbEntity
  8
DIM
440
 16777216
370
    20
100
AcDbLine
 10
65.350149306417
 20
-17.87707405214373
 30
0.0
 11
68.01617727365111
 21
-17.87707405214373
 31
0.0
  0
LINE
  5
1281B
330
115B8
100
AcDbEntity
  8
DIM
440
 16777216
370
    20
100
AcDbLine
 10
65.350149306417
 20
-19.37997617136449
 30
0.0
 11
68.01617727365111
 21
-19.37997617136449
 31
0.0
  0
LINE
  5
1281C
330
115B8
100
AcDbEntity
  8
DIM
440
 16777216
100
AcDbLine
 10
67.91617727365111
 20
-18.12707405214373
 30
0.0
 11
67.91617727365111
 21
-19.12997617136449
 31
0.0
  0
LINE
  5
1281D
330
115B8
100
AcDbEntity
  8
DIM
440
 16777216
100
AcDbLine
 10
67.91617727365111
 20
-19.37997617136449
 30
0.0
 11
67.91617727365111
 21
-19.87997617136449
 31
0.0
  0
LINE
  5
1281E
330
115B8
100
AcDbEntity
  8
DIM
440
 16777216
100
AcDbLine
 10
67.91617727365111
 20
-19.87997617136449
 30
0.0
 11
67.66617727365112
 21
-19.87997617136449
 31
0.0
  0
SOLID
  5
1281F
330
115B8
100
AcDbEntity
  8
DIM
440
 16777216
100
AcDbTrace
 10
67.87451060698443
 20
-18.12707405214373
 30
0.0
 11
67.95784394031779
 21
-18.12707405214373
 31
0.0
 12
67.91617727365111
 22
-17.87707405214373
 32
0.0
 13
67.91617727365111
 23
-17.87707405214373
 33
0.0
  0
SOLID
  5
12820
330
115B8
100
AcDbEntity
  8
DIM
440
 16777216
100
AcDbTrace
 10
67.87451060698443
 20
-19.12997617136449
 30
0.0
 11
67.95784394031779
 21
-19.12997617136449
 31
0.0
 12
67.91617727365111
 22
-19.37997617136449
 32
0.0
 13
67.91617727365111
 23
-19.37997617136449
 33
0.0
  0
MTEXT
  5
12821
330
115B8
100
AcDbEntity
  8
DIM
440
 16777216
100
AcDbMText
 10
67.16617727365111
 20
-19.87997617136448
 30
0.0
 40
0.25
 41
0.0
 46
0.0
 71
     5
 72
     1
  1
\A1;1{\H1.000000x;\S1#2;}"
 11
0.0000000000000001
 21
1.0
 31
0.0
 73
     1
 44
1.0
  0
POINT
  5
12822
330
115B8
100
AcDbEntity
  8
Defpoints
 62
     0
440
 16777216
100
AcDbPoint
 10
65.230149306417
 20
-17.87707405214373
 30
0.0
  0
POINT
  5
12823
330
115B8
100
AcDbEntity
  8
Defpoints
 62
     0
440
 16777216
100
AcDbPoint
 10
65.230149306417
 20
-19.37997617136449
 30
0.0
  0
POINT
  5
12824
330
115B8
100
AcDbEntity
  8
Defpoints
 62
     0
440
 16777216
100
AcDbPoint
 10
67.91617727365111
 20
-19.37997617136449
 30
0.0
  0
ENDBLK
  5
115BA
330
115B8
100
AcDbEntity
  8
0
100
AcDbBlockEnd
  0
ENDSEC
  0
SECTION
  2
ENTITIES
  0
TEXT
  5
1098D
330
1E
100
AcDbEntity
  8
TEXT
  6
Continuous
100
AcDbText
 10
44.9442484256028
 20
-26.85676072633223
 30
0.0
 40
0.75
  1
NOTES:
 50
90.0
100
AcDbText
  0
TEXT
  5
1098E
330
1E
100
AcDbEntity
  8
TEXT
100
AcDbText
 10
45.85395619367363
 20
-26.77566170815306
 30
0.0
 40
0.4
  1
1. LUMINAIRE # 77 264 - SEE SPECIFICATIONS
 50
90.0
100
AcDbText
  0
TEXT
  5
10C7D
330
1E
100
AcDbEntity
  8
TEXT
100
AcDbText
 10
57.01282676895232
 20
-19.11622010271385
 30
0.0
 40
0.1332682032
  1
TOP VIEW
 50
90.0
100
AcDbText
  0
TEXT
  5
1107A
330
1E
100
AcDbEntity
  8
TEXT
100
AcDbText
 10
74.71952143974568
 20
-9.669858417240137
 30
0.0
 40
0.4
  1
SIDE VIEW
 50
90.0
100
AcDbText
  0
LINE
  5
112D8
330
1E
100
AcDbEntity
  8
PART
  6
Continuous
100
AcDbLine
 10
44.03004438737215
 20
-6.081334218792427
 30
0.0
 11
44.01612822413463
 21
-6.086900684087424
 31
0.0
  0
LINE
  5
112D9
330
1E
100
AcDbEntity
  8
PART
  6
Continuous
100
AcDbLine
 10
44.01612822413463
 20
-6.086900684087424
 30
0.0
 11
44.01056175883964
 21
-6.100816847324928
 31
0.0
  0
LINE
  5
112DA
330
1E
100
AcDbEntity
  8
PART
  6
Continuous
100
AcDbLine
 10
44.01056175883964
 20
-6.100816847324928
 30
0.0
 11
44.01056175883964
 21
-10.36472926329492
 31
0.0
  0
LINE
  5
112DB
330
1E
100
AcDbEntity
  8
PART
  6
Continuous
100
AcDbLine
 10
44.01056175883964
 20
-10.36472926329492
 30
0.0
 11
44.01612822413463
 21
-10.37725381020868
 31
0.0
  0
LINE
  5
112DC
330
1E
100
AcDbEntity
  8
PART
  6
Continuous
100
AcDbLine
 10
44.01612822413463
 20
-10.37725381020868
 30
0.0
 11
44.02865277104839
 21
-10.38421189182742
 31
0.0
  0
LINE
  5
112DD
330
1E
100
AcDbEntity
  8
PART
  6
Continuous
100
AcDbLine
 10
44.01056175883964
 20
-8.312095185763682
 30
0.0
 11
43.99942882824965
 21
-8.312095185763682
 31
0.0
  0
LINE
  5
112DE
330
1E
100
AcDbEntity
  8
PART
  6
Continuous
100
AcDbLine
 10
43.99942882824965
 20
-8.312095185763682
 30
0.0
 11
43.99942882824965
 21
-8.153450924856173
 31
0.0
  0
LINE
  5
112DF
330
1E
100
AcDbEntity
  8
PART
  6
Continuous
100
AcDbLine
 10
43.99942882824965
 20
-8.153450924856173
 30
0.0
 11
44.01056175883964
 21
-8.153450924856173
 31
0.0
  0
LINE
  5
112E0
330
1E
100
AcDbEntity
  8
PART
  6
Continuous
100
AcDbLine
 10
44.02865277104839
 20
-10.38421189182742
 30
0.0
 11
45.58447982100088
 21
-10.39812805506493
 31
0.0
  0
LINE
  5
112E1
330
1E
100
AcDbEntity
  8
PART
  6
Continuous
100
AcDbLine
 10
45.58447982100088
 20
-10.39812805506493
 30
0.0
 11
45.58447982100088
 21
-8.196591030892427
 31
0.0
  0
LINE
  5
112E2
330
1E
100
AcDbEntity
  8
PART
  6
Continuous
100
AcDbLine
 10
45.58447982100088
 20
-8.196591030892427
 30
0.0
 11
45.66380195145463
 21
-8.193807798244932
 31
0.0
  0
LINE
  5
112E3
330
1E
100
AcDbEntity
  8
PART
  6
Continuous
100
AcDbLine
 10
45.66380195145463
 20
-8.193807798244932
 30
0.0
 11
45.66380195145463
 21
-8.232773055309927
 31
0.0
  0
LINE
  5
112E4
330
1E
100
AcDbEntity
  8
PART
  6
Continuous
100
AcDbLine
 10
45.66380195145463
 20
-8.232773055309927
 30
0.0
 11
47.47151155600588
 21
-8.232773055309927
 31
0.0
  0
LINE
  5
112E5
330
1E
100
AcDbEntity
  8
PART
  6
Continuous
100
AcDbLine
 10
66.4617727394359
 20
-6.067418055554927
 30
0.0
 11
45.66380195145463
 21
-6.067418055554931
 31
0.0
  0
LINE
  5
112E6
330
1E
100
AcDbEntity
  8
PART
  6
Continuous
100
AcDbLine
 10
45.66380195145463
 20
-6.067418055554931
 30
0.0
 11
45.66380195145463
 21
-6.107774928943673
 31
0.0
  0
LINE
  5
112E7
330
1E
100
AcDbEntity
  8
PART
  6
Continuous
100
AcDbLine
 10
45.66380195145463
 20
-6.107774928943673
 30
0.0
 11
45.58447982100088
 21
-6.104991696296173
 31
0.0
  0
LINE
  5
112E8
330
1E
100
AcDbEntity
  8
PART
  6
Continuous
100
AcDbLine
 10
45.58447982100088
 20
-6.104991696296173
 30
0.0
 11
45.58447982100088
 21
-6.067418055554931
 31
0.0
  0
LINE
  5
112E9
330
1E
100
AcDbEntity
  8
PART
  6
Continuous
100
AcDbLine
 10
45.58447982100088
 20
-6.067418055554931
 30
0.0
 11
44.03004438737215
 21
-6.081334218792427
 31
0.0
  0
LINE
  5
112EA
330
1E
100
AcDbEntity
  8
PART
  6
Continuous
100
AcDbLine
 10
66.4617727394359
 20
-6.067418055554927
 30
0.0
 11
67.54723347196089
 21
-6.067418055554927
 31
0.0
  0
LINE
  5
112EB
330
1E
100
AcDbEntity
  8
PART
  6
Continuous
100
AcDbLine
 10
67.54723347196089
 20
-6.067418055554927
 30
0.0
 11
67.58619872902591
 21
-6.070201288202422
 31
0.0
  0
LINE
  5
112EC
330
1E
100
AcDbEntity
  8
PART
  6
Continuous
100
AcDbLine
 10
67.58619872902591
 20
-6.070201288202422
 30
0.0
 11
67.58619872902591
 21
-6.040977345403675
 31
0.0
  0
LINE
  5
112ED
330
1E
100
AcDbEntity
  8
PART
  6
Continuous
100
AcDbLine
 10
67.58619872902591
 20
-6.040977345403675
 30
0.0
 11
67.61124782285344
 21
-6.017319867899923
 31
0.0
  0
LINE
  5
112EE
330
1E
100
AcDbEntity
  8
PART
  6
Continuous
100
AcDbLine
 10
67.61124782285344
 20
-6.017319867899923
 30
0.0
 11
67.7977244102359
 21
-6.017319867899923
 31
0.0
  0
LINE
  5
112EF
330
1E
100
AcDbEntity
  8
PART
  6
Continuous
100
AcDbLine
 10
67.7977244102359
 20
-6.017319867899923
 30
0.0
 11
67.82277350406342
 21
-6.040977345403675
 31
0.0
  0
LINE
  5
112F0
330
1E
100
AcDbEntity
  8
PART
  6
Continuous
100
AcDbLine
 10
67.82277350406342
 20
-6.040977345403675
 30
0.0
 11
67.82277350406342
 21
-6.070201288202422
 31
0.0
  0
LINE
  5
112F1
330
1E
100
AcDbEntity
  8
PART
  6
Continuous
100
AcDbLine
 10
67.82277350406342
 20
-6.070201288202422
 30
0.0
 11
67.86173876112844
 21
-6.067418055554927
 31
0.0
  0
LINE
  5
112F2
330
1E
100
AcDbEntity
  8
PART
  6
Continuous
100
AcDbLine
 10
67.86173876112844
 20
-6.067418055554927
 30
0.0
 11
69.51497895374342
 21
-6.067418055554927
 31
0.0
  0
LINE
  5
112F3
330
1E
100
AcDbEntity
  8
PART
  6
Continuous
100
AcDbLine
 10
69.51497895374342
 20
-6.067418055554927
 30
0.0
 11
69.55394421080843
 21
-6.070201288202422
 31
0.0
  0
LINE
  5
112F4
330
1E
100
AcDbEntity
  8
PART
  6
Continuous
100
AcDbLine
 10
69.55394421080843
 20
-6.070201288202422
 30
0.0
 11
69.55394421080843
 21
-6.040977345403675
 31
0.0
  0
LINE
  5
112F5
330
1E
100
AcDbEntity
  8
PART
  6
Continuous
100
AcDbLine
 10
69.55394421080843
 20
-6.040977345403675
 30
0.0
 11
69.5789933046359
 21
-6.017319867899923
 31
0.0
  0
LINE
  5
112F6
330
1E
100
AcDbEntity
  8
PART
  6
Continuous
100
AcDbLine
 10
69.5789933046359
 20
-6.017319867899923
 30
0.0
 11
69.76686150834217
 21
-6.017319867899923
 31
0.0
  0
LINE
  5
112F7
330
1E
100
AcDbEntity
  8
PART
  6
Continuous
100
AcDbLine
 10
69.76686150834217
 20
-6.017319867899923
 30
0.0
 11
69.79051898584597
 21
-6.040977345403675
 31
0.0
  0
LINE
  5
112F8
330
1E
100
AcDbEntity
  8
PART
  6
Continuous
100
AcDbLine
 10
69.79051898584597
 20
-6.040977345403675
 30
0.0
 11
69.79051898584597
 21
-6.070201288202422
 31
0.0
  0
LINE
  5
112F9
330
1E
100
AcDbEntity
  8
PART
  6
Continuous
100
AcDbLine
 10
69.79051898584597
 20
-6.070201288202422
 30
0.0
 11
69.82948424291095
 21
-6.067418055554927
 31
0.0
  0
LINE
  5
112FA
330
1E
100
AcDbEntity
  8
PART
  6
Continuous
100
AcDbLine
 10
69.82948424291095
 20
-6.067418055554927
 30
0.0
 11
71.04993175883965
 21
-6.067418055554927
 31
0.0
  0
LINE
  5
112FB
330
1E
100
AcDbEntity
  8
PART
  6
Continuous
100
AcDbLine
 10
71.04993175883965
 20
-6.067418055554927
 30
0.0
 11
71.04993175883965
 21
-6.379140112074921
 31
0.0
  0
LINE
  5
112FD
330
1E
100
AcDbEntity
  8
PART
  6
Continuous
100
AcDbLine
 10
47.47151155600588
 20
-8.232773055309927
 30
0.0
 11
71.04993175883965
 21
-8.23277305530992
 31
0.0
  0
LINE
  5
112FE
330
1E
100
AcDbEntity
  8
PART
  6
Continuous
100
AcDbLine
 10
71.04993175883965
 20
-8.23277305530992
 30
0.0
 11
71.04993175883965
 21
-8.039338386308671
 31
0.0
  0
LINE
  5
11309
330
1E
100
AcDbEntity
  8
PART
  6
Continuous
100
AcDbLine
 10
45.58447982100088
 20
-8.196591030892427
 30
0.0
 11
45.58447982100088
 21
-6.104991696296173
 31
0.0
  0
LINE
  5
1130A
330
1E
100
AcDbEntity
  8
PART
  6
Continuous
100
AcDbLine
 10
45.66380195145463
 20
-6.107774928943673
 30
0.0
 11
45.66380195145463
 21
-8.193807798244932
 31
0.0
  0
LINE
  5
1130B
330
1E
100
AcDbEntity
  8
PART
  6
Continuous
100
AcDbLine
 10
67.58619872902591
 20
-6.070201288202422
 30
0.0
 11
67.82277350406342
 21
-6.070201288202422
 31
0.0
  0
LINE
  5
1130C
330
1E
100
AcDbEntity
  8
PART
  6
Continuous
100
AcDbLine
 10
67.82277350406342
 20
-6.040977345403675
 30
0.0
 11
67.58619872902591
 21
-6.040977345403675
 31
0.0
  0
LINE
  5
1130D
330
1E
100
AcDbEntity
  8
PART
  6
Continuous
100
AcDbLine
 10
69.55394421080843
 20
-6.070201288202422
 30
0.0
 11
69.79051898584597
 21
-6.070201288202422
 31
0.0
  0
LINE
  5
1130E
330
1E
100
AcDbEntity
  8
PART
  6
Continuous
100
AcDbLine
 10
69.79051898584597
 20
-6.040977345403675
 30
0.0
 11
69.55394421080843
 21
-6.040977345403675
 31
0.0
  0
LINE
  5
11317
330
1E
100
AcDbEntity
  8
PART
100
AcDbLine
 10
71.04993175883965
 20
-6.379140112074921
 30
0.0
 11
71.04993175883965
 21
-8.039338386308671
 31
0.0
  0
LINE
  5
11326
330
1E
100
AcDbEntity
  8
PART
  6
Continuous
100
AcDbLine
 10
54.85857991670108
 20
-18.71517286133447
 30
0.0
 11
54.86885784006172
 21
-18.71450570024581
 31
0.0
  0
LINE
  5
11327
330
1E
100
AcDbEntity
  8
PART
  6
Continuous
100
AcDbLine
 10
54.85857991670108
 20
-18.71517286133447
 30
0.0
 11
54.85017390270051
 21
-18.70735532966958
 31
0.0
  0
LINE
  5
11328
330
1E
100
AcDbEntity
  8
PART
  6
Continuous
100
AcDbLine
 10
54.85017390270051
 20
-18.70735532966958
 30
0.0
 11
54.84614948404355
 21
-18.64535730965482
 31
0.0
  0
LINE
  5
11329
330
1E
100
AcDbEntity
  8
PART
  6
Continuous
100
AcDbLine
 10
54.84614948404355
 20
-18.64535730965482
 30
0.0
 11
54.85347431094225
 21
-18.63651865683813
 31
0.0
  0
LINE
  5
1132A
330
1E
100
AcDbEntity
  8
PART
  6
Continuous
100
AcDbLine
 10
54.85347431094225
 20
-18.63651865683813
 30
0.0
 11
54.86362830435885
 21
-18.63585954029637
 31
0.0
  0
LINE
  5
1132B
330
1E
100
AcDbEntity
  8
PART
  6
Continuous
100
AcDbLine
 10
54.85347431094225
 20
-18.63651865683813
 30
0.0
 11
54.85857991670108
 21
-18.71517286133447
 31
0.0
  0
CIRCLE
  5
1132C
330
1E
100
AcDbEntity
  8
PART
  6
Continuous
100
AcDbCircle
 10
55.58502344608411
 20
-18.62852511175411
 30
0.0
 40
0.7214324253503396
  0
DIMENSION
  5
1132D
330
1E
100
AcDbEntity
  8
DIM
100
AcDbDimension
280
     0
  2
*D3
 10
54.37027423894836
 20
-19.34995753710445
 30
0.0
 11
54.37027423894836
 21
-18.6285251117541
 31
0.0
 70
    32
 71
     5
 42
1.442864850700678
 73
     0
 74
     0
 75
     0
 53
90.0
  3
Standard
100
AcDbAlignedDimension
 13
55.58502344608411
 23
-17.90709268640377
 33
0.0
 14
55.58502344608411
 24
-19.34995753710445
 34
0.0
 50
90.0
100
AcDbRotatedDimension
1001
ACAD
1000
DSTYLE
1002
{
1070
    41
1040
0.25
1070
   140
1040
0.25
1070
   271
1070
     3
1002
}
  0
DIMENSION
  5
1133B
330
1E
100
AcDbEntity
  8
DIM
100
AcDbDimension
280
     0
  2
*D4
 10
71.04993175883965
 20
-4.59919259528459
 30
0.0
 11
57.5399880731059
 21
-4.59919259528459
 31
0.0
 70
    32
  1
27 1/2"
 71
     5
 42
27.01988737146749
 73
     0
 74
     0
 75
     0
 53
90.0
  3
Standard
100
AcDbAlignedDimension
 13
44.03004438737215
 23
-6.081334218792427
 33
0.0
 14
71.04993175883965
 24
-6.067418055554927
 34
0.0
100
AcDbRotatedDimension
1001
ACAD
1000
DSTYLE
1002
{
1070
   271
1070
     3
1002
}
  0
DIMENSION
  5
11357
330
1E
100
AcDbEntity
  8
DIM
100
AcDbDimension
280
     0
  2
*D5
 10
42.00938331651721
 20
-6.081334218792427
 30
0.0
 11
42.00938331651721
 21
-7.157053637051178
 31
0.0
 70
   160
 71
     5
 42
2.151438836517498
 73
     0
 74
     0
 75
     0
 53
90.0
  3
Standard
100
AcDbAlignedDimension
 13
45.66380195145463
 23
-8.232773055309927
 33
0.0
 14
44.03004438737215
 24
-6.081334218792427
 34
0.0
 50
90.0
100
AcDbRotatedDimension
1001
ACAD
1000
DSTYLE
1002
{
1070
   271
1070
     3
1002
}
  0
LINE
  5
113FB
330
1E
100
AcDbEntity
  8
PART
  6
Continuous
100
AcDbLine
 10
71.04993175883965
 20
-10.39673643874118
 30
0.0
 11
71.04993175883965
 21
-6.067418055554927
 31
0.0
  0
LINE
  5
113FC
330
1E
100
AcDbEntity
  8
PART
  6
Continuous
100
AcDbLine
 10
71.04993175883965
 20
-6.067418055554927
 30
0.0
 11
71.5815291945122
 21
-6.063243206583677
 31
0.0
  0
LINE
  5
113FD
330
1E
100
AcDbEntity
  8
PART
  6
Continuous
100
AcDbLine
 10
71.5815291945122
 20
-6.063243206583677
 30
0.0
 11
71.5815291945122
 21
-6.06602643923118
 31
0.0
  0
LINE
  5
113FE
330
1E
100
AcDbEntity
  8
PART
  6
Continuous
100
AcDbLine
 10
71.5815291945122
 20
-6.06602643923118
 30
0.0
 11
71.58431242715966
 21
-6.06602643923118
 31
0.0
  0
LINE
  5
113FF
330
1E
100
AcDbEntity
  8
PART
  6
Continuous
100
AcDbLine
 10
71.58431242715966
 20
-6.06602643923118
 30
0.0
 11
71.58431242715966
 21
-10.39951967138867
 31
0.0
  0
LINE
  5
11400
330
1E
100
AcDbEntity
  8
PART
  6
Continuous
100
AcDbLine
 10
71.58431242715966
 20
-10.39951967138867
 30
0.0
 11
71.5815291945122
 21
-10.39951967138867
 31
0.0
  0
LINE
  5
11401
330
1E
100
AcDbEntity
  8
PART
  6
Continuous
100
AcDbLine
 10
71.5815291945122
 20
-10.39951967138867
 30
0.0
 11
71.5815291945122
 21
-10.40230290403618
 31
0.0
  0
LINE
  5
11402
330
1E
100
AcDbEntity
  8
PART
  6
Continuous
100
AcDbLine
 10
71.5815291945122
 20
-10.40230290403618
 30
0.0
 11
71.04993175883965
 21
-10.39673643874118
 31
0.0
  0
DIMENSION
  5
11403
330
1E
100
AcDbEntity
  8
DIM
100
AcDbDimension
280
     0
  2
*D6
 10
72.70905802428099
 20
-10.40230290403618
 30
0.0
 11
72.70905802428099
 21
-8.23277305530992
 31
0.0
 70
    32
 71
     5
 42
4.339059697452498
 73
     0
 74
     0
 75
     0
 53
90.0
  3
Standard
100
AcDbAlignedDimension
 13
71.5815291945122
 23
-6.063243206583677
 33
0.0
 14
71.5815291945122
 24
-10.40230290403618
 34
0.0
 50
90.0
100
AcDbRotatedDimension
1001
ACAD
1000
DSTYLE
1002
{
1070
   271
1070
     3
1070
   294
1070
     0
1002
}
  0
LINE
  5
114E2
330
1E
100
AcDbEntity
  8
PART
  6
Continuous
100
AcDbLine
 10
65.99552453470498
 20
-17.50505658899722
 30
0.0
 11
65.97093021502996
 21
-17.47455963260015
 31
0.0
  0
LINE
  5
114E3
330
1E
100
AcDbEntity
  8
PART
  6
Continuous
100
AcDbLine
 10
65.97093021502996
 20
-17.47455963260015
 30
0.0
 11
65.94043325863286
 21
-17.44898154013808
 31
0.0
  0
LINE
  5
114E4
330
1E
100
AcDbEntity
  8
PART
  6
Continuous
100
AcDbLine
 10
65.94043325863286
 20
-17.44898154013808
 30
0.0
 11
65.93059553076284
 21
-17.44209513062906
 31
0.0
  0
LINE
  5
114E5
330
1E
100
AcDbEntity
  8
PART
  6
Continuous
100
AcDbLine
 10
65.93059553076284
 20
-17.44209513062906
 30
0.0
 11
65.83910466157161
 21
-17.39290649127893
 31
0.0
  0
LINE
  5
114E6
330
1E
100
AcDbEntity
  8
PART
  6
Continuous
100
AcDbLine
 10
65.83910466157161
 20
-17.39290649127893
 30
0.0
 11
65.74367870123237
 21
-17.35060426143782
 31
0.0
  0
LINE
  5
114E7
330
1E
100
AcDbEntity
  8
PART
  6
Continuous
100
AcDbLine
 10
65.74367870123237
 20
-17.35060426143782
 30
0.0
 11
65.64628519531909
 21
-17.31518844110573
 31
0.0
  0
LINE
  5
114E8
330
1E
100
AcDbEntity
  8
PART
  6
Continuous
100
AcDbLine
 10
65.64628519531909
 20
-17.31518844110573
 30
0.0
 11
65.54495659825786
 21
-17.28764280306967
 31
0.0
  0
LINE
  5
114E9
330
1E
100
AcDbEntity
  8
PART
  6
Continuous
100
AcDbLine
 10
65.54495659825786
 20
-17.28764280306967
 30
0.0
 11
65.4436280011966
 21
-17.26796734732961
 31
0.0
  0
LINE
  5
114EA
330
1E
100
AcDbEntity
  8
PART
  6
Continuous
100
AcDbLine
 10
65.4436280011966
 20
-17.26796734732961
 30
0.0
 11
65.34033185856131
 21
-17.25616207388558
 31
0.0
  0
LINE
  5
114EB
330
1E
100
AcDbEntity
  8
PART
  6
Continuous
100
AcDbLine
 10
65.34033185856131
 20
-17.25616207388558
 30
0.0
 11
65.23605194313905
 21
-17.25124320995057
 31
0.0
  0
LINE
  5
114EC
330
1E
100
AcDbEntity
  8
PART
  6
Continuous
100
AcDbLine
 10
65.23605194313905
 20
-17.25124320995057
 30
0.0
 11
65.13177202771675
 21
-17.25517830109858
 31
0.0
  0
LINE
  5
114ED
330
1E
100
AcDbEntity
  8
PART
  6
Continuous
100
AcDbLine
 10
65.13177202771675
 20
-17.25517830109858
 30
0.0
 11
65.02847588508152
 21
-17.2659998017556
 31
0.0
  0
LINE
  5
114EE
330
1E
100
AcDbEntity
  8
PART
  6
Continuous
100
AcDbLine
 10
65.02847588508152
 20
-17.2659998017556
 30
0.0
 11
64.92616351523323
 21
-17.28567525749567
 31
0.0
  0
LINE
  5
114EF
330
1E
100
AcDbEntity
  8
PART
  6
Continuous
100
AcDbLine
 10
64.92616351523323
 20
-17.28567525749567
 30
0.0
 11
64.82581869095901
 21
-17.31223712274472
 31
0.0
  0
LINE
  5
114F0
330
1E
100
AcDbEntity
  8
PART
  6
Continuous
100
AcDbLine
 10
64.82581869095901
 20
-17.31223712274472
 30
0.0
 11
64.72744141225875
 21
-17.34666917028981
 31
0.0
  0
LINE
  5
114F1
330
1E
100
AcDbEntity
  8
PART
  6
Continuous
100
AcDbLine
 10
64.72744141225875
 20
-17.34666917028981
 30
0.0
 11
64.63201545191946
 21
-17.38798762734392
 31
0.0
  0
LINE
  5
114F2
330
1E
100
AcDbEntity
  8
PART
  6
Continuous
100
AcDbLine
 10
64.63201545191946
 20
-17.38798762734392
 30
0.0
 11
64.53954080994124
 21
-17.43717626669405
 31
0.0
  0
LINE
  5
114F3
330
1E
100
AcDbEntity
  8
PART
  6
Continuous
100
AcDbLine
 10
64.53954080994124
 20
-17.43717626669405
 30
0.0
 11
64.45198503189804
 21
-17.49226754276619
 31
0.0
  0
LINE
  5
114F4
330
1E
100
AcDbEntity
  8
PART
  6
Continuous
100
AcDbLine
 10
64.45198503189804
 20
-17.49226754276619
 30
0.0
 11
64.36836434500278
 21
-17.55522900113435
 31
0.0
  0
LINE
  5
114F5
330
1E
100
AcDbEntity
  8
PART
  6
Continuous
100
AcDbLine
 10
64.36836434500278
 20
-17.55522900113435
 30
0.0
 11
64.28966252204259
 21
-17.62310932343753
 31
0.0
  0
LINE
  5
114F6
330
1E
100
AcDbEntity
  8
PART
  6
Continuous
100
AcDbLine
 10
64.28966252204259
 20
-17.62310932343753
 30
0.0
 11
64.21587956301742
 21
-17.69689228246272
 31
0.0
  0
LINE
  5
114F7
330
1E
100
AcDbEntity
  8
PART
  6
Continuous
100
AcDbLine
 10
64.21587956301742
 20
-17.69689228246272
 30
0.0
 11
64.14898301350127
 21
-17.77657787820992
 31
0.0
  0
LINE
  5
114F8
330
1E
100
AcDbEntity
  8
PART
  6
Continuous
100
AcDbLine
 10
64.14898301350127
 20
-17.77657787820992
 30
0.0
 11
64.08798910070712
 21
-17.86019856510513
 31
0.0
  0
LINE
  5
114F9
330
1E
100
AcDbEntity
  8
PART
  6
Continuous
100
AcDbLine
 10
64.08798910070712
 20
-17.86019856510513
 30
0.0
 11
64.03289782463493
 21
-17.94873811593537
 31
0.0
  0
LINE
  5
114FA
330
1E
100
AcDbEntity
  8
PART
  6
Continuous
100
AcDbLine
 10
64.03289782463493
 20
-17.94873811593537
 30
0.0
 11
63.98469295807183
 21
-18.0412127579136
 31
0.0
  0
LINE
  5
114FB
330
1E
100
AcDbEntity
  8
PART
  6
Continuous
100
AcDbLine
 10
63.98469295807183
 20
-18.0412127579136
 30
0.0
 11
63.94435827380471
 21
-18.13663871825285
 31
0.0
  0
LINE
  5
114FC
330
1E
100
AcDbEntity
  8
PART
  6
Continuous
100
AcDbLine
 10
63.94435827380471
 20
-18.13663871825285
 30
0.0
 11
63.91090999904665
 21
-18.2359997697401
 31
0.0
  0
LINE
  5
114FD
330
1E
100
AcDbEntity
  8
PART
  6
Continuous
100
AcDbLine
 10
63.91090999904665
 20
-18.2359997697401
 30
0.0
 11
63.88434813379756
 21
-18.33634459401436
 31
0.0
  0
LINE
  5
114FE
330
1E
100
AcDbEntity
  8
PART
  6
Continuous
100
AcDbLine
 10
63.88434813379756
 20
-18.33634459401436
 30
0.0
 11
63.86664022363154
 21
-18.43865696386263
 31
0.0
  0
LINE
  5
114FF
330
1E
100
AcDbEntity
  8
PART
  6
Continuous
100
AcDbLine
 10
63.86664022363154
 20
-18.43865696386263
 30
0.0
 11
63.85581872297446
 21
-18.54195310649789
 31
0.0
  0
LINE
  5
11500
330
1E
100
AcDbEntity
  8
PART
  6
Continuous
100
AcDbLine
 10
63.85581872297446
 20
-18.54195310649789
 30
0.0
 11
63.8538511774005
 21
-18.64623302192016
 31
0.0
  0
LINE
  5
11501
330
1E
100
AcDbEntity
  8
PART
  6
Continuous
100
AcDbLine
 10
63.8538511774005
 20
-18.64623302192016
 30
0.0
 11
63.8587700413355
 21
-18.75051293734243
 31
0.0
  0
LINE
  5
11502
330
1E
100
AcDbEntity
  8
PART
  6
Continuous
100
AcDbLine
 10
63.8587700413355
 20
-18.75051293734243
 30
0.0
 11
63.87155908756652
 21
-18.8538090799777
 31
0.0
  0
LINE
  5
11503
330
1E
100
AcDbEntity
  8
PART
  6
Continuous
100
AcDbLine
 10
63.87155908756652
 20
-18.8538090799777
 30
0.0
 11
63.8922183160936
 21
-18.95612144982596
 31
0.0
  0
LINE
  5
11504
330
1E
100
AcDbEntity
  8
PART
  6
Continuous
100
AcDbLine
 10
63.8922183160936
 20
-18.95612144982596
 30
0.0
 11
63.92074772691668
 21
-19.05548250131321
 31
0.0
  0
LINE
  5
11505
330
1E
100
AcDbEntity
  8
PART
  6
Continuous
100
AcDbLine
 10
63.92074772691668
 20
-19.05548250131321
 30
0.0
 11
63.95714732003575
 21
-19.15385978001348
 31
0.0
  0
LINE
  5
11506
330
1E
100
AcDbEntity
  8
PART
  6
Continuous
100
AcDbLine
 10
63.95714732003575
 20
-19.15385978001348
 30
0.0
 11
64.00023401008407
 21
-19.2478671037552
 31
0.0
  0
LINE
  5
11507
330
1E
100
AcDbEntity
  8
PART
  6
Continuous
100
AcDbLine
 10
64.00023401008407
 20
-19.2478671037552
 30
0.0
 11
64.05060573480101
 21
-19.33880906396995
 31
0.0
  0
LINE
  5
11508
330
1E
100
AcDbEntity
  8
PART
  6
Continuous
100
AcDbLine
 10
64.05060573480101
 20
-19.33880906396995
 30
0.0
 11
64.10766455644715
 21
-19.42636484201317
 31
0.0
  0
LINE
  5
11509
330
1E
100
AcDbEntity
  8
PART
  6
Continuous
100
AcDbLine
 10
64.10766455644715
 20
-19.42636484201317
 30
0.0
 11
64.17160978760231
 21
-19.50900175612138
 31
0.0
  0
LINE
  5
1150A
330
1E
100
AcDbEntity
  8
PART
  6
Continuous
100
AcDbLine
 10
64.17160978760231
 20
-19.50900175612138
 30
0.0
 11
64.2404738826925
 21
-19.58671980629458
 31
0.0
  0
LINE
  5
1150B
330
1E
100
AcDbEntity
  8
PART
  6
Continuous
100
AcDbLine
 10
64.2404738826925
 20
-19.58671980629458
 30
0.0
 11
64.3162243872917
 21
-19.65853521974576
 31
0.0
  0
LINE
  5
1150C
330
1E
100
AcDbEntity
  8
PART
  6
Continuous
100
AcDbLine
 10
64.3162243872917
 20
-19.65853521974576
 30
0.0
 11
64.39590998303889
 21
-19.72444799647494
 31
0.0
  0
LINE
  5
1150D
330
1E
100
AcDbEntity
  8
PART
  6
Continuous
100
AcDbLine
 10
64.39590998303889
 20
-19.72444799647494
 30
0.0
 11
64.48149821550813
 21
-19.78445813648209
 31
0.0
  0
LINE
  5
1150E
330
1E
100
AcDbEntity
  8
PART
  6
Continuous
100
AcDbLine
 10
64.48149821550813
 20
-19.78445813648209
 30
0.0
 11
64.57102153912533
 21
-19.83758186698023
 31
0.0
  0
LINE
  5
1150F
330
1E
100
AcDbEntity
  8
PART
  6
Continuous
100
AcDbLine
 10
64.57102153912533
 20
-19.83758186698023
 30
0.0
 11
64.66349618110354
 21
-19.88381918796934
 31
0.0
  0
LINE
  5
11510
330
1E
100
AcDbEntity
  8
PART
  6
Continuous
100
AcDbLine
 10
64.66349618110354
 20
-19.88381918796934
 30
0.0
 11
64.76088968701681
 21
-19.92317009944945
 31
0.0
  0
LINE
  5
11511
330
1E
100
AcDbEntity
  8
PART
  6
Continuous
100
AcDbLine
 10
64.76088968701681
 20
-19.92317009944945
 30
0.0
 11
64.85926696571706
 21
-19.95465082863353
 31
0.0
  0
LINE
  5
11512
330
1E
100
AcDbEntity
  8
PART
  6
Continuous
100
AcDbLine
 10
64.85926696571706
 20
-19.95465082863353
 30
0.0
 11
64.96059556277832
 21
-19.97924514830859
 31
0.0
  0
LINE
  5
11513
330
1E
100
AcDbEntity
  8
PART
  6
Continuous
100
AcDbLine
 10
64.96059556277832
 20
-19.97924514830859
 30
0.0
 11
65.06389170541361
 21
-19.99596928568763
 31
0.0
  0
LINE
  5
11514
330
1E
100
AcDbEntity
  8
PART
  6
Continuous
100
AcDbLine
 10
65.06389170541361
 20
-19.99596928568763
 30
0.0
 11
65.1671878480489
 21
-20.00482324077066
 31
0.0
  0
LINE
  5
11515
330
1E
100
AcDbEntity
  8
PART
  6
Continuous
100
AcDbLine
 10
65.1671878480489
 20
-20.00482324077066
 30
0.0
 11
65.27146776347115
 21
-20.00580701355765
 31
0.0
  0
LINE
  5
11516
330
1E
100
AcDbEntity
  8
PART
  6
Continuous
100
AcDbLine
 10
65.27146776347115
 20
-20.00580701355765
 30
0.0
 11
65.37476390610638
 21
-19.99793683126164
 31
0.0
  0
LINE
  5
11517
330
1E
100
AcDbEntity
  8
PART
  6
Continuous
100
AcDbLine
 10
65.37476390610638
 20
-19.99793683126164
 30
0.0
 11
65.47806004874168
 21
-19.98318023945661
 31
0.0
  0
LINE
  5
11518
330
1E
100
AcDbEntity
  8
PART
  6
Continuous
100
AcDbLine
 10
65.47806004874168
 20
-19.98318023945661
 30
0.0
 11
65.57938864580295
 21
-19.96055346535554
 31
0.0
  0
LINE
  5
11519
330
1E
100
AcDbEntity
  8
PART
  6
Continuous
100
AcDbLine
 10
65.57938864580295
 20
-19.96055346535554
 30
0.0
 11
65.67973347007721
 21
-19.93104028174547
 31
0.0
  0
LINE
  5
1151A
330
1E
100
AcDbEntity
  8
PART
  6
Continuous
100
AcDbLine
 10
65.67973347007721
 20
-19.93104028174547
 30
0.0
 11
65.77614320320343
 21
-19.89267314305236
 31
0.0
  0
LINE
  5
1151B
330
1E
100
AcDbEntity
  8
PART
  6
Continuous
100
AcDbLine
 10
65.77614320320343
 20
-19.89267314305236
 30
0.0
 11
65.87058539075568
 21
-19.84840336763725
 31
0.0
  0
LINE
  5
1151C
330
1E
100
AcDbEntity
  8
PART
  6
Continuous
100
AcDbLine
 10
65.87058539075568
 20
-19.84840336763725
 30
0.0
 11
65.93076897047382
 21
-19.81485842156489
 31
0.0
  0
LINE
  5
1151D
330
1E
100
AcDbEntity
  8
PART
  6
Continuous
100
AcDbLine
 10
65.93076897047382
 20
-19.81485842156489
 30
0.0
 11
65.96207625994693
 21
-19.79134454599111
 31
0.0
  0
LINE
  5
1151E
330
1E
100
AcDbEntity
  8
PART
  6
Continuous
100
AcDbLine
 10
65.96207625994693
 20
-19.79134454599111
 30
0.0
 11
65.98863812519597
 21
-19.76281513516803
 31
0.0
  0
LINE
  5
1151F
330
1E
100
AcDbEntity
  8
PART
  6
Continuous
100
AcDbLine
 10
65.98863812519597
 20
-19.76281513516803
 30
0.0
 11
66.00831358093602
 21
-19.72838308762295
 31
0.0
  0
LINE
  5
11520
330
1E
100
AcDbEntity
  8
PART
  6
Continuous
100
AcDbLine
 10
66.00831358093602
 20
-19.72838308762295
 30
0.0
 11
66.02208639995409
 21
-19.69198349450385
 31
0.0
  0
LINE
  5
11521
330
1E
100
AcDbEntity
  8
PART
  6
Continuous
100
AcDbLine
 10
66.02208639995409
 20
-19.69198349450385
 30
0.0
 11
66.18047381866148
 21
-18.79576648554454
 31
0.0
  0
LINE
  5
11522
330
1E
100
AcDbEntity
  8
PART
  6
Continuous
100
AcDbLine
 10
66.18047381866148
 20
-18.79576648554454
 30
0.0
 11
66.1912953193185
 21
-18.71017825307532
 31
0.0
  0
LINE
  5
11523
330
1E
100
AcDbEntity
  8
PART
  6
Continuous
100
AcDbLine
 10
66.1912953193185
 20
-18.71017825307532
 30
0.0
 11
66.19424663767951
 21
-18.6226224750321
 31
0.0
  0
LINE
  5
11524
330
1E
100
AcDbEntity
  8
PART
  6
Continuous
100
AcDbLine
 10
66.19424663767951
 20
-18.6226224750321
 30
0.0
 11
66.19031154653152
 21
-18.53605046977588
 31
0.0
  0
LINE
  5
11525
330
1E
100
AcDbEntity
  8
PART
  6
Continuous
100
AcDbLine
 10
66.19031154653152
 20
-18.53605046977588
 30
0.0
 11
66.18047381866148
 21
-18.46128373796369
 31
0.0
  0
LINE
  5
11526
330
1E
100
AcDbEntity
  8
PART
  6
Continuous
100
AcDbLine
 10
66.18047381866148
 20
-18.46128373796369
 30
0.0
 11
66.02405394552805
 21
-17.5778557752354
 31
0.0
  0
LINE
  5
11527
330
1E
100
AcDbEntity
  8
PART
  6
Continuous
100
AcDbLine
 10
66.02405394552805
 20
-17.5778557752354
 30
0.0
 11
66.01323244487105
 21
-17.53948863654232
 31
0.0
  0
LINE
  5
11528
330
1E
100
AcDbEntity
  8
PART
  6
Continuous
100
AcDbLine
 10
66.01323244487105
 20
-17.53948863654232
 30
0.0
 11
65.99552453470498
 21
-17.50505658899722
 31
0.0
  0
CIRCLE
  5
11529
330
1E
100
AcDbEntity
  8
PART
  6
Continuous
100
AcDbCircle
 10
65.23014930641706
 20
-18.62852511175411
 30
0.0
 40
0.9420472515537518
  0
CIRCLE
  5
1152A
330
1E
100
AcDbEntity
  8
PART
  6
Continuous
100
AcDbCircle
 10
65.23014930641706
 20
-18.62852511175411
 30
0.0
 40
0.8299083236695366
  0
CIRCLE
  5
1152B
330
1E
100
AcDbEntity
  8
PART
  6
Continuous
100
AcDbCircle
 10
65.230149306417
 20
-18.62852511175411
 30
0.0
 40
0.7514510596103767
  0
CIRCLE
  5
1152C
330
1E
100
AcDbEntity
  8
PART
  6
Continuous
100
AcDbCircle
 10
64.04962196201397
 20
-18.62852511175411
 30
0.0
 40
0.1082418334119616
  0
CIRCLE
  5
1152D
330
1E
100
AcDbEntity
  8
PART
  6
Continuous
100
AcDbCircle
 10
65.82041297861855
 20
-19.65066503744975
 30
0.0
 40
0.107775889581811
  0
CIRCLE
  5
1152E
330
1E
100
AcDbEntity
  8
PART
  6
Continuous
100
AcDbCircle
 10
65.82041297861855
 20
-17.60666626399764
 30
0.0
 40
0.1080555507522435
  0
TEXT
  5
1152F
330
1E
100
AcDbEntity
  8
TEXT
100
AcDbText
 10
71.46647303568217
 20
-19.89283836206636
 30
0.0
 40
0.1332682032
  1
ANCHORAGE BASE DETAIL
 50
90.0
100
AcDbText
  0
LINE
  5
11530
330
1E
100
AcDbEntity
  8
PART
  6
CENTER
100
AcDbLine
 10
65.230149306417
 20
-16.89978489230379
 30
0.0
 11
65.230149306417
 21
-20.35726533120445
 31
0.0
  0
LINE
  5
11531
330
1E
100
AcDbEntity
  8
PART
  6
CENTER
100
AcDbLine
 10
63.50140908696666
 20
-18.62852511175411
 30
0.0
 11
66.95888952586733
 21
-18.62852511175411
 31
0.0
  0
TEXT
  5
11532
330
1E
100
AcDbEntity
  8
TEXT
100
AcDbText
 10
71.78872931228466
 20
-19.45939489656027
 30
0.0
 40
0.1332682032
  1
(NOT TO SCALE)
 50
90.0
100
AcDbText
  0
DIMENSION
  5
11533
330
1E
100
AcDbEntity
  8
DIM
100
AcDbDimension
280
     0
  2
*D7
 10
61.18566798855064
 20
-20.00580701355765
 30
0.0
 11
61.18566798855064
 21
-18.62852511175411
 31
0.0
 70
   160
 71
     5
 42
2.754563803607076
 73
     0
 74
     0
 75
     0
 53
90.0
  3
Standard
100
AcDbAlignedDimension
 13
65.23605194313905
 23
-17.25124320995057
 33
0.0
 14
65.27146776347115
 24
-20.00580701355765
 34
0.0
 50
90.0
100
AcDbRotatedDimension
1001
ACAD
1000
DSTYLE
1002
{
1070
    41
1040
0.25
1070
   140
1040
0.25
1070
   271
1070
     3
1002
}
  0
DIMENSION
  5
11534
330
1E
100
AcDbEntity
  8
DIM
100
AcDbDimension
280
     0
  2
*D8
 10
65.74094214793607
 20
-17.67988094230066
 30
0.0
 11
69.9649541825317
 21
-15.9182997728479
 31
0.0
 70
   163
  1
3/16" STD
 71
     5
 42
0.2161111015045094
 73
     0
 74
     0
 75
     0
 53
90.0
  3
Standard
100
AcDbDiametricDimension
 15
65.89988380930093
 25
-17.5334515856946
 35
0.0
 40
0.0
1001
ACAD_DSTYLE_DIMRADIAL_EXTENSION
1070
   387
1070
     1
1070
   388
1040
0.0
1070
   390
1040
0.0
1001
ACAD
1000
DSTYLE
1002
{
1070
    41
1040
0.25
1070
   140
1040
0.25
1070
   271
1070
     3
1070
   288
1070
     1
1002
}
  0
DIMENSION
  5
11535
330
1E
100
AcDbEntity
  8
DIM
100
AcDbDimension
280
     0
  2
*D9
 10
65.230149306417
 20
-14.84452535644197
 30
0.0
 11
63.58014930641701
 21
-14.84452535644197
 31
0.0
 70
   160
 71
     5
 42
0.5902636722015444
 73
     0
 74
     0
 75
     0
 53
90.0
  3
Standard
100
AcDbAlignedDimension
 13
65.82041297861855
 23
-17.60666626399764
 33
0.0
 14
65.230149306417
 24
-17.60666626399764
 34
0.0
100
AcDbRotatedDimension
1001
ACAD
1000
DSTYLE
1002
{
1070
    41
1040
0.25
1070
   140
1040
0.25
1070
   271
1070
     3
1002
}
  0
DIMENSION
  5
11536
330
1E
100
AcDbEntity
  8
DIM
100
AcDbDimension
280
     0
  2
*D10
 10
63.1472595664886
 20
-18.62852511175411
 30
0.0
 11
62.49845004267908
 21
-18.8785251117541
 31
0.0
 70
    32
 71
     5
 42
1.021858847756469
 73
     0
 74
     0
 75
     0
 53
90.0
  3
Standard
100
AcDbAlignedDimension
 13
65.82041297861855
 23
-17.60666626399764
 33
0.0
 14
63.50140908696666
 24
-18.62852511175411
 34
0.0
 50
90.0
100
AcDbRotatedDimension
1001
ACAD
1000
DSTYLE
1002
{
1070
    41
1040
0.25
1070
   140
1040
0.25
1070
   271
1070
     3
1002
}
  0
DIMENSION
  5
11537
330
1E
100
AcDbEntity
  8
DIM
100
AcDbDimension
280
     0
  2
*D11
 10
65.230149306417
 20
-21.33256767305728
 30
0.0
 11
65.980149306417
 21
-21.33256767305728
 31
0.0
 70
    32
 71
     5
 42
1.180527344403031
 73
     0
 74
     0
 75
     0
 53
90.0
  3
Standard
100
AcDbAlignedDimension
 13
64.04962196201397
 23
-18.62852511175411
 33
0.0
 14
65.230149306417
 24
-20.35726533120445
 34
0.0
100
AcDbRotatedDimension
1001
ACAD
1000
DSTYLE
1002
{
1070
    41
1040
0.25
1070
   140
1040
0.25
1070
   271
1070
     3
1002
}
  0
DIMENSION
  5
115B7
330
1E
100
AcDbEntity
  8
DIM
100
AcDbDimension
280
     0
  2
*D12
 10
67.91617727365111
 20
-19.37997617136449
 30
0.0
 11
67.16617727365111
 21
-19.87997617136448
 31
0.0
 70
   160
 71
     5
 42
1.502902119220755
 73
     0
 74
     0
 75
     0
 53
90.0
  3
Standard
100
AcDbAlignedDimension
 13
65.230149306417
 23
-17.87707405214373
 33
0.0
 14
65.230149306417
 24
-19.37997617136449
 34
0.0
 50
90.0
100
AcDbRotatedDimension
1001
ACAD
1000
DSTYLE
1002
{
1070
    41
1040
0.25
1070
   140
1040
0.25
1002
}
  0
VIEWPORT
  5
BB2E
102
{ACAD_XDICTIONARY
360
BB2F
102
}
330
1A
100
AcDbEntity
 67
     1
  8
0
100
AcDbViewport
 10
5.495482516436287
 20
3.646781257273296
 30
0.0
 40
13.07355800814193
 41
7.983149964314969
 68
     1
 69
     1
 12
5.495482516436287
 22
3.646781257273296
 13
0.0
 23
0.0
 14
0.5
 24
0.5
 15
0.5
 25
0.5
 16
0.0
 26
0.0
 36
1.0
 17
0.0
 27
0.0
 37
0.0
 42
50.0
 43
0.0
 44
0.0
 45
7.983149964314969
 50
0.0
 51
0.0
 72
   100
 90
   557088
  1

281
     0
 71
     1
 74
     0
110
0.0
120
0.0
130
0.0
111
1.0
121
0.0
131
0.0
112
0.0
122
1.0
132
0.0
 79
     0
146
0.0
170
     0
 61
     5
348
7805
292
     1
282
     1
141
0.0
142
0.0
 63
   250
421
  3355443
  0
VIEWPORT
  5
BB32
102
{ACAD_XDICTIONARY
360
BB33
102
}
330
1A
100
AcDbEntity
 67
     1
  8
TITLE
100
AcDbViewport
 10
4.793735519594132
 20
3.977959012607298
 30
0.0
 40
9.060615036231881
 41
6.356583031400967
 68
     2
 69
     2
 12
58.21637327526464
 22
-15.60948639682812
 13
0.0
 23
0.0
 14
0.1
 24
0.1
 15
1.0
 25
1.0
 16
0.0
 26
0.0
 36
1.0
 17
0.0
 27
0.0
 37
0.0
 42
50.0
 43
0.0
 44
0.0
 45
27.24079290993522
 50
0.0
 51
0.0
 72
   100
 90
   819232
  1

281
     0
 71
     1
 74
     0
110
0.0
120
0.0
130
0.0
111
1.0
121
0.0
131
0.0
112
0.0
122
1.0
132
0.0
 79
     0
146
0.0
170
     0
 61
     5
348
7805
292
     1
282
     1
141
0.0
142
0.0
 63
   250
421
  3355443
  0
INSERT
  5
C0C7
330
1A
100
AcDbEntity
 67
     1
  8
TITLE
100
AcDbBlockReference
  2
Tabloid Submittal (11 x 17)
 10
0.1369587985796413
 20
0.6491089220275894
 30
0.0
 41
0.6022342995169089
 42
0.6022342995169089
 43
0.6022342995169089
  0
TEXT
  5
C0C8
330
1A
100
AcDbEntity
 67
     1
  8
TITLE
100
AcDbText
 10
9.441776041112687
 20
3.82559768458562
 30
0.0
 40
0.0602234299516909
  1
77 264
 50
90.0
 41
1.05
  7
Title
100
AcDbText
  0
TEXT
  5
C0CB
330
1A
100
AcDbEntity
 67
     1
  8
TITLE
100
AcDbText
 10
9.907911546615626
 20
3.827272800431471
 30
0.0
 40
0.0602234299516909
  1
RA
 50
90.0
100
AcDbText
  0
TEXT
  5
C0CC
330
1A
100
AcDbEntity
 67
     1
  8
TITLE
100
AcDbText
 10
9.914867118439895
 20
4.620664162620643
 30
0.0
 40
0.0542010869565218
  1
8/5/15
 50
90.0
100
AcDbText
  0
TEXT
  5
C0CD
330
1A
100
AcDbEntity
 67
     1
  8
TITLE
100
AcDbText
 10
9.901510916694775
 20
5.566308069823524
 30
0.0
 40
0.0602234299516909
  1
77264.dxf
 50
90.0
100
AcDbText
  0
ENDSEC
  0
SECTION
  2
OBJECTS
  0
DICTIONARY
  5
C
330
0
100
AcDbDictionary
281
     1
  3
ACAD_CIP_PREVIOUS_PRODUCT_INFO
350
BB23
  3
ACAD_COLOR
350
7810
  3
ACAD_DETAILVIEWSTYLE
350
BB1D
  3
ACAD_GROUP
350
D
  3
ACAD_LAYOUT
350
19
  3
ACAD_MATERIAL
350
77E6
  3
ACAD_MLEADERSTYLE
350
7835
  3
ACAD_MLINESTYLE
350
16
  3
ACAD_PLOTSETTINGS
350
18
  3
ACAD_PLOTSTYLENAME
350
E
  3
ACAD_SCALELIST
350
7813
  3
ACAD_SECTIONVIEWSTYLE
350
BB1A
  3
ACAD_TABLESTYLE
350
7811
  3
ACAD_VISUALSTYLE
350
77FF
  3
AcadDim
350
27B1
  3
ACDB_RECOMPOSE_DATA
350
128C5
  3
AcDbVariableDictionary
350
857
  3
AEC_PROPERTY_SET_DEFS
350
C0C5
  0
DICTIONARY
  5
345A
330
2
100
AcDbDictionary
280
     1
281
     1
  3
ACAD_LAYERFILTERS
360
F2F7
  3
ACAD_LAYERSTATES
360
345B
  3
ACLYDICTIONARY
360
F2F6
  0
DICTIONARY
  5
7838
330
10
100
AcDbDictionary
280
     1
281
     1
  3
ADSK_XREC_LAYER_RECONCILED
360
C0E1
  0
DICTIONARY
  5
783A
330
22
100
AcDbDictionary
280
     1
281
     1
  3
ADSK_XREC_LAYER_RECONCILED
360
C0E2
  0
DICTIONARY
  5
783C
330
246
100
AcDbDictionary
280
     1
281
     1
  3
ADSK_XREC_LAYER_RECONCILED
360
C0E3
  0
DICTIONARY
  5
783E
330
2135
100
AcDbDictionary
280
     1
281
     1
  3
ADSK_XREC_LAYER_RECONCILED
360
C0E4
  0
DICTIONARY
  5
7F75
330
1E
100
AcDbDictionary
280
     1
281
     1
  3
ACAD_SORTENTS
360
7F76
  0
DICTIONARY
  5
C17D
330
785B
100
AcDbDictionary
280
     1
281
     1
  0
DICTIONARY
  5
C540
330
C53E
100
AcDbDictionary
280
     1
281
     1
  3
ACAD_SORTENTS
360
C541
  0
DICTIONARY
  5
BB2F
330
BB2E
100
AcDbDictionary
280
     1
281
     1
  3
ASDK_XREC_ANNOTATION_SCALE_INFO
360
BB30
  0
DICTIONARY
  5
BB33
330
BB32
100
AcDbDictionary
280
     1
281
     1
  3
ASDK_XREC_ANNOTATION_SCALE_INFO
360
BB34
  0
XRECORD
  5
BB23
102
{ACAD_REACTORS
330
C
102
}
330
C
100
AcDbXrecord
280
     1
300
ACDLT
300
2015
300
ACDLT_F_S
  0
DICTIONARY
  5
7810
102
{ACAD_REACTORS
330
C
102
}
330
C
100
AcDbDictionary
281
     1
  0
DICTIONARY
  5
BB1D
102
{ACAD_REACTORS
330
C
102
}
330
C
100
AcDbDictionary
281
     1
  3
Imperial24
350
BB1E
  0
DICTIONARY
  5
D
102
{ACAD_REACTORS
330
C
102
}
330
C
100
AcDbDictionary
281
     1
  0
DICTIONARY
  5
19
102
{ACAD_REACTORS
330
C
102
}
330
C
100
AcDbDictionary
281
     1
  3
Layout1
350
1D
  3
Model
350
21
  0
DICTIONARY
  5
77E6
102
{ACAD_REACTORS
330
C
102
}
330
C
100
AcDbDictionary
281
     1
  3
ByBlock
350
77EF
  3
ByLayer
350
77E7
  3
Global
350
77F7
  0
DICTIONARY
  5
7835
102
{ACAD_REACTORS
330
C
102
}
330
C
100
AcDbDictionary
281
     1
  3
Standard
350
7836
  0
DICTIONARY
  5
16
102
{ACAD_REACTORS
330
C
102
}
330
C
100
AcDbDictionary
281
     1
  3
Standard
350
17
  0
DICTIONARY
  5
18
102
{ACAD_REACTORS
330
C
102
}
330
C
100
AcDbDictionary
281
     1
  0
ACDBDICTIONARYWDFLT
  5
E
102
{ACAD_REACTORS
330
C
102
}
330
C
100
AcDbDictionary
281
     1
  3
Normal
350
F
100
AcDbDictionaryWithDefault
340
F
  0
DICTIONARY
  5
7813
102
{ACAD_REACTORS
330
C
102
}
330
C
100
AcDbDictionary
281
     1
  3
A0
350
7814
  3
A1
350
7815
  3
A2
350
7816
  3
A3
350
7817
  3
A4
350
7818
  3
A5
350
7819
  3
A6
350
781A
  3
A7
350
781B
  3
A8
350
781C
  3
A9
350
781D
  3
B0
350
781E
  3
B1
350
781F
  3
B2
350
7820
  3
B3
350
7821
  3
B4
350
7822
  3
B5
350
7823
  3
B6
350
7824
  3
B7
350
7825
  3
B8
350
7826
  3
B9
350
7827
  3
C0
350
7828
  3
C1
350
7829
  3
C2
350
782A
  3
C3
350
782B
  3
C4
350
782C
  3
C5
350
782D
  3
C6
350
782E
  3
C7
350
782F
  3
C8
350
7830
  3
C9
350
7831
  3
D0
350
7832
  3
D1
350
7833
  3
D2
350
7834
  0
DICTIONARY
  5
BB1A
102
{ACAD_REACTORS
330
C
102
}
330
C
100
AcDbDictionary
281
     1
  3
Imperial24
350
BB1C
  0
DICTIONARY
  5
7811
102
{ACAD_REACTORS
330
C
102
}
330
C
100
AcDbDictionary
281
     1
  3
Standard
350
7812
  0
DICTIONARY
  5
77FF
102
{ACAD_REACTORS
330
C
102
}
330
C
100
AcDbDictionary
281
     1
  3
2dWireframe
350
7805
  3
3D Hidden
350
7807
  3
3dWireframe
350
7806
  3
Basic
350
7804
  3
Brighten
350
780B
  3
ColorChange
350
780F
  3
Conceptual
350
7808
  3
Dim
350
780A
  3
EdgeColorOff
350
BB19
  3
Facepattern
350
780E
  3
Flat
350
7800
  3
FlatWithEdges
350
7801
  3
Gouraud
350
7802
  3
GouraudWithEdges
350
7803
  3
Hidden
350
BB11
  3
JitterOff
350
BB17
  3
Linepattern
350
780D
  3
OverhangOff
350
BB18
  3
Realistic
350
7809
  3
Shaded
350
BB16
  3
Shaded with edges
350
BB15
  3
Shades of Gray
350
BB12
  3
Sketchy
350
BB13
  3
Thicken
350
780C
  3
Wireframe
350
BB10
  3
X-Ray
350
BB14
  0
XRECORD
  5
27B1
102
{ACAD_REACTORS
330
C
102
}
330
C
100
AcDbXrecord
280
     1
 90
   990106
  3

 60
     4
 61
     0
 62
     1
 63
     3
 64
     0
 65
     0
 66
     0
 67
     3
 68
     1
 69
     0
 70
     0
 71
     0
 72
     0
 40
0.0
170
     0
  0
XRECORD
  5
128C5
102
{ACAD_REACTORS
330
C
102
}
330
C
100
AcDbXrecord
280
     1
 90
        1
330
7812
330
BB1C
330
BB1E
  0
DICTIONARY
  5
857
102
{ACAD_REACTORS
330
C
102
}
330
C
100
AcDbDictionary
281
     1
  3
CANNOSCALE
350
7842
  3
CMLEADERSTYLE
350
7841
  3
CTABLESTYLE
350
7840
  3
CVIEWDETAILSTYLE
350
C0E7
  3
CVIEWSECTIONSTYLE
350
C0E8
  3
DIMASSOC
350
7844
  3
INDEXCTL
350
7843
  3
LAYEREVAL
350
C0E9
  3
LAYERNOTIFY
350
C0EA
  3
LIGHTINGUNITS
350
85B9
  3
MSLTSCALE
350
85B8
  3
SOLIDHIST
350
F3FB
  3
SORTENTS
350
858
  0
DICTIONARY
  5
C0C5
102
{ACAD_REACTORS
330
C
102
}
330
C
100
AcDbDictionary
281
     1
  0
DICTIONARY
  5
F2F7
102
{ACAD_REACTORS
330
345A
102
}
330
345A
100
AcDbDictionary
281
     1
  0
DICTIONARY
  5
345B
102
{ACAD_REACTORS
330
345A
102
}
330
345A
100
AcDbDictionary
281
     1
  0
DICTIONARY
  5
F2F6
102
{ACAD_REACTORS
330
345A
102
}
330
345A
100
AcDbDictionary
281
     1
1001
ACAD
1000
<All
  0
XRECORD
  5
C0E1
102
{ACAD_REACTORS
330
7838
102
}
330
7838
100
AcDbXrecord
280
     1
290
     1
  0
XRECORD
  5
C0E2
102
{ACAD_REACTORS
330
783A
102
}
330
783A
100
AcDbXrecord
280
     1
290
     1
  0
XRECORD
  5
C0E3
102
{ACAD_REACTORS
330
783C
102
}
330
783C
100
AcDbXrecord
280
     1
290
     1
  0
XRECORD
  5
C0E4
102
{ACAD_REACTORS
330
783E
102
}
330
783E
100
AcDbXrecord
280
     1
290
     1
  0
SORTENTSTABLE
  5
7F76
102
{ACAD_REACTORS
330
7F75
102
}
330
7F75
100
AcDbSortentsTable
330
1E
  0
SORTENTSTABLE
  5
C541
102
{ACAD_REACTORS
330
C540
102
}
330
C540
100
AcDbSortentsTable
330
C53E
  0
XRECORD
  5
BB30
102
{ACAD_REACTORS
330
BB2F
102
}
330
BB2F
100
AcDbXrecord
280
     1
 90
        1
340
7814
  0
XRECORD
  5
BB34
102
{ACAD_REACTORS
330
BB33
102
}
330
BB33
100
AcDbXrecord
280
     1
 90
        1
340
7814
  0
ACDBDETAILVIEWSTYLE
  5
BB1E
102
{ACAD_XDICTIONARY
360
128C3
102
}
102
{ACAD_REACTORS
330
BB1D
102
}
330
BB1D
100
AcDbModelDocViewStyle
 70
     0
  3
Imperial24
290
     0
100
AcDbDetailViewStyle
 70
     0
 71
     0
 90
        3
 71
     1
340
11
 62
   256
 40
0.24
340
0
 62
   256
 40
0.24
300

 40
0.36
280
     3
 71
     2
340
15
 90
       25
 62
   256
 71
     3
340
11
 62
   256
 40
0.24
 90
        1
 40
0.75
 90
        1
300
%<\AcVar ViewType \f "%tc1">% %<\AcVar ViewDetailId>%\PSCALE %<\AcVar ViewScale \f "%sn">%
 71
     4
340
15
 90
       25
 62
   256
340
15
 90
       25
 62
   256
280
     0
  0
LAYOUT
  5
1D
102
{ACAD_XDICTIONARY
360
C13A
102
}
102
{ACAD_REACTORS
330
19
102
}
330
19
100
AcDbPlotSettings
  1

  2
Adobe PDF
  4
Tabloid
  6

 40
3.174999952316281
 41
3.174999952316281
 42
3.17498779296875
 43
3.17498779296875
 44
279.3999938964844
 45
431.7999877929685
 46
0.8673879146931279
 47
0.0
 48
0.0
 49
0.0
140
0.0
141
0.0
142
1.0
143
0.5954229360737358
 70
   692
 72
     0
 73
     1
 74
     1
  7
monochrome.ctb
 75
     0
147
1.679478467178434
 76
     0
 77
     2
 78
   300
148
-6.683504753545043
149
-20.30913354519513
100
AcDbLayout
  1
Layout1
 70
     0
 71
     1
 10
0.1887025275534379
 20
0.7048111453807693
 11
10.31089215465157
 21
7.254463299114172
 12
0.0
 22
0.0
 32
0.0
 14
0.2634280014781911
 24
0.7996674969068148
 34
0.0
 15
10.2364280014782
 25
7.159261699805374
 35
0.0
146
0.0
 13
0.0
 23
0.0
 33
0.0
 16
1.0
 26
0.0
 36
0.0
 17
0.0
 27
1.0
 37
0.0
 76
     0
330
1A
331
BB2E
1001
ACAD_PSEXT
1000
Adobe PDF
1000
Adobe PDF Converter
1000
Documents\*.pdf
1000

1070
     0
  0
LAYOUT
  5
21
102
{ACAD_XDICTIONARY
360
F452
102
}
102
{ACAD_REACTORS
330
19
102
}
330
19
100
AcDbPlotSettings
  1

  2
\\bega-apps\Down Doc Center BW
  4
Legal
  6

 40
7.143749713897705
 41
5.365769386291503
 42
7.14373779296875
 43
5.027069091796875
 44
215.8999938964842
 45
355.6000061035156
 46
0.0
 47
3.047999999999998
 48
0.0
 49
0.0
140
0.0
141
0.0
142
1.0
143
3.046471206232983
 70
 11956
 72
     0
 73
     1
 74
     1
  7

 75
     0
147
0.3282486300720754
 76
     0
 77
     2
 78
   300
148
-5.262937024793346
149
-6.327134664551186
100
AcDbLayout
  1
Model
 70
     1
 71
     0
 10
0.0
 20
0.0
 11
12.0
 21
9.0
 12
0.0
 22
0.0
 32
0.0
 14
0.0
 24
0.0
 34
0.0
 15
0.0
 25
0.0
 35
0.0
146
0.0
 13
0.0
 23
0.0
 33
0.0
 16
1.0
 26
0.0
 36
0.0
 17
0.0
 27
1.0
 37
0.0
 76
     0
330
1E
331
77E0
  0
MATERIAL
  5
77EF
102
{ACAD_XDICTIONARY
360
77F0
102
}
102
{ACAD_REACTORS
330
77E6
102
}
330
77E6
100
AcDbMaterial
  1
ByBlock
 72
     0
 43
0.0208333333333333
 43
0.0
 43
0.0
 43
0.0
 43
0.0
 43
0.0208333333333333
 43
0.0
 43
0.0
 43
0.0
 43
0.0
 43
1.0
 43
0.0
 43
0.0
 43
0.0
 43
0.0
 43
1.0
 77
     0
 47
0.0208333333333333
 47
0.0
 47
0.0
 47
0.0
 47
0.0
 47
0.0208333333333333
 47
0.0
 47
0.0
 47
0.0
 47
0.0
 47
1.0
 47
0.0
 47
0.0
 47
0.0
 47
0.0
 47
1.0
171
     0
 49
0.0208333333333333
 49
0.0
 49
0.0
 49
0.0
 49
0.0
 49
0.0208333333333333
 49
0.0
 49
0.0
 49
0.0
 49
0.0
 49
1.0
 49
0.0
 49
0.0
 49
0.0
 49
0.0
 49
1.0
175
     0
142
0.0208333333333333
142
0.0
142
0.0
142
0.0
142
0.0
142
0.0208333333333333
142
0.0
142
0.0
142
0.0
142
0.0
142
1.0
142
0.0
142
0.0
142
0.0
142
0.0
142
1.0
179
     0
144
0.0208333333333333
144
0.0
144
0.0
144
0.0
144
0.0
144
0.0208333333333333
144
0.0
144
0.0
144
0.0
144
0.0
144
1.0
144
0.0
144
0.0
144
0.0
144
0.0
144
1.0
147
0.0208333333333333
147
0.0
147
0.0
147
0.0
147
0.0
147
0.0208333333333333
147
0.0
147
0.0
147
0.0
147
0.0
147
1.0
147
0.0
147
0.0
147
0.0
147
0.0
147
1.0
  0
MATERIAL
  5
77E7
102
{ACAD_XDICTIONARY
360
77E8
102
}
102
{ACAD_REACTORS
330
77E6
102
}
330
77E6
100
AcDbMaterial
  1
ByLayer
 72
     0
 43
0.0208333333333333
 43
0.0
 43
0.0
 43
0.0
 43
0.0
 43
0.0208333333333333
 43
0.0
 43
0.0
 43
0.0
 43
0.0
 43
1.0
 43
0.0
 43
0.0
 43
0.0
 43
0.0
 43
1.0
 77
     0
 47
0.0208333333333333
 47
0.0
 47
0.0
 47
0.0
 47
0.0
 47
0.0208333333333333
 47
0.0
 47
0.0
 47
0.0
 47
0.0
 47
1.0
 47
0.0
 47
0.0
 47
0.0
 47
0.0
 47
1.0
171
     0
 49
0.0208333333333333
 49
0.0
 49
0.0
 49
0.0
 49
0.0
 49
0.0208333333333333
 49
0.0
 49
0.0
 49
0.0
 49
0.0
 49
1.0
 49
0.0
 49
0.0
 49
0.0
 49
0.0
 49
1.0
175
     0
142
0.0208333333333333
142
0.0
142
0.0
142
0.0
142
0.0
142
0.0208333333333333
142
0.0
142
0.0
142
0.0
142
0.0
142
1.0
142
0.0
142
0.0
142
0.0
142
0.0
142
1.0
179
     0
144
0.0208333333333333
144
0.0
144
0.0
144
0.0
144
0.0
144
0.0208333333333333
144
0.0
144
0.0
144
0.0
144
0.0
144
1.0
144
0.0
144
0.0
144
0.0
144
0.0
144
1.0
147
0.0208333333333333
147
0.0
147
0.0
147
0.0
147
0.0
147
0.0208333333333333
147
0.0
147
0.0
147
0.0
147
0.0
147
1.0
147
0.0
147
0.0
147
0.0
147
0.0
147
1.0
  0
MATERIAL
  5
77F7
102
{ACAD_XDICTIONARY
360
77F8
102
}
102
{ACAD_REACTORS
330
77E6
102
}
330
77E6
100
AcDbMaterial
  1
Global
 72
     0
 43
0.0208333333333333
 43
0.0
 43
0.0
 43
0.0
 43
0.0
 43
0.0208333333333333
 43
0.0
 43
0.0
 43
0.0
 43
0.0
 43
1.0
 43
0.0
 43
0.0
 43
0.0
 43
0.0
 43
1.0
 77
     0
 47
0.0208333333333333
 47
0.0
 47
0.0
 47
0.0
 47
0.0
 47
0.0208333333333333
 47
0.0
 47
0.0
 47
0.0
 47
0.0
 47
1.0
 47
0.0
 47
0.0
 47
0.0
 47
0.0
 47
1.0
171
     0
 49
0.0208333333333333
 49
0.0
 49
0.0
 49
0.0
 49
0.0
 49
0.0208333333333333
 49
0.0
 49
0.0
 49
0.0
 49
0.0
 49
1.0
 49
0.0
 49
0.0
 49
0.0
 49
0.0
 49
1.0
175
     0
142
0.0208333333333333
142
0.0
142
0.0
142
0.0
142
0.0
142
0.0208333333333333
142
0.0
142
0.0
142
0.0
142
0.0
142
1.0
142
0.0
142
0.0
142
0.0
142
0.0
142
1.0
179
     0
144
0.0208333333333333
144
0.0
144
0.0
144
0.0
144
0.0
144
0.0208333333333333
144
0.0
144
0.0
144
0.0
144
0.0
144
1.0
144
0.0
144
0.0
144
0.0
144
0.0
144
1.0
147
0.0208333333333333
147
0.0
147
0.0
147
0.0
147
0.0
147
0.0208333333333333
147
0.0
147
0.0
147
0.0
147
0.0
147
1.0
147
0.0
147
0.0
147
0.0
147
0.0
147
1.0
  0
MLEADERSTYLE
  5
7836
102
{ACAD_REACTORS
330
7835
102
}
330
7835
100
AcDbMLeaderStyle
179
     2
170
     2
171
     1
172
     0
 90
        2
 40
0.0
 41
0.0
173
     1
 91
-1056964608
340
13
 92
       -2
290
     1
 42
0.09
291
     1
 43
0.36
  3
Standard
 44
0.18
300

342
11
174
     1
178
     6
175
     1
176
     0
 93
-1056964608
 45
0.18
292
     0
297
     0
 46
0.18
 94
-1056964608
 47
1.0
 49
1.0
140
1.0
293
     1
141
0.0
294
     1
177
     0
142
1.0
295
     0
296
     0
143
0.125
271
     0
272
     9
273
     9
298
     0
1001
ACAD_MLEADERVER
1070
     2
  0
MLINESTYLE
  5
17
102
{ACAD_REACTORS
330
16
102
}
330
16
100
AcDbMlineStyle
  2
STANDARD
 70
     0
  3

 62
   256
 51
90.0
 52
90.0
 71
     2
 49
0.5
 62
   256
  6
BYLAYER
 49
-0.5
 62
   256
  6
BYLAYER
  0
ACDBPLACEHOLDER
  5
F
102
{ACAD_REACTORS
330
E
102
}
330
E
  0
SCALE
  5
7814
102
{ACAD_REACTORS
330
7813
102
}
330
7813
100
AcDbScale
 70
     0
300
1:1
140
1.0
141
1.0
290
     1
  0
SCALE
  5
7815
102
{ACAD_REACTORS
330
7813
102
}
330
7813
100
AcDbScale
 70
     0
300
1:2
140
1.0
141
2.0
290
     0
  0
SCALE
  5
7816
102
{ACAD_REACTORS
330
7813
102
}
330
7813
100
AcDbScale
 70
     0
300
1:4
140
1.0
141
4.0
290
     0
  0
SCALE
  5
7817
102
{ACAD_REACTORS
330
7813
102
}
330
7813
100
AcDbScale
 70
     0
300
1:5
140
1.0
141
5.0
290
     0
  0
SCALE
  5
7818
102
{ACAD_REACTORS
330
7813
102
}
330
7813
100
AcDbScale
 70
     0
300
1:8
140
1.0
141
8.0
290
     0
  0
SCALE
  5
7819
102
{ACAD_REACTORS
330
7813
102
}
330
7813
100
AcDbScale
 70
     0
300
1:10
140
1.0
141
10.0
290
     0
  0
SCALE
  5
781A
102
{ACAD_REACTORS
330
7813
102
}
330
7813
100
AcDbScale
 70
     0
300
1:16
140
1.0
141
16.0
290
     0
  0
SCALE
  5
781B
102
{ACAD_REACTORS
330
7813
102
}
330
7813
100
AcDbScale
 70
     0
300
1:20
140
1.0
141
20.0
290
     0
  0
SCALE
  5
781C
102
{ACAD_REACTORS
330
7813
102
}
330
7813
100
AcDbScale
 70
     0
300
1:30
140
1.0
141
30.0
290
     0
  0
SCALE
  5
781D
102
{ACAD_REACTORS
330
7813
102
}
330
7813
100
AcDbScale
 70
     0
300
1:40
140
1.0
141
40.0
290
     0
  0
SCALE
  5
781E
102
{ACAD_REACTORS
330
7813
102
}
330
7813
100
AcDbScale
 70
     0
300
1:50
140
1.0
141
50.0
290
     0
  0
SCALE
  5
781F
102
{ACAD_REACTORS
330
7813
102
}
330
7813
100
AcDbScale
 70
     0
300
1:100
140
1.0
141
100.0
290
     0
  0
SCALE
  5
7820
102
{ACAD_REACTORS
330
7813
102
}
330
7813
100
AcDbScale
 70
     0
300
2:1
140
2.0
141
1.0
290
     0
  0
SCALE
  5
7821
102
{ACAD_REACTORS
330
7813
102
}
330
7813
100
AcDbScale
 70
     0
300
4:1
140
4.0
141
1.0
290
     0
  0
SCALE
  5
7822
102
{ACAD_REACTORS
330
7813
102
}
330
7813
100
AcDbScale
 70
     0
300
8:1
140
8.0
141
1.0
290
     0
  0
SCALE
  5
7823
102
{ACAD_REACTORS
330
7813
102
}
330
7813
100
AcDbScale
 70
     0
300
10:1
140
10.0
141
1.0
290
     0
  0
SCALE
  5
7824
102
{ACAD_REACTORS
330
7813
102
}
330
7813
100
AcDbScale
 70
     0
300
100:1
140
100.0
141
1.0
290
     0
  0
SCALE
  5
7825
102
{ACAD_REACTORS
330
7813
102
}
330
7813
100
AcDbScale
 70
     0
300
1/128" = 1'-0"
140
0.0078125
141
12.0
290
     0
  0
SCALE
  5
7826
102
{ACAD_REACTORS
330
7813
102
}
330
7813
100
AcDbScale
 70
     0
300
1/64" = 1'-0"
140
0.015625
141
12.0
290
     0
  0
SCALE
  5
7827
102
{ACAD_REACTORS
330
7813
102
}
330
7813
100
AcDbScale
 70
     0
300
1/32" = 1'-0"
140
0.03125
141
12.0
290
     0
  0
SCALE
  5
7828
102
{ACAD_REACTORS
330
7813
102
}
330
7813
100
AcDbScale
 70
     0
300
1/16" = 1'-0"
140
0.0625
141
12.0
290
     0
  0
SCALE
  5
7829
102
{ACAD_REACTORS
330
7813
102
}
330
7813
100
AcDbScale
 70
     0
300
3/32" = 1'-0"
140
0.09375
141
12.0
290
     0
  0
SCALE
  5
782A
102
{ACAD_REACTORS
330
7813
102
}
330
7813
100
AcDbScale
 70
     0
300
1/8" = 1'-0"
140
0.125
141
12.0
290
     0
  0
SCALE
  5
782B
102
{ACAD_REACTORS
330
7813
102
}
330
7813
100
AcDbScale
 70
     0
300
3/16" = 1'-0"
140
0.1875
141
12.0
290
     0
  0
SCALE
  5
782C
102
{ACAD_REACTORS
330
7813
102
}
330
7813
100
AcDbScale
 70
     0
300
1/4" = 1'-0"
140
0.25
141
12.0
290
     0
  0
SCALE
  5
782D
102
{ACAD_REACTORS
330
7813
102
}
330
7813
100
AcDbScale
 70
     0
300
3/8" = 1'-0"
140
0.375
141
12.0
290
     0
  0
SCALE
  5
782E
102
{ACAD_REACTORS
330
7813
102
}
330
7813
100
AcDbScale
 70
     0
300
1/2" = 1'-0"
140
0.5
141
12.0
290
     0
  0
SCALE
  5
782F
102
{ACAD_REACTORS
330
7813
102
}
330
7813
100
AcDbScale
 70
     0
300
3/4" = 1'-0"
140
0.75
141
12.0
290
     0
  0
SCALE
  5
7830
102
{ACAD_REACTORS
330
7813
102
}
330
7813
100
AcDbScale
 70
     0
300
1" = 1'-0"
140
1.0
141
12.0
290
     0
  0
SCALE
  5
7831
102
{ACAD_REACTORS
330
7813
102
}
330
7813
100
AcDbScale
 70
     0
300
1-1/2" = 1'-0"
140
1.5
141
12.0
290
     0
  0
SCALE
  5
7832
102
{ACAD_REACTORS
330
7813
102
}
330
7813
100
AcDbScale
 70
     0
300
3" = 1'-0"
140
3.0
141
12.0
290
     0
  0
SCALE
  5
7833
102
{ACAD_REACTORS
330
7813
102
}
330
7813
100
AcDbScale
 70
     0
300
6" = 1'-0"
140
6.0
141
12.0
290
     0
  0
SCALE
  5
7834
102
{ACAD_REACTORS
330
7813
102
}
330
7813
100
AcDbScale
 70
     0
300
1'-0" = 1'-0"
140
12.0
141
12.0
290
     0
  0
ACDBSECTIONVIEWSTYLE
  5
BB1C
102
{ACAD_XDICTIONARY
360
128C1
102
}
102
{ACAD_REACTORS
330
BB1A
102
}
330
BB1A
100
AcDbModelDocViewStyle
 70
     0
  3
Imperial24
290
     0
100
AcDbSectionViewStyle
 70
     0
 71
     0
 90
       78
 71
     1
340
11
 62
   256
 40
0.24
340
0
340
0
 62
   256
 40
0.24
300
I, O, Q, S, X, Z
 40
0.48
 90
        3
 40
0.18
 90
        1
 71
     2
340
BB1B
 90
       25
 62
   256
340
15
 90
       50
 62
   256
 40
0.24
 40
0.0
 40
0.24
 71
     3
340
11
 62
   256
 40
0.24
 90
        1
 40
0.75
 90
        1
300
%<\AcVar ViewType \f "%tc1">% %<\AcVar ViewSectionStartId>%-%<\AcVar ViewSectionEndId>%\PSCALE %<\AcVar ViewScale \f "%sn">%
 71
     4
 62
   256
 62
   257
300
ANSI31
 40
1.0
 90
        0
290
     0
290
     0
 90
        6
 40
0.0
 40
1.570796326794896
 40
0.2617993877991494
 40
1.308996938995747
 40
-0.2617993877991494
 40
1.832595714594044
  0
TABLESTYLE
  5
7812
102
{ACAD_XDICTIONARY
360
81C5
102
}
102
{ACAD_REACTORS
330
7811
102
}
330
7811
100
AcDbTableStyle
280
     0
  3
Standard
 70
     0
 71
     0
 40
0.06
 41
0.06
280
     0
281
     0
  7
STANDARD
140
0.18
170
     2
 62
     0
 63
     7
283
     0
 90
      512
 91
        0
  1

274
    -2
284
     1
 64
     0
275
    -2
285
     1
 65
     0
276
    -2
286
     1
 66
     0
277
    -2
287
     1
 67
     0
278
    -2
288
     1
 68
     0
279
    -2
289
     1
 69
     0
  7
STANDARD
140
0.25
170
     5
 62
     0
 63
     7
283
     0
 90
      512
 91
        0
  1

274
    -2
284
     1
 64
     0
275
    -2
285
     1
 65
     0
276
    -2
286
     1
 66
     0
277
    -2
287
     1
 67
     0
278
    -2
288
     1
 68
     0
279
    -2
289
     1
 69
     0
  7
STANDARD
140
0.18
170
     5
 62
     0
 63
     7
283
     0
 90
      512
 91
        0
  1

274
    -2
284
     1
 64
     0
275
    -2
285
     1
 65
     0
276
    -2
286
     1
 66
     0
277
    -2
287
     1
 67
     0
278
    -2
288
     1
 68
     0
279
    -2
289
     1
 69
     0
  0
VISUALSTYLE
  5
7805
102
{ACAD_REACTORS
330
77FF
102
}
330
77FF
100
AcDbVisualStyle
  2

 70
     4
177
     3
291
     0
 70
    58
 90
        0
176
     1
 90
        2
176
     1
 90
        0
176
     1
 90
        0
176
     1
 40
0.6
176
     1
 40
30.0
176
     1
 62
     7
176
     1
 90
        1
176
     1
 90
        4
176
     1
 62
     7
176
     1
 62
   257
176
     1
 90
        1
176
     1
 90
        1
176
     1
 40
1.0
176
     1
 90
        0
176
     1
 62
   257
176
     1
 40
1.0
176
     1
 90
        1
176
     1
 90
        6
176
     1
 90
        2
176
     1
 62
     7
176
     1
 90
        5
176
     1
 90
        0
176
     1
 90
        0
176
     1
290
     0
176
     1
 90
        1
176
     1
 40
0.0
176
     1
 90
        0
176
     1
290
     1
176
     1
290
     1
176
     1
290
     0
176
     1
290
     0
176
     1
290
     0
176
     1
290
     0
176
     1
290
     0
176
     1
290
     0
176
     1
290
     0
176
     1
 90
       50
176
     1
 40
0.0
176
     1
 40
1.0
176
     1
 90
        0
176
     1
 62
    18
420
        0
176
     1
 90
       50
176
     1
 90
        3
176
     1
 62
     5
420
      255
176
     1
290
     0
176
     1
 90
       50
176
     1
 90
       50
176
     1
 90
       50
176
     1
290
     0
176
     1
 90
       50
176
     1
 62
   256
176
     0
 40
1.0
176
     0
 90
        2
176
     1
  1
strokes_ogs.tif
176
     1
290
     0
176
     1
 40
1.0
176
     1
 40
1.0
176
     1
1001
ACAD
1000
AcDbSavedByObjectVersion
1070
     0
  0
VISUALSTYLE
  5
7807
102
{ACAD_REACTORS
330
77FF
102
}
330
77FF
100
AcDbVisualStyle
  2

 70
     6
177
     3
291
     0
 70
    58
 90
        1
176
     1
 90
        2
176
     1
 90
        2
176
     1
 90
        0
176
     1
 40
0.6
176
     1
 40
30.0
176
     1
 62
     7
176
     1
 90
        2
176
     1
 90
        2
176
     1
 62
     7
176
     1
 62
   257
176
     1
 90
        2
176
     1
 90
        1
176
     1
 40
40.0
176
     1
 90
        0
176
     1
 62
   257
176
     1
 40
1.0
176
     1
 90
        1
176
     1
 90
        6
176
     1
 90
        2
176
     1
 62
     7
176
     1
 90
        3
176
     1
 90
        0
176
     1
 90
        0
176
     1
290
     0
176
     1
 90
        1
176
     1
 40
0.0
176
     1
 90
        0
176
     1
290
     0
176
     1
290
     1
176
     1
290
     1
176
     1
290
     0
176
     1
290
     0
176
     1
290
     0
176
     1
290
     0
176
     1
290
     0
176
     1
290
     0
176
     1
 90
       50
176
     1
 40
0.0
176
     1
 40
1.0
176
     1
 90
        0
176
     1
 62
    18
420
        0
176
     1
 90
       50
176
     1
 90
        3
176
     1
 62
     5
420
      255
176
     1
290
     0
176
     1
 90
       50
176
     1
 90
       50
176
     1
 90
       50
176
     1
290
     0
176
     1
 90
       50
176
     1
 62
   256
176
     0
 40
1.0
176
     0
 90
        2
176
     1
  1
strokes_ogs.tif
176
     1
290
     0
176
     1
 40
1.0
176
     1
 40
1.0
176
     1
1001
ACAD
1000
AcDbSavedByObjectVersion
1070
     0
  0
VISUALSTYLE
  5
7806
102
{ACAD_REACTORS
330
77FF
102
}
330
77FF
100
AcDbVisualStyle
  2

 70
     5
177
     3
291
     0
 70
    58
 90
        0
176
     1
 90
        2
176
     1
 90
        0
176
     1
 90
        0
176
     1
 40
0.6
176
     1
 40
30.0
176
     1
 62
     7
176
     1
 90
        1
176
     1
 90
        4
176
     1
 62
     7
176
     1
 62
   257
176
     1
 90
        1
176
     1
 90
        1
176
     1
 40
1.0
176
     1
 90
        0
176
     1
 62
   257
176
     1
 40
1.0
176
     1
 90
        1
176
     1
 90
        6
176
     1
 90
        2
176
     1
 62
     7
176
     1
 90
        5
176
     1
 90
        0
176
     1
 90
        0
176
     1
290
     0
176
     1
 90
        1
176
     1
 40
0.0
176
     1
 90
        0
176
     1
290
     0
176
     1
290
     1
176
     1
290
     1
176
     1
290
     0
176
     1
290
     0
176
     1
290
     0
176
     1
290
     0
176
     1
290
     0
176
     1
290
     0
176
     1
 90
       50
176
     1
 40
0.0
176
     1
 40
1.0
176
     1
 90
        0
176
     1
 62
    18
420
        0
176
     1
 90
       50
176
     1
 90
        3
176
     1
 62
     5
420
      255
176
     1
290
     0
176
     1
 90
       50
176
     1
 90
       50
176
     1
 90
       50
176
     1
290
     0
176
     1
 90
       50
176
     1
 62
   256
176
     0
 40
1.0
176
     0
 90
        2
176
     1
  1
strokes_ogs.tif
176
     1
290
     0
176
     1
 40
1.0
176
     1
 40
1.0
176
     1
1001
ACAD
1000
AcDbSavedByObjectVersion
1070
     0
  0
VISUALSTYLE
  5
7804
102
{ACAD_REACTORS
330
77FF
102
}
330
77FF
100
AcDbVisualStyle
  2

 70
     7
177
     3
291
     1
 70
    58
 90
        1
176
     1
 90
        0
176
     1
 90
        1
176
     1
 90
        0
176
     1
 40
0.6
176
     1
 40
30.0
176
     1
 62
     7
176
     1
 90
        0
176
     1
 90
        4
176
     1
 62
     7
176
     1
 62
   257
176
     1
 90
        1
176
     1
 90
        1
176
     1
 40
1.0
176
     1
 90
        8
176
     1
 62
     7
176
     1
 40
1.0
176
     1
 90
        1
176
     1
 90
        6
176
     1
 90
        2
176
     1
 62
     7
176
     1
 90
        5
176
     1
 90
        0
176
     1
 90
        0
176
     1
290
     0
176
     1
 90
        1
176
     1
 40
0.0
176
     1
 90
        0
176
     1
290
     0
176
     1
290
     1
176
     1
290
     1
176
     1
290
     0
176
     1
290
     0
176
     1
290
     0
176
     1
290
     0
176
     1
290
     0
176
     1
290
     0
176
     1
 90
       50
176
     1
 40
0.0
176
     1
 40
1.0
176
     1
 90
        0
176
     1
 62
    18
420
        0
176
     1
 90
       50
176
     1
 90
        3
176
     1
 62
     5
420
      255
176
     1
290
     0
176
     1
 90
       50
176
     1
 90
       50
176
     1
 90
       50
176
     1
290
     0
176
     1
 90
       50
176
     1
 62
   256
176
     0
 40
1.0
176
     0
 90
        2
176
     1
  1
strokes_ogs.tif
176
     1
290
     0
176
     1
 40
1.0
176
     1
 40
1.0
176
     1
1001
ACAD
1000
AcDbSavedByObjectVersion
1070
     0
  0
VISUALSTYLE
  5
780B
102
{ACAD_REACTORS
330
77FF
102
}
330
77FF
100
AcDbVisualStyle
  2

 70
    12
177
     3
291
     1
 70
    58
 90
        2
176
     1
 90
        2
176
     1
 90
        0
176
     1
 90
        0
176
     1
 40
0.6
176
     1
 40
30.0
176
     1
 62
     7
176
     1
 90
        1
176
     1
 90
        4
176
     1
 62
     7
176
     1
 62
   257
176
     1
 90
        1
176
     1
 90
        1
176
     1
 40
1.0
176
     1
 90
        8
176
     1
 62
     7
176
     1
 40
1.0
176
     1
 90
        1
176
     1
 90
        6
176
     1
 90
        2
176
     1
 62
     7
176
     1
 90
        5
176
     1
 90
        0
176
     1
 90
        0
176
     1
290
     0
176
     1
 90
        1
176
     1
 40
50.0
176
     1
 90
        0
176
     1
290
     0
176
     1
290
     1
176
     1
290
     1
176
     1
290
     0
176
     1
290
     0
176
     1
290
     0
176
     1
290
     0
176
     1
290
     0
176
     1
290
     0
176
     1
 90
       50
176
     1
 40
0.0
176
     1
 40
1.0
176
     1
 90
        0
176
     1
 62
    18
420
        0
176
     1
 90
       50
176
     1
 90
        3
176
     1
 62
     5
420
      255
176
     1
290
     0
176
     1
 90
       50
176
     1
 90
       50
176
     1
 90
       50
176
     1
290
     0
176
     1
 90
       50
176
     1
 62
   256
176
     0
 40
1.0
176
     0
 90
        2
176
     1
  1
strokes_ogs.tif
176
     1
290
     0
176
     1
 40
1.0
176
     1
 40
1.0
176
     1
1001
ACAD
1000
AcDbSavedByObjectVersion
1070
     0
  0
VISUALSTYLE
  5
780F
102
{ACAD_REACTORS
330
77FF
102
}
330
77FF
100
AcDbVisualStyle
  2

 70
    16
177
     3
291
     1
 70
    58
 90
        2
176
     1
 90
        2
176
     1
 90
        3
176
     1
 90
        0
176
     1
 40
0.6
176
     1
 40
30.0
176
     1
 62
     8
176
     1
 90
        1
176
     1
 90
        4
176
     1
 62
     7
176
     1
 62
   257
176
     1
 90
        1
176
     1
 90
        1
176
     1
 40
1.0
176
     1
 90
        8
176
     1
 62
     8
176
     1
 40
1.0
176
     1
 90
        1
176
     1
 90
        6
176
     1
 90
        2
176
     1
 62
     7
176
     1
 90
        5
176
     1
 90
        0
176
     1
 90
        0
176
     1
290
     0
176
     1
 90
        1
176
     1
 40
0.0
176
     1
 90
        0
176
     1
290
     0
176
     1
290
     1
176
     1
290
     1
176
     1
290
     0
176
     1
290
     0
176
     1
290
     0
176
     1
290
     0
176
     1
290
     0
176
     1
290
     0
176
     1
 90
       50
176
     1
 40
0.0
176
     1
 40
1.0
176
     1
 90
        0
176
     1
 62
    18
420
        0
176
     1
 90
       50
176
     1
 90
        3
176
     1
 62
     5
420
      255
176
     1
290
     0
176
     1
 90
       50
176
     1
 90
       50
176
     1
 90
       50
176
     1
290
     0
176
     1
 90
       50
176
     1
 62
   256
176
     0
 40
1.0
176
     0
 90
        2
176
     1
  1
strokes_ogs.tif
176
     1
290
     0
176
     1
 40
1.0
176
     1
 40
1.0
176
     1
1001
ACAD
1000
AcDbSavedByObjectVersion
1070
     0
  0
VISUALSTYLE
  5
7808
102
{ACAD_REACTORS
330
77FF
102
}
330
77FF
100
AcDbVisualStyle
  2

 70
     9
177
     3
291
     0
 70
    58
 90
        3
176
     1
 90
        2
176
     1
 90
        0
176
     1
 90
        0
176
     1
 40
0.6
176
     1
 40
30.0
176
     1
 62
     7
176
     1
 90
        2
176
     1
 90
        2
176
     1
 62
     7
176
     1
 62
   257
176
     1
 90
        1
176
     1
 90
        1
176
     1
 40
40.0
176
     1
 90
        8
176
     1
 62
     7
176
     1
 40
1.0
176
     1
 90
        1
176
     1
 90
        6
176
     1
 90
        2
176
     1
 62
     7
176
     1
 90
        3
176
     1
 90
        0
176
     1
 90
        0
176
     1
290
     0
176
     1
 90
        1
176
     1
 40
0.0
176
     1
 90
        0
176
     1
290
     0
176
     1
290
     1
176
     1
290
     1
176
     1
290
     0
176
     1
290
     0
176
     1
290
     0
176
     1
290
     0
176
     1
290
     0
176
     1
290
     0
176
     1
 90
       50
176
     1
 40
0.0
176
     1
 40
1.0
176
     1
 90
        0
176
     1
 62
    18
420
        0
176
     1
 90
       50
176
     1
 90
        3
176
     1
 62
     5
420
      255
176
     1
290
     0
176
     1
 90
       50
176
     1
 90
       50
176
     1
 90
       50
176
     1
290
     0
176
     1
 90
       50
176
     1
 62
   256
176
     0
 40
1.0
176
     0
 90
        2
176
     1
  1
strokes_ogs.tif
176
     1
290
     0
176
     1
 40
1.0
176
     1
 40
1.0
176
     1
1001
ACAD
1000
AcDbSavedByObjectVersion
1070
     0
  0
VISUALSTYLE
  5
780A
102
{ACAD_REACTORS
330
77FF
102
}
330
77FF
100
AcDbVisualStyle
  2

 70
    11
177
     3
291
     1
 70
    58
 90
        2
176
     1
 90
        2
176
     1
 90
        0
176
     1
 90
        0
176
     1
 40
0.6
176
     1
 40
30.0
176
     1
 62
     7
176
     1
 90
        1
176
     1
 90
        4
176
     1
 62
     7
176
     1
 62
   257
176
     1
 90
        1
176
     1
 90
        1
176
     1
 40
1.0
176
     1
 90
        8
176
     1
 62
     7
176
     1
 40
1.0
176
     1
 90
        1
176
     1
 90
        6
176
     1
 90
        2
176
     1
 62
     7
176
     1
 90
        5
176
     1
 90
        0
176
     1
 90
        0
176
     1
290
     0
176
     1
 90
        1
176
     1
 40
-50.0
176
     1
 90
        0
176
     1
290
     0
176
     1
290
     1
176
     1
290
     1
176
     1
290
     0
176
     1
290
     0
176
     1
290
     0
176
     1
290
     0
176
     1
290
     0
176
     1
290
     0
176
     1
 90
       50
176
     1
 40
0.0
176
     1
 40
1.0
176
     1
 90
        0
176
     1
 62
    18
420
        0
176
     1
 90
       50
176
     1
 90
        3
176
     1
 62
     5
420
      255
176
     1
290
     0
176
     1
 90
       50
176
     1
 90
       50
176
     1
 90
       50
176
     1
290
     0
176
     1
 90
       50
176
     1
 62
   256
176
     0
 40
1.0
176
     0
 90
        2
176
     1
  1
strokes_ogs.tif
176
     1
290
     0
176
     1
 40
1.0
176
     1
 40
1.0
176
     1
1001
ACAD
1000
AcDbSavedByObjectVersion
1070
     0
  0
VISUALSTYLE
  5
BB19
102
{ACAD_REACTORS
330
77FF
102
}
330
77FF
100
AcDbVisualStyle
  2

 70
    22
177
     3
291
     1
 70
    58
 90
        2
176
     0
 90
        2
176
     0
 90
        0
176
     0
 90
        0
176
     0
 40
0.6
176
     0
 40
30.0
176
     0
 62
     7
420
 16777215
176
     0
 90
        1
176
     0
 90
        4
176
     0
 62
     7
176
     0
 62
   257
176
     0
 90
        1
176
     0
 90
        1
176
     0
 40
1.0
176
     0
 90
        8
176
     2
 62
     7
176
     0
 40
1.0
176
     0
 90
        1
176
     0
 90
        6
176
     0
 90
        2
176
     0
 62
     7
176
     0
 90
        5
176
     0
 90
        0
176
     0
 90
        0
176
     0
290
     0
176
     0
 90
        1
176
     0
 40
0.0
176
     0
 90
        0
176
     0
290
     0
176
     0
290
     1
176
     0
290
     1
176
     0
290
     0
176
     0
290
     0
176
     0
290
     0
176
     0
290
     0
176
     0
290
     0
176
     0
290
     0
176
     0
 90
       50
176
     0
 40
0.0
176
     0
 40
1.0
176
     0
 90
        0
176
     0
 62
    18
420
        0
176
     0
 90
       50
176
     0
 90
        3
176
     0
 62
     5
420
      255
176
     0
290
     0
176
     0
 90
       50
176
     0
 90
       50
176
     0
 90
       50
176
     0
290
     0
176
     0
 90
       50
176
     0
 62
   256
176
     0
 40
1.0
176
     0
 90
        2
176
     0
  1
strokes_ogs.tif
176
     0
290
     0
176
     0
 40
1.0
176
     0
 40
1.0
176
     0
1001
ACAD
1000
AcDbSavedByObjectVersion
1070
     0
  0
VISUALSTYLE
  5
780E
102
{ACAD_REACTORS
330
77FF
102
}
330
77FF
100
AcDbVisualStyle
  2

 70
    15
177
     3
291
     1
 70
    58
 90
        2
176
     1
 90
        2
176
     1
 90
        0
176
     1
 90
        0
176
     1
 40
0.6
176
     1
 40
30.0
176
     1
 62
     7
176
     1
 90
        1
176
     1
 90
        4
176
     1
 62
     7
176
     1
 62
   257
176
     1
 90
        1
176
     1
 90
        1
176
     1
 40
1.0
176
     1
 90
        8
176
     1
 62
     7
176
     1
 40
1.0
176
     1
 90
        1
176
     1
 90
        6
176
     1
 90
        2
176
     1
 62
     7
176
     1
 90
        5
176
     1
 90
        0
176
     1
 90
        0
176
     1
290
     0
176
     1
 90
        1
176
     1
 40
0.0
176
     1
 90
        0
176
     1
290
     0
176
     1
290
     1
176
     1
290
     1
176
     1
290
     0
176
     1
290
     0
176
     1
290
     0
176
     1
290
     0
176
     1
290
     0
176
     1
290
     0
176
     1
 90
       50
176
     1
 40
0.0
176
     1
 40
1.0
176
     1
 90
        0
176
     1
 62
    18
420
        0
176
     1
 90
       50
176
     1
 90
        3
176
     1
 62
     5
420
      255
176
     1
290
     0
176
     1
 90
       50
176
     1
 90
       50
176
     1
 90
       50
176
     1
290
     0
176
     1
 90
       50
176
     1
 62
   256
176
     0
 40
1.0
176
     0
 90
        2
176
     1
  1
strokes_ogs.tif
176
     1
290
     0
176
     1
 40
1.0
176
     1
 40
1.0
176
     1
1001
ACAD
1000
AcDbSavedByObjectVersion
1070
     0
  0
VISUALSTYLE
  5
7800
102
{ACAD_REACTORS
330
77FF
102
}
330
77FF
100
AcDbVisualStyle
  2

 70
     0
177
     3
291
     1
 70
    58
 90
        2
176
     1
 90
        1
176
     1
 90
        1
176
     1
 90
        2
176
     1
 40
0.6
176
     1
 40
30.0
176
     1
 62
     7
176
     1
 90
        0
176
     1
 90
        4
176
     1
 62
     7
176
     1
 62
   257
176
     1
 90
        1
176
     1
 90
        1
176
     1
 40
1.0
176
     1
 90
        8
176
     1
 62
     7
176
     1
 40
1.0
176
     1
 90
        1
176
     1
 90
        6
176
     1
 90
        2
176
     1
 62
     7
176
     1
 90
        5
176
     1
 90
        0
176
     1
 90
        0
176
     1
290
     0
176
     1
 90
       13
176
     1
 40
0.0
176
     1
 90
        0
176
     1
290
     0
176
     1
290
     1
176
     1
290
     1
176
     1
290
     0
176
     1
290
     0
176
     1
290
     0
176
     1
290
     0
176
     1
290
     0
176
     1
290
     0
176
     1
 90
       50
176
     1
 40
0.0
176
     1
 40
1.0
176
     1
 90
        0
176
     1
 62
    18
420
        0
176
     1
 90
       50
176
     1
 90
        3
176
     1
 62
     5
420
      255
176
     1
290
     0
176
     1
 90
       50
176
     1
 90
       50
176
     1
 90
       50
176
     1
290
     0
176
     1
 90
       50
176
     1
 62
   256
176
     0
 40
1.0
176
     0
 90
        2
176
     1
  1
strokes_ogs.tif
176
     1
290
     0
176
     1
 40
1.0
176
     1
 40
1.0
176
     1
1001
ACAD
1000
AcDbSavedByObjectVersion
1070
     0
  0
VISUALSTYLE
  5
7801
102
{ACAD_REACTORS
330
77FF
102
}
330
77FF
100
AcDbVisualStyle
  2

 70
     1
177
     3
291
     1
 70
    58
 90
        2
176
     1
 90
        1
176
     1
 90
        1
176
     1
 90
        2
176
     1
 40
0.6
176
     1
 40
30.0
176
     1
 62
     7
176
     1
 90
        1
176
     1
 90
        4
176
     1
 62
     7
176
     1
 62
   257
176
     1
 90
        1
176
     1
 90
        1
176
     1
 40
1.0
176
     1
 90
        0
176
     1
 62
   257
176
     1
 40
1.0
176
     1
 90
        1
176
     1
 90
        6
176
     1
 90
        2
176
     1
 62
     7
176
     1
 90
        5
176
     1
 90
        0
176
     1
 90
        0
176
     1
290
     0
176
     1
 90
       13
176
     1
 40
0.0
176
     1
 90
        0
176
     1
290
     0
176
     1
290
     1
176
     1
290
     1
176
     1
290
     0
176
     1
290
     0
176
     1
290
     0
176
     1
290
     0
176
     1
290
     0
176
     1
290
     0
176
     1
 90
       50
176
     1
 40
0.0
176
     1
 40
1.0
176
     1
 90
        0
176
     1
 62
    18
420
        0
176
     1
 90
       50
176
     1
 90
        3
176
     1
 62
     5
420
      255
176
     1
290
     0
176
     1
 90
       50
176
     1
 90
       50
176
     1
 90
       50
176
     1
290
     0
176
     1
 90
       50
176
     1
 62
   256
176
     0
 40
1.0
176
     0
 90
        2
176
     1
  1
strokes_ogs.tif
176
     1
290
     0
176
     1
 40
1.0
176
     1
 40
1.0
176
     1
1001
ACAD
1000
AcDbSavedByObjectVersion
1070
     0
  0
VISUALSTYLE
  5
7802
102
{ACAD_REACTORS
330
77FF
102
}
330
77FF
100
AcDbVisualStyle
  2

 70
     2
177
     3
291
     1
 70
    58
 90
        2
176
     1
 90
        2
176
     1
 90
        1
176
     1
 90
        2
176
     1
 40
0.6
176
     1
 40
30.0
176
     1
 62
     7
176
     1
 90
        0
176
     1
 90
        4
176
     1
 62
     7
176
     1
 62
   257
176
     1
 90
        1
176
     1
 90
        1
176
     1
 40
1.0
176
     1
 90
        0
176
     1
 62
     7
176
     1
 40
1.0
176
     1
 90
        1
176
     1
 90
        6
176
     1
 90
        2
176
     1
 62
     7
176
     1
 90
        5
176
     1
 90
        0
176
     1
 90
        0
176
     1
290
     0
176
     1
 90
       13
176
     1
 40
0.0
176
     1
 90
        0
176
     1
290
     0
176
     1
290
     1
176
     1
290
     1
176
     1
290
     0
176
     1
290
     0
176
     1
290
     0
176
     1
290
     0
176
     1
290
     0
176
     1
290
     0
176
     1
 90
       50
176
     1
 40
0.0
176
     1
 40
1.0
176
     1
 90
        0
176
     1
 62
    18
420
        0
176
     1
 90
       50
176
     1
 90
        3
176
     1
 62
     5
420
      255
176
     1
290
     0
176
     1
 90
       50
176
     1
 90
       50
176
     1
 90
       50
176
     1
290
     0
176
     1
 90
       50
176
     1
 62
   256
176
     0
 40
1.0
176
     0
 90
        2
176
     1
  1
strokes_ogs.tif
176
     1
290
     0
176
     1
 40
1.0
176
     1
 40
1.0
176
     1
1001
ACAD
1000
AcDbSavedByObjectVersion
1070
     0
  0
VISUALSTYLE
  5
7803
102
{ACAD_REACTORS
330
77FF
102
}
330
77FF
100
AcDbVisualStyle
  2

 70
     3
177
     3
291
     1
 70
    58
 90
        2
176
     1
 90
        2
176
     1
 90
        1
176
     1
 90
        2
176
     1
 40
0.6
176
     1
 40
30.0
176
     1
 62
     7
176
     1
 90
        1
176
     1
 90
        4
176
     1
 62
     7
176
     1
 62
   257
176
     1
 90
        1
176
     1
 90
        1
176
     1
 40
1.0
176
     1
 90
        0
176
     1
 62
   257
176
     1
 40
1.0
176
     1
 90
        1
176
     1
 90
        6
176
     1
 90
        2
176
     1
 62
     7
176
     1
 90
        5
176
     1
 90
        0
176
     1
 90
        0
176
     1
290
     0
176
     1
 90
       13
176
     1
 40
0.0
176
     1
 90
        0
176
     1
290
     0
176
     1
290
     1
176
     1
290
     1
176
     1
290
     0
176
     1
290
     0
176
     1
290
     0
176
     1
290
     0
176
     1
290
     0
176
     1
290
     0
176
     1
 90
       50
176
     1
 40
0.0
176
     1
 40
1.0
176
     1
 90
        0
176
     1
 62
    18
420
        0
176
     1
 90
       50
176
     1
 90
        3
176
     1
 62
     5
420
      255
176
     1
290
     0
176
     1
 90
       50
176
     1
 90
       50
176
     1
 90
       50
176
     1
290
     0
176
     1
 90
       50
176
     1
 62
   256
176
     0
 40
1.0
176
     0
 90
        2
176
     1
  1
strokes_ogs.tif
176
     1
290
     0
176
     1
 40
1.0
176
     1
 40
1.0
176
     1
1001
ACAD
1000
AcDbSavedByObjectVersion
1070
     0
  0
VISUALSTYLE
  5
BB11
102
{ACAD_REACTORS
330
77FF
102
}
330
77FF
100
AcDbVisualStyle
  2

 70
     6
177
     3
291
     0
 70
    58
 90
        1
176
     1
 90
        2
176
     1
 90
        2
176
     1
 90
        0
176
     1
 40
0.6
176
     1
 40
30.0
176
     1
 62
     7
420
 16777215
176
     1
 90
        2
176
     1
 90
        2
176
     1
 62
     7
176
     1
 62
   257
176
     1
 90
        2
176
     1
 90
        1
176
     1
 40
40.0
176
     1
 90
        0
176
     1
 62
   257
176
     1
 40
1.0
176
     1
 90
        1
176
     1
 90
        6
176
     1
 90
        2
176
     1
 62
     7
176
     1
 90
        3
176
     1
 90
        0
176
     1
 90
        0
176
     1
290
     0
176
     1
 90
        1
176
     1
 40
0.0
176
     1
 90
        0
176
     1
290
     0
176
     1
290
     1
176
     1
290
     1
176
     1
290
     0
176
     1
290
     0
176
     1
290
     0
176
     1
290
     0
176
     1
290
     0
176
     1
290
     0
176
     1
 90
       50
176
     1
 40
0.0
176
     1
 40
1.0
176
     1
 90
        0
176
     1
 62
    18
420
        0
176
     1
 90
       50
176
     1
 90
        3
176
     1
 62
     5
420
      255
176
     1
290
     0
176
     1
 90
       50
176
     1
 90
       50
176
     1
 90
       50
176
     1
290
     0
176
     1
 90
       50
176
     1
 62
   256
176
     0
 40
1.0
176
     0
 90
        2
176
     1
  1
strokes_ogs.tif
176
     1
290
     0
176
     1
 40
1.0
176
     1
 40
1.0
176
     1
1001
ACAD
1000
AcDbSavedByObjectVersion
1070
     0
  0
VISUALSTYLE
  5
BB17
102
{ACAD_REACTORS
330
77FF
102
}
330
77FF
100
AcDbVisualStyle
  2

 70
    20
177
     3
291
     1
 70
    58
 90
        2
176
     0
 90
        2
176
     0
 90
        0
176
     0
 90
        0
176
     0
 40
0.6
176
     0
 40
30.0
176
     0
 62
     7
420
 16777215
176
     0
 90
        1
176
     0
 90
        4
176
     0
 62
     7
176
     0
 62
   257
176
     0
 90
        1
176
     0
 90
        1
176
     0
 40
1.0
176
     0
 90
       10
176
     2
 62
     7
176
     0
 40
1.0
176
     0
 90
        1
176
     0
 90
        6
176
     0
 90
        2
176
     0
 62
     7
176
     0
 90
        5
176
     0
 90
        0
176
     0
 90
        0
176
     0
290
     0
176
     0
 90
        1
176
     0
 40
0.0
176
     0
 90
        0
176
     0
290
     0
176
     0
290
     1
176
     0
290
     1
176
     0
290
     0
176
     0
290
     0
176
     0
290
     0
176
     0
290
     0
176
     0
290
     0
176
     0
290
     0
176
     0
 90
       50
176
     0
 40
0.0
176
     0
 40
1.0
176
     0
 90
        0
176
     0
 62
    18
420
        0
176
     0
 90
       50
176
     0
 90
        3
176
     0
 62
     5
420
      255
176
     0
290
     0
176
     0
 90
       50
176
     0
 90
       50
176
     0
 90
       50
176
     0
290
     0
176
     0
 90
       50
176
     0
 62
   256
176
     0
 40
1.0
176
     0
 90
        2
176
     0
  1
strokes_ogs.tif
176
     0
290
     0
176
     0
 40
1.0
176
     0
 40
1.0
176
     0
1001
ACAD
1000
AcDbSavedByObjectVersion
1070
     0
  0
VISUALSTYLE
  5
780D
102
{ACAD_REACTORS
330
77FF
102
}
330
77FF
100
AcDbVisualStyle
  2

 70
    14
177
     3
291
     1
 70
    58
 90
        2
176
     1
 90
        2
176
     1
 90
        0
176
     1
 90
        0
176
     1
 40
0.6
176
     1
 40
30.0
176
     1
 62
     7
176
     1
 90
        1
176
     1
 90
        4
176
     1
 62
     7
176
     1
 62
   257
176
     1
 90
        7
176
     1
 90
        7
176
     1
 40
1.0
176
     1
 90
        8
176
     1
 62
     7
176
     1
 40
1.0
176
     1
 90
        1
176
     1
 90
        6
176
     1
 90
        2
176
     1
 62
     7
176
     1
 90
        5
176
     1
 90
        0
176
     1
 90
        0
176
     1
290
     0
176
     1
 90
        1
176
     1
 40
0.0
176
     1
 90
        0
176
     1
290
     0
176
     1
290
     1
176
     1
290
     1
176
     1
290
     0
176
     1
290
     0
176
     1
290
     0
176
     1
290
     0
176
     1
290
     0
176
     1
290
     0
176
     1
 90
       50
176
     1
 40
0.0
176
     1
 40
1.0
176
     1
 90
        0
176
     1
 62
    18
420
        0
176
     1
 90
       50
176
     1
 90
        3
176
     1
 62
     5
420
      255
176
     1
290
     0
176
     1
 90
       50
176
     1
 90
       50
176
     1
 90
       50
176
     1
290
     0
176
     1
 90
       50
176
     1
 62
   256
176
     0
 40
1.0
176
     0
 90
        2
176
     1
  1
strokes_ogs.tif
176
     1
290
     0
176
     1
 40
1.0
176
     1
 40
1.0
176
     1
1001
ACAD
1000
AcDbSavedByObjectVersion
1070
     0
  0
VISUALSTYLE
  5
BB18
102
{ACAD_REACTORS
330
77FF
102
}
330
77FF
100
AcDbVisualStyle
  2

 70
    21
177
     3
291
     1
 70
    58
 90
        2
176
     0
 90
        2
176
     0
 90
        0
176
     0
 90
        0
176
     0
 40
0.6
176
     0
 40
30.0
176
     0
 62
     7
420
 16777215
176
     0
 90
        1
176
     0
 90
        4
176
     0
 62
     7
176
     0
 62
   257
176
     0
 90
        1
176
     0
 90
        1
176
     0
 40
1.0
176
     0
 90
        9
176
     2
 62
     7
176
     0
 40
1.0
176
     0
 90
        1
176
     0
 90
        6
176
     0
 90
        2
176
     0
 62
     7
176
     0
 90
        5
176
     0
 90
        0
176
     0
 90
        0
176
     0
290
     0
176
     0
 90
        1
176
     0
 40
0.0
176
     0
 90
        0
176
     0
290
     0
176
     0
290
     1
176
     0
290
     1
176
     0
290
     0
176
     0
290
     0
176
     0
290
     0
176
     0
290
     0
176
     0
290
     0
176
     0
290
     0
176
     0
 90
       50
176
     0
 40
0.0
176
     0
 40
1.0
176
     0
 90
        0
176
     0
 62
    18
420
        0
176
     0
 90
       50
176
     0
 90
        3
176
     0
 62
     5
420
      255
176
     0
290
     0
176
     0
 90
       50
176
     0
 90
       50
176
     0
 90
       50
176
     0
290
     0
176
     0
 90
       50
176
     0
 62
   256
176
     0
 40
1.0
176
     0
 90
        2
176
     0
  1
strokes_ogs.tif
176
     0
290
     0
176
     0
 40
1.0
176
     0
 40
1.0
176
     0
1001
ACAD
1000
AcDbSavedByObjectVersion
1070
     0
  0
VISUALSTYLE
  5
7809
102
{ACAD_REACTORS
330
77FF
102
}
330
77FF
100
AcDbVisualStyle
  2

 70
     8
177
     3
291
     0
 70
    58
 90
        2
176
     1
 90
        2
176
     1
 90
        0
176
     1
 90
        0
176
     1
 40
0.6
176
     1
 40
30.0
176
     1
 62
     7
176
     1
 90
        1
176
     1
 90
        0
176
     1
 62
     7
176
     1
 62
   257
176
     1
 90
        1
176
     1
 90
        1
176
     1
 40
1.0
176
     1
 90
        8
176
     1
 62
     8
176
     1
 40
1.0
176
     1
 90
        1
176
     1
 90
        6
176
     1
 90
        2
176
     1
 62
     7
176
     1
 90
        5
176
     1
 90
        0
176
     1
 90
        0
176
     1
290
     0
176
     1
 90
       13
176
     1
 40
0.0
176
     1
 90
        0
176
     1
290
     0
176
     1
290
     1
176
     1
290
     1
176
     1
290
     0
176
     1
290
     0
176
     1
290
     0
176
     1
290
     0
176
     1
290
     0
176
     1
290
     0
176
     1
 90
       50
176
     1
 40
0.0
176
     1
 40
1.0
176
     1
 90
        0
176
     1
 62
    18
420
        0
176
     1
 90
       50
176
     1
 90
        3
176
     1
 62
     5
420
      255
176
     1
290
     0
176
     1
 90
       50
176
     1
 90
       50
176
     1
 90
       50
176
     1
290
     0
176
     1
 90
       50
176
     1
 62
   256
176
     0
 40
1.0
176
     0
 90
        2
176
     1
  1
strokes_ogs.tif
176
     1
290
     0
176
     1
 40
1.0
176
     1
 40
1.0
176
     1
1001
ACAD
1000
AcDbSavedByObjectVersion
1070
     0
  0
VISUALSTYLE
  5
BB16
102
{ACAD_REACTORS
330
77FF
102
}
330
77FF
100
AcDbVisualStyle
  2

 70
    27
177
     3
291
     0
 70
    58
 90
        2
176
     1
 90
        2
176
     1
 90
        1
176
     1
 90
        2
176
     1
 40
0.6
176
     1
 40
30.0
176
     1
 62
     7
420
 16777215
176
     1
 90
        0
176
     1
 90
        4
176
     1
 62
     7
176
     1
 62
   257
176
     1
 90
        1
176
     1
 90
        1
176
     1
 40
1.0
176
     1
 90
        8
176
     1
 62
   257
176
     1
 40
1.0
176
     1
 90
        1
176
     1
 90
        6
176
     1
 90
        2
176
     1
 62
     8
420
  7895160
176
     1
 90
        3
176
     1
 90
        0
176
     1
 90
        0
176
     1
290
     0
176
     1
 90
        5
176
     1
 40
0.0
176
     1
 90
        0
176
     1
290
     0
176
     1
290
     1
176
     1
290
     1
176
     1
290
     0
176
     1
290
     0
176
     1
290
     0
176
     1
290
     0
176
     1
290
     0
176
     1
290
     0
176
     1
 90
       50
176
     1
 40
0.0
176
     1
 40
1.0
176
     1
 90
        0
176
     1
 62
    18
420
        0
176
     1
 90
       50
176
     1
 90
        3
176
     1
 62
     5
420
      255
176
     1
290
     0
176
     1
 90
       50
176
     1
 90
       50
176
     1
 90
       50
176
     1
290
     0
176
     1
 90
       50
176
     1
 62
   256
176
     0
 40
1.0
176
     0
 90
        2
176
     1
  1
strokes_ogs.tif
176
     1
290
     0
176
     1
 40
1.0
176
     1
 40
1.0
176
     1
1001
ACAD
1000
AcDbSavedByObjectVersion
1070
     0
  0
VISUALSTYLE
  5
BB15
102
{ACAD_REACTORS
330
77FF
102
}
330
77FF
100
AcDbVisualStyle
  2

 70
    26
177
     3
291
     0
 70
    58
 90
        2
176
     1
 90
        2
176
     1
 90
        1
176
     1
 90
        2
176
     1
 40
0.6
176
     1
 40
30.0
176
     1
 62
     7
420
 16777215
176
     1
 90
        1
176
     1
 90
       10
176
     1
 62
     7
176
     1
 62
   257
176
     1
 90
        2
176
     1
 90
        1
176
     1
 40
1.0
176
     1
 90
        8
176
     1
 62
   257
176
     1
 40
1.0
176
     1
 90
        1
176
     1
 90
        6
176
     1
 90
        2
176
     1
 62
     7
176
     1
 90
        3
176
     1
 90
        0
176
     1
 90
        0
176
     1
290
     0
176
     1
 90
        5
176
     1
 40
0.0
176
     1
 90
        0
176
     1
290
     0
176
     1
290
     1
176
     1
290
     1
176
     1
290
     0
176
     1
290
     0
176
     1
290
     0
176
     1
290
     0
176
     1
290
     0
176
     1
290
     0
176
     1
 90
       50
176
     1
 40
0.0
176
     1
 40
1.0
176
     1
 90
        0
176
     1
 62
    18
420
        0
176
     1
 90
       50
176
     1
 90
        3
176
     1
 62
     5
420
      255
176
     1
290
     0
176
     1
 90
       50
176
     1
 90
       50
176
     1
 90
       50
176
     1
290
     0
176
     1
 90
       50
176
     1
 62
   256
176
     0
 40
1.0
176
     0
 90
        2
176
     1
  1
strokes_ogs.tif
176
     1
290
     0
176
     1
 40
1.0
176
     1
 40
1.0
176
     1
1001
ACAD
1000
AcDbSavedByObjectVersion
1070
     0
  0
VISUALSTYLE
  5
BB12
102
{ACAD_REACTORS
330
77FF
102
}
330
77FF
100
AcDbVisualStyle
  2

 70
    23
177
     3
291
     0
 70
    58
 90
        2
176
     1
 90
        2
176
     1
 90
        3
176
     1
 90
        0
176
     1
 40
0.6
176
     1
 40
30.0
176
     1
 62
     7
420
 16777215
176
     1
 90
        2
176
     1
 90
        2
176
     1
 62
     7
176
     1
 62
     7
176
     1
 90
        1
176
     1
 90
        1
176
     1
 40
40.0
176
     1
 90
        8
176
     1
 62
     7
176
     1
 40
1.0
176
     1
 90
        1
176
     1
 90
        6
176
     1
 90
        2
176
     1
 62
     7
176
     1
 90
        3
176
     1
 90
        0
176
     1
 90
        0
176
     1
290
     0
176
     1
 90
        1
176
     1
 40
0.0
176
     1
 90
        0
176
     1
290
     0
176
     1
290
     1
176
     1
290
     1
176
     1
290
     0
176
     1
290
     0
176
     1
290
     0
176
     1
290
     0
176
     1
290
     0
176
     1
290
     0
176
     1
 90
       50
176
     1
 40
0.0
176
     1
 40
1.0
176
     1
 90
        0
176
     1
 62
    18
420
        0
176
     1
 90
       50
176
     1
 90
        3
176
     1
 62
     5
420
      255
176
     1
290
     0
176
     1
 90
       50
176
     1
 90
       50
176
     1
 90
       50
176
     1
290
     0
176
     1
 90
       50
176
     1
 62
   256
176
     0
 40
1.0
176
     0
 90
        2
176
     1
  1
strokes_ogs.tif
176
     1
290
     0
176
     1
 40
1.0
176
     1
 40
1.0
176
     1
1001
ACAD
1000
AcDbSavedByObjectVersion
1070
     0
  0
VISUALSTYLE
  5
BB13
102
{ACAD_REACTORS
330
77FF
102
}
330
77FF
100
AcDbVisualStyle
  2

 70
    24
177
     3
291
     0
 70
    58
 90
        1
176
     1
 90
        2
176
     1
 90
        2
176
     1
 90
        0
176
     1
 40
0.6
176
     1
 40
30.0
176
     1
 62
     7
420
 16777215
176
     1
 90
        2
176
     1
 90
        2
176
     1
 62
     7
176
     1
 62
     7
176
     1
 90
        1
176
     1
 90
        1
176
     1
 40
40.0
176
     1
 90
       11
176
     1
 62
     7
176
     1
 40
1.0
176
     1
 90
        1
176
     1
 90
        6
176
     1
 90
        2
176
     1
 62
     7
176
     1
 90
        6
176
     1
 90
        0
176
     1
 90
        0
176
     1
290
     0
176
     1
 90
        1
176
     1
 40
0.0
176
     1
 90
        0
176
     1
290
     0
176
     1
290
     1
176
     1
290
     1
176
     1
290
     0
176
     1
290
     0
176
     1
290
     0
176
     1
290
     0
176
     1
290
     0
176
     1
290
     0
176
     1
 90
       50
176
     1
 40
0.0
176
     1
 40
1.0
176
     1
 90
        0
176
     1
 62
    18
420
        0
176
     1
 90
       50
176
     1
 90
        3
176
     1
 62
     5
420
      255
176
     1
290
     0
176
     1
 90
       50
176
     1
 90
       50
176
     1
 90
       50
176
     1
290
     0
176
     1
 90
       50
176
     1
 62
   256
176
     0
 40
1.0
176
     0
 90
        2
176
     1
  1
strokes_ogs.tif
176
     1
290
     0
176
     1
 40
1.0
176
     1
 40
1.0
176
     1
1001
ACAD
1000
AcDbSavedByObjectVersion
1070
     0
  0
VISUALSTYLE
  5
780C
102
{ACAD_REACTORS
330
77FF
102
}
330
77FF
100
AcDbVisualStyle
  2

 70
    13
177
     3
291
     1
 70
    58
 90
        2
176
     1
 90
        2
176
     1
 90
        0
176
     1
 90
        0
176
     1
 40
0.6
176
     1
 40
30.0
176
     1
 62
     7
176
     1
 90
        1
176
     1
 90
        4
176
     1
 62
     7
176
     1
 62
   257
176
     1
 90
        1
176
     1
 90
        1
176
     1
 40
1.0
176
     1
 90
       12
176
     1
 62
     7
176
     1
 40
1.0
176
     1
 90
        1
176
     1
 90
        6
176
     1
 90
        2
176
     1
 62
     7
176
     1
 90
        5
176
     1
 90
        0
176
     1
 90
        0
176
     1
290
     0
176
     1
 90
        1
176
     1
 40
0.0
176
     1
 90
        0
176
     1
290
     0
176
     1
290
     1
176
     1
290
     1
176
     1
290
     0
176
     1
290
     0
176
     1
290
     0
176
     1
290
     0
176
     1
290
     0
176
     1
290
     0
176
     1
 90
       50
176
     1
 40
0.0
176
     1
 40
1.0
176
     1
 90
        0
176
     1
 62
    18
420
        0
176
     1
 90
       50
176
     1
 90
        3
176
     1
 62
     5
420
      255
176
     1
290
     0
176
     1
 90
       50
176
     1
 90
       50
176
     1
 90
       50
176
     1
290
     0
176
     1
 90
       50
176
     1
 62
   256
176
     0
 40
1.0
176
     0
 90
        2
176
     1
  1
strokes_ogs.tif
176
     1
290
     0
176
     1
 40
1.0
176
     1
 40
1.0
176
     1
1001
ACAD
1000
AcDbSavedByObjectVersion
1070
     0
  0
VISUALSTYLE
  5
BB10
102
{ACAD_REACTORS
330
77FF
102
}
330
77FF
100
AcDbVisualStyle
  2

 70
     5
177
     3
291
     0
 70
    58
 90
        0
176
     1
 90
        2
176
     1
 90
        0
176
     1
 90
        0
176
     1
 40
0.6
176
     1
 40
30.0
176
     1
 62
     7
420
 16777215
176
     1
 90
        1
176
     1
 90
        4
176
     1
 62
     7
176
     1
 62
   257
176
     1
 90
        1
176
     1
 90
        1
176
     1
 40
1.0
176
     1
 90
        0
176
     1
 62
   257
176
     1
 40
1.0
176
     1
 90
        1
176
     1
 90
        6
176
     1
 90
        2
176
     1
 62
     7
176
     1
 90
        3
176
     1
 90
        0
176
     1
 90
        0
176
     1
290
     0
176
     1
 90
        1
176
     1
 40
0.0
176
     1
 90
        0
176
     1
290
     0
176
     1
290
     1
176
     1
290
     1
176
     1
290
     0
176
     1
290
     0
176
     1
290
     0
176
     1
290
     0
176
     1
290
     0
176
     1
290
     0
176
     1
 90
       50
176
     1
 40
0.0
176
     1
 40
1.0
176
     1
 90
        0
176
     1
 62
    18
420
        0
176
     1
 90
       50
176
     1
 90
        3
176
     1
 62
     5
420
      255
176
     1
290
     0
176
     1
 90
       50
176
     1
 90
       50
176
     1
 90
       50
176
     1
290
     0
176
     1
 90
       50
176
     1
 62
   256
176
     0
 40
1.0
176
     0
 90
        2
176
     1
  1
strokes_ogs.tif
176
     1
290
     0
176
     1
 40
1.0
176
     1
 40
1.0
176
     1
1001
ACAD
1000
AcDbSavedByObjectVersion
1070
     0
  0
VISUALSTYLE
  5
BB14
102
{ACAD_REACTORS
330
77FF
102
}
330
77FF
100
AcDbVisualStyle
  2

 70
    25
177
     3
291
     0
 70
    58
 90
        2
176
     1
 90
        2
176
     1
 90
        1
176
     1
 90
        1
176
     1
 40
0.5
176
     1
 40
30.0
176
     1
 62
     7
420
 16777215
176
     1
 90
        1
176
     1
 90
        0
176
     1
 62
     7
176
     1
 62
   257
176
     1
 90
        1
176
     1
 90
        1
176
     1
 40
1.0
176
     1
 90
        8
176
     1
 62
     7
176
     1
 40
1.0
176
     1
 90
        1
176
     1
 90
        6
176
     1
 90
        2
176
     1
 62
     7
176
     1
 90
        3
176
     1
 90
        0
176
     1
 90
        0
176
     1
290
     0
176
     1
 90
       13
176
     1
 40
0.0
176
     1
 90
        0
176
     1
290
     0
176
     1
290
     1
176
     1
290
     1
176
     1
290
     0
176
     1
290
     0
176
     1
290
     0
176
     1
290
     0
176
     1
290
     0
176
     1
290
     0
176
     1
 90
       50
176
     1
 40
0.0
176
     1
 40
1.0
176
     1
 90
        0
176
     1
 62
    18
420
        0
176
     1
 90
       50
176
     1
 90
        3
176
     1
 62
     5
420
      255
176
     1
290
     0
176
     1
 90
       50
176
     1
 90
       50
176
     1
 90
       50
176
     1
290
     0
176
     1
 90
       50
176
     1
 62
   256
176
     0
 40
1.0
176
     0
 90
        2
176
     1
  1
strokes_ogs.tif
176
     1
290
     0
176
     1
 40
1.0
176
     1
 40
1.0
176
     1
1001
ACAD
1000
AcDbSavedByObjectVersion
1070
     0
  0
DICTIONARYVAR
  5
7842
102
{ACAD_REACTORS
330
857
102
}
330
857
100
DictionaryVariables
280
     0
  1
1:1
  0
DICTIONARYVAR
  5
7841
102
{ACAD_REACTORS
330
857
102
}
330
857
100
DictionaryVariables
280
     0
  1
STANDARD
  0
DICTIONARYVAR
  5
7840
102
{ACAD_REACTORS
330
857
102
}
330
857
100
DictionaryVariables
280
     0
  1
STANDARD
  0
DICTIONARYVAR
  5
C0E7
102
{ACAD_REACTORS
330
857
102
}
330
857
100
DictionaryVariables
280
     0
  1
Imperial24
  0
DICTIONARYVAR
  5
C0E8
102
{ACAD_REACTORS
330
857
102
}
330
857
100
DictionaryVariables
280
     0
  1
Imperial24
  0
DICTIONARYVAR
  5
7844
102
{ACAD_REACTORS
330
857
102
}
330
857
100
DictionaryVariables
280
     0
  1
1
  0
DICTIONARYVAR
  5
7843
102
{ACAD_REACTORS
330
857
102
}
330
857
100
DictionaryVariables
280
     0
  1
0
  0
DICTIONARYVAR
  5
C0E9
102
{ACAD_REACTORS
330
857
102
}
330
857
100
DictionaryVariables
280
     0
  1
1
  0
DICTIONARYVAR
  5
C0EA
102
{ACAD_REACTORS
330
857
102
}
330
857
100
DictionaryVariables
280
     0
  1
15
  0
DICTIONARYVAR
  5
85B9
102
{ACAD_REACTORS
330
857
102
}
330
857
100
DictionaryVariables
280
     0
  1
0
  0
DICTIONARYVAR
  5
85B8
102
{ACAD_REACTORS
330
857
102
}
330
857
100
DictionaryVariables
280
     0
  1
0
  0
DICTIONARYVAR
  5
F3FB
102
{ACAD_REACTORS
330
857
102
}
330
857
100
DictionaryVariables
280
     0
  1
1
  0
DICTIONARYVAR
  5
858
102
{ACAD_REACTORS
330
857
102
}
330
857
100
DictionaryVariables
280
     0
  1
96
  0
DICTIONARY
  5
128C3
330
BB1E
100
AcDbDictionary
280
     1
281
     1
  3
ACAD_XREC_ROUNDTRIP
360
128C4
  0
DICTIONARY
  5
C13A
330
1D
100
AcDbDictionary
280
     1
281
     1
  0
DICTIONARY
  5
F452
330
21
100
AcDbDictionary
280
     1
281
     1
  0
DICTIONARY
  5
77F0
330
77EF
100
AcDbDictionary
280
     1
281
     1
  3
ACAD_XREC_ROUNDTRIP
360
81D8
  3
BUMPTILE
360
77F2
  3
DIFFUSETILE
360
77F1
  3
OPACITYTILE
360
77F5
  3
REFLECTIONTILE
360
77F4
  3
REFRACTIONTILE
360
77F6
  3
SPECULARTILE
360
77F3
  0
DICTIONARY
  5
77E8
330
77E7
100
AcDbDictionary
280
     1
281
     1
  3
ACAD_XREC_ROUNDTRIP
360
81D7
  3
BUMPTILE
360
77EA
  3
DIFFUSETILE
360
77E9
  3
OPACITYTILE
360
77ED
  3
REFLECTIONTILE
360
77EC
  3
REFRACTIONTILE
360
77EE
  3
SPECULARTILE
360
77EB
  0
DICTIONARY
  5
77F8
330
77F7
100
AcDbDictionary
280
     1
281
     1
  3
ACAD_XREC_ROUNDTRIP
360
81D9
  3
BUMPTILE
360
77FA
  3
DIFFUSETILE
360
77F9
  3
OPACITYTILE
360
77FD
  3
REFLECTIONTILE
360
77FC
  3
REFRACTIONTILE
360
77FE
  3
SPECULARTILE
360
77FB
  0
DICTIONARY
  5
128C1
330
BB1C
100
AcDbDictionary
280
     1
281
     1
  3
ACAD_XREC_ROUNDTRIP
360
128C2
  0
DICTIONARY
  5
81C5
330
7812
100
AcDbDictionary
280
     1
281
     1
  3
ACAD_ROUNDTRIP_2008_TABLESTYLE_CELLSTYLEMAP
360
128C0
  0
XRECORD
  5
128C4
102
{ACAD_REACTORS
330
128C3
102
}
330
128C3
100
AcDbXrecord
280
     1
102
DISPLAYNAME
  1
Imperial24
102
FLAGS
 90
        0
  0
XRECORD
  5
81D8
102
{ACAD_REACTORS
330
77F0
102
}
330
77F0
100
AcDbXrecord
280
     1
102
MATERIAL
148
0.0
149
0.0
149
0.0
 93
        0
 94
      127
282
     0
 72
     0
 77
     0
171
     0
175
     0
179
     0
273
     0
  0
XRECORD
  5
77F2
102
{ACAD_REACTORS
330
77F0
102
}
330
77F0
100
AcDbXrecord
280
     1
270
     1
271
     1
  0
XRECORD
  5
77F1
102
{ACAD_REACTORS
330
77F0
102
}
330
77F0
100
AcDbXrecord
280
     1
270
     1
271
     1
  0
XRECORD
  5
77F5
102
{ACAD_REACTORS
330
77F0
102
}
330
77F0
100
AcDbXrecord
280
     1
270
     1
271
     1
  0
XRECORD
  5
77F4
102
{ACAD_REACTORS
330
77F0
102
}
330
77F0
100
AcDbXrecord
280
     1
270
     1
271
     1
  0
XRECORD
  5
77F6
102
{ACAD_REACTORS
330
77F0
102
}
330
77F0
100
AcDbXrecord
280
     1
270
     1
271
     1
  0
XRECORD
  5
77F3
102
{ACAD_REACTORS
330
77F0
102
}
330
77F0
100
AcDbXrecord
280
     1
270
     1
271
     1
  0
XRECORD
  5
81D7
102
{ACAD_REACTORS
330
77E8
102
}
330
77E8
100
AcDbXrecord
280
     1
102
MATERIAL
148
0.0
149
0.0
149
0.0
 93
        0
 94
      127
282
     0
 72
     0
 77
     0
171
     0
175
     0
179
     0
273
     0
  0
XRECORD
  5
77EA
102
{ACAD_REACTORS
330
77E8
102
}
330
77E8
100
AcDbXrecord
280
     1
270
     1
271
     1
  0
XRECORD
  5
77E9
102
{ACAD_REACTORS
330
77E8
102
}
330
77E8
100
AcDbXrecord
280
     1
270
     1
271
     1
  0
XRECORD
  5
77ED
102
{ACAD_REACTORS
330
77E8
102
}
330
77E8
100
AcDbXrecord
280
     1
270
     1
271
     1
  0
XRECORD
  5
77EC
102
{ACAD_REACTORS
330
77E8
102
}
330
77E8
100
AcDbXrecord
280
     1
270
     1
271
     1
  0
XRECORD
  5
77EE
102
{ACAD_REACTORS
330
77E8
102
}
330
77E8
100
AcDbXrecord
280
     1
270
     1
271
     1
  0
XRECORD
  5
77EB
102
{ACAD_REACTORS
330
77E8
102
}
330
77E8
100
AcDbXrecord
280
     1
270
     1
271
     1
  0
XRECORD
  5
81D9
102
{ACAD_REACTORS
330
77F8
102
}
330
77F8
100
AcDbXrecord
280
     1
102
MATERIAL
148
0.0
149
0.0
149
0.0
 93
        0
 94
      127
282
     0
 72
     0
 77
     0
171
     0
175
     0
179
     0
273
     0
  0
XRECORD
  5
77FA
102
{ACAD_REACTORS
330
77F8
102
}
330
77F8
100
AcDbXrecord
280
     1
270
     1
271
     1
  0
XRECORD
  5
77F9
102
{ACAD_REACTORS
330
77F8
102
}
330
77F8
100
AcDbXrecord
280
     1
270
     1
271
     1
  0
XRECORD
  5
77FD
102
{ACAD_REACTORS
330
77F8
102
}
330
77F8
100
AcDbXrecord
280
     1
270
     1
271
     1
  0
XRECORD
  5
77FC
102
{ACAD_REACTORS
330
77F8
102
}
330
77F8
100
AcDbXrecord
280
     1
270
     1
271
     1
  0
XRECORD
  5
77FE
102
{ACAD_REACTORS
330
77F8
102
}
330
77F8
100
AcDbXrecord
280
     1
270
     1
271
     1
  0
XRECORD
  5
77FB
102
{ACAD_REACTORS
330
77F8
102
}
330
77F8
100
AcDbXrecord
280
     1
270
     1
271
     1
  0
XRECORD
  5
128C2
102
{ACAD_REACTORS
330
128C1
102
}
330
128C1
100
AcDbXrecord
280
     1
102
DISPLAYNAME
  1
Imperial24
102
FLAGS
 90
        0
  0
CELLSTYLEMAP
  5
128C0
102
{ACAD_REACTORS
330
81C5
102
}
330
81C5
100
AcDbCellStyleMap
 90
        3
300
CELLSTYLE
  1
TABLEFORMAT_BEGIN
 90
        5
170
     1
 91
        0
 92
    32768
 62
   257
 93
        1
300
CONTENTFORMAT
  1
CONTENTFORMAT_BEGIN
 90
        0
 91
        0
 92
      512
 93
        0
300

 40
0.0
140
1.0
 94
        5
 62
     0
340
11
144
0.25
309
CONTENTFORMAT_END
171
     1
301
MARGIN
  1
CELLMARGIN_BEGIN
 40
0.06
 40
0.06
 40
0.06
 40
0.06
 40
0.18
 40
0.18
309
CELLMARGIN_END
 94
        6
 95
        1
302
GRIDFORMAT
  1
GRIDFORMAT_BEGIN
 90
        0
 91
        1
 62
     0
 92
       -2
340
0
 93
        0
 40
0.045
309
GRIDFORMAT_END
 95
        2
302
GRIDFORMAT
  1
GRIDFORMAT_BEGIN
 90
        0
 91
        1
 62
     0
 92
       -2
340
0
 93
        0
 40
0.045
309
GRIDFORMAT_END
 95
        4
302
GRIDFORMAT
  1
GRIDFORMAT_BEGIN
 90
        0
 91
        1
 62
     0
 92
       -2
340
0
 93
        0
 40
0.045
309
GRIDFORMAT_END
 95
        8
302
GRIDFORMAT
  1
GRIDFORMAT_BEGIN
 90
        0
 91
        1
 62
     0
 92
       -2
340
0
 93
        0
 40
0.045
309
GRIDFORMAT_END
 95
       16
302
GRIDFORMAT
  1
GRIDFORMAT_BEGIN
 90
        0
 91
        1
 62
     0
 92
       -2
340
0
 93
        0
 40
0.045
309
GRIDFORMAT_END
 95
       32
302
GRIDFORMAT
  1
GRIDFORMAT_BEGIN
 90
        0
 91
        1
 62
     0
 92
       -2
340
0
 93
        0
 40
0.045
309
GRIDFORMAT_END
309
TABLEFORMAT_END
  1
CELLSTYLE_BEGIN
 90
        1
 91
        1
300
_TITLE
309
CELLSTYLE_END
300
CELLSTYLE
  1
TABLEFORMAT_BEGIN
 90
        5
170
     1
 91
        0
 92
        0
 62
   257
 93
        1
300
CONTENTFORMAT
  1
CONTENTFORMAT_BEGIN
 90
        0
 91
        0
 92
      512
 93
        0
300

 40
0.0
140
1.0
 94
        5
 62
     0
340
11
144
0.18
309
CONTENTFORMAT_END
171
     1
301
MARGIN
  1
CELLMARGIN_BEGIN
 40
0.06
 40
0.06
 40
0.06
 40
0.06
 40
0.18
 40
0.18
309
CELLMARGIN_END
 94
        6
 95
        1
302
GRIDFORMAT
  1
GRIDFORMAT_BEGIN
 90
        0
 91
        1
 62
     0
 92
       -2
340
0
 93
        0
 40
0.045
309
GRIDFORMAT_END
 95
        2
302
GRIDFORMAT
  1
GRIDFORMAT_BEGIN
 90
        0
 91
        1
 62
     0
 92
       -2
340
0
 93
        0
 40
0.045
309
GRIDFORMAT_END
 95
        4
302
GRIDFORMAT
  1
GRIDFORMAT_BEGIN
 90
        0
 91
        1
 62
     0
 92
       -2
340
0
 93
        0
 40
0.045
309
GRIDFORMAT_END
 95
        8
302
GRIDFORMAT
  1
GRIDFORMAT_BEGIN
 90
        0
 91
        1
 62
     0
 92
       -2
340
0
 93
        0
 40
0.045
309
GRIDFORMAT_END
 95
       16
302
GRIDFORMAT
  1
GRIDFORMAT_BEGIN
 90
        0
 91
        1
 62
     0
 92
       -2
340
0
 93
        0
 40
0.045
309
GRIDFORMAT_END
 95
       32
302
GRIDFORMAT
  1
GRIDFORMAT_BEGIN
 90
        0
 91
        1
 62
     0
 92
       -2
340
0
 93
        0
 40
0.045
309
GRIDFORMAT_END
309
TABLEFORMAT_END
  1
CELLSTYLE_BEGIN
 90
        2
 91
        1
300
_HEADER
309
CELLSTYLE_END
300
CELLSTYLE
  1
TABLEFORMAT_BEGIN
 90
        5
170
     1
 91
        0
 92
        0
 62
   257
 93
        1
300
CONTENTFORMAT
  1
CONTENTFORMAT_BEGIN
 90
        0
 91
        0
 92
      512
 93
        0
300

 40
0.0
140
1.0
 94
        2
 62
     0
340
11
144
0.18
309
CONTENTFORMAT_END
171
     1
301
MARGIN
  1
CELLMARGIN_BEGIN
 40
0.06
 40
0.06
 40
0.06
 40
0.06
 40
0.18
 40
0.18
309
CELLMARGIN_END
 94
        6
 95
        1
302
GRIDFORMAT
  1
GRIDFORMAT_BEGIN
 90
        0
 91
        1
 62
     0
 92
       -2
340
0
 93
        0
 40
0.045
309
GRIDFORMAT_END
 95
        2
302
GRIDFORMAT
  1
GRIDFORMAT_BEGIN
 90
        0
 91
        1
 62
     0
 92
       -2
340
0
 93
        0
 40
0.045
309
GRIDFORMAT_END
 95
        4
302
GRIDFORMAT
  1
GRIDFORMAT_BEGIN
 90
        0
 91
        1
 62
     0
 92
       -2
340
0
 93
        0
 40
0.045
309
GRIDFORMAT_END
 95
        8
302
GRIDFORMAT
  1
GRIDFORMAT_BEGIN
 90
        0
 91
        1
 62
     0
 92
       -2
340
0
 93
        0
 40
0.045
309
GRIDFORMAT_END
 95
       16
302
GRIDFORMAT
  1
GRIDFORMAT_BEGIN
 90
        0
 91
        1
 62
     0
 92
       -2
340
0
 93
        0
 40
0.045
309
GRIDFORMAT_END
 95
       32
302
GRIDFORMAT
  1
GRIDFORMAT_BEGIN
 90
        0
 91
        1
 62
     0
 92
       -2
340
0
 93
        0
 40
0.045
309
GRIDFORMAT_END
309
TABLEFORMAT_END
  1
CELLSTYLE_BEGIN
 90
        3
 91
        2
300
_DATA
309
CELLSTYLE_END
  0
ENDSEC
  0
SECTION
  2
ACDSDATA
 70
     2
 71
     8
  0
ACDSSCHEMA
 90
        0
  1
AcDb_Thumbnail_Schema
  2
AcDbDs::ID
280
    10
 91
        8
  2
Thumbnail_Data
280
    15
 91
        0
101
ACDSRECORD
 95
        0
 90
        1
  2
AcDbDs::TreatedAsObjectData
280
     1
291
     1
101
ACDSRECORD
 95
        0
 90
        2
  2
AcDbDs::Legacy
280
     1
291
     1
101
ACDSRECORD
  1
AcDbDs::ID
 90
        3
  2
AcDs:Indexable
280
     1
291
     1
101
ACDSRECORD
  1
AcDbDs::ID
 90
        4
  2
AcDbDs::HandleAttribute
280
     7
282
     1
  0
ACDSSCHEMA
 90
        1
  1
AcDbDs::TreatedAsObjectDataSchema
  2
AcDbDs::TreatedAsObjectData
280
     1
 91
        0
  0
ACDSSCHEMA
 90
        2
  1
AcDbDs::LegacySchema
  2
AcDbDs::Legacy
280
     1
 91
        0
  0
ACDSSCHEMA
 90
        3
  1
AcDbDs::IndexedPropertySchema
  2
AcDs:Indexable
280
     1
 91
        0
  0
ACDSSCHEMA
 90
        4
  1
AcDbDs::HandleAttributeSchema
  2
AcDbDs::HandleAttribute
280
     7
 91
        1
284
     1
  0
ACDSRECORD
 90
        0
  2
AcDbDs::ID
280
    10
320
1D
  2
Thumbnail_Data
280
    15
 94
     1749
310
89504E470D0A1A0A0000000D49484452000000B40000007408030000001BFBE8B400000300504C5445FFFFFF000000C8C8C80000000000000000000000000000000000000000000000000000330000660000990000CC0000FF0033000033330033660033990033CC0033FF0066000066330066660066990066CC0066FF0099
310
000099330099660099990099CC0099FF00CC0000CC3300CC6600CC9900CCCC00CCFF00FF0000FF3300FF6600FF9900FFCC00FFFF3300003300333300663300993300CC3300FF3333003333333333663333993333CC3333FF3366003366333366663366993366CC3366FF3399003399333399663399993399CC3399FF33CC00
310
33CC3333CC6633CC9933CCCC33CCFF33FF0033FF3333FF6633FF9933FFCC33FFFF6600006600336600666600996600CC6600FF6633006633336633666633996633CC6633FF6666006666336666666666996666CC6666FF6699006699336699666699996699CC6699FF66CC0066CC3366CC6666CC9966CCCC66CCFF66FF0066
310
FF3366FF6666FF9966FFCC66FFFF9900009900339900669900999900CC9900FF9933009933339933669933999933CC9933FF9966009966339966669966999966CC9966FF9999009999339999669999999999CC9999FF99CC0099CC3399CC6699CC9999CCCC99CCFF99FF0099FF3399FF6699FF9999FFCC99FFFFCC0000CC00
310
33CC0066CC0099CC00CCCC00FFCC3300CC3333CC3366CC3399CC33CCCC33FFCC6600CC6633CC6666CC6699CC66CCCC66FFCC9900CC9933CC9966CC9999CC99CCCC99FFCCCC00CCCC33CCCC66CCCC99CCCCCCCCCCFFCCFF00CCFF33CCFF66CCFF99CCFFCCCCFFFFFF0000FF0033FF0066FF0099FF00CCFF00FFFF3300FF3333
310
FF3366FF3399FF33CCFF33FFFF6600FF6633FF6666FF6699FF66CCFF66FFFF9900FF9933FF9966FF9999FF99CCFF99FFFFCC00FFCC33FFCC66FFCC99FFCCCCFFCCFFFFFF00FFFF33FFFF66FFFF99FFFFCCFFFFFF0000000D0D0D1A1A1A2828283535354343435050505D5D5D6B6B6B787878868686939393A1A1A1AEAEAEBB
310
BBBBC9C9C9D6D6D6E4E4E4F1F1F1FFFFFF000000000000000000000000000000000000000000000000000000000000B0E2D235000003904944415478DAEDDC6B96A4200C05E0EC7F51D94BDD954C97250A2890F0103247FB474FF738D65799F0085212CC1D9F0F81DC0FE48EF8ACFABFE877A55319A26D1C7FDC0D4D0B1F70
310
DFF0FBF38B1E88DE72C2187A6B8D47AB3415696368BCE8D2C126D1CC53D1FCE491414385AE8B7487AC0AD0E88EBE1847A0D11DCD5D5AE2643475417B730F259A3BF5718277D6113DA87328A36BE6D32CCF4EA62E675D228D5F662B22AD41F350F4A048AF83FE1DFD6ABC27D0411BEE583F494FA841EFADBD27BA5C6F67D034
310
095D7C532B467A3C9A4CA2FB37C4A69C9ED4E53DD07BECBD263A875B3E4E1DE863EDC3141AFF399A5EB4BE7A09D0642ED2EACAE54D8F7AF4365E5A4B8FB5D13723A266705907AD5E165B066D30D2AA7E1A6430D22FFAA986C81623CDB26596F1FDB46670716B633C15AD9C3029166A87A1012DDA7D5942EBD6451743CF6C88
310
26D1FA59DE44F46FEEFFA25FF49A686E41CFDA975771CF7F0574341B280FB132F4D0518FF71451A045FDF4F532D1BD6DB4A547051ADE244F8EEE59E0866851D15483260ECBAE36B5436FAF236888BF9BF9FBF43F556E3D8466717A04E8D1914EEDF7F8F60627BA94260FA3AF92EDCE167FBF1FD83D4946A2550D31BED07E33
310
EEFB5BB82EE81134496E04FAFF2C99235122650797F276A06C7A08EF5F7AE868BD67DFF301393A88B81EED7FA8428B06FCF78C30C772757E231A77D712A3E928F4C8ED960FD1B948A30F5AB803D15D0C7B6E1CE33246A36F57F2509E5C79431ECE9CF2FC43D1B75B3E504233876FD847876A055A378C831AD148A3298706EA
310
735A8FF61AA2BBF3908E74AE9FAE47B3E897D748EF1B5C38B76525B74818A1538BEA1AB4B0CAC1DFD9A8CC6951A4BBA183DA818FD749A00B256229D2D42BD2FE94852F5D9E2CD2383E045595D350AF61C4E8738E281F5CFAA2A1467BFFD5100FE38DE878EEA1429F5D9FEB338413A656B47F1E488B8637B925D246BA721867
310
6F46EACA26151AC19A80743EDD80BE14A67A7450603E80BE3796779CC7397D4C4DE322A21D2D2DAD05E8D4128262DDC447676B44CEA1B96EAD9955358F1A5D78552EAFAF14667CDDD1E9CE47FFC9A0C4A0CF0FA21B97AFE7A25B56A659FF51BAC9E8BAB40AD1F79B0987EE8EE0869B5BD9484FD969B06A7AB4473AFD89A229
310
9B67CAE8FC5ADE9A6814D1640EBD2D41D0626A1F9DC8E9D5C06534AD17E5136DE3F91EF06E78BEE8871AA19DC7BF84F90C328526C368587B4CD7B5CB33F9143763CFCBFBA20D3E9A903E1F7BE87FA1BC493773EB2B920000000049454E44AE426082
  0
ACDSRECORD
 90
        0
  2
AcDbDs::ID
280
    10
320
21
  2
Thumbnail_Data
280
    15
 94
     2041
310
89504E470D0A1A0A0000000D4948445200000100000000B408030000004C80028300000300504C5445212830000000C8C8C80000000000000000000000000000000000000000000000000000330000660000990000CC0000FF0033000033330033660033990033CC0033FF0066000066330066660066990066CC0066FF0099
310
000099330099660099990099CC0099FF00CC0000CC3300CC6600CC9900CCCC00CCFF00FF0000FF3300FF6600FF9900FFCC00FFFF3300003300333300663300993300CC3300FF3333003333333333663333993333CC3333FF3366003366333366663366993366CC3366FF3399003399333399663399993399CC3399FF33CC00
310
33CC3333CC6633CC9933CCCC33CCFF33FF0033FF3333FF6633FF9933FFCC33FFFF6600006600336600666600996600CC6600FF6633006633336633666633996633CC6633FF6666006666336666666666996666CC6666FF6699006699336699666699996699CC6699FF66CC0066CC3366CC6666CC9966CCCC66CCFF66FF0066
310
FF3366FF6666FF9966FFCC66FFFF9900009900339900669900999900CC9900FF9933009933339933669933999933CC9933FF9966009966339966669966999966CC9966FF9999009999339999669999999999CC9999FF99CC0099CC3399CC6699CC9999CCCC99CCFF99FF0099FF3399FF6699FF9999FFCC99FFFFCC0000CC00
310
33CC0066CC0099CC00CCCC00FFCC3300CC3333CC3366CC3399CC33CCCC33FFCC6600CC6633CC6666CC6699CC66CCCC66FFCC9900CC9933CC9966CC9999CC99CCCC99FFCCCC00CCCC33CCCC66CCCC99CCCCCCCCCCFFCCFF00CCFF33CCFF66CCFF99CCFFCCCCFFFFFF0000FF0033FF0066FF0099FF00CCFF00FFFF3300FF3333
310
FF3366FF3399FF33CCFF33FFFF6600FF6633FF6666FF6699FF66CCFF66FFFF9900FF9933FF9966FF9999FF99CCFF99FFFFCC00FFCC33FFCC66FFCC99FFCCCCFFCCFFFFFF00FFFF33FFFF66FFFF99FFFFCCFFFFFF0000000D0D0D1A1A1A2828283535354343435050505D5D5D6B6B6B787878868686939393A1A1A1AEAEAEBB
310
BBBBC9C9C9D6D6D6E4E4E4F1F1F1FFFFFF000000000000000000000000000000000000000000000000000000000000B21171F6000004B44944415478DAED9C5D92AB2010857BFF0B9A479ED8088BE8F789A280061269890D7ACEADBA99649249F567D33F081041100441100441100441100441100441100441100441100441
310
10046D65765A5E78AAF9CF03F074FF7F94B5FC2EC3220D0FC0DA53F60F4A2035C07EB0DF1D2160F262330801F1A5FFE202C60C1603F21E60170F599CC51E1F0166A828E85CCE94C4E6E90DEB93DB6595228139465A1F2AA7372C4FEE97564B047C92702B07775B002502214B5A6FFA7D019409AC6582ABCEFBA355969F22A1
310
A8EA1910800FF5B95F44108D006C7ACEEE08782B395EFF1D8A3600686DB8FBF281709D3D071FF7D6374CB1F0BE1E301330C6391F0AD8CDB25318246FB96D082061401DC178B5302F27708BF87A00DA04CC1401D8139883C1EF86400A803AB17FF9FE25E8530CFEF4160F1B02A0FD1C24ED5EA61FC0799FF82C7FC36237F38F
310
0014743580837DE32F0B21937EC674544CF959235B3BFB75C403C87C71855EF2A34D63E125003ABA25C114BA416E0680DE42DD9A0D96014ABD7882CF8B7625C0E65BECAA0B82F47ECD33C5812281C97CE79279333E7CD96B3D806267D00F80D5FAA45FE6360036B98836FF790C5DB44A3B938B53063200999C1FECA6E4996E
310
7BB8B5F745E0EF23812A0FC877085FFEEE954032D7DB77CCAD87402625F4501B4CB61646C56F0098EE00AC93437B2CCD0114BA00DD92A864E94702B220F811805A1E7CF93AF1D191210B829BE0BFAD8DA9836EA094F35B7900ED6A80C20FDA59B06E55446D29FC3D0228DAEF04AB426E05E0971E30820000000000007E9605
310
4601505520A55687399E4703300F064044C32FB33F0D8000E0BE00F8D10008002E026000E0C900D4CB08BEB01748565F4D3FADB66BCE8AF89BC27508E20D8E6A0081825D9F8569239DFB834C829D32BBEB658E5FFC9C4873F960724BBC7218D40F81B8F26E317CFEA70BE0FB7DF0E22D420180D4FB6931FFF5A83837FAED06
310
6864D4C80326A3C3F58F4340AB9DF22BA68F79498B2C109C3EDA6E7D2054B3DF1D590D95F71319807905924D1E54011CB3BF404A0220B53F3CEAD63F725F111542DEEEB09559D3FC8301207D730B0011BB87A059001F1D000502C25E60BB247D53565DBB4482A9C6FECC20900E81EDA68425036A00C8AE8AA9700139000ADB
310
52D88676C2D0B6BFE8280216868C1880CD01A0ABE7D7D9D52E0967FE6B0320AEC6544C02530410A58D0A00F9023FFE11D553395EC6100B00547940760F4CD8ACA86B3F89BEBCDE03DEB729F5712A4B5D0D90FF542580B01A5AB23DBDBD1CCBC64D15007AF380F9211E52A05905CA8B074110DCBECA6CF401F0F9912304C09B
310
6D396A0E20FB6E4E3D475407C4039DECBC1F81D542009F8E1D1200DD1CCFE54EB8CE7900F96723C4C04D1EA80790DB97A34340FCA56910100238DB9335EB04853AE101596355089C04C02700B4E8CB55ED4F7CA0769558C9D2E100B0144021F70E00C098DD1810ED732A257E1E8D009FF9D65C06BA1E8039F5117302409283
310
93E971D71D808C4F37D8D1CB6915129D41210D9AC3A7BA648F906D371FA5550B7F8859E9D44DD6074C8B1BB9839E50FCF403C9410004400004120207CF67BB2181D221488F73852B8EC21B0AC0D35CA15840130441100441100441100441100441100441100441100441100441100441503BFD03181E3B809B1075DB000000
310
0049454E44AE426082
  0
ENDSEC
  0
EOF
