  0
SECTION
  2
HEADER
  9
$ACADVER
  1
AC1018
  9
$ACADMAINTVER
 70
   104
  9
$DWGCODEPAGE
  3
ANSI_1252
  9
$LASTSAVEDBY
  1
rantoniak
  9
$INSBASE
 10
0.0
 20
0.0
 30
0.0
  9
$EXTMIN
 10
73.51906394243229
 20
9.578541009185501
 30
0.0
  9
$EXTMAX
 10
94.79986742217848
 20
23.95509859347532
 30
0.0
  9
$LIMMIN
 10
0.0
 20
0.0
  9
$LIMMAX
 10
66.10000000000001
 20
41.5
  9
$ORTHOMODE
 70
     0
  9
$REGENMODE
 70
     1
  9
$FILLMODE
 70
     1
  9
$QTEXTMODE
 70
     0
  9
$MIRRTEXT
 70
     1
  9
$LTSCALE
 40
1.0
  9
$ATTMODE
 70
     1
  9
$TEXTSIZE
 40
0.4
  9
$TRACEWID
 40
0.05
  9
$TEXTSTYLE
  7
STANDARD
  9
$CLAYER
  8
DIM
  9
$CELTYPE
  6
ByLayer
  9
$CECOLOR
 62
   256
  9
$CELTSCALE
 40
1.0
  9
$DISPSILH
 70
     0
  9
$DIMSCALE
 40
1.0
  9
$DIMASZ
 40
0.5
  9
$DIMEXO
 40
0.12
  9
$DIMDLI
 40
0.38
  9
$DIMRND
 40
0.0
  9
$DIMDLE
 40
0.0
  9
$DIMEXE
 40
0.1
  9
$DIMTP
 40
0.0
  9
$DIMTM
 40
0.0
  9
$DIMTXT
 40
0.4
  9
$DIMCEN
 40
0.125
  9
$DIMTSZ
 40
0.0
  9
$DIMTOL
 70
     0
  9
$DIMLIM
 70
     0
  9
$DIMTIH
 70
     1
  9
$DIMTOH
 70
     1
  9
$DIMSE1
 70
     0
  9
$DIMSE2
 70
     0
  9
$DIMTAD
 70
     0
  9
$DIMZIN
 70
     0
  9
$DIMBLK
  1

  9
$DIMASO
 70
     1
  9
$DIMSHO
 70
     1
  9
$DIMPOST
  1
"
  9
$DIMAPOST
  1

  9
$DIMALT
 70
     0
  9
$DIMALTD
 70
     2
  9
$DIMALTF
 40
25.4
  9
$DIMLFAC
 40
1.0
  9
$DIMTOFL
 70
     0
  9
$DIMTVP
 40
0.0
  9
$DIMTIX
 70
     0
  9
$DIMSOXD
 70
     0
  9
$DIMSAH
 70
     0
  9
$DIMBLK1
  1

  9
$DIMBLK2
  1

  9
$DIMSTYLE
  2
Standard
  9
$DIMCLRD
 70
   256
  9
$DIMCLRE
 70
   256
  9
$DIMCLRT
 70
   256
  9
$DIMTFAC
 40
1.0
  9
$DIMGAP
 40
0.25
  9
$DIMJUST
 70
     0
  9
$DIMSD1
 70
     0
  9
$DIMSD2
 70
     0
  9
$DIMTOLJ
 70
     1
  9
$DIMTZIN
 70
     0
  9
$DIMALTZ
 70
     0
  9
$DIMALTTZ
 70
     0
  9
$DIMUPT
 70
     0
  9
$DIMDEC
 70
     4
  9
$DIMTDEC
 70
     4
  9
$DIMALTU
 70
     2
  9
$DIMALTTD
 70
     2
  9
$DIMTXSTY
  7
STANDARD
  9
$DIMAUNIT
 70
     0
  9
$DIMADEC
 70
     0
  9
$DIMALTRND
 40
0.0
  9
$DIMAZIN
 70
     1
  9
$DIMDSEP
 70
    46
  9
$DIMATFIT
 70
     3
  9
$DIMFRAC
 70
     1
  9
$DIMLDRBLK
  1

  9
$DIMLUNIT
 70
     5
  9
$DIMLWD
 70
    -1
  9
$DIMLWE
 70
    20
  9
$DIMTMOVE
 70
     0
  9
$LUNITS
 70
     2
  9
$LUPREC
 70
     3
  9
$SKETCHINC
 40
0.1
  9
$FILLETRAD
 40
0.0
  9
$AUNITS
 70
     0
  9
$AUPREC
 70
     0
  9
$MENU
  1
acad
  9
$ELEVATION
 40
0.0
  9
$PELEVATION
 40
0.0
  9
$THICKNESS
 40
0.0
  9
$LIMCHECK
 70
     0
  9
$CHAMFERA
 40
0.021
  9
$CHAMFERB
 40
0.021
  9
$CHAMFERC
 40
0.0
  9
$CHAMFERD
 40
0.0
  9
$SKPOLY
 70
     0
  9
$TDCREATE
 40
2311942.518776134
  9
$TDUCREATE
 40
2311942.852109468
  9
$TDUPDATE
 40
2457455.547652697
  9
$TDUUPDATE
 40
2457455.880986030
  9
$TDINDWG
 40
0.8393854861
  9
$TDUSRTIMER
 40
0.8393838542
  9
$USRTIMER
 70
     1
  9
$ANGBASE
 50
0.0
  9
$ANGDIR
 70
     0
  9
$PDMODE
 70
     0
  9
$PDSIZE
 40
0.0
  9
$PLINEWID
 40
0.0
  9
$SPLFRAME
 70
     0
  9
$SPLINETYPE
 70
     6
  9
$SPLINESEGS
 70
     8
  9
$HANDSEED
  5
106A7
  9
$SURFTAB1
 70
     6
  9
$SURFTAB2
 70
     6
  9
$SURFTYPE
 70
     6
  9
$SURFU
 70
     6
  9
$SURFV
 70
     6
  9
$UCSBASE
  2

  9
$UCSNAME
  2

  9
$UCSORG
 10
0.0
 20
0.0
 30
0.0
  9
$UCSXDIR
 10
1.0
 20
0.0
 30
0.0
  9
$UCSYDIR
 10
0.0
 20
1.0
 30
0.0
  9
$UCSORTHOREF
  2

  9
$UCSORTHOVIEW
 70
     0
  9
$UCSORGTOP
 10
0.0
 20
0.0
 30
0.0
  9
$UCSORGBOTTOM
 10
0.0
 20
0.0
 30
0.0
  9
$UCSORGLEFT
 10
0.0
 20
0.0
 30
0.0
  9
$UCSORGRIGHT
 10
0.0
 20
0.0
 30
0.0
  9
$UCSORGFRONT
 10
0.0
 20
0.0
 30
0.0
  9
$UCSORGBACK
 10
0.0
 20
0.0
 30
0.0
  9
$PUCSBASE
  2

  9
$PUCSNAME
  2

  9
$PUCSORG
 10
0.0
 20
0.0
 30
0.0
  9
$PUCSXDIR
 10
1.0
 20
0.0
 30
0.0
  9
$PUCSYDIR
 10
0.0
 20
1.0
 30
0.0
  9
$PUCSORTHOREF
  2

  9
$PUCSORTHOVIEW
 70
     0
  9
$PUCSORGTOP
 10
0.0
 20
0.0
 30
0.0
  9
$PUCSORGBOTTOM
 10
0.0
 20
0.0
 30
0.0
  9
$PUCSORGLEFT
 10
0.0
 20
0.0
 30
0.0
  9
$PUCSORGRIGHT
 10
0.0
 20
0.0
 30
0.0
  9
$PUCSORGFRONT
 10
0.0
 20
0.0
 30
0.0
  9
$PUCSORGBACK
 10
0.0
 20
0.0
 30
0.0
  9
$USERI1
 70
     0
  9
$USERI2
 70
     0
  9
$USERI3
 70
     0
  9
$USERI4
 70
     0
  9
$USERI5
 70
     0
  9
$USERR1
 40
0.0
  9
$USERR2
 40
0.0
  9
$USERR3
 40
0.0
  9
$USERR4
 40
0.0
  9
$USERR5
 40
0.0
  9
$WORLDVIEW
 70
     1
  9
$SHADEDGE
 70
     3
  9
$SHADEDIF
 70
    70
  9
$TILEMODE
 70
     0
  9
$MAXACTVP
 70
    16
  9
$PINSBASE
 10
0.0
 20
0.0
 30
0.0
  9
$PLIMCHECK
 70
     0
  9
$PEXTMIN
 10
0.2634280014781911
 20
0.7996674969068148
 30
0.0
  9
$PEXTMAX
 10
10.2364280014782
 20
7.159261699805374
 30
0.0
  9
$PLIMMIN
 10
0.1887025275534379
 20
0.7048111453807693
  9
$PLIMMAX
 10
10.31089215465157
 20
7.254463299114172
  9
$UNITMODE
 70
     0
  9
$VISRETAIN
 70
     0
  9
$PLINEGEN
 70
     0
  9
$PSLTSCALE
 70
     0
  9
$TREEDEPTH
 70
  3020
  9
$CMLSTYLE
  2
Standard
  9
$CMLJUST
 70
     0
  9
$CMLSCALE
 40
1.0
  9
$PROXYGRAPHICS
 70
     1
  9
$MEASUREMENT
 70
     0
  9
$CELWEIGHT
370
    -1
  9
$ENDCAPS
280
     0
  9
$JOINSTYLE
280
     0
  9
$LWDISPLAY
290
     1
  9
$INSUNITS
 70
     0
  9
$HYPERLINKBASE
  1

  9
$STYLESHEET
  1

  9
$XEDIT
290
     1
  9
$CEPSNTYPE
380
     0
  9
$PSTYLEMODE
290
     1
  9
$FINGERPRINTGUID
  2
{320D6187-D83E-4B0B-934E-58E275B97F63}
  9
$VERSIONGUID
  2
{92B7EB21-4355-40C0-B90E-56F29B707552}
  9
$EXTNAMES
290
     1
  9
$PSVPSCALE
 40
0.0
  9
$OLESTARTUP
290
     0
  9
$SORTENTS
280
    96
  9
$INDEXCTL
280
     0
  9
$HIDETEXT
280
     0
  9
$XCLIPFRAME
290
     0
  9
$HALOGAP
280
     0
  9
$OBSCOLOR
 70
   257
  9
$OBSLTYPE
280
     0
  9
$INTERSECTIONDISPLAY
280
     0
  9
$INTERSECTIONCOLOR
 70
   257
  9
$DIMASSOC
280
     1
  9
$PROJECTNAME
  1

  0
ENDSEC
  0
SECTION
  2
CLASSES
  0
CLASS
  1
ACDBDICTIONARYWDFLT
  2
AcDbDictionaryWithDefault
  3
ObjectDBX Classes
 90
        0
 91
        1
280
     0
281
     0
  0
CLASS
  1
DICTIONARYVAR
  2
AcDbDictionaryVar
  3
ObjectDBX Classes
 90
        0
 91
       16
280
     0
281
     0
  0
CLASS
  1
MATERIAL
  2
AcDbMaterial
  3
ObjectDBX Classes
 90
     1153
 91
        3
280
     0
281
     0
  0
CLASS
  1
VISUALSTYLE
  2
AcDbVisualStyle
  3
ObjectDBX Classes
 90
     4095
 91
       26
280
     0
281
     0
  0
CLASS
  1
TABLESTYLE
  2
AcDbTableStyle
  3
ObjectDBX Classes
 90
     4095
 91
        1
280
     0
281
     0
  0
CLASS
  1
SCALE
  2
AcDbScale
  3
ObjectDBX Classes
 90
     1153
 91
       33
280
     0
281
     0
  0
CLASS
  1
MLEADERSTYLE
  2
AcDbMLeaderStyle
  3
ACDB_MLEADERSTYLE_CLASS
 90
     4095
 91
        1
280
     0
281
     0
  0
CLASS
  1
CELLSTYLEMAP
  2
AcDbCellStyleMap
  3
ObjectDBX Classes
 90
     1152
 91
        2
280
     0
281
     0
  0
CLASS
  1
SORTENTSTABLE
  2
AcDbSortentsTable
  3
ObjectDBX Classes
 90
        0
 91
        2
280
     0
281
     0
  0
CLASS
  1
ACDBSECTIONVIEWSTYLE
  2
AcDbSectionViewStyle
  3
ObjectDBX Classes
 90
     1025
 91
        1
280
     0
281
     0
  0
CLASS
  1
ACDBDETAILVIEWSTYLE
  2
AcDbDetailViewStyle
  3
ObjectDBX Classes
 90
     1025
 91
        1
280
     0
281
     0
  0
CLASS
  1
ACAD_EVALUATION_GRAPH
  2
AcDbEvalGraph
  3
ObjectDBX Classes
 90
     1153
 91
        0
280
     0
281
     0
  0
CLASS
  1
ACAECUSTOBJ
  2
AcAeEditorObj
  3
AcAeEditorObj
 90
     1024
 91
        0
280
     0
281
     0
  0
CLASS
  1
ACDB_DYNAMICBLOCKPURGEPREVENTER_VERSION
  2
AcDbDynamicBlockPurgePreventer
  3
ObjectDBX Classes
 90
     1153
 91
        0
280
     0
281
     0
  0
ENDSEC
  0
SECTION
  2
TABLES
  0
TABLE
  2
VPORT
  5
8
330
0
100
AcDbSymbolTable
 70
     1
  0
VPORT
  5
77E0
330
8
100
AcDbSymbolTableRecord
100
AcDbViewportTableRecord
  2
*Active
 70
     0
 10
0.0
 20
0.0
 11
1.0
 21
1.0
 12
43.97957401165784
 22
18.55460698627616
 13
0.0
 23
0.0
 14
0.1
 24
0.1
 15
1.0
 25
1.0
 16
0.0
 26
0.0
 36
1.0
 17
0.0
 27
0.0
 37
0.0
 40
40.05633723169817
 41
1.607818411097098
 42
50.0
 43
0.0
 44
0.0
 50
0.0
 51
0.0
 71
     0
 72
   100
 73
     1
 74
     1
 75
     0
 76
     0
 77
     0
 78
     0
281
     0
 65
     1
110
0.0
120
0.0
130
0.0
111
1.0
121
0.0
131
0.0
112
0.0
122
1.0
132
0.0
 79
     0
146
0.0
1001
ACAD_NAV_VCDISPLAY
1070
     3
  0
ENDTAB
  0
TABLE
  2
LTYPE
  5
5
330
0
100
AcDbSymbolTable
 70
     7
  0
LTYPE
  5
13
330
5
100
AcDbSymbolTableRecord
100
AcDbLinetypeTableRecord
  2
ByBlock
 70
     0
  3

 72
    65
 73
     0
 40
0.0
  0
LTYPE
  5
14
330
5
100
AcDbSymbolTableRecord
100
AcDbLinetypeTableRecord
  2
ByLayer
 70
     0
  3

 72
    65
 73
     0
 40
0.0
  0
LTYPE
  5
15
330
5
100
AcDbSymbolTableRecord
100
AcDbLinetypeTableRecord
  2
CONTINUOUS
 70
     0
  3
Solid line
 72
    65
 73
     0
 40
0.0
  0
LTYPE
  5
BB1B
330
5
100
AcDbSymbolTableRecord
100
AcDbLinetypeTableRecord
  2
PHANTOM2
 70
     0
  3
___ _ _ ___ _ _ ___ _ _ ___ _ _
 72
    65
 73
     6
 40
1.25
 49
0.625
 74
     0
 49
-0.125
 74
     0
 49
0.125
 74
     0
 49
-0.125
 74
     0
 49
0.125
 74
     0
 49
-0.125
 74
     0
  0
ENDTAB
  0
TABLE
  2
LAYER
  5
2
102
{ACAD_XDICTIONARY
360
345A
102
}
330
0
100
AcDbSymbolTable
 70
    10
  0
LAYER
  5
10
102
{ACAD_XDICTIONARY
360
7838
102
}
330
2
100
AcDbSymbolTableRecord
100
AcDbLayerTableRecord
  2
0
 70
     0
 62
     1
  6
CONTINUOUS
370
    -3
390
F
  0
LAYER
  5
22
102
{ACAD_XDICTIONARY
360
783A
102
}
330
2
100
AcDbSymbolTableRecord
100
AcDbLayerTableRecord
  2
DIM
 70
     0
 62
     7
  6
CONTINUOUS
370
    20
390
F
  0
LAYER
  5
21E
330
2
100
AcDbSymbolTableRecord
100
AcDbLayerTableRecord
  2
Defpoints
 70
     0
 62
     7
  6
CONTINUOUS
290
     0
370
    -3
390
F
  0
LAYER
  5
246
102
{ACAD_XDICTIONARY
360
783C
102
}
330
2
100
AcDbSymbolTableRecord
100
AcDbLayerTableRecord
  2
TITLE
 70
     0
 62
     7
  6
CONTINUOUS
370
    -3
390
F
  0
LAYER
  5
2135
102
{ACAD_XDICTIONARY
360
783E
102
}
330
2
100
AcDbSymbolTableRecord
100
AcDbLayerTableRecord
  2
PART
 70
     0
 62
     7
  6
CONTINUOUS
370
    40
390
F
  0
LAYER
  5
F248
330
2
100
AcDbSymbolTableRecord
100
AcDbLayerTableRecord
  2
TEXT
 70
     0
 62
     7
  6
CONTINUOUS
370
    25
390
F
1001
AcAecLayerStandard
1000

1000

  0
LAYER
  5
F38A
330
2
100
AcDbSymbolTableRecord
100
AcDbLayerTableRecord
  2
PRECISION_PART
 70
     0
 62
     7
  6
CONTINUOUS
370
    20
390
F
1001
AcAecLayerStandard
1000

1000

1001
AcCmTransparency
1071
        0
  0
ENDTAB
  0
TABLE
  2
STYLE
  5
3
330
0
100
AcDbSymbolTable
 70
    12
  0
STYLE
  5
11
330
3
100
AcDbSymbolTableRecord
100
AcDbTextStyleTableRecord
  2
STANDARD
 70
     0
 40
0.0
 41
1.0
 50
0.0
 71
     0
 42
0.4
  3
simplex.shx
  4

  0
STYLE
  5
249
330
3
100
AcDbSymbolTableRecord
100
AcDbTextStyleTableRecord
  2
Title
 70
     0
 40
0.0
 41
1.0
 50
0.0
 71
     0
 42
0.1
  3
arial.ttf
  4

1001
ACAD
1000
Arial
1071
       34
  0
STYLE
  5
24A
330
3
100
AcDbSymbolTableRecord
100
AcDbTextStyleTableRecord
  2
Title Bold
 70
     0
 40
0.0
 41
1.0
 50
0.0
 71
     0
 42
0.09
  3
arialbd.ttf
  4

1001
ACAD
1000
Arial
1071
 33554466
  0
STYLE
  5
24B
330
3
100
AcDbSymbolTableRecord
100
AcDbTextStyleTableRecord
  2
Title light
 70
     0
 40
0.0
 41
1.0
 50
0.0
 71
     0
 42
0.2
  3
simplex.shx
  4

  0
ENDTAB
  0
TABLE
  2
VIEW
  5
6
330
0
100
AcDbSymbolTable
 70
     0
  0
ENDTAB
  0
TABLE
  2
UCS
  5
7
330
0
100
AcDbSymbolTable
 70
     0
  0
ENDTAB
  0
TABLE
  2
APPID
  5
9
330
0
100
AcDbSymbolTable
 70
    17
  0
APPID
  5
12
330
9
100
AcDbSymbolTableRecord
100
AcDbRegAppTableRecord
  2
ACAD
 70
     0
  0
APPID
  5
7837
330
9
100
AcDbSymbolTableRecord
100
AcDbRegAppTableRecord
  2
ACAD_MLEADERVER
 70
     0
  0
APPID
  5
7DB7
330
9
100
AcDbSymbolTableRecord
100
AcDbRegAppTableRecord
  2
ACAD_DSTYLE_DIMJAG
 70
     0
  0
APPID
  5
7DB8
330
9
100
AcDbSymbolTableRecord
100
AcDbRegAppTableRecord
  2
ACAD_DSTYLE_DIMTALN
 70
     0
  0
APPID
  5
7DE4
330
9
100
AcDbSymbolTableRecord
100
AcDbRegAppTableRecord
  2
AcAecLayerStandard
 70
     0
  0
APPID
  5
7F3C
330
9
100
AcDbSymbolTableRecord
100
AcDbRegAppTableRecord
  2
ACAD_EXEMPT_FROM_CAD_STANDARDS
 70
     0
  0
APPID
  5
8C55
330
9
100
AcDbSymbolTableRecord
100
AcDbRegAppTableRecord
  2
ACAD_PSEXT
 70
     0
  0
APPID
  5
BB2B
330
9
100
AcDbSymbolTableRecord
100
AcDbRegAppTableRecord
  2
ACAD_NAV_VCDISPLAY
 70
     0
  0
APPID
  5
C0AB
330
9
100
AcDbSymbolTableRecord
100
AcDbRegAppTableRecord
  2
ACAUTHENVIRON
 70
     0
  0
APPID
  5
C0AF
330
9
100
AcDbSymbolTableRecord
100
AcDbRegAppTableRecord
  2
AcDbDynamicBlockTrueName
 70
     0
  0
APPID
  5
C0B0
330
9
100
AcDbSymbolTableRecord
100
AcDbRegAppTableRecord
  2
AcDbDynamicBlockGUID
 70
     0
  0
APPID
  5
C146
330
9
100
AcDbSymbolTableRecord
100
AcDbRegAppTableRecord
  2
AcadAnnoAV
 70
     0
  0
APPID
  5
C5B3
330
9
100
AcDbSymbolTableRecord
100
AcDbRegAppTableRecord
  2
AcDbBlockRepETag
 70
     0
  0
APPID
  5
C5BD
330
9
100
AcDbSymbolTableRecord
100
AcDbRegAppTableRecord
  2
ACAD_DSTYLE_DIMBREAK
 70
     0
  0
APPID
  5
F38B
330
9
100
AcDbSymbolTableRecord
100
AcDbRegAppTableRecord
  2
AcCmTransparency
 70
     0
  0
APPID
  5
F396
330
9
100
AcDbSymbolTableRecord
100
AcDbRegAppTableRecord
  2
AcLayerTools
 70
     0
  0
APPID
  5
FF3F
330
9
100
AcDbSymbolTableRecord
100
AcDbRegAppTableRecord
  2
AcadAnnoMonitorAlertIconDisabled
 70
     0
  0
ENDTAB
  0
TABLE
  2
DIMSTYLE
  5
A
330
0
100
AcDbSymbolTable
 70
    14
100
AcDbDimStyleTable
 71
     1
340
24C
  0
DIMSTYLE
105
24C
102
{ACAD_REACTORS
330
105B6
330
105C4
102
}
330
A
100
AcDbSymbolTableRecord
100
AcDbDimStyleTableRecord
  2
Standard
 70
     0
  3
"
 41
0.5
 42
0.12
 44
0.1
 79
     1
140
0.4
141
0.125
147
0.25
176
   256
177
   256
178
   256
276
     1
277
     5
340
11
371
    -1
372
    20
1001
ACAD_DSTYLE_DIMBREAK
1070
   391
1040
0.5
1001
ACAD_DSTYLE_DIMJAG
1070
   388
1040
1.5
1001
ACAD_DSTYLE_DIMTALN
1070
   392
1070
     0
  0
ENDTAB
  0
TABLE
  2
BLOCK_RECORD
  5
1
330
0
100
AcDbSymbolTable
 70
   116
  0
BLOCK_RECORD
  5
1E
102
{ACAD_XDICTIONARY
360
7F75
102
}
330
1
100
AcDbSymbolTableRecord
100
AcDbBlockTableRecord
  2
*Model_Space
340
21
  0
BLOCK_RECORD
  5
1A
330
1
100
AcDbSymbolTableRecord
100
AcDbBlockTableRecord
  2
*Paper_Space
340
1D
  0
BLOCK_RECORD
  5
785B
102
{ACAD_XDICTIONARY
360
C17D
102
}
330
1
100
AcDbSymbolTableRecord
100
AcDbBlockTableRecord
  2
Tabloid Submittal (11 x 17)
340
0
102
{BLKREFS
331
C0C7
102
}
1001
AcDbDynamicBlockGUID
1000
{688B0879-2949-41E6-9BA8-2485A9AF8A04}
1001
AcDbBlockRepETag
1070
     1
1071
       41
1001
ACAD
1000
DesignCenter Data
1002
{
1070
     1
1070
     1
1002
}
  0
BLOCK_RECORD
  5
C4DE
330
1
100
AcDbSymbolTableRecord
100
AcDbBlockTableRecord
  2
bega
340
0
310
2800000020000000200000000100080000000000000400000000000000000000000000000000000000000000000080000080000000808000800000008000800080800000C0C0C000C0DCC000F0CAA6000020400000206000002080000020A0000020C0000020E00000400000004020000040400000406000004080000040A0
310
000040C0000040E00000600000006020000060400000606000006080000060A0000060C0000060E00000800000008020000080400000806000008080000080A0000080C0000080E00000A0000000A0200000A0400000A0600000A0800000A0A00000A0C00000A0E00000C0000000C0200000C0400000C0600000C0800000C0
310
A00000C0C00000C0E00000E0000000E0200000E0400000E0600000E0800000E0A00000E0C00000E0E00040000000400020004000400040006000400080004000A0004000C0004000E00040200000402020004020400040206000402080004020A0004020C0004020E000404000004040200040404000404060004040800040
310
40A0004040C0004040E00040600000406020004060400040606000406080004060A0004060C0004060E00040800000408020004080400040806000408080004080A0004080C0004080E00040A0000040A0200040A0400040A0600040A0800040A0A00040A0C00040A0E00040C0000040C0200040C0400040C0600040C08000
310
40C0A00040C0C00040C0E00040E0000040E0200040E0400040E0600040E0800040E0A00040E0C00040E0E00080000000800020008000400080006000800080008000A0008000C0008000E00080200000802020008020400080206000802080008020A0008020C0008020E00080400000804020008040400080406000804080
310
008040A0008040C0008040E00080600000806020008060400080606000806080008060A0008060C0008060E00080800000808020008080400080806000808080008080A0008080C0008080E00080A0000080A0200080A0400080A0600080A0800080A0A00080A0C00080A0E00080C0000080C0200080C0400080C0600080C0
310
800080C0A00080C0C00080C0E00080E0000080E0200080E0400080E0600080E0800080E0A00080E0C00080E0E000C0000000C0002000C0004000C0006000C0008000C000A000C000C000C000E000C0200000C0202000C0204000C0206000C0208000C020A000C020C000C020E000C0400000C0402000C0404000C0406000C0
310
408000C040A000C040C000C040E000C0600000C0602000C0604000C0606000C0608000C060A000C060C000C060E000C0800000C0802000C0804000C0806000C0808000C080A000C080C000C080E000C0A00000C0A02000C0A04000C0A06000C0A08000C0A0A000C0A0C000C0A0E000C0C00000C0C02000C0C04000C0C06000
310
C0C08000C0C0A000F0FBFF00A4A0A000808080000000FF0000FF000000FFFF00FF000000FF00FF00FFFF0000FFFFFF0000000000000000000000000000000000000000000000000000000000000000000000000000000000000000000000000000000000000000000000000000000000000000000000000000000000000000
310
00000000000000000000000000000000000000000000000000000000000000000000000000000000000000000000000000000000000000000000000000000000000000000000000000000000000000000000000000000000000000000000000000000000000000000000000000000000000000000000000000000000000000
310
00000000000000000000000000000000000000000000000000000000000000000000000000000000000000000000000000000000000000000000000000000000000000000000000000000000000000000000000000000000000000000000000000000000000000000000000000000000000000000000000000000000000000
310
000000000000000000000000000000000000000000000000000000000000000000000000FFFFFF00000000000000000000000000FFFFFFFFFFFFFFFFFFFFFFFFFFFF00FFFFFFFFFFFFFFFFFF000000FFFFFF0000FFFFFFFFFFFFFFFFFFFFFFFFFFFFFFFFFFFFFFFFFFFFFFFFFFFFFFFFFFFF0000FFFFFF0000FFFFFFFFFF00
310
000000FFFFFF0000FFFFFFFFFFFFFFFFFFFF000000FFFFFFFFFFFFFFFFFFFFFFFFFFFFFFFF00FFFFFFFFFFFFFFFFFFFFFFFF000000FFFFFFFFFFFFFFFFFFFFFFFFFFFFFFFF00FFFFFFFFFF00FFFF00FFFF00000000FFFFFF00FFFFFFFFFFFF00000000FFFFFF0000FFFFFF00FFFFFFFFFF00000000FFFFFFFFFFFFFFFFFFFF
310
FFFFFFFFFFFFFFFFFFFFFF000000FFFFFF0000000000FFFFFFFFFFFFFFFFFFFFFFFFFFFF00FFFFFFFFFFFF000000FFFFFF000000000000000000000000000000000000000000FFFFFF000000000000000000000000000000000000000000000000000000000000000000000000000000000000000000000000000000000000
310
00000000000000000000000000000000000000000000000000000000000000000000000000000000000000000000000000000000000000000000000000000000000000000000000000000000000000000000000000000000000000000000000000000000000000000000000000000000000000000000000000000000000000
310
00000000000000000000000000000000000000000000000000000000000000000000000000000000000000000000000000000000000000000000000000000000000000000000000000000000000000000000000000000000000000000000000000000000000000000000000000000000000000000000000000000000000000
310
0000000000000000000000000000000000000000000000000000000000000000000000000000000000000000000000000000000000000000
102
{BLKREFS
331
C53F
102
}
1001
ACAD
1000
DesignCenter Data
1002
{
1070
     1
1070
     1
1002
}
  0
BLOCK_RECORD
  5
C53E
102
{ACAD_XDICTIONARY
360
C540
102
}
330
1
100
AcDbSymbolTableRecord
100
AcDbBlockTableRecord
  2
bega logo
340
0
102
{BLKREFS
331
C545
102
}
1001
ACAD
1000
DesignCenter Data
1002
{
1070
     1
1070
     1
1002
}
  0
BLOCK_RECORD
  5
105B7
330
1
100
AcDbSymbolTableRecord
100
AcDbBlockTableRecord
  2
*D114
340
0
  0
BLOCK_RECORD
  5
105C5
330
1
100
AcDbSymbolTableRecord
100
AcDbBlockTableRecord
  2
*D115
340
0
  0
ENDTAB
  0
ENDSEC
  0
SECTION
  2
BLOCKS
  0
BLOCK
  5
1F
330
1E
100
AcDbEntity
  8
0
100
AcDbBlockBegin
  2
*Model_Space
 70
     0
 10
0.0
 20
0.0
 30
0.0
  3
*Model_Space
  1

  0
ENDBLK
  5
20
330
1E
100
AcDbEntity
  8
0
100
AcDbBlockEnd
  0
BLOCK
  5
1B
330
1A
100
AcDbEntity
 67
     1
  8
0
100
AcDbBlockBegin
  2
*Paper_Space
 70
     0
 10
0.0
 20
0.0
 30
0.0
  3
*Paper_Space
  1

  0
ENDBLK
  5
1C
330
1A
100
AcDbEntity
 67
     1
  8
0
100
AcDbBlockEnd
  0
BLOCK
  5
785C
330
785B
100
AcDbEntity
  8
0
100
AcDbBlockBegin
  2
Tabloid Submittal (11 x 17)
 70
     0
 10
0.0
 20
0.0
 30
0.0
  3
Tabloid Submittal (11 x 17)
  1

  0
LINE
  5
C14A
330
785B
100
AcDbEntity
  8
TITLE
  6
Continuous
100
AcDbLine
 10
16.76999999999998
 20
0.2499999999999996
 30
0.0
 11
0.2099999999999991
 21
0.2499999999999996
 31
0.0
1001
AcDbBlockRepETag
1070
     1
1071
        0
1005
C14A
  0
LINE
  5
C14B
330
785B
100
AcDbEntity
  8
TITLE
  6
Continuous
100
AcDbLine
 10
0.2099999999999991
 20
0.2499999999999996
 30
0.0
 11
0.2100000000000002
 21
10.81
 31
0.0
1001
AcDbBlockRepETag
1070
     1
1071
        1
1005
C14B
  0
LINE
  5
C14C
330
785B
100
AcDbEntity
  8
TITLE
  6
Continuous
100
AcDbLine
 10
16.00597655206839
 20
5.184545991836441
 30
0.0
 11
16.0059765520684
 21
9.205
 31
0.0
1001
AcDbBlockRepETag
1070
     1
1071
        2
1005
C14C
  0
LINE
  5
C14D
330
785B
100
AcDbEntity
  8
TITLE
  6
Continuous
100
AcDbLine
 10
15.76980151342427
 20
5.187499999999998
 30
0.0
 11
15.76980151342428
 21
9.205
 31
0.0
1001
AcDbBlockRepETag
1070
     1
1071
        3
1005
C14D
  0
LINE
  5
C14E
330
785B
100
AcDbEntity
  8
TITLE
  6
Continuous
100
AcDbLine
 10
15.51980151342426
 20
5.0625
 30
0.0
 11
15.51980151342426
 21
9.205000000000003
 31
0.0
1001
AcDbBlockRepETag
1070
     1
1071
        4
1005
C14E
  0
LINE
  5
C14F
330
785B
100
AcDbEntity
  8
TITLE
  6
Continuous
100
AcDbLine
 10
15.255
 20
10.81
 30
0.0
 11
15.255
 21
0.25
 31
0.0
1001
AcDbBlockRepETag
1070
     1
1071
        5
1005
C14F
  0
LINE
  5
C150
330
785B
100
AcDbEntity
  8
TITLE
  6
Continuous
100
AcDbLine
 10
15.71749999999999
 20
1.626531582664471
 30
0.0
 11
15.71749999999999
 21
4.063583231516509
 31
0.0
1001
AcDbBlockRepETag
1070
     1
1071
        6
1005
C150
  0
TEXT
  5
C151
330
785B
100
AcDbEntity
  8
TITLE
  6
Continuous
100
AcDbText
 10
15.4875170007043
 20
0.8987379925370396
 30
0.0
 40
0.15
  1
SUBMITTAL APPROVAL
 50
90.0
 41
1.199999999999999
  7
Title Bold
100
AcDbText
1001
AcDbBlockRepETag
1070
     1
1071
        7
1005
C151
  0
TEXT
  5
C152
330
785B
100
AcDbEntity
  8
TITLE
  6
Continuous
100
AcDbText
 10
16.333
 20
1.6875
 30
0.0
 40
0.09375
  1
DESCRIPTION
 50
90.0
  7
Title
100
AcDbText
1001
AcDbBlockRepETag
1070
     1
1071
        8
1005
C152
  0
LINE
  5
C153
330
785B
100
AcDbEntity
  8
TITLE
  6
Continuous
100
AcDbLine
 10
16.1925
 20
0.25
 30
0.0
 11
16.1925
 21
4.375
 31
0.0
1001
AcDbBlockRepETag
1070
     1
1071
        9
1005
C153
  0
LINE
  5
C154
330
785B
100
AcDbEntity
  8
TITLE
  6
Continuous
100
AcDbLine
 10
16.005
 20
0.25
 30
0.0
 11
16.00499999999999
 21
4.375
 31
0.0
1001
AcDbBlockRepETag
1070
     1
1071
       10
1005
C154
  0
TEXT
  5
C155
330
785B
100
AcDbEntity
  8
TITLE
  6
Continuous
100
AcDbText
 10
15.9175
 20
0.5033168384209468
 30
0.0
 40
0.09
  1
SIGNED:
 50
90.0
  7
Title
100
AcDbText
1001
AcDbBlockRepETag
1070
     1
1071
       11
1005
C155
  0
TEXT
  5
C156
330
785B
100
AcDbEntity
  8
TITLE
  6
Continuous
100
AcDbText
 10
15.6790112921469
 20
0.6299407769738857
 30
0.0
 40
0.09
  1
APPROVED BY:
 50
90.0
  7
Title
100
AcDbText
1001
AcDbBlockRepETag
1070
     1
1071
       12
1005
C156
  0
TEXT
  5
C157
330
785B
100
AcDbEntity
  8
TITLE
  6
Continuous
100
AcDbText
 10
16.333
 20
0.3125
 30
0.0
 40
0.09375
  1
REV.
 50
90.0
  7
Title
100
AcDbText
1001
AcDbBlockRepETag
1070
     1
1071
       13
1005
C157
  0
TEXT
  5
C158
330
785B
100
AcDbEntity
  8
TITLE
  6
Continuous
100
AcDbText
 10
16.333
 20
0.8125
 30
0.0
 40
0.09375
  1
DATE
 50
90.0
  7
Title
100
AcDbText
1001
AcDbBlockRepETag
1070
     1
1071
       14
1005
C158
  0
LINE
  5
C159
330
785B
100
AcDbEntity
  8
TITLE
  6
Continuous
100
AcDbLine
 10
16.37999999999999
 20
0.75
 30
0.0
 11
16.005
 21
0.75
 31
0.0
1001
AcDbBlockRepETag
1070
     1
1071
       15
1005
C159
  0
LINE
  5
C15A
330
785B
100
AcDbEntity
  8
TITLE
  6
Continuous
100
AcDbLine
 10
16.37999999999999
 20
1.625
 30
0.0
 11
16.005
 21
1.625
 31
0.0
1001
AcDbBlockRepETag
1070
     1
1071
       16
1005
C15A
  0
TEXT
  5
C15B
330
785B
100
AcDbEntity
  8
TITLE
  6
Continuous
100
AcDbText
 10
15.98625
 20
4.4375
 30
0.0
 40
0.09375
  1
LOCATION:
 50
90.0
  7
Title
100
AcDbText
1001
AcDbBlockRepETag
1070
     1
1071
       17
1005
C15B
  0
LINE
  5
C15C
330
785B
100
AcDbEntity
  8
TITLE
  6
Continuous
100
AcDbLine
 10
16.37999999999999
 20
4.375
 30
0.0
 11
15.255
 21
4.375
 31
0.0
1001
AcDbBlockRepETag
1070
     1
1071
       18
1005
C15C
  0
TEXT
  5
C15D
330
785B
100
AcDbEntity
  8
TITLE
  6
Continuous
100
AcDbText
 10
15.9175
 20
2.966202077614363
 30
0.0
 40
0.09
  1
DATE:
 50
90.0
  7
Title
100
AcDbText
1001
AcDbBlockRepETag
1070
     1
1071
       19
1005
C15D
  0
TEXT
  5
C15E
330
785B
100
AcDbEntity
  8
TITLE
  6
Continuous
100
AcDbText
 10
15.7425
 20
4.4375
 30
0.0
 40
0.09375
  1
PROJECT: 
 50
90.0
  7
Title
100
AcDbText
1001
AcDbBlockRepETag
1070
     1
1071
       20
1005
C15E
  0
TEXT
  5
C15F
330
785B
100
AcDbEntity
  8
TITLE
  6
Continuous
100
AcDbText
 10
15.49875
 20
4.4375
 30
0.0
 40
0.09375
  1
CAT NO.:
 50
90.0
  7
Title
100
AcDbText
1001
AcDbBlockRepETag
1070
     1
1071
       21
1005
C15F
  0
TEXT
  5
C160
330
785B
100
AcDbEntity
  8
TITLE
  6
Continuous
100
AcDbText
 10
16.22999899999999
 20
4.4375
 30
0.0
 40
0.09375
  1
DRAWN:
 50
90.0
  7
Title
100
AcDbText
1001
AcDbBlockRepETag
1070
     1
1071
       22
1005
C160
  0
POLYLINE
  5
C169
330
785B
100
AcDbEntity
  8
TITLE
  6
Continuous
100
AcDb3dPolyline
 66
     1
 10
0.0
 20
0.0
 30
0.0
 70
     8
1001
AcDbBlockRepETag
1070
     1
1071
       23
1005
C169
  0
VERTEX
  5
C16A
330
C169
100
AcDbEntity
  8
TITLE
  6
Continuous
100
AcDbVertex
100
AcDb3dPolylineVertex
 10
15.85499999999998
 20
10.80499999999999
 30
0.0
 70
    32
  0
VERTEX
  5
C16B
330
C169
100
AcDbEntity
  8
TITLE
  6
Continuous
100
AcDbVertex
100
AcDb3dPolylineVertex
 10
15.85499999999998
 20
9.205
 30
0.0
 70
    32
  0
SEQEND
  5
C16C
330
C169
100
AcDbEntity
  8
TITLE
  6
Continuous
  0
LINE
  5
C16D
330
785B
100
AcDbEntity
  8
TITLE
  6
Continuous
100
AcDbLine
 10
15.25499999999999
 20
9.205
 30
0.0
 11
16.36964585231884
 21
9.205
 31
0.0
1001
AcDbBlockRepETag
1070
     1
1071
       24
1005
C16D
  0
TEXT
  5
C16E
330
785B
100
AcDbEntity
  8
TITLE
  6
Continuous
100
AcDbText
 10
16.22999899999999
 20
6.041926288453423
 30
0.0
 40
0.09375
  1
DATE:
 50
90.0
  7
Title
100
AcDbText
1001
AcDbBlockRepETag
1070
     1
1071
       25
1005
C16E
  0
LINE
  5
C16F
330
785B
100
AcDbEntity
  8
TITLE
  6
Continuous
100
AcDbLine
 10
16.292499
 20
5.949813424672798
 30
0.0
 11
16.292499
 21
4.98686106646417
 31
0.0
1001
AcDbBlockRepETag
1070
     1
1071
       26
1005
C16F
  0
LINE
  5
C170
330
785B
100
AcDbEntity
  8
TITLE
  6
Continuous
100
AcDbLine
 10
16.29216747152271
 20
6.442672359146097
 30
0.0
 11
16.29216747152272
 21
7.284820569518225
 31
0.0
1001
AcDbBlockRepETag
1070
     1
1071
       27
1005
C170
  0
TEXT
  5
C171
330
785B
100
AcDbEntity
  8
TITLE
  6
Continuous
100
AcDbText
 10
16.0001090549661
 20
9.496129554854851
 30
0.0
 40
0.1
  1
1000 Bega Way
 50
90.0
  7
Title
100
AcDbText
1001
AcDbBlockRepETag
1070
     1
1071
       28
1005
C171
  0
TEXT
  5
C172
330
785B
100
AcDbEntity
  8
TITLE
  6
Continuous
100
AcDbText
 10
16.16075025551181
 20
9.336231968673896
 30
0.0
 40
0.1
  1
Carpinteria, Ca. 93013
 50
90.0
  7
Title
100
AcDbText
1001
AcDbBlockRepETag
1070
     1
1071
       29
1005
C172
  0
TEXT
  5
C173
330
785B
100
AcDbEntity
  8
TITLE
  6
Continuous
100
AcDbText
 10
16.32139145605751
 20
9.516116743162447
 30
0.0
 40
0.1
  1
(805) 684-0533
 50
90.0
  7
Title
100
AcDbText
1001
AcDbBlockRepETag
1070
     1
1071
       30
1005
C173
  0
LINE
  5
C174
330
785B
100
AcDbEntity
  8
TITLE
100
AcDbLine
 10
16.37999999999999
 20
0.2499999999999996
 30
0.0
 11
16.37999999999999
 21
10.81
 31
0.0
1001
AcDbBlockRepETag
1070
     1
1071
       31
1005
C174
  0
TEXT
  5
C175
330
785B
100
AcDbEntity
  8
TITLE
100
AcDbText
 10
16.54312790891764
 20
1.16077209706627
 30
0.0
 40
0.09
  1
This print contains confidential information which is the property of BEGA U.S.  By acception this information,
 50
90.0
 41
1.1
  7
Title light
100
AcDbText
1001
AcDbBlockRepETag
1070
     1
1071
       32
1005
C175
  0
TEXT
  5
C176
330
785B
100
AcDbEntity
  8
TITLE
100
AcDbText
 10
15.08455463558403
 20
0.4465869233911591
 30
0.0
 40
0.2
  1
TYPE:
 50
90.0
  7
Title Bold
100
AcDbText
1001
AcDbBlockRepETag
1070
     1
1071
       33
1005
C176
  0
LINE
  5
C177
330
785B
100
AcDbEntity
  8
0
100
AcDbLine
 10
15.13167492131488
 20
1.37556601420562
 30
0.0
 11
15.13167492131488
 21
3.301947850782372
 31
0.0
1001
AcDbBlockRepETag
1070
     1
1071
       34
1005
C177
  0
LINE
  5
C178
330
785B
100
AcDbEntity
  8
TITLE
  6
Continuous
100
AcDbLine
 10
16.77
 20
10.80999999999999
 30
0.0
 11
0.2100000000000002
 21
10.81
 31
0.0
1001
AcDbBlockRepETag
1070
     1
1071
       35
1005
C178
  0
TEXT
  5
C179
330
785B
100
AcDbEntity
  8
TITLE
  6
Continuous
100
AcDbText
 10
16.22999899999999
 20
7.388539952482142
 30
0.0
 40
0.09375
  1
File Name:
 50
90.0
 41
0.9
  7
Title light
100
AcDbText
1001
AcDbBlockRepETag
1070
     1
1071
       36
1005
C179
  0
LINE
  5
C17A
330
785B
100
AcDbEntity
  8
TITLE
  6
Continuous
100
AcDbLine
 10
16.29216747152272
 20
8.120960284649104
 30
0.0
 11
16.29216747152272
 21
9.070380015566758
 31
0.0
1001
AcDbBlockRepETag
1070
     1
1071
       37
1005
C17A
  0
TEXT
  5
C17B
330
785B
100
AcDbEntity
  8
TITLE
100
AcDbText
 10
16.69501123957599
 20
1.351357065619774
 30
0.0
 40
0.09
  1
the borrower agrees that it will not be used for any other purpose other than that which is was loaned.
 50
90.0
 41
1.1
  7
Title light
100
AcDbText
1001
AcDbBlockRepETag
1070
     1
1071
       38
1005
C17B
  0
LINE
  5
C17C
330
785B
100
AcDbEntity
  8
TITLE
  6
Continuous
100
AcDbLine
 10
16.76999999999998
 20
0.2499999999999996
 30
0.0
 11
16.77
 21
10.80999999999999
 31
0.0
1001
AcDbBlockRepETag
1070
     1
1071
       39
1005
C17C
  0
INSERT
  5
C545
330
785B
100
AcDbEntity
  8
0
100
AcDbBlockReference
  2
bega logo
 10
15.93530099606815
 20
9.335079095538807
 30
0.0
 41
0.12890625
 42
0.12890625
 43
0.12890625
 50
90.0
1001
AcDbBlockRepETag
1070
     1
1071
       40
1005
C545
  0
ENDBLK
  5
7DB6
330
785B
100
AcDbEntity
  8
0
100
AcDbBlockEnd
  0
BLOCK
  5
C4DF
330
C4DE
100
AcDbEntity
  8
0
100
AcDbBlockBegin
  2
bega
 70
     0
 10
0.0
 20
0.0
 30
0.0
  3
bega
  1

  0
HATCH
  5
C4E0
330
C4DE
100
AcDbEntity
  8
0
100
AcDbHatch
 10
0.0
 20
0.0
 30
0.0
210
0.0
220
0.0
230
1.0
  2
SOLID
 70
     1
 71
     1
 91
       17
 92
        1
 93
       15
 72
     4
 94
        3
 73
     0
 74
     0
 95
        8
 96
        4
 40
0.0
 40
0.0
 40
0.0
 40
0.0
 40
11.8016654154607
 40
11.8016654154607
 40
11.8016654154607
 40
11.8016654154607
 10
7.035577472388887
 20
-2.481201227998744
 10
7.03544731696475
 20
-2.515837259605794
 10
7.057892042171959
 20
-2.536879190038558
 10
7.085416479737973
 20
-2.536946076400318
 72
     4
 94
        3
 73
     0
 74
     0
 95
        8
 96
        4
 40
0.0
 40
0.0
 40
0.0
 40
0.0
 40
4.629221768901988
 40
4.629221768901988
 40
4.629221768901988
 40
4.629221768901988
 10
7.085416479737973
 20
-2.536946076400318
 10
7.097963906578137
 20
-2.536974998711921
 10
7.108408947015837
 20
-2.530141796392404
 10
7.11448471464611
 20
-2.520470461122103
 72
     1
 10
7.114484698988838
 20
-2.520470459082845
 11
7.115377742088837
 21
-2.534389948782845
 72
     1
 10
7.115377742088837
 20
-2.534389948782845
 11
7.132486064388837
 21
-2.534389948782845
 72
     1
 10
7.132486064388837
 20
-2.534389948782845
 11
7.132486064388837
 21
-2.477715932982845
 72
     1
 10
7.132486064388837
 20
-2.477715932982845
 11
7.087956329888837
 21
-2.477715932982845
 72
     1
 10
7.087956329888837
 20
-2.477715932982845
 11
7.087958138788838
 21
-2.494699516782845
 72
     1
 10
7.087958138788838
 20
-2.494699516782845
 11
7.113098177288837
 21
-2.494695898982845
 72
     4
 94
        3
 73
     0
 74
     0
 95
        8
 96
        4
 40
0.0
 40
0.0
 40
0.0
 40
0.0
 40
5.368284882327459
 40
5.368284882327459
 40
5.368284882327459
 40
5.368284882327459
 10
7.113098188924324
 20
-2.494695903011865
 10
7.11051313902058
 20
-2.50987357154594
 10
7.099232931340701
 20
-2.518830852691102
 10
7.086763235643485
 20
-2.518830853589292
 72
     4
 94
        3
 73
     0
 74
     0
 95
        8
 96
        4
 40
0.0
 40
0.0
 40
0.0
 40
0.0
 40
7.529152638125497
 40
7.529152638125497
 40
7.529152638125497
 40
7.529152638125497
 10
7.086763235643485
 20
-2.518830853589292
 10
7.067988192731542
 20
-2.518830851715375
 10
7.057864927154875
 20
-2.501946693631877
 10
7.057864926982067
 20
-2.481123495794018
 72
     4
 94
        3
 73
     0
 74
     0
 95
        8
 96
        4
 40
0.0
 40
0.0
 40
0.0
 40
0.0
 40
7.504907119165637
 40
7.504907119165637
 40
7.504907119165637
 40
7.504907119165637
 10
7.057864926982067
 20
-2.481123495794018
 10
7.057864927298699
 20
-2.460296682434186
 10
7.068394930943732
 20
-2.443412524496772
 10
7.086763235643485
 20
-2.443412522539423
 72
     4
 94
        3
 73
     0
 74
     0
 95
        8
 96
        4
 40
0.0
 40
0.0
 40
0.0
 40
0.0
 40
4.530982702601268
 40
4.530982702601268
 40
4.530982702601268
 40
4.530982702601268
 10
7.086763235643485
 20
-2.443412522539423
 10
7.09740893442861
 20
-2.443412519965713
 10
7.106062518978284
 20
-2.447807106512711
 10
7.111010265302276
 20
-2.462312298444937
 72
     1
 10
7.111010254688837
 20
-2.462312297582845
 11
7.132261911388837
 21
-2.462310488682845
 72
     4
 94
        3
 73
     0
 74
     0
 95
        8
 96
        4
 40
0.0
 40
0.0
 40
0.0
 40
0.0
 40
8.922377717083382
 40
8.922377717083382
 40
8.922377717083382
 40
8.922377717083382
 10
7.13226189286133
 20
-2.462310490728403
 10
7.125898696395945
 20
-2.436047847076395
 10
7.106955536142994
 20
-2.425476264021082
 10
7.085416479737973
 20
-2.425458187342576
 72
     4
 94
        3
 73
     0
 74
     0
 95
        8
 96
        4
 40
0.0
 40
0.0
 40
0.0
 40
0.0
 40
11.8149668603718
 40
11.8149668603718
 40
11.8149668603718
 40
11.8149668603718
 10
7.085416479737973
 20
-2.425458187342576
 10
7.054224166378205
 20
-2.42542926477272
 10
7.035693167191277
 20
-2.450697657733943
 10
7.035577472388887
 20
-2.481201227998744
 97
       15
330
C517
330
C4E2
330
C4E1
330
C4F0
330
C4EA
330
C4E8
330
C4E9
330
C4E7
330
C4E5
330
C4F7
330
C4F8
330
C4EB
330
C4EC
330
C4EE
330
C4EF
 92
       17
 93
        2
 72
     4
 94
        3
 73
     0
 74
     0
 95
        8
 96
        4
 40
0.0
 40
0.0
 40
0.0
 40
0.0
 40
7.529152638125497
 40
7.529152638125497
 40
7.529152638125497
 40
7.529152638125497
 10
7.057864926982067
 20
-2.481123495794018
 10
7.057864927154875
 20
-2.501946693631877
 10
7.067988192731542
 20
-2.518830851715375
 10
7.086763235643485
 20
-2.518830853589292
 72
     4
 94
        3
 73
     0
 74
     0
 95
        8
 96
        4
 40
0.0
 40
0.0
 40
0.0
 40
0.0
 40
7.529152638125497
 40
7.529152638125497
 40
7.529152638125497
 40
7.529152638125497
 10
7.086763235643485
 20
-2.518830853589292
 10
7.067988192731542
 20
-2.518830851715375
 10
7.057864927154875
 20
-2.501946693631877
 10
7.057864926982067
 20
-2.481123495794018
 97
        1
330
C4F7
 92
       49
 93
        2
 72
     4
 94
        3
 73
     0
 74
     0
 95
        8
 96
        4
 40
0.0
 40
0.0
 40
0.0
 40
0.0
 40
7.504907119165637
 40
7.504907119165637
 40
7.504907119165637
 40
7.504907119165637
 10
7.057864926982067
 20
-2.481123495794018
 10
7.057864927298699
 20
-2.460296682434186
 10
7.068394930943732
 20
-2.443412524496772
 10
7.086763235643485
 20
-2.443412522539423
 72
     4
 94
        3
 73
     0
 74
     0
 95
        8
 96
        4
 40
0.0
 40
0.0
 40
0.0
 40
0.0
 40
7.504907119165637
 40
7.504907119165637
 40
7.504907119165637
 40
7.504907119165637
 10
7.057864926982067
 20
-2.481123495794018
 10
7.057864927298699
 20
-2.460296682434186
 10
7.068394930943732
 20
-2.443412524496772
 10
7.086763235643485
 20
-2.443412522539423
 97
        1
330
C4F8
 92
       49
 93
        2
 72
     4
 94
        3
 73
     0
 74
     0
 95
        8
 96
        4
 40
0.0
 40
0.0
 40
0.0
 40
0.0
 40
4.530982702601268
 40
4.530982702601268
 40
4.530982702601268
 40
4.530982702601268
 10
7.086763235643485
 20
-2.443412522539423
 10
7.09740893442861
 20
-2.443412519965713
 10
7.106062518978284
 20
-2.447807106512711
 10
7.111010265302276
 20
-2.462312298444937
 72
     4
 94
        3
 73
     0
 74
     0
 95
        8
 96
        4
 40
0.0
 40
0.0
 40
0.0
 40
0.0
 40
4.530982702601268
 40
4.530982702601268
 40
4.530982702601268
 40
4.530982702601268
 10
7.086763235643485
 20
-2.443412522539423
 10
7.09740893442861
 20
-2.443412519965713
 10
7.106062518978284
 20
-2.447807106512711
 10
7.111010265302276
 20
-2.462312298444937
 97
        1
330
C4EB
 92
       17
 93
        2
 72
     4
 94
        3
 73
     0
 74
     0
 95
        8
 96
        4
 40
0.0
 40
0.0
 40
0.0
 40
0.0
 40
8.922377717083382
 40
8.922377717083382
 40
8.922377717083382
 40
8.922377717083382
 10
7.085416479737973
 20
-2.425458187342576
 10
7.106955536142994
 20
-2.425476264021082
 10
7.125898696395945
 20
-2.436047847076395
 10
7.13226189286133
 20
-2.462310490728403
 72
     4
 94
        3
 73
     0
 74
     0
 95
        8
 96
        4
 40
0.0
 40
0.0
 40
0.0
 40
0.0
 40
8.922377717083382
 40
8.922377717083382
 40
8.922377717083382
 40
8.922377717083382
 10
7.13226189286133
 20
-2.462310490728403
 10
7.125898696395945
 20
-2.436047847076395
 10
7.106955536142994
 20
-2.425476264021082
 10
7.085416479737973
 20
-2.425458187342576
 97
        1
330
C4EE
 92
       49
 93
        2
 72
     4
 94
        3
 73
     0
 74
     0
 95
        8
 96
        4
 40
0.0
 40
0.0
 40
0.0
 40
0.0
 40
5.368284882327459
 40
5.368284882327459
 40
5.368284882327459
 40
5.368284882327459
 10
7.113098188924324
 20
-2.494695903011865
 10
7.11051313902058
 20
-2.50987357154594
 10
7.099232931340701
 20
-2.518830852691102
 10
7.086763235643485
 20
-2.518830853589292
 72
     4
 94
        3
 73
     0
 74
     0
 95
        8
 96
        4
 40
0.0
 40
0.0
 40
0.0
 40
0.0
 40
5.368284882327459
 40
5.368284882327459
 40
5.368284882327459
 40
5.368284882327459
 10
7.113098188924324
 20
-2.494695903011865
 10
7.11051313902058
 20
-2.50987357154594
 10
7.099232931340701
 20
-2.518830852691102
 10
7.086763235643485
 20
-2.518830853589292
 97
        1
330
C4E5
 92
       49
 93
        2
 72
     1
 10
7.087958138788838
 20
-2.494699516782845
 11
7.113098177288837
 21
-2.494695898982845
 72
     1
 10
7.087958138788838
 20
-2.494699516782845
 11
7.113098177288837
 21
-2.494695898982845
 97
        1
330
C4E7
 92
       49
 93
        2
 72
     1
 10
7.087956329888837
 20
-2.477715932982845
 11
7.087958138788838
 21
-2.494699516782845
 72
     1
 10
7.087956329888837
 20
-2.477715932982845
 11
7.087958138788838
 21
-2.494699516782845
 97
        1
330
C4E9
 92
       49
 93
        2
 72
     1
 10
7.132486064388837
 20
-2.477715932982845
 11
7.087956329888837
 21
-2.477715932982845
 72
     1
 10
7.132486064388837
 20
-2.477715932982845
 11
7.087956329888837
 21
-2.477715932982845
 97
        1
330
C4E8
 92
       49
 93
        2
 72
     1
 10
7.132486064388837
 20
-2.534389948782845
 11
7.132486064388837
 21
-2.477715932982845
 72
     1
 10
7.132486064388837
 20
-2.534389948782845
 11
7.132486064388837
 21
-2.477715932982845
 97
        1
330
C4EA
 92
       49
 93
        2
 72
     1
 10
7.115377742088837
 20
-2.534389948782845
 11
7.132486064388837
 21
-2.534389948782845
 72
     1
 10
7.115377742088837
 20
-2.534389948782845
 11
7.132486064388837
 21
-2.534389948782845
 97
        1
330
C4F0
 92
       49
 93
        2
 72
     1
 10
7.114484698988838
 20
-2.520470459082845
 11
7.115377742088837
 21
-2.534389948782845
 72
     1
 10
7.114484698988838
 20
-2.520470459082845
 11
7.115377742088837
 21
-2.534389948782845
 97
        1
330
C4E1
 92
       49
 93
        2
 72
     4
 94
        3
 73
     0
 74
     0
 95
        8
 96
        4
 40
0.0
 40
0.0
 40
0.0
 40
0.0
 40
4.629221768901988
 40
4.629221768901988
 40
4.629221768901988
 40
4.629221768901988
 10
7.085416479737973
 20
-2.536946076400318
 10
7.097963906578137
 20
-2.536974998711921
 10
7.108408947015837
 20
-2.530141796392404
 10
7.11448471464611
 20
-2.520470461122103
 72
     4
 94
        3
 73
     0
 74
     0
 95
        8
 96
        4
 40
0.0
 40
0.0
 40
0.0
 40
0.0
 40
4.629221768901988
 40
4.629221768901988
 40
4.629221768901988
 40
4.629221768901988
 10
7.085416479737973
 20
-2.536946076400318
 10
7.097963906578137
 20
-2.536974998711921
 10
7.108408947015837
 20
-2.530141796392404
 10
7.11448471464611
 20
-2.520470461122103
 97
        1
330
C4E2
 92
       49
 93
        2
 72
     4
 94
        3
 73
     0
 74
     0
 95
        8
 96
        4
 40
0.0
 40
0.0
 40
0.0
 40
0.0
 40
11.8016654154607
 40
11.8016654154607
 40
11.8016654154607
 40
11.8016654154607
 10
7.035577472388887
 20
-2.481201227998744
 10
7.03544731696475
 20
-2.515837259605794
 10
7.057892042171959
 20
-2.536879190038558
 10
7.085416479737973
 20
-2.536946076400318
 72
     4
 94
        3
 73
     0
 74
     0
 95
        8
 96
        4
 40
0.0
 40
0.0
 40
0.0
 40
0.0
 40
11.8016654154607
 40
11.8016654154607
 40
11.8016654154607
 40
11.8016654154607
 10
7.035577472388887
 20
-2.481201227998744
 10
7.03544731696475
 20
-2.515837259605794
 10
7.057892042171959
 20
-2.536879190038558
 10
7.085416479737973
 20
-2.536946076400318
 97
        1
330
C517
 92
       49
 93
        2
 72
     4
 94
        3
 73
     0
 74
     0
 95
        8
 96
        4
 40
0.0
 40
0.0
 40
0.0
 40
0.0
 40
11.8149668603718
 40
11.8149668603718
 40
11.8149668603718
 40
11.8149668603718
 10
7.085416479737973
 20
-2.425458187342576
 10
7.054224166378205
 20
-2.42542926477272
 10
7.035693167191277
 20
-2.450697657733943
 10
7.035577472388887
 20
-2.481201227998744
 72
     4
 94
        3
 73
     0
 74
     0
 95
        8
 96
        4
 40
0.0
 40
0.0
 40
0.0
 40
0.0
 40
11.8149668603718
 40
11.8149668603718
 40
11.8149668603718
 40
11.8149668603718
 10
7.085416479737973
 20
-2.425458187342576
 10
7.054224166378205
 20
-2.42542926477272
 10
7.035693167191277
 20
-2.450697657733943
 10
7.035577472388887
 20
-2.481201227998744
 97
        1
330
C4EF
 92
       49
 93
        2
 72
     1
 10
7.111010254688837
 20
-2.462312297582845
 11
7.132261911388837
 21
-2.462310488682845
 72
     1
 10
7.111010254688837
 20
-2.462312297582845
 11
7.132261911388837
 21
-2.462310488682845
 97
        1
330
C4EC
 92
       48
 93
        1
 72
     1
 10
7.085416385888837
 20
-2.425562919882845
 11
7.085416483688838
 21
-2.425458188882845
 97
        4
330
C4EC
330
C4EC
330
C4EC
330
C4ED
 75
     0
 76
     1
 98
        1
 10
0.0
 20
0.0
450
        0
451
        0
460
0.0
461
0.0
452
        1
462
1.0
453
        2
463
0.0
 63
     5
421
      255
463
1.0
 63
    51
421
 16777113
470
LINEAR
1001
ACAD
1010
0.0
1020
0.0
1030
0.0
  0
LINE
  5
C4E1
102
{ACAD_REACTORS
330
C4E0
102
}
330
C4DE
100
AcDbEntity
  8
0
  6
Continuous
 62
     7
370
    15
100
AcDbLine
 10
7.114484698988838
 20
-2.520470459082845
 30
0.0
 11
7.115377742088837
 21
-2.534389948782845
 31
0.0
  0
SPLINE
  5
C4E2
102
{ACAD_REACTORS
330
C4E0
102
}
330
C4DE
100
AcDbEntity
  8
0
  6
Continuous
 62
     7
370
    15
100
AcDbSpline
210
0.0
220
0.0
230
1.0
 70
     8
 71
     3
 72
     8
 73
     4
 74
     0
 42
0.000000001
 43
0.0000000001
 40
0.0
 40
0.0
 40
0.0
 40
0.0
 40
4.629221768901988
 40
4.629221768901988
 40
4.629221768901988
 40
4.629221768901988
 10
7.085416479737973
 20
-2.536946076400318
 30
0.0
 10
7.097963906578137
 20
-2.536974998711921
 30
0.0
 10
7.108408947015837
 20
-2.530141796392404
 30
0.0
 10
7.11448471464611
 20
-2.520470461122103
 30
0.0
  0
HATCH
  5
C4E3
330
C4DE
100
AcDbEntity
  8
0
100
AcDbHatch
 10
0.0
 20
0.0
 30
0.0
210
0.0
220
0.0
230
1.0
  2
SOLID
 70
     1
 71
     1
 91
        3
 92
       16
 93
        8
 72
     1
 10
6.876636387927156
 20
-2.446783116982845
 11
6.876636387927156
 21
-2.470859895482845
 72
     1
 10
6.876636387927156
 20
-2.470859895482845
 11
6.899094999627157
 21
-2.470859895482845
 72
     2
 10
6.899095014227156
 20
-2.449481463082845
 40
0.021378434297707
 50
270.0000000507
 51
302.7538327093
 73
     1
 72
     2
 10
6.905897067027157
 20
-2.459258813382845
 40
0.0094853188547192
 50
300.1513158430999
 51
360.8238440749
 73
     1
 72
     1
 10
6.915381362527152
 20
-2.459122432182845
 11
6.915366891627156
 21
-2.458110981682845
 72
     4
 94
        3
 73
     0
 74
     0
 95
        8
 96
        4
 40
0.0
 40
0.0
 40
0.0
 40
0.0
 40
1.234817782031019
 40
1.234817782031019
 40
1.234817782031019
 40
1.234817782031019
 10
6.915366860976281
 20
-2.458110979461423
 10
6.915260831578787
 20
-2.45496133154696
 10
6.913756238899043
 20
-2.451889956249106
 10
6.911329683810924
 20
-2.449879146679267
 72
     2
 10
6.901452276727156
 20
-2.464087284082844
 40
0.0173041711593509
 50
55.19321811040001
 51
89.99999999280001
 73
     1
 72
     1
 10
6.901452296827157
 20
-2.446783116982845
 11
6.876636387927156
 21
-2.446783116982845
 97
        8
330
C523
330
C516
330
C51D
330
C51E
330
C4E6
330
C4E4
330
C521
330
C522
 92
       16
 93
        8
 72
     1
 10
6.876636387927156
 20
-2.516801268082845
 11
6.900384184727156
 21
-2.516801268082845
 72
     2
 10
6.900384175127157
 20
-2.493727653982845
 40
0.0230736156625213
 50
270.0000000021
 51
299.6729218121
 73
     1
 72
     2
 10
6.905084866927158
 20
-2.503065769382845
 40
0.0126444541283982
 50
302.1139766277
 51
357.5033071323001
 73
     1
 72
     4
 94
        3
 73
     0
 74
     0
 95
        8
 96
        4
 40
0.0
 40
0.0
 40
0.0
 40
0.0
 40
1.0
 40
1.0
 40
1.0
 40
1.0
 10
6.917717318165067
 20
-2.503616583572982
 10
6.917765569072273
 20
-2.502509988822556
 10
6.917734181256207
 20
-2.501405648970588
 10
6.917623430238558
 20
-2.500303536250148
 72
     4
 94
        3
 73
     0
 74
     0
 95
       10
 96
        6
 40
0.0
 40
0.0
 40
0.0
 40
0.0
 40
0.5
 40
0.5
 40
1.0
 40
1.0
 40
1.0
 40
1.0
 10
6.917623430238558
 20
-2.500303536250148
 10
6.917405671676237
 20
-2.49813656654854
 10
6.916659848823567
 20
-2.49602188163258
 10
6.914280738359588
 20
-2.492370764145272
 10
6.912647447353577
 20
-2.490834326364914
 10
6.910753031288428
 20
-2.489759943258022
 72
     2
 10
6.900262396127157
 20
-2.510424799282845
 40
0.023175195852144
 50
63.08510597700003
 51
89.99999999290002
 73
     1
 72
     1
 10
6.900262355027152
 20
-2.487249608382845
 11
6.876636387927156
 21
-2.487249608382845
 72
     1
 10
6.876636387927156
 20
-2.487249608382845
 11
6.876636387927156
 21
-2.516801268082845
 97
        8
330
C51C
330
C507
330
C508
330
C509
330
C518
330
C519
330
C51A
330
C51B
 92
        1
 93
        9
 72
     2
 10
6.911145075327156
 20
-2.503482871582844
 40
0.0281849953663461
 50
358.2750093542999
 51
429.1859787467999
 73
     1
 72
     2
 10
6.910344636927157
 20
-2.454425532082845
 40
0.025155504803769
 50
295.4642982438
 51
359.8582049783
 73
     1
 72
     2
 10
6.910101396227156
 20
-2.454545993682845
 40
0.0253987350977654
 50
0.13130661799998
 51
52.56383084060001
 73
     1
 72
     2
 10
6.907353580927157
 20
-2.464020839782845
 40
0.0347769093137198
 50
58.46861031739998
 51
93.09517018550002
 73
     1
 72
     1
 10
6.905475805927157
 20
-2.429294663382845
 11
6.855860219027157
 21
-2.429294663382845
 72
     1
 10
6.855860219027157
 20
-2.429294663382845
 11
6.855860219027157
 21
-2.534285101682845
 72
     1
 10
6.855860219027157
 20
-2.534285101682845
 11
6.906167477927156
 21
-2.534285101682845
 72
     2
 10
6.906153707627155
 20
-2.490937190982845
 40
0.0433479148632238
 50
270.0181584594
 51
289.8507158831
 73
     1
 72
     2
 10
6.911384295927157
 20
-2.505415203482844
 40
0.0279540238095668
 50
289.8435790134
 51
362.222167714
 73
     1
 97
        9
330
C506
330
C4FE
330
C4FF
330
C500
330
C501
330
C502
330
C503
330
C504
330
C505
 75
     0
 76
     1
 98
        1
 10
0.0
 20
0.0
450
        0
451
        0
460
0.0
461
0.0
452
        1
462
1.0
453
        2
463
0.0
 63
     5
421
      255
463
1.0
 63
    51
421
 16777113
470
LINEAR
1001
ACAD
1010
0.0
1020
0.0
1030
0.0
  0
SPLINE
  5
C4E4
102
{ACAD_REACTORS
330
C4E3
102
}
330
C4DE
100
AcDbEntity
  8
0
  6
Continuous
 62
     7
370
    15
100
AcDbSpline
210
0.0
220
0.0
230
1.0
 70
     8
 71
     3
 72
     8
 73
     4
 74
     0
 42
0.000000001
 43
0.0000000001
 40
0.0
 40
0.0
 40
0.0
 40
0.0
 40
1.234817782031019
 40
1.234817782031019
 40
1.234817782031019
 40
1.234817782031019
 10
6.915366860976281
 20
-2.458110979461423
 30
0.0
 10
6.915260831578787
 20
-2.45496133154696
 30
0.0
 10
6.913756238899043
 20
-2.451889956249106
 30
0.0
 10
6.911329683810924
 20
-2.449879146679267
 30
0.0
  0
SPLINE
  5
C4E5
102
{ACAD_REACTORS
330
C4E0
102
}
330
C4DE
100
AcDbEntity
  8
0
  6
Continuous
 62
     7
370
    15
100
AcDbSpline
210
0.0
220
0.0
230
1.0
 70
     8
 71
     3
 72
     8
 73
     4
 74
     0
 42
0.000000001
 43
0.0000000001
 40
0.0
 40
0.0
 40
0.0
 40
0.0
 40
5.368284882327459
 40
5.368284882327459
 40
5.368284882327459
 40
5.368284882327459
 10
7.113098188924324
 20
-2.494695903011865
 30
0.0
 10
7.11051313902058
 20
-2.50987357154594
 30
0.0
 10
7.099232931340701
 20
-2.518830852691102
 30
0.0
 10
7.086763235643485
 20
-2.518830853589292
 30
0.0
  0
LINE
  5
C4E6
102
{ACAD_REACTORS
330
C4E3
102
}
330
C4DE
100
AcDbEntity
  8
0
  6
Continuous
 62
     7
370
    15
100
AcDbLine
 10
6.915381362527152
 20
-2.459122432182845
 30
0.0
 11
6.915366891627156
 21
-2.458110981682845
 31
0.0
  0
LINE
  5
C4E7
102
{ACAD_REACTORS
330
C4E0
102
}
330
C4DE
100
AcDbEntity
  8
0
  6
Continuous
 62
     7
370
    15
100
AcDbLine
 10
7.087958138788838
 20
-2.494699516782845
 30
0.0
 11
7.113098177288837
 21
-2.494695898982845
 31
0.0
  0
LINE
  5
C4E8
102
{ACAD_REACTORS
330
C4E0
102
}
330
C4DE
100
AcDbEntity
  8
0
  6
Continuous
 62
     7
370
    15
100
AcDbLine
 10
7.132486064388837
 20
-2.477715932982845
 30
0.0
 11
7.087956329888837
 21
-2.477715932982845
 31
0.0
  0
LINE
  5
C4E9
102
{ACAD_REACTORS
330
C4E0
102
}
330
C4DE
100
AcDbEntity
  8
0
  6
Continuous
 62
     7
370
    15
100
AcDbLine
 10
7.087956329888837
 20
-2.477715932982845
 30
0.0
 11
7.087958138788838
 21
-2.494699516782845
 31
0.0
  0
LINE
  5
C4EA
102
{ACAD_REACTORS
330
C4E0
102
}
330
C4DE
100
AcDbEntity
  8
0
  6
Continuous
 62
     7
370
    15
100
AcDbLine
 10
7.132486064388837
 20
-2.534389948782845
 30
0.0
 11
7.132486064388837
 21
-2.477715932982845
 31
0.0
  0
SPLINE
  5
C4EB
102
{ACAD_REACTORS
330
C4E0
102
}
330
C4DE
100
AcDbEntity
  8
0
  6
Continuous
 62
     7
370
    15
100
AcDbSpline
210
0.0
220
0.0
230
1.0
 70
     8
 71
     3
 72
     8
 73
     4
 74
     0
 42
0.000000001
 43
0.0000000001
 40
0.0
 40
0.0
 40
0.0
 40
0.0
 40
4.530982702601268
 40
4.530982702601268
 40
4.530982702601268
 40
4.530982702601268
 10
7.086763235643485
 20
-2.443412522539423
 30
0.0
 10
7.09740893442861
 20
-2.443412519965713
 30
0.0
 10
7.106062518978284
 20
-2.447807106512711
 30
0.0
 10
7.111010265302276
 20
-2.462312298444937
 30
0.0
  0
LINE
  5
C4EC
102
{ACAD_REACTORS
330
C4E0
102
}
330
C4DE
100
AcDbEntity
  8
0
  6
Continuous
 62
     7
370
    15
100
AcDbLine
 10
7.111010254688837
 20
-2.462312297582845
 30
0.0
 11
7.132261911388837
 21
-2.462310488682845
 31
0.0
  0
LINE
  5
C4ED
102
{ACAD_REACTORS
330
C4E0
102
}
330
C4DE
100
AcDbEntity
  8
0
  6
Continuous
 62
     7
370
    15
100
AcDbLine
 10
7.085416385888837
 20
-2.425562919882845
 30
0.0
 11
7.085416483688838
 21
-2.425458188882845
 31
0.0
  0
SPLINE
  5
C4EE
102
{ACAD_REACTORS
330
C4E0
102
}
330
C4DE
100
AcDbEntity
  8
0
  6
Continuous
 62
     7
370
    15
100
AcDbSpline
210
0.0
220
0.0
230
1.0
 70
     8
 71
     3
 72
     8
 73
     4
 74
     0
 42
0.000000001
 43
0.0000000001
 40
0.0
 40
0.0
 40
0.0
 40
0.0
 40
8.922377717083382
 40
8.922377717083382
 40
8.922377717083382
 40
8.922377717083382
 10
7.13226189286133
 20
-2.462310490728403
 30
0.0
 10
7.125898696395945
 20
-2.436047847076395
 30
0.0
 10
7.106955536142994
 20
-2.425476264021082
 30
0.0
 10
7.085416479737973
 20
-2.425458187342576
 30
0.0
  0
SPLINE
  5
C4EF
102
{ACAD_REACTORS
330
C4E0
102
}
330
C4DE
100
AcDbEntity
  8
0
  6
Continuous
 62
     7
370
    15
100
AcDbSpline
210
0.0
220
0.0
230
1.0
 70
     8
 71
     3
 72
     8
 73
     4
 74
     0
 42
0.000000001
 43
0.0000000001
 40
0.0
 40
0.0
 40
0.0
 40
0.0
 40
11.8149668603718
 40
11.8149668603718
 40
11.8149668603718
 40
11.8149668603718
 10
7.085416479737973
 20
-2.425458187342576
 30
0.0
 10
7.054224166378205
 20
-2.42542926477272
 30
0.0
 10
7.035693167191277
 20
-2.450697657733943
 30
0.0
 10
7.035577472388887
 20
-2.481201227998744
 30
0.0
  0
LINE
  5
C4F0
102
{ACAD_REACTORS
330
C4E0
102
}
330
C4DE
100
AcDbEntity
  8
0
  6
Continuous
 62
     7
370
    15
100
AcDbLine
 10
7.115377742088837
 20
-2.534389948782845
 30
0.0
 11
7.132486064388837
 21
-2.534389948782845
 31
0.0
  0
HATCH
  5
C4F1
330
C4DE
100
AcDbEntity
  8
0
100
AcDbHatch
 10
0.0
 20
0.0
 30
0.0
210
0.0
220
0.0
230
1.0
  2
SOLID
 70
     1
 71
     1
 91
        1
 92
        1
 93
       12
 72
     1
 10
6.973973432327157
 20
-2.486165240882845
 11
7.023188770527157
 21
-2.486165240882845
 72
     1
 10
7.023188770527157
 20
-2.486165240882845
 11
7.023188770527157
 21
-2.468666459682845
 72
     1
 10
7.023188770527157
 20
-2.468666459682845
 11
6.973973432327157
 21
-2.468666459682845
 72
     1
 10
6.973973432327157
 20
-2.468666459682845
 11
6.973973432327157
 21
-2.446794776782845
 72
     1
 10
6.973973432327157
 20
-2.446794776782845
 11
7.029747236927157
 21
-2.446794776782845
 72
     1
 10
7.029747236927157
 20
-2.446794776782845
 11
7.029747236927157
 21
-2.429294186782845
 72
     1
 10
7.029747236927157
 20
-2.429294186782845
 11
6.952099965027157
 21
-2.429294186782845
 72
     1
 10
6.952099965027157
 20
-2.429294186782845
 11
6.952099965027157
 21
-2.534285107782844
 72
     1
 10
6.952099965027157
 20
-2.534285107782844
 11
7.029747236927157
 21
-2.534285107782844
 72
     1
 10
7.029747236927157
 20
-2.534285107782844
 11
7.029747236927157
 21
-2.516788129382845
 72
     1
 10
7.029747236927157
 20
-2.516788129382845
 11
6.973973432327157
 21
-2.516788129382845
 72
     1
 10
6.973973432327157
 20
-2.516788129382845
 11
6.973973432327157
 21
-2.486165240882845
 97
       12
330
C512
330
C4F9
330
C4FA
330
C4FB
330
C4FC
330
C4FD
330
C4F2
330
C4F3
330
C4F4
330
C4F5
330
C4F6
330
C511
 75
     0
 76
     1
 98
        1
 10
0.0
 20
0.0
450
        0
451
        0
460
0.0
461
0.0
452
        1
462
1.0
453
        2
463
0.0
 63
     5
421
      255
463
1.0
 63
    51
421
 16777113
470
LINEAR
1001
ACAD
1010
0.0
1020
0.0
1030
0.0
  0
LINE
  5
C4F2
102
{ACAD_REACTORS
330
C4F1
102
}
330
C4DE
100
AcDbEntity
  8
0
  6
Continuous
 62
     7
370
    15
100
AcDbLine
 10
7.029747236927157
 20
-2.429294186782845
 30
0.0
 11
6.952099965027157
 21
-2.429294186782845
 31
0.0
  0
LINE
  5
C4F3
102
{ACAD_REACTORS
330
C4F1
102
}
330
C4DE
100
AcDbEntity
  8
0
  6
Continuous
 62
     7
370
    15
100
AcDbLine
 10
6.952099965027157
 20
-2.429294186782845
 30
0.0
 11
6.952099965027157
 21
-2.534285107782844
 31
0.0
  0
LINE
  5
C4F4
102
{ACAD_REACTORS
330
C4F1
102
}
330
C4DE
100
AcDbEntity
  8
0
  6
Continuous
 62
     7
370
    15
100
AcDbLine
 10
6.952099965027157
 20
-2.534285107782844
 30
0.0
 11
7.029747236927157
 21
-2.534285107782844
 31
0.0
  0
LINE
  5
C4F5
102
{ACAD_REACTORS
330
C4F1
102
}
330
C4DE
100
AcDbEntity
  8
0
  6
Continuous
 62
     7
370
    15
100
AcDbLine
 10
7.029747236927157
 20
-2.534285107782844
 30
0.0
 11
7.029747236927157
 21
-2.516788129382845
 31
0.0
  0
LINE
  5
C4F6
102
{ACAD_REACTORS
330
C4F1
102
}
330
C4DE
100
AcDbEntity
  8
0
  6
Continuous
 62
     7
370
    15
100
AcDbLine
 10
7.029747236927157
 20
-2.516788129382845
 30
0.0
 11
6.973973432327157
 21
-2.516788129382845
 31
0.0
  0
SPLINE
  5
C4F7
102
{ACAD_REACTORS
330
C4E0
102
}
330
C4DE
100
AcDbEntity
  8
0
  6
Continuous
 62
     7
370
    15
100
AcDbSpline
210
0.0
220
0.0
230
1.0
 70
     8
 71
     3
 72
     8
 73
     4
 74
     0
 42
0.000000001
 43
0.0000000001
 40
0.0
 40
0.0
 40
0.0
 40
0.0
 40
7.529152638125497
 40
7.529152638125497
 40
7.529152638125497
 40
7.529152638125497
 10
7.086763235643485
 20
-2.518830853589292
 30
0.0
 10
7.067988192731542
 20
-2.518830851715375
 30
0.0
 10
7.057864927154875
 20
-2.501946693631877
 30
0.0
 10
7.057864926982067
 20
-2.481123495794018
 30
0.0
  0
SPLINE
  5
C4F8
102
{ACAD_REACTORS
330
C4E0
102
}
330
C4DE
100
AcDbEntity
  8
0
  6
Continuous
 62
     7
370
    15
100
AcDbSpline
210
0.0
220
0.0
230
1.0
 70
     8
 71
     3
 72
     8
 73
     4
 74
     0
 42
0.000000001
 43
0.0000000001
 40
0.0
 40
0.0
 40
0.0
 40
0.0
 40
7.504907119165637
 40
7.504907119165637
 40
7.504907119165637
 40
7.504907119165637
 10
7.057864926982067
 20
-2.481123495794018
 30
0.0
 10
7.057864927298699
 20
-2.460296682434186
 30
0.0
 10
7.068394930943732
 20
-2.443412524496772
 30
0.0
 10
7.086763235643485
 20
-2.443412522539423
 30
0.0
  0
LINE
  5
C4F9
102
{ACAD_REACTORS
330
C4F1
102
}
330
C4DE
100
AcDbEntity
  8
0
  6
Continuous
 62
     7
370
    15
100
AcDbLine
 10
7.023188770527157
 20
-2.486165240882845
 30
0.0
 11
7.023188770527157
 21
-2.468666459682845
 31
0.0
  0
LINE
  5
C4FA
102
{ACAD_REACTORS
330
C4F1
102
}
330
C4DE
100
AcDbEntity
  8
0
  6
Continuous
 62
     7
370
    15
100
AcDbLine
 10
7.023188770527157
 20
-2.468666459682845
 30
0.0
 11
6.973973432327157
 21
-2.468666459682845
 31
0.0
  0
LINE
  5
C4FB
102
{ACAD_REACTORS
330
C4F1
102
}
330
C4DE
100
AcDbEntity
  8
0
  6
Continuous
 62
     7
370
    15
100
AcDbLine
 10
6.973973432327157
 20
-2.468666459682845
 30
0.0
 11
6.973973432327157
 21
-2.446794776782845
 31
0.0
  0
LINE
  5
C4FC
102
{ACAD_REACTORS
330
C4F1
102
}
330
C4DE
100
AcDbEntity
  8
0
  6
Continuous
 62
     7
370
    15
100
AcDbLine
 10
6.973973432327157
 20
-2.446794776782845
 30
0.0
 11
7.029747236927157
 21
-2.446794776782845
 31
0.0
  0
LINE
  5
C4FD
102
{ACAD_REACTORS
330
C4F1
102
}
330
C4DE
100
AcDbEntity
  8
0
  6
Continuous
 62
     7
370
    15
100
AcDbLine
 10
7.029747236927157
 20
-2.446794776782845
 30
0.0
 11
7.029747236927157
 21
-2.429294186782845
 31
0.0
  0
ARC
  5
C4FE
102
{ACAD_REACTORS
330
C4E3
102
}
330
C4DE
100
AcDbEntity
  8
0
  6
Continuous
 62
     7
370
    15
100
AcDbCircle
 10
6.910344636927157
 20
-2.454425532082845
 30
0.0
 40
0.025155504803769
100
AcDbArc
 50
295.4642982438
 51
359.8582049783
  0
ARC
  5
C4FF
102
{ACAD_REACTORS
330
C4E3
102
}
330
C4DE
100
AcDbEntity
  8
0
  6
Continuous
 62
     7
370
    15
100
AcDbCircle
 10
6.910101396227156
 20
-2.454545993682845
 30
0.0
 40
0.0253987350977654
100
AcDbArc
 50
0.13130661799998
 51
52.56383084060001
  0
ARC
  5
C500
102
{ACAD_REACTORS
330
C4E3
102
}
330
C4DE
100
AcDbEntity
  8
0
  6
Continuous
 62
     7
370
    15
100
AcDbCircle
 10
6.907353580927157
 20
-2.464020839782845
 30
0.0
 40
0.0347769093137198
100
AcDbArc
 50
58.46861031739998
 51
93.09517018550002
  0
LINE
  5
C501
102
{ACAD_REACTORS
330
C4E3
102
}
330
C4DE
100
AcDbEntity
  8
0
  6
Continuous
 62
     7
370
    15
100
AcDbLine
 10
6.905475805927157
 20
-2.429294663382845
 30
0.0
 11
6.855860219027157
 21
-2.429294663382845
 31
0.0
  0
LINE
  5
C502
102
{ACAD_REACTORS
330
C4E3
102
}
330
C4DE
100
AcDbEntity
  8
0
  6
Continuous
 62
     7
370
    15
100
AcDbLine
 10
6.855860219027157
 20
-2.429294663382845
 30
0.0
 11
6.855860219027157
 21
-2.534285101682845
 31
0.0
  0
LINE
  5
C503
102
{ACAD_REACTORS
330
C4E3
102
}
330
C4DE
100
AcDbEntity
  8
0
  6
Continuous
 62
     7
370
    15
100
AcDbLine
 10
6.855860219027157
 20
-2.534285101682845
 30
0.0
 11
6.906167477927156
 21
-2.534285101682845
 31
0.0
  0
ARC
  5
C504
102
{ACAD_REACTORS
330
C4E3
102
}
330
C4DE
100
AcDbEntity
  8
0
  6
Continuous
 62
     7
370
    15
100
AcDbCircle
 10
6.906153707627155
 20
-2.490937190982845
 30
0.0
 40
0.0433479148632238
100
AcDbArc
 50
270.0181584594
 51
289.8507158831
  0
ARC
  5
C505
102
{ACAD_REACTORS
330
C4E3
102
}
330
C4DE
100
AcDbEntity
  8
0
  6
Continuous
 62
     7
370
    15
100
AcDbCircle
 10
6.911384295927157
 20
-2.505415203482844
 30
0.0
 40
0.0279540238095668
100
AcDbArc
 50
289.8435790134
 51
2.222167713999982
  0
ARC
  5
C506
102
{ACAD_REACTORS
330
C4E3
102
}
330
C4DE
100
AcDbEntity
  8
0
  6
Continuous
 62
     7
370
    15
100
AcDbCircle
 10
6.911145075327156
 20
-2.503482871582844
 30
0.0
 40
0.0281849953663461
100
AcDbArc
 50
358.2750093542999
 51
69.1859787468
  0
ARC
  5
C507
102
{ACAD_REACTORS
330
C4E3
102
}
330
C4DE
100
AcDbEntity
  8
0
  6
Continuous
 62
     7
370
    15
100
AcDbCircle
 10
6.900384175127157
 20
-2.493727653982845
 30
0.0
 40
0.0230736156625213
100
AcDbArc
 50
270.0000000021
 51
299.6729218121
  0
ARC
  5
C508
102
{ACAD_REACTORS
330
C4E3
102
}
330
C4DE
100
AcDbEntity
  8
0
  6
Continuous
 62
     7
370
    15
100
AcDbCircle
 10
6.905084866927158
 20
-2.503065769382845
 30
0.0
 40
0.0126444541283982
100
AcDbArc
 50
302.1139766277
 51
357.5033071323001
  0
SPLINE
  5
C509
102
{ACAD_REACTORS
330
C4E3
102
}
330
C4DE
100
AcDbEntity
  8
0
  6
Continuous
 62
     7
370
    15
100
AcDbSpline
210
0.0
220
0.0
230
1.0
 70
     8
 71
     3
 72
     8
 73
     4
 74
     0
 42
0.000000001
 43
0.0000000001
 40
0.0
 40
0.0
 40
0.0
 40
0.0
 40
1.0
 40
1.0
 40
1.0
 40
1.0
 10
6.917717318165067
 20
-2.503616583572982
 30
0.0
 10
6.917765569072273
 20
-2.502509988822556
 30
0.0
 10
6.917734181256207
 20
-2.501405648970588
 30
0.0
 10
6.917623430238558
 20
-2.500303536250148
 30
0.0
  0
HATCH
  5
C50A
330
C4DE
100
AcDbEntity
  8
0
100
AcDbHatch
 10
0.0
 20
0.0
 30
0.0
210
0.0
220
0.0
230
1.0
  2
SOLID
 70
     1
 71
     1
 91
        2
 92
        1
 93
        8
 72
     1
 10
7.219521596025813
 20
-2.534285107782844
 11
7.242488792925811
 21
-2.534285107782844
 72
     1
 10
7.242488792925811
 20
-2.534285107782844
 11
7.205305653525812
 21
-2.429294186782845
 72
     1
 10
7.205305653525812
 20
-2.429294186782845
 11
7.181246633725812
 21
-2.429294186782845
 72
     1
 10
7.181246633725812
 20
-2.429294186782845
 11
7.144061685525811
 21
-2.534285107782844
 72
     1
 10
7.144061685525811
 20
-2.534285107782844
 11
7.167027073525813
 21
-2.534285107782844
 72
     1
 10
7.167027073525813
 20
-2.534285107782844
 11
7.174684598425812
 21
-2.511317941482845
 72
     1
 10
7.174684598425812
 20
-2.511317941482845
 11
7.211213318625812
 21
-2.511317941482845
 72
     1
 10
7.211213318625812
 20
-2.511317941482845
 11
7.219521596025813
 21
-2.534285107782844
 97
        8
330
C520
330
C50B
330
C50C
330
C50D
330
C50E
330
C50F
330
C510
330
C51F
 92
       16
 93
        3
 72
     1
 10
7.193275263625812
 20
-2.451167666282845
 11
7.180152953025811
 21
-2.494916446482845
 72
     1
 10
7.180152953025811
 20
-2.494916446482845
 11
7.206401143125813
 21
-2.494916446482845
 72
     1
 10
7.206401143125813
 20
-2.494916446482845
 11
7.193275263625812
 21
-2.451167666282845
 97
        3
330
C515
330
C513
330
C514
 75
     0
 76
     1
 98
        1
 10
0.0
 20
0.0
450
        0
451
        0
460
0.0
461
0.0
452
        1
462
1.0
453
        2
463
0.0
 63
     5
421
      255
463
1.0
 63
    51
421
 16777113
470
LINEAR
1001
ACAD
1010
0.0
1020
0.0
1030
0.0
  0
LINE
  5
C50B
102
{ACAD_REACTORS
330
C50A
102
}
330
C4DE
100
AcDbEntity
  8
0
  6
Continuous
 62
     7
370
    15
100
AcDbLine
 10
7.242488792925811
 20
-2.534285107782844
 30
0.0
 11
7.205305653525812
 21
-2.429294186782845
 31
0.0
  0
LINE
  5
C50C
102
{ACAD_REACTORS
330
C50A
102
}
330
C4DE
100
AcDbEntity
  8
0
  6
Continuous
 62
     7
370
    15
100
AcDbLine
 10
7.205305653525812
 20
-2.429294186782845
 30
0.0
 11
7.181246633725812
 21
-2.429294186782845
 31
0.0
  0
LINE
  5
C50D
102
{ACAD_REACTORS
330
C50A
102
}
330
C4DE
100
AcDbEntity
  8
0
  6
Continuous
 62
     7
370
    15
100
AcDbLine
 10
7.181246633725812
 20
-2.429294186782845
 30
0.0
 11
7.144061685525811
 21
-2.534285107782844
 31
0.0
  0
LINE
  5
C50E
102
{ACAD_REACTORS
330
C50A
102
}
330
C4DE
100
AcDbEntity
  8
0
  6
Continuous
 62
     7
370
    15
100
AcDbLine
 10
7.144061685525811
 20
-2.534285107782844
 30
0.0
 11
7.167027073525813
 21
-2.534285107782844
 31
0.0
  0
LINE
  5
C50F
102
{ACAD_REACTORS
330
C50A
102
}
330
C4DE
100
AcDbEntity
  8
0
  6
Continuous
 62
     7
370
    15
100
AcDbLine
 10
7.167027073525813
 20
-2.534285107782844
 30
0.0
 11
7.174684598425812
 21
-2.511317941482845
 31
0.0
  0
LINE
  5
C510
102
{ACAD_REACTORS
330
C50A
102
}
330
C4DE
100
AcDbEntity
  8
0
  6
Continuous
 62
     7
370
    15
100
AcDbLine
 10
7.174684598425812
 20
-2.511317941482845
 30
0.0
 11
7.211213318625812
 21
-2.511317941482845
 31
0.0
  0
LINE
  5
C511
102
{ACAD_REACTORS
330
C4F1
102
}
330
C4DE
100
AcDbEntity
  8
0
  6
Continuous
 62
     7
370
    15
100
AcDbLine
 10
6.973973432327157
 20
-2.516788129382845
 30
0.0
 11
6.973973432327157
 21
-2.486165240882845
 31
0.0
  0
LINE
  5
C512
102
{ACAD_REACTORS
330
C4F1
102
}
330
C4DE
100
AcDbEntity
  8
0
  6
Continuous
 62
     7
370
    15
100
AcDbLine
 10
6.973973432327157
 20
-2.486165240882845
 30
0.0
 11
7.023188770527157
 21
-2.486165240882845
 31
0.0
  0
LINE
  5
C513
102
{ACAD_REACTORS
330
C50A
102
}
330
C4DE
100
AcDbEntity
  8
0
  6
Continuous
 62
     7
370
    15
100
AcDbLine
 10
7.180152953025811
 20
-2.494916446482845
 30
0.0
 11
7.206401143125813
 21
-2.494916446482845
 31
0.0
  0
LINE
  5
C514
102
{ACAD_REACTORS
330
C50A
102
}
330
C4DE
100
AcDbEntity
  8
0
  6
Continuous
 62
     7
370
    15
100
AcDbLine
 10
7.206401143125813
 20
-2.494916446482845
 30
0.0
 11
7.193275263625812
 21
-2.451167666282845
 31
0.0
  0
LINE
  5
C515
102
{ACAD_REACTORS
330
C50A
102
}
330
C4DE
100
AcDbEntity
  8
0
  6
Continuous
 62
     7
370
    15
100
AcDbLine
 10
7.193275263625812
 20
-2.451167666282845
 30
0.0
 11
7.180152953025811
 21
-2.494916446482845
 31
0.0
  0
LINE
  5
C516
102
{ACAD_REACTORS
330
C4E3
102
}
330
C4DE
100
AcDbEntity
  8
0
  6
Continuous
 62
     7
370
    15
100
AcDbLine
 10
6.876636387927156
 20
-2.470859895482845
 30
0.0
 11
6.899094999627157
 21
-2.470859895482845
 31
0.0
  0
SPLINE
  5
C517
102
{ACAD_REACTORS
330
C4E0
102
}
330
C4DE
100
AcDbEntity
  8
0
  6
Continuous
 62
     7
370
    15
100
AcDbSpline
210
0.0
220
0.0
230
1.0
 70
     8
 71
     3
 72
     8
 73
     4
 74
     0
 42
0.000000001
 43
0.0000000001
 40
0.0
 40
0.0
 40
0.0
 40
0.0
 40
11.8016654154607
 40
11.8016654154607
 40
11.8016654154607
 40
11.8016654154607
 10
7.035577472388887
 20
-2.481201227998744
 30
0.0
 10
7.03544731696475
 20
-2.515837259605794
 30
0.0
 10
7.057892042171959
 20
-2.536879190038558
 30
0.0
 10
7.085416479737973
 20
-2.536946076400318
 30
0.0
  0
SPLINE
  5
C518
102
{ACAD_REACTORS
330
C4E3
102
}
330
C4DE
100
AcDbEntity
  8
0
  6
Continuous
 62
     7
370
    15
100
AcDbSpline
210
0.0
220
0.0
230
1.0
 70
     8
 71
     3
 72
    10
 73
     6
 74
     0
 42
0.000000001
 43
0.0000000001
 40
0.0
 40
0.0
 40
0.0
 40
0.0
 40
0.5
 40
0.5
 40
1.0
 40
1.0
 40
1.0
 40
1.0
 10
6.917623430238558
 20
-2.500303536250148
 30
0.0
 10
6.917405671676237
 20
-2.49813656654854
 30
0.0
 10
6.916659848823567
 20
-2.49602188163258
 30
0.0
 10
6.914280738359588
 20
-2.492370764145272
 30
0.0
 10
6.912647447353577
 20
-2.490834326364914
 30
0.0
 10
6.910753031288428
 20
-2.489759943258022
 30
0.0
  0
ARC
  5
C519
102
{ACAD_REACTORS
330
C4E3
102
}
330
C4DE
100
AcDbEntity
  8
0
  6
Continuous
 62
     7
370
    15
100
AcDbCircle
 10
6.900262396127157
 20
-2.510424799282845
 30
0.0
 40
0.023175195852144
100
AcDbArc
 50
63.08510597700003
 51
89.99999999290002
  0
LINE
  5
C51A
102
{ACAD_REACTORS
330
C4E3
102
}
330
C4DE
100
AcDbEntity
  8
0
  6
Continuous
 62
     7
370
    15
100
AcDbLine
 10
6.900262355027152
 20
-2.487249608382845
 30
0.0
 11
6.876636387927156
 21
-2.487249608382845
 31
0.0
  0
LINE
  5
C51B
102
{ACAD_REACTORS
330
C4E3
102
}
330
C4DE
100
AcDbEntity
  8
0
  6
Continuous
 62
     7
370
    15
100
AcDbLine
 10
6.876636387927156
 20
-2.487249608382845
 30
0.0
 11
6.876636387927156
 21
-2.516801268082845
 31
0.0
  0
LINE
  5
C51C
102
{ACAD_REACTORS
330
C4E3
102
}
330
C4DE
100
AcDbEntity
  8
0
  6
Continuous
 62
     7
370
    15
100
AcDbLine
 10
6.876636387927156
 20
-2.516801268082845
 30
0.0
 11
6.900384184727156
 21
-2.516801268082845
 31
0.0
  0
ARC
  5
C51D
102
{ACAD_REACTORS
330
C4E3
102
}
330
C4DE
100
AcDbEntity
  8
0
  6
Continuous
 62
     7
370
    15
100
AcDbCircle
 10
6.899095014227156
 20
-2.449481463082845
 30
0.0
 40
0.021378434297707
100
AcDbArc
 50
270.0000000507
 51
302.7538327093
  0
ARC
  5
C51E
102
{ACAD_REACTORS
330
C4E3
102
}
330
C4DE
100
AcDbEntity
  8
0
  6
Continuous
 62
     7
370
    15
100
AcDbCircle
 10
6.905897067027157
 20
-2.459258813382845
 30
0.0
 40
0.0094853188547192
100
AcDbArc
 50
300.1513158430999
 51
0.8238440749000069
  0
LINE
  5
C51F
102
{ACAD_REACTORS
330
C50A
102
}
330
C4DE
100
AcDbEntity
  8
0
  6
Continuous
 62
     7
370
    15
100
AcDbLine
 10
7.211213318625812
 20
-2.511317941482845
 30
0.0
 11
7.219521596025813
 21
-2.534285107782844
 31
0.0
  0
LINE
  5
C520
102
{ACAD_REACTORS
330
C50A
102
}
330
C4DE
100
AcDbEntity
  8
0
  6
Continuous
 62
     7
370
    15
100
AcDbLine
 10
7.219521596025813
 20
-2.534285107782844
 30
0.0
 11
7.242488792925811
 21
-2.534285107782844
 31
0.0
  0
ARC
  5
C521
102
{ACAD_REACTORS
330
C4E3
102
}
330
C4DE
100
AcDbEntity
  8
0
  6
Continuous
 62
     7
370
    15
100
AcDbCircle
 10
6.901452276727156
 20
-2.464087284082844
 30
0.0
 40
0.0173041711593509
100
AcDbArc
 50
55.19321811040001
 51
89.99999999280001
  0
LINE
  5
C522
102
{ACAD_REACTORS
330
C4E3
102
}
330
C4DE
100
AcDbEntity
  8
0
  6
Continuous
 62
     7
370
    15
100
AcDbLine
 10
6.901452296827157
 20
-2.446783116982845
 30
0.0
 11
6.876636387927156
 21
-2.446783116982845
 31
0.0
  0
LINE
  5
C523
102
{ACAD_REACTORS
330
C4E3
102
}
330
C4DE
100
AcDbEntity
  8
0
  6
Continuous
 62
     7
370
    15
100
AcDbLine
 10
6.876636387927156
 20
-2.446783116982845
 30
0.0
 11
6.876636387927156
 21
-2.470859895482845
 31
0.0
  0
ENDBLK
  5
C524
330
C4DE
100
AcDbEntity
  8
0
100
AcDbBlockEnd
  0
BLOCK
  5
C542
330
C53E
100
AcDbEntity
  8
0
100
AcDbBlockBegin
  2
bega logo
 70
     0
 10
0.0
 20
0.0
 30
0.0
  3
bega logo
  1

  0
INSERT
  5
C53F
330
C53E
100
AcDbEntity
  8
0
100
AcDbBlockReference
  2
bega
 10
-138.8202300585621
 20
53.61275461362001
 30
0.0
 41
20.43278469033529
 42
20.43278469033529
 43
20.43278469033529
  0
ENDBLK
  5
C543
330
C53E
100
AcDbEntity
  8
0
100
AcDbBlockEnd
  0
BLOCK
  5
105B8
330
105B7
100
AcDbEntity
  8
0
100
AcDbBlockBegin
  2
*D114
 70
     1
 10
0.0
 20
0.0
 30
0.0
  3
*D114
  1

  0
LINE
  5
10634
330
105B7
100
AcDbEntity
  8
DIM
440
 16777216
370
    20
100
AcDbLine
 10
73.51906394243229
 20
22.09958533741769
 30
0.0
 11
73.51906394243229
 21
23.67532949955125
 31
0.0
  0
LINE
  5
10635
330
105B7
100
AcDbEntity
  8
DIM
440
 16777216
370
    20
100
AcDbLine
 10
79.4767167674323
 20
17.00907351241772
 30
0.0
 11
79.4767167674323
 21
23.67532949955124
 31
0.0
  0
LINE
  5
10636
330
105B7
100
AcDbEntity
  8
DIM
440
 16777216
100
AcDbLine
 10
74.0190639424323
 20
23.57532949955125
 30
0.0
 11
75.98122368826563
 21
23.57532949955125
 31
0.0
  0
LINE
  5
10637
330
105B7
100
AcDbEntity
  8
DIM
440
 16777216
100
AcDbLine
 10
78.97671676743229
 20
23.57532949955125
 30
0.0
 11
77.01455702159894
 21
23.57532949955125
 31
0.0
  0
SOLID
  5
10638
330
105B7
100
AcDbEntity
  8
DIM
440
 16777216
100
AcDbTrace
 10
74.0190639424323
 20
23.65866283288458
 30
0.0
 11
74.0190639424323
 21
23.49199616621792
 31
0.0
 12
73.51906394243229
 22
23.57532949955125
 32
0.0
 13
73.51906394243229
 23
23.57532949955125
 33
0.0
  0
SOLID
  5
10639
330
105B7
100
AcDbEntity
  8
DIM
440
 16777216
100
AcDbTrace
 10
78.97671676743229
 20
23.65866283288458
 30
0.0
 11
78.97671676743229
 21
23.49199616621792
 31
0.0
 12
79.4767167674323
 22
23.57532949955125
 32
0.0
 13
79.4767167674323
 23
23.57532949955125
 33
0.0
  0
MTEXT
  5
1063A
330
105B7
100
AcDbEntity
  8
DIM
440
 16777216
100
AcDbMText
 10
76.49789035493229
 20
23.57532949955125
 30
0.0
 40
0.4
 41
0.0
 71
     5
 72
     1
  1
\A1;6"
 73
     1
 44
1.0
  0
POINT
  5
1063B
330
105B7
100
AcDbEntity
  8
Defpoints
 62
     0
440
 16777216
100
AcDbPoint
 10
73.51906394243229
 20
21.97958533741769
 30
0.0
  0
POINT
  5
1063C
330
105B7
100
AcDbEntity
  8
Defpoints
 62
     0
440
 16777216
100
AcDbPoint
 10
79.4767167674323
 20
16.88907351241772
 30
0.0
  0
POINT
  5
1063D
330
105B7
100
AcDbEntity
  8
Defpoints
 62
     0
440
 16777216
100
AcDbPoint
 10
79.4767167674323
 20
23.57532949955125
 30
0.0
  0
ENDBLK
  5
105B9
330
105B7
100
AcDbEntity
  8
0
100
AcDbBlockEnd
  0
BLOCK
  5
105C6
330
105C5
100
AcDbEntity
  8
0
100
AcDbBlockBegin
  2
*D115
 70
     1
 10
0.0
 20
0.0
 30
0.0
  3
*D115
  1

  0
LINE
  5
105C8
330
105C5
100
AcDbEntity
  8
DIM
440
 16777216
370
    20
100
AcDbLine
 10
84.56519489717848
 20
17.0346935874177
 30
0.0
 11
84.56519489717848
 21
23.65509859347532
 31
0.0
  0
LINE
  5
105C9
330
105C5
100
AcDbEntity
  8
DIM
440
 16777216
370
    20
100
AcDbLine
 10
94.79986742217848
 20
17.0346935874177
 30
0.0
 11
94.79986742217848
 21
23.65509859347532
 31
0.0
  0
LINE
  5
105CA
330
105C5
100
AcDbEntity
  8
DIM
440
 16777216
100
AcDbLine
 10
85.06519489717849
 20
23.55509859347533
 30
0.0
 11
88.69919782634516
 21
23.55509859347533
 31
0.0
  0
LINE
  5
105CB
330
105C5
100
AcDbEntity
  8
DIM
440
 16777216
100
AcDbLine
 10
94.29986742217847
 20
23.55509859347533
 30
0.0
 11
90.66586449301182
 21
23.55509859347533
 31
0.0
  0
SOLID
  5
105CC
330
105C5
100
AcDbEntity
  8
DIM
440
 16777216
100
AcDbTrace
 10
85.06519489717849
 20
23.63843192680866
 30
0.0
 11
85.06519489717849
 21
23.471765260142
 31
0.0
 12
84.56519489717848
 22
23.55509859347533
 32
0.0
 13
84.56519489717848
 23
23.55509859347533
 33
0.0
  0
SOLID
  5
105CD
330
105C5
100
AcDbEntity
  8
DIM
440
 16777216
100
AcDbTrace
 10
94.29986742217847
 20
23.63843192680866
 30
0.0
 11
94.29986742217847
 21
23.471765260142
 31
0.0
 12
94.79986742217848
 22
23.55509859347533
 32
0.0
 13
94.79986742217848
 23
23.55509859347533
 33
0.0
  0
MTEXT
  5
105CE
330
105C5
100
AcDbEntity
  8
DIM
440
 16777216
100
AcDbMText
 10
89.68253115967847
 20
23.55509859347533
 30
0.0
 40
0.4
 41
0.0
 71
     5
 72
     1
  1
\A1;10{\H1.000000x;\S1#4;}"
 73
     1
 44
1.0
  0
POINT
  5
105CF
330
105C5
100
AcDbEntity
  8
Defpoints
 62
     0
440
 16777216
100
AcDbPoint
 10
84.56519489717848
 20
16.9146935874177
 30
0.0
  0
POINT
  5
105D0
330
105C5
100
AcDbEntity
  8
Defpoints
 62
     0
440
 16777216
100
AcDbPoint
 10
94.79986742217848
 20
16.9146935874177
 30
0.0
  0
POINT
  5
105D1
330
105C5
100
AcDbEntity
  8
Defpoints
 62
     0
440
 16777216
100
AcDbPoint
 10
94.79986742217848
 20
23.55509859347533
 30
0.0
  0
ENDBLK
  5
105C7
330
105C5
100
AcDbEntity
  8
0
100
AcDbBlockEnd
  0
ENDSEC
  0
SECTION
  2
ENTITIES
  0
LINE
  5
10222
330
1E
100
AcDbEntity
  8
PART
  6
Continuous
100
AcDbLine
 10
73.51906394243229
 20
21.97958533741769
 30
0.0
 11
74.66014266743229
 21
21.94016983741773
 31
0.0
  0
LINE
  5
10224
330
1E
100
AcDbEntity
  8
PART
  6
Continuous
100
AcDbLine
 10
74.74685676743231
 20
21.93622828741769
 30
0.0
 11
75.47210196743231
 21
21.91060821241769
 31
0.0
  0
LINE
  5
10225
330
1E
100
AcDbEntity
  8
PART
  6
Continuous
100
AcDbLine
 10
75.47210196743231
 20
21.91060821241769
 30
0.0
 11
75.5942900174323
 21
21.8810465874177
 31
0.0
  0
LINE
  5
10226
330
1E
100
AcDbEntity
  8
PART
  6
Continuous
100
AcDbLine
 10
75.5942900174323
 20
21.8810465874177
 30
0.0
 11
75.75323327244984
 21
21.8341640445708
 31
0.0
  0
LINE
  5
10227
330
1E
100
AcDbEntity
  8
PART
  6
Continuous
100
AcDbLine
 10
75.75323327244984
 20
21.8341640445708
 30
0.0
 11
75.86822774243231
 21
21.8002448124177
 31
0.0
  0
LINE
  5
10228
330
1E
100
AcDbEntity
  8
PART
  6
Continuous
100
AcDbLine
 10
75.86822774243231
 20
21.8002448124177
 30
0.0
 11
75.88793549243231
 21
21.7923617124177
 31
0.0
  0
LINE
  5
1022D
330
1E
100
AcDbEntity
  8
PART
  6
Continuous
100
AcDbLine
 10
76.0061819924323
 20
21.75097543741771
 30
0.0
 11
76.3313598674323
 21
21.6248458374177
 31
0.0
  0
LINE
  5
1022E
330
1E
100
AcDbEntity
  8
PART
  6
Continuous
100
AcDbLine
 10
76.3313598674323
 20
21.6248458374177
 30
0.0
 11
76.48902186743232
 21
21.55586871241769
 31
0.0
  0
LINE
  5
1022F
330
1E
100
AcDbEntity
  8
PART
  6
Continuous
100
AcDbLine
 10
76.48902186743232
 20
21.55586871241769
 30
0.0
 11
76.63190305493229
 21
21.48492081241773
 31
0.0
  0
LINE
  5
10230
330
1E
100
AcDbEntity
  8
PART
  6
Continuous
100
AcDbLine
 10
76.63190305493229
 20
21.48492081241773
 30
0.0
 11
76.7747842424323
 21
21.41397291241771
 31
0.0
  0
LINE
  5
10231
330
1E
100
AcDbEntity
  8
PART
  6
Continuous
100
AcDbLine
 10
76.7747842424323
 20
21.41397291241771
 30
0.0
 11
76.96339273635121
 21
21.30360951241772
 31
0.0
  0
LINE
  5
10232
330
1E
100
AcDbEntity
  8
PART
  6
Continuous
100
AcDbLine
 10
76.96339273635121
 20
21.30360951241772
 30
0.0
 11
77.0566050674323
 21
21.24842781241773
 31
0.0
  0
LINE
  5
10233
330
1E
100
AcDbEntity
  8
PART
  6
Continuous
100
AcDbLine
 10
77.0566050674323
 20
21.24842781241773
 30
0.0
 11
77.07796183324865
 21
21.23418996854014
 31
0.0
  0
LINE
  5
10234
330
1E
100
AcDbEntity
  8
PART
  6
Continuous
100
AcDbLine
 10
77.07796183324865
 20
21.23418996854014
 30
0.0
 11
77.29309806743231
 21
21.09076581241771
 31
0.0
  0
LINE
  5
10235
330
1E
100
AcDbEntity
  8
PART
  6
Continuous
100
AcDbLine
 10
77.29309806743231
 20
21.09076581241771
 30
0.0
 11
77.39986266091055
 21
21.01069236730899
 31
0.0
  0
LINE
  5
10236
330
1E
100
AcDbEntity
  8
PART
  6
Continuous
100
AcDbLine
 10
77.39986266091055
 20
21.01069236730899
 30
0.0
 11
77.50126586020795
 21
20.93463996783595
 31
0.0
  0
LINE
  5
10237
330
1E
100
AcDbEntity
  8
PART
  6
Continuous
100
AcDbLine
 10
77.50126586020795
 20
20.93463996783595
 30
0.0
 11
77.52170796743229
 21
20.91930838741768
 31
0.0
  0
LINE
  5
10238
330
1E
100
AcDbEntity
  8
PART
  6
Continuous
100
AcDbLine
 10
77.52170796743229
 20
20.91930838741768
 30
0.0
 11
77.59933196418059
 21
20.85357275053173
 31
0.0
  0
LINE
  5
10239
330
1E
100
AcDbEntity
  8
PART
  6
Continuous
100
AcDbLine
 10
77.59933196418059
 20
20.85357275053173
 30
0.0
 11
77.69520412519091
 21
20.77238371327979
 31
0.0
  0
LINE
  5
1023A
330
1E
100
AcDbEntity
  8
PART
  6
Continuous
100
AcDbLine
 10
77.69520412519091
 20
20.77238371327979
 30
0.0
 11
77.74046399243231
 21
20.7340555374177
 31
0.0
  0
LINE
  5
1023B
330
1E
100
AcDbEntity
  8
PART
  6
Continuous
100
AcDbLine
 10
77.74046399243231
 20
20.7340555374177
 30
0.0
 11
77.78797725561151
 21
20.68967994256167
 31
0.0
  0
LINE
  5
1023C
330
1E
100
AcDbEntity
  8
PART
  6
Continuous
100
AcDbLine
 10
77.78797725561151
 20
20.68967994256167
 30
0.0
 11
77.87740363523987
 21
20.60615907856913
 31
0.0
  0
LINE
  5
1023D
330
1E
100
AcDbEntity
  8
PART
  6
Continuous
100
AcDbLine
 10
77.87740363523987
 20
20.60615907856913
 30
0.0
 11
77.9493661424323
 21
20.53894881241768
 31
0.0
  0
LINE
  5
1023E
330
1E
100
AcDbEntity
  8
PART
  6
Continuous
100
AcDbLine
 10
77.9493661424323
 20
20.53894881241768
 30
0.0
 11
77.96656296095313
 21
20.52089215297081
 31
0.0
  0
LINE
  5
1023F
330
1E
100
AcDbEntity
  8
PART
  6
Continuous
100
AcDbLine
 10
77.96656296095313
 20
20.52089215297081
 30
0.0
 11
78.05061319672678
 21
20.43263940540851
 31
0.0
  0
LINE
  5
10240
330
1E
100
AcDbEntity
  8
PART
  6
Continuous
100
AcDbLine
 10
78.05061319672678
 20
20.43263940540851
 30
0.0
 11
78.1349862175876
 21
20.34404773350468
 31
0.0
  0
LINE
  5
10241
330
1E
100
AcDbEntity
  8
PART
  6
Continuous
100
AcDbLine
 10
78.1349862175876
 20
20.34404773350468
 30
0.0
 11
78.1464436424323
 21
20.33201743741773
 31
0.0
  0
LINE
  5
10242
330
1E
100
AcDbEntity
  8
PART
  6
Continuous
100
AcDbLine
 10
78.1464436424323
 20
20.33201743741773
 30
0.0
 11
78.29031021743229
 21
20.16253078741772
 31
0.0
  0
LINE
  5
10243
330
1E
100
AcDbEntity
  8
PART
  6
Continuous
100
AcDbLine
 10
78.29031021743229
 20
20.16253078741772
 30
0.0
 11
78.33169649243231
 21
20.11326141241773
 31
0.0
  0
LINE
  5
10244
330
1E
100
AcDbEntity
  8
PART
  6
Continuous
100
AcDbLine
 10
78.33169649243231
 20
20.11326141241773
 30
0.0
 11
78.36557528230506
 21
20.06898799383401
 31
0.0
  0
LINE
  5
10245
330
1E
100
AcDbEntity
  8
PART
  6
Continuous
100
AcDbLine
 10
78.36557528230506
 20
20.06898799383401
 30
0.0
 11
78.41841059243231
 21
19.99994184991772
 31
0.0
  0
LINE
  5
10246
330
1E
100
AcDbEntity
  8
PART
  6
Continuous
100
AcDbLine
 10
78.41841059243231
 20
19.99994184991772
 30
0.0
 11
78.50512469243231
 21
19.88662228741771
 31
0.0
  0
LINE
  5
10247
330
1E
100
AcDbEntity
  8
PART
  6
Continuous
100
AcDbLine
 10
78.50512469243231
 20
19.88662228741771
 30
0.0
 11
78.57575499770672
 21
19.78198479812227
 31
0.0
  0
LINE
  5
10248
330
1E
100
AcDbEntity
  8
PART
  6
Continuous
100
AcDbLine
 10
78.57575499770672
 20
19.78198479812227
 30
0.0
 11
78.66475746743231
 21
19.65012928741771
 31
0.0
  0
LINE
  5
10249
330
1E
100
AcDbEntity
  8
PART
  6
Continuous
100
AcDbLine
 10
78.66475746743231
 20
19.65012928741771
 30
0.0
 11
78.81256559243229
 21
19.4057531874177
 31
0.0
  0
LINE
  5
1024A
330
1E
100
AcDbEntity
  8
PART
  6
Continuous
100
AcDbLine
 10
78.81256559243229
 20
19.4057531874177
 30
0.0
 11
78.88122652944537
 21
19.27549935102524
 31
0.0
  0
LINE
  5
1024B
330
1E
100
AcDbEntity
  8
PART
  6
Continuous
100
AcDbLine
 10
78.88122652944537
 20
19.27549935102524
 30
0.0
 11
78.94657829243231
 21
19.15152321241771
 31
0.0
  0
LINE
  5
1024C
330
1E
100
AcDbEntity
  8
PART
  6
Continuous
100
AcDbLine
 10
78.94657829243231
 20
19.15152321241771
 30
0.0
 11
79.0648247924323
 21
18.89138091241773
 31
0.0
  0
LINE
  5
1024D
330
1E
100
AcDbEntity
  8
PART
  6
Continuous
100
AcDbLine
 10
79.0648247924323
 20
18.89138091241773
 30
0.0
 11
79.08296138333935
 21
18.84518393557903
 31
0.0
  0
LINE
  5
1024E
330
1E
100
AcDbEntity
  8
PART
  6
Continuous
100
AcDbLine
 10
79.08296138333935
 20
18.84518393557903
 30
0.0
 11
79.12591881743231
 21
18.73568968741773
 31
0.0
  0
LINE
  5
1024F
330
1E
100
AcDbEntity
  8
PART
  6
Continuous
100
AcDbLine
 10
79.12591881743231
 20
18.73568968741773
 30
0.0
 11
79.1696043724407
 21
18.62434791380571
 31
0.0
  0
LINE
  5
10250
330
1E
100
AcDbEntity
  8
PART
  6
Continuous
100
AcDbLine
 10
79.1696043724407
 20
18.62434791380571
 30
0.0
 11
79.20792397350976
 21
18.51022214540444
 31
0.0
  0
LINE
  5
10251
330
1E
100
AcDbEntity
  8
PART
  6
Continuous
100
AcDbLine
 10
79.20792397350976
 20
18.51022214540444
 30
0.0
 11
79.24637467048419
 21
18.39570593919797
 31
0.0
  0
LINE
  5
10252
330
1E
100
AcDbEntity
  8
PART
  6
Continuous
100
AcDbLine
 10
79.24637467048419
 20
18.39570593919797
 30
0.0
 11
79.25993151743231
 21
18.35533011241773
 31
0.0
  0
LINE
  5
10253
330
1E
100
AcDbEntity
  8
PART
  6
Continuous
100
AcDbLine
 10
79.25993151743231
 20
18.35533011241773
 30
0.0
 11
79.28090320970262
 21
18.27806598300077
 31
0.0
  0
LINE
  5
10254
330
1E
100
AcDbEntity
  8
PART
  6
Continuous
100
AcDbLine
 10
79.28090320970262
 20
18.27806598300077
 30
0.0
 11
79.31272631507891
 21
18.16082296319336
 31
0.0
  0
LINE
  5
10255
330
1E
100
AcDbEntity
  8
PART
  6
Continuous
100
AcDbLine
 10
79.31272631507891
 20
18.16082296319336
 30
0.0
 11
79.3348209674323
 21
18.07942161241772
 31
0.0
  0
LINE
  5
10256
330
1E
100
AcDbEntity
  8
PART
  6
Continuous
100
AcDbLine
 10
79.3348209674323
 20
18.07942161241772
 30
0.0
 11
79.39394421743229
 21
17.79957156241772
 31
0.0
  0
LINE
  5
10257
330
1E
100
AcDbEntity
  8
PART
  6
Continuous
100
AcDbLine
 10
79.39394421743229
 20
17.79957156241772
 30
0.0
 11
79.4373012674323
 21
17.51577996241769
 31
0.0
  0
LINE
  5
10258
330
1E
100
AcDbEntity
  8
PART
  6
Continuous
100
AcDbLine
 10
79.4373012674323
 20
17.51577996241769
 30
0.0
 11
79.44729665688807
 21
17.41982422364219
 31
0.0
  0
LINE
  5
10259
330
1E
100
AcDbEntity
  8
PART
  6
Continuous
100
AcDbLine
 10
79.44729665688807
 20
17.41982422364219
 30
0.0
 11
79.4637835564948
 21
17.26154998741771
 31
0.0
  0
LINE
  5
1025A
330
1E
100
AcDbEntity
  8
PART
  6
Continuous
100
AcDbLine
 10
79.4637835564948
 20
17.26154998741771
 30
0.0
 11
79.4747459924323
 21
17.26154998741771
 31
0.0
  0
LINE
  5
1025B
330
1E
100
AcDbEntity
  8
PART
  6
Continuous
100
AcDbLine
 10
79.4747459924323
 20
17.26154998741771
 30
0.0
 11
79.4767167674323
 21
17.25760843741773
 31
0.0
  0
LINE
  5
1025C
330
1E
100
AcDbEntity
  8
PART
  6
Continuous
100
AcDbLine
 10
79.4767167674323
 20
17.25760843741773
 30
0.0
 11
79.4767167674323
 21
17.24578378741768
 31
0.0
  0
LINE
  5
1025D
330
1E
100
AcDbEntity
  8
PART
  6
Continuous
100
AcDbLine
 10
79.4767167674323
 20
17.24578378741768
 30
0.0
 11
79.47868754243231
 21
17.23198836241772
 31
0.0
  0
LINE
  5
1025E
330
1E
100
AcDbEntity
  8
PART
  6
Continuous
100
AcDbLine
 10
79.47868754243231
 20
17.23198836241772
 30
0.0
 11
79.48459986743229
 21
17.12162496241768
 31
0.0
  0
LINE
  5
1025F
330
1E
100
AcDbEntity
  8
PART
  6
Continuous
100
AcDbLine
 10
79.48459986743229
 20
17.12162496241768
 30
0.0
 11
79.48459986743229
 21
17.10191721241773
 31
0.0
  0
LINE
  5
10260
330
1E
100
AcDbEntity
  8
PART
  6
Continuous
100
AcDbLine
 10
79.48459986743229
 20
17.10191721241773
 30
0.0
 11
79.4865706424323
 21
17.09600488741773
 31
0.0
  0
LINE
  5
10261
330
1E
100
AcDbEntity
  8
PART
  6
Continuous
100
AcDbLine
 10
79.4865706424323
 20
17.09600488741773
 30
0.0
 11
79.4865706424323
 21
17.09403411241772
 31
0.0
  0
LINE
  5
10262
330
1E
100
AcDbEntity
  8
PART
  6
Continuous
100
AcDbLine
 10
79.4865706424323
 20
17.09403411241772
 30
0.0
 11
79.47351425805731
 21
17.09403411241772
 31
0.0
  0
LINE
  5
10263
330
1E
100
AcDbEntity
  8
PART
  6
Continuous
100
AcDbLine
 10
79.47351425805731
 20
17.09403411241772
 30
0.0
 11
79.47868754243231
 21
16.90089816241772
 31
0.0
  0
LINE
  5
10264
330
1E
100
AcDbEntity
  8
PART
  6
Continuous
100
AcDbLine
 10
79.47868754243231
 20
16.90089816241772
 30
0.0
 11
79.4767167674323
 21
16.88907351241772
 31
0.0
  0
LINE
  5
10265
330
1E
100
AcDbEntity
  8
PART
  6
Continuous
100
AcDbLine
 10
79.4767167674323
 20
16.88907351241772
 30
0.0
 11
79.46292134243231
 21
16.86936576241771
 31
0.0
  0
LINE
  5
10266
330
1E
100
AcDbEntity
  8
PART
  6
Continuous
100
AcDbLine
 10
79.46292134243231
 20
16.86936576241771
 30
0.0
 11
79.44124281743231
 21
16.85951188741768
 31
0.0
  0
LINE
  5
10267
330
1E
100
AcDbEntity
  8
PART
  6
Continuous
100
AcDbLine
 10
79.44124281743231
 20
16.85951188741768
 30
0.0
 11
79.3919734424323
 21
16.85951188741768
 31
0.0
  0
LINE
  5
10268
330
1E
100
AcDbEntity
  8
PART
  6
Continuous
100
AcDbLine
 10
79.3919734424323
 20
16.85951188741768
 30
0.0
 11
79.3683241424323
 21
16.85162878741772
 31
0.0
  0
LINE
  5
10269
330
1E
100
AcDbEntity
  8
PART
  6
Continuous
100
AcDbLine
 10
79.3683241424323
 20
16.85162878741772
 30
0.0
 11
79.3545287174323
 21
16.83192103741771
 31
0.0
  0
LINE
  5
1026A
330
1E
100
AcDbEntity
  8
PART
  6
Continuous
100
AcDbLine
 10
79.3545287174323
 20
16.83192103741771
 30
0.0
 11
79.3525579424323
 21
16.82009638741772
 31
0.0
  0
LINE
  5
1026B
330
1E
100
AcDbEntity
  8
PART
  6
Continuous
100
AcDbLine
 10
79.3525579424323
 20
16.82009638741772
 30
0.0
 11
79.35058716743231
 21
16.72746996241773
 31
0.0
  0
LINE
  5
1026C
330
1E
100
AcDbEntity
  8
PART
  6
Continuous
100
AcDbLine
 10
79.35058716743231
 20
16.72746996241773
 30
0.0
 11
79.33679174243231
 21
16.44564913741772
 31
0.0
  0
LINE
  5
1026D
330
1E
100
AcDbEntity
  8
PART
  6
Continuous
100
AcDbLine
 10
79.33679174243231
 20
16.44564913741772
 30
0.0
 11
79.30525934243231
 21
16.16382831241771
 31
0.0
  0
LINE
  5
1026E
330
1E
100
AcDbEntity
  8
PART
  6
Continuous
100
AcDbLine
 10
79.30525934243231
 20
16.16382831241771
 30
0.0
 11
79.26978539243231
 21
15.94113073741772
 31
0.0
  0
LINE
  5
1026F
330
1E
100
AcDbEntity
  8
PART
  6
Continuous
100
AcDbLine
 10
79.26978539243231
 20
15.94113073741772
 30
0.0
 11
79.21066214243231
 21
15.66522223741771
 31
0.0
  0
LINE
  5
10270
330
1E
100
AcDbEntity
  8
PART
  6
Continuous
100
AcDbLine
 10
79.21066214243231
 20
15.66522223741771
 30
0.0
 11
79.13577269243231
 21
15.39325528741773
 31
0.0
  0
LINE
  5
10271
330
1E
100
AcDbEntity
  8
PART
  6
Continuous
100
AcDbLine
 10
79.13577269243231
 20
15.39325528741773
 30
0.0
 11
79.0470878174323
 21
15.12522988741773
 31
0.0
  0
LINE
  5
10272
330
1E
100
AcDbEntity
  8
PART
  6
Continuous
100
AcDbLine
 10
79.0470878174323
 20
15.12522988741773
 30
0.0
 11
78.94263674243231
 21
14.86311681241773
 31
0.0
  0
LINE
  5
10273
330
1E
100
AcDbEntity
  8
PART
  6
Continuous
100
AcDbLine
 10
78.94263674243231
 20
14.86311681241773
 30
0.0
 11
78.8224194674323
 21
14.60691606241772
 31
0.0
  0
LINE
  5
10274
330
1E
100
AcDbEntity
  8
PART
  6
Continuous
100
AcDbLine
 10
78.8224194674323
 20
14.60691606241772
 30
0.0
 11
78.75344234243231
 21
14.47290336241769
 31
0.0
  0
LINE
  5
10275
330
1E
100
AcDbEntity
  8
PART
  6
Continuous
100
AcDbLine
 10
78.75344234243231
 20
14.47290336241769
 30
0.0
 11
78.71483369561888
 21
14.40493039267574
 31
0.0
  0
LINE
  5
10276
330
1E
100
AcDbEntity
  8
PART
  6
Continuous
100
AcDbLine
 10
78.71483369561888
 20
14.40493039267574
 30
0.0
 11
78.62471131943228
 21
14.24626423741768
 31
0.0
  0
LINE
  5
10277
330
1E
100
AcDbEntity
  8
PART
  6
Continuous
100
AcDbLine
 10
78.62471131943228
 20
14.24626423741768
 30
0.0
 11
78.6135173174323
 21
14.22655648741772
 31
0.0
  0
LINE
  5
10278
330
1E
100
AcDbEntity
  8
PART
  6
Continuous
100
AcDbLine
 10
78.6135173174323
 20
14.22655648741772
 30
0.0
 11
78.53665709243229
 21
14.10830998741772
 31
0.0
  0
LINE
  5
10279
330
1E
100
AcDbEntity
  8
PART
  6
Continuous
100
AcDbLine
 10
78.53665709243229
 20
14.10830998741772
 30
0.0
 11
78.4597968674323
 21
13.99006348741773
 31
0.0
  0
LINE
  5
1027A
330
1E
100
AcDbEntity
  8
PART
  6
Continuous
100
AcDbLine
 10
78.4597968674323
 20
13.99006348741773
 30
0.0
 11
78.2942517674323
 21
13.76342436241771
 31
0.0
  0
LINE
  5
1027B
330
1E
100
AcDbEntity
  8
PART
  6
Continuous
100
AcDbLine
 10
78.2942517674323
 20
13.76342436241771
 30
0.0
 11
78.1149112424323
 21
13.5446683374177
 31
0.0
  0
LINE
  5
1027C
330
1E
100
AcDbEntity
  8
PART
  6
Continuous
100
AcDbLine
 10
78.1149112424323
 20
13.5446683374177
 30
0.0
 11
78.05437099222467
 21
13.47851095059286
 31
0.0
  0
LINE
  5
1027D
330
1E
100
AcDbEntity
  8
PART
  6
Continuous
100
AcDbLine
 10
78.05437099222467
 20
13.47851095059286
 30
0.0
 11
78.01932865493231
 21
13.44021726241772
 31
0.0
  0
LINE
  5
1027E
330
1E
100
AcDbEntity
  8
PART
  6
Continuous
100
AcDbLine
 10
78.01932865493231
 20
13.44021726241772
 30
0.0
 11
77.92374606743152
 21
13.33576618741693
 31
0.0
  0
LINE
  5
1027F
330
1E
100
AcDbEntity
  8
PART
  6
Continuous
100
AcDbLine
 10
77.92374606743152
 20
13.33576618741693
 30
0.0
 11
77.7207562424323
 21
13.1386886874177
 31
0.0
  0
LINE
  5
10280
330
1E
100
AcDbEntity
  8
PART
  6
Continuous
100
AcDbLine
 10
77.7207562424323
 20
13.1386886874177
 30
0.0
 11
77.50791254243231
 21
12.95343583741771
 31
0.0
  0
LINE
  5
10281
330
1E
100
AcDbEntity
  8
PART
  6
Continuous
100
AcDbLine
 10
77.50791254243231
 20
12.95343583741771
 30
0.0
 11
77.2852149674323
 21
12.78000763741772
 31
0.0
  0
LINE
  5
10282
330
1E
100
AcDbEntity
  8
PART
  6
Continuous
100
AcDbLine
 10
77.2852149674323
 20
12.78000763741772
 30
0.0
 11
77.0526635174323
 21
12.62037486241769
 31
0.0
  0
LINE
  5
10283
330
1E
100
AcDbEntity
  8
PART
  6
Continuous
100
AcDbLine
 10
77.0526635174323
 20
12.62037486241769
 30
0.0
 11
76.8122289674323
 21
12.47256673741771
 31
0.0
  0
LINE
  5
10284
330
1E
100
AcDbEntity
  8
PART
  6
Continuous
100
AcDbLine
 10
76.8122289674323
 20
12.47256673741771
 30
0.0
 11
76.56194054243231
 21
12.33855403741768
 31
0.0
  0
LINE
  5
10285
330
1E
100
AcDbEntity
  8
PART
  6
Continuous
100
AcDbLine
 10
76.56194054243231
 20
12.33855403741768
 30
0.0
 11
76.30771056743231
 21
12.22030753741768
 31
0.0
  0
LINE
  5
10286
330
1E
100
AcDbEntity
  8
PART
  6
Continuous
100
AcDbLine
 10
76.30771056743231
 20
12.22030753741768
 30
0.0
 11
76.04559749243231
 21
12.11388568741768
 31
0.0
  0
LINE
  5
10287
330
1E
100
AcDbEntity
  8
PART
  6
Continuous
100
AcDbLine
 10
76.04559749243231
 20
12.11388568741768
 30
0.0
 11
75.77757209243229
 21
12.02520081241772
 31
0.0
  0
LINE
  5
10288
330
1E
100
AcDbEntity
  8
PART
  6
Continuous
100
AcDbLine
 10
75.77757209243229
 20
12.02520081241772
 30
0.0
 11
75.5056051424323
 21
11.9483405874177
 31
0.0
  0
LINE
  5
10289
330
1E
100
AcDbEntity
  8
PART
  6
Continuous
100
AcDbLine
 10
75.5056051424323
 20
11.9483405874177
 30
0.0
 11
75.4839266174323
 21
11.93651593741771
 31
0.0
  0
LINE
  5
1028A
330
1E
100
AcDbEntity
  8
PART
  6
Continuous
100
AcDbLine
 10
75.4839266174323
 20
11.93651593741771
 30
0.0
 11
75.4760435174323
 21
11.91286663741772
 31
0.0
  0
LINE
  5
1028B
330
1E
100
AcDbEntity
  8
PART
  6
Continuous
100
AcDbLine
 10
75.4760435174323
 20
11.91286663741772
 30
0.0
 11
75.47210196743231
 21
11.84783106241769
 31
0.0
  0
LINE
  5
1028C
330
1E
100
AcDbEntity
  8
PART
  6
Continuous
100
AcDbLine
 10
75.47210196743231
 20
11.84783106241769
 30
0.0
 11
75.47210196743231
 21
11.83994796241768
 31
0.0
  0
LINE
  5
1028D
330
1E
100
AcDbEntity
  8
PART
  6
Continuous
100
AcDbLine
 10
75.47210196743231
 20
11.83994796241768
 30
0.0
 11
75.45830654243229
 21
11.81826943741771
 31
0.0
  0
LINE
  5
1028E
330
1E
100
AcDbEntity
  8
PART
  6
Continuous
100
AcDbLine
 10
75.45830654243229
 20
11.81826943741771
 30
0.0
 11
75.43465724243231
 21
11.81038633741769
 31
0.0
  0
LINE
  5
1028F
330
1E
100
AcDbEntity
  8
PART
  6
Continuous
100
AcDbLine
 10
75.43465724243231
 20
11.81038633741769
 30
0.0
 11
74.74685676743231
 21
11.78673703741771
 31
0.0
  0
LINE
  5
10290
330
1E
100
AcDbEntity
  8
PART
  6
Continuous
100
AcDbLine
 10
74.74685676743231
 20
11.78673703741771
 30
0.0
 11
74.74685676743231
 21
11.92758175741772
 31
0.0
  0
LINE
  5
10291
330
1E
100
AcDbEntity
  8
PART
  6
Continuous
100
AcDbLine
 10
74.74685676743231
 20
11.92758175741772
 30
0.0
 11
74.66014266743229
 21
11.92469128741771
 31
0.0
  0
LINE
  5
10292
330
1E
100
AcDbEntity
  8
PART
  6
Continuous
100
AcDbLine
 10
74.66014266743229
 20
11.92469128741771
 30
0.0
 11
74.66014266743229
 21
11.78279548741773
 31
0.0
  0
LINE
  5
10293
330
1E
100
AcDbEntity
  8
PART
  6
Continuous
100
AcDbLine
 10
74.66014266743229
 20
11.78279548741773
 30
0.0
 11
73.51906394243229
 21
11.74337998741771
 31
0.0
  0
LINE
  5
10294
330
1E
100
AcDbEntity
  8
PART
  6
Continuous
100
AcDbLine
 10
73.51906394243229
 20
11.74337998741771
 30
0.0
 11
73.51906394243229
 21
11.84980183741771
 31
0.0
  0
LINE
  5
10295
330
1E
100
AcDbEntity
  8
PART
  6
Continuous
100
AcDbLine
 10
73.51906394243229
 20
11.84980183741771
 30
0.0
 11
73.51906394243229
 21
21.97958533741769
 31
0.0
  0
CIRCLE
  5
10296
330
1E
100
AcDbEntity
  8
PART
  6
Continuous
100
AcDbCircle
 10
89.68253115967847
 20
16.9146935874177
 30
0.0
 40
5.1173362625
  0
CIRCLE
  5
10297
330
1E
100
AcDbEntity
  8
PART
  6
Continuous
100
AcDbCircle
 10
89.68253115967847
 20
16.9146935874177
 30
0.0
 40
5.077866018749997
  0
ARC
  5
1029A
330
1E
100
AcDbEntity
  8
PART
  6
Continuous
100
AcDbCircle
 10
89.68253115967847
 20
16.9146935874177
 30
0.0
 40
4.230697293893125
100
AcDbArc
 50
180.0
 51
268.7133192940247
  0
ARC
  5
1029B
330
1E
100
AcDbEntity
  8
PART
  6
Continuous
100
AcDbCircle
 10
89.68253115967847
 20
16.9146935874177
 30
0.0
 40
4.196871481153841
100
AcDbArc
 50
180.0
 51
268.702947180567
  0
CIRCLE
  5
1029C
330
1E
100
AcDbEntity
  8
PRECISION_PART
  6
Continuous
100
AcDbCircle
 10
93.80933400967848
 20
14.53202661241775
 30
0.0
 40
0.1655450999999992
  0
LINE
  5
1029D
330
1E
100
AcDbEntity
  8
PRECISION_PART
  6
Continuous
100
AcDbLine
 10
93.86845725967848
 20
14.56750056241773
 30
0.0
 11
93.86845725967848
 21
14.49852343741772
 31
0.0
  0
LINE
  5
1029E
330
1E
100
AcDbEntity
  8
PRECISION_PART
  6
Continuous
100
AcDbLine
 10
93.86845725967848
 20
14.49852343741772
 30
0.0
 11
93.80933400967848
 21
14.4650202624177
 31
0.0
  0
LINE
  5
1029F
330
1E
100
AcDbEntity
  8
PRECISION_PART
  6
Continuous
100
AcDbLine
 10
93.80933400967848
 20
14.4650202624177
 30
0.0
 11
93.75021075967849
 21
14.49852343741772
 31
0.0
  0
LINE
  5
102A0
330
1E
100
AcDbEntity
  8
PRECISION_PART
  6
Continuous
100
AcDbLine
 10
93.75021075967849
 20
14.49852343741772
 30
0.0
 11
93.75021075967849
 21
14.56750056241773
 31
0.0
  0
LINE
  5
102A1
330
1E
100
AcDbEntity
  8
PRECISION_PART
  6
Continuous
100
AcDbLine
 10
93.75021075967849
 20
14.56750056241773
 30
0.0
 11
93.80933400967848
 21
14.60100373741768
 31
0.0
  0
LINE
  5
102A2
330
1E
100
AcDbEntity
  8
PRECISION_PART
  6
Continuous
100
AcDbLine
 10
93.80933400967848
 20
14.60100373741768
 30
0.0
 11
93.86845725967848
 21
14.56750056241773
 31
0.0
  0
CIRCLE
  5
102A3
330
1E
100
AcDbEntity
  8
PRECISION_PART
  6
Continuous
100
AcDbCircle
 10
89.68253115967847
 20
21.67805676241769
 30
0.0
 40
0.1675158749999994
  0
LINE
  5
102A4
330
1E
100
AcDbEntity
  8
PRECISION_PART
  6
Continuous
100
AcDbLine
 10
89.74165440967848
 20
21.71155993741772
 30
0.0
 11
89.74165440967848
 21
21.64455358741773
 31
0.0
  0
LINE
  5
102A5
330
1E
100
AcDbEntity
  8
PRECISION_PART
  6
Continuous
100
AcDbLine
 10
89.74165440967848
 20
21.64455358741773
 30
0.0
 11
89.68253115967847
 21
21.60907963741769
 31
0.0
  0
LINE
  5
102A6
330
1E
100
AcDbEntity
  8
PRECISION_PART
  6
Continuous
100
AcDbLine
 10
89.68253115967847
 20
21.60907963741769
 30
0.0
 11
89.62340790967848
 21
21.64455358741773
 31
0.0
  0
LINE
  5
102A7
330
1E
100
AcDbEntity
  8
PRECISION_PART
  6
Continuous
100
AcDbLine
 10
89.62340790967848
 20
21.64455358741773
 30
0.0
 11
89.62340790967848
 21
21.71155993741772
 31
0.0
  0
LINE
  5
102A8
330
1E
100
AcDbEntity
  8
PRECISION_PART
  6
Continuous
100
AcDbLine
 10
89.62340790967848
 20
21.71155993741772
 30
0.0
 11
89.68253115967847
 21
21.7470338874177
 31
0.0
  0
LINE
  5
102A9
330
1E
100
AcDbEntity
  8
PRECISION_PART
  6
Continuous
100
AcDbLine
 10
89.68253115967847
 20
21.7470338874177
 30
0.0
 11
89.74165440967848
 21
21.71155993741772
 31
0.0
  0
CIRCLE
  5
102AA
330
1E
100
AcDbEntity
  8
PRECISION_PART
  6
Continuous
100
AcDbCircle
 10
85.5576990846785
 20
14.53202661241775
 30
0.0
 40
0.1675158749999994
  0
LINE
  5
102AB
330
1E
100
AcDbEntity
  8
PRECISION_PART
  6
Continuous
100
AcDbLine
 10
85.61682233467848
 20
14.56750056241773
 30
0.0
 11
85.61682233467848
 21
14.49852343741772
 31
0.0
  0
LINE
  5
102AC
330
1E
100
AcDbEntity
  8
PRECISION_PART
  6
Continuous
100
AcDbLine
 10
85.61682233467848
 20
14.49852343741772
 30
0.0
 11
85.5576990846785
 21
14.4650202624177
 31
0.0
  0
LINE
  5
102AD
330
1E
100
AcDbEntity
  8
PRECISION_PART
  6
Continuous
100
AcDbLine
 10
85.5576990846785
 20
14.4650202624177
 30
0.0
 11
85.49857583467849
 21
14.49852343741772
 31
0.0
  0
LINE
  5
102AE
330
1E
100
AcDbEntity
  8
PRECISION_PART
  6
Continuous
100
AcDbLine
 10
85.49857583467849
 20
14.49852343741772
 30
0.0
 11
85.49857583467849
 21
14.56750056241773
 31
0.0
  0
LINE
  5
102AF
330
1E
100
AcDbEntity
  8
PRECISION_PART
  6
Continuous
100
AcDbLine
 10
85.49857583467849
 20
14.56750056241773
 30
0.0
 11
85.5576990846785
 21
14.60100373741768
 31
0.0
  0
LINE
  5
102B0
330
1E
100
AcDbEntity
  8
PRECISION_PART
  6
Continuous
100
AcDbLine
 10
85.5576990846785
 20
14.60100373741768
 30
0.0
 11
85.61682233467848
 21
14.56750056241773
 31
0.0
  0
LINE
  5
102B7
330
1E
100
AcDbEntity
  8
PART
100
AcDbLine
 10
75.88793549243231
 20
21.7923617124177
 30
0.0
 11
76.0061819924323
 21
21.75097543741771
 31
0.0
  0
LINE
  5
102B8
330
1E
100
AcDbEntity
  8
PART
  6
Continuous
100
AcDbLine
 10
74.74685676743231
 20
21.93622828741775
 30
0.0
 11
74.74685676743231
 21
21.79538356741773
 31
0.0
  0
LINE
  5
102B9
330
1E
100
AcDbEntity
  8
PART
  6
Continuous
100
AcDbLine
 10
74.74685676743231
 20
21.79538356741773
 30
0.0
 11
74.66014266743229
 21
21.79827403741774
 31
0.0
  0
LINE
  5
102BA
330
1E
100
AcDbEntity
  8
PART
  6
Continuous
100
AcDbLine
 10
74.66014266743229
 20
21.79827403741774
 30
0.0
 11
74.66014266743229
 21
21.94016983741773
 31
0.0
  0
LINE
  5
102BB
330
1E
100
AcDbEntity
  8
PART
100
AcDbLine
 10
74.66014266743229
 20
21.79827403741774
 30
0.0
 11
74.66014266743229
 21
11.92469128741771
 31
0.0
  0
LINE
  5
102BC
330
1E
100
AcDbEntity
  8
PART
100
AcDbLine
 10
74.74685676743231
 20
11.92758175741772
 30
0.0
 11
74.74685676743231
 21
21.79538356741773
 31
0.0
  0
LINE
  5
102BD
330
1E
100
AcDbEntity
  8
PART
100
AcDbLine
 10
75.4839266174323
 20
11.93651593741771
 30
0.0
 11
75.47210196743231
 21
21.91060821241769
 31
0.0
  0
LINE
  5
102BE
330
1E
100
AcDbEntity
  8
PART
100
AcDbLine
 10
79.3919734424323
 20
16.85951188741768
 30
0.0
 11
75.47809022626457
 21
16.85951188741768
 31
0.0
  0
LINE
  5
104F9
330
1E
100
AcDbEntity
  8
PART
  6
Continuous
100
AcDbLine
 10
78.9195579424323
 20
16.82009638741772
 30
0.0
 11
78.90970406743227
 21
16.54123172491773
 31
0.0
  0
LINE
  5
104FA
330
1E
100
AcDbEntity
  8
PART
  6
Continuous
100
AcDbLine
 10
78.90970406743227
 20
16.54123172491773
 30
0.0
 11
78.88211321743231
 21
16.27123554991772
 31
0.0
  0
LINE
  5
104FB
330
1E
100
AcDbEntity
  8
PART
  6
Continuous
100
AcDbLine
 10
78.88211321743231
 20
16.27123554991772
 30
0.0
 11
78.86437624243228
 21
16.15298904991772
 31
0.0
  0
LINE
  5
104FC
330
1E
100
AcDbEntity
  8
PART
  6
Continuous
100
AcDbLine
 10
78.86437624243228
 20
16.15298904991772
 30
0.0
 11
78.83678539243231
 21
15.9953270499177
 31
0.0
  0
LINE
  5
104FD
330
1E
100
AcDbEntity
  8
PART
  6
Continuous
100
AcDbLine
 10
78.83678539243231
 20
15.9953270499177
 30
0.0
 11
78.8091945424323
 21
15.86525589991771
 31
0.0
  0
LINE
  5
104FE
330
1E
100
AcDbEntity
  8
PART
  6
Continuous
100
AcDbLine
 10
78.8091945424323
 20
15.86525589991771
 30
0.0
 11
78.78298950241457
 21
15.75503874117186
 31
0.0
  0
LINE
  5
104FF
330
1E
100
AcDbEntity
  8
PART
  6
Continuous
100
AcDbLine
 10
78.78298950241457
 20
15.75503874117186
 30
0.0
 11
78.74864669064243
 21
15.62069774218099
 31
0.0
  0
LINE
  5
10500
330
1E
100
AcDbEntity
  8
PART
  6
Continuous
100
AcDbLine
 10
78.74864669064243
 20
15.62069774218099
 30
0.0
 11
78.70474346743229
 21
15.4711008999177
 31
0.0
  0
LINE
  5
10501
330
1E
100
AcDbEntity
  8
PART
  6
Continuous
100
AcDbLine
 10
78.70474346743229
 20
15.4711008999177
 30
0.0
 11
78.66335719243228
 21
15.3469420749177
 31
0.0
  0
LINE
  5
10502
330
1E
100
AcDbEntity
  8
PART
  6
Continuous
100
AcDbLine
 10
78.66335719243228
 20
15.3469420749177
 30
0.0
 11
78.61605859243228
 21
15.21687092491771
 31
0.0
  0
LINE
  5
10503
330
1E
100
AcDbEntity
  8
PART
  6
Continuous
100
AcDbLine
 10
78.5687599924323
 20
15.09468287491773
 30
0.0
 11
78.51160751743229
 21
14.9665824999177
 31
0.0
  0
LINE
  5
10504
330
1E
100
AcDbEntity
  8
PART
  6
Continuous
100
AcDbLine
 10
78.51160751743229
 20
14.9665824999177
 30
0.0
 11
78.45642581743231
 21
14.84833599991771
 31
0.0
  0
LINE
  5
10505
330
1E
100
AcDbEntity
  8
PART
  6
Continuous
100
AcDbLine
 10
78.45642581743231
 20
14.84833599991771
 30
0.0
 11
78.39336101743228
 21
14.72417717491771
 31
0.0
  0
LINE
  5
10506
330
1E
100
AcDbEntity
  8
PART
  6
Continuous
100
AcDbLine
 10
78.39336101743228
 20
14.72417717491771
 30
0.0
 11
78.3322669924323
 21
14.60790144991773
 31
0.0
  0
LINE
  5
10507
330
1E
100
AcDbEntity
  8
PART
  6
Continuous
100
AcDbLine
 10
78.3322669924323
 20
14.60790144991773
 30
0.0
 11
78.26526064243229
 21
14.48854535390939
 31
0.0
  0
LINE
  5
10508
330
1E
100
AcDbEntity
  8
PART
  6
Continuous
100
AcDbLine
 10
78.26526064243229
 20
14.48854535390939
 30
0.0
 11
78.11745251743229
 21
14.25907427491774
 31
0.0
  0
LINE
  5
10509
330
1E
100
AcDbEntity
  8
PART
  6
Continuous
100
AcDbLine
 10
78.11745251743229
 20
14.25907427491774
 30
0.0
 11
77.96176129243228
 21
14.04228902491769
 31
0.0
  0
LINE
  5
1050A
330
1E
100
AcDbEntity
  8
PART
  6
Continuous
100
AcDbLine
 10
77.96176129243228
 20
14.04228902491769
 30
0.0
 11
77.79030386743229
 21
13.8314160999177
 31
0.0
  0
LINE
  5
1050B
330
1E
100
AcDbEntity
  8
PART
  6
Continuous
100
AcDbLine
 10
77.79030386743229
 20
13.8314160999177
 30
0.0
 11
77.60702179243229
 21
13.63236782491771
 31
0.0
  0
LINE
  5
1050C
330
1E
100
AcDbEntity
  8
PART
  6
Continuous
100
AcDbLine
 10
77.60702179243229
 20
13.63236782491771
 30
0.0
 11
77.41191506743231
 21
13.4451441999177
 31
0.0
  0
LINE
  5
1050D
330
1E
100
AcDbEntity
  8
PART
  6
Continuous
100
AcDbLine
 10
77.41191506743231
 20
13.4451441999177
 30
0.0
 11
77.2089252424323
 21
13.2697452249177
 31
0.0
  0
LINE
  5
1050E
330
1E
100
AcDbEntity
  8
PART
  6
Continuous
100
AcDbLine
 10
77.2089252424323
 20
13.2697452249177
 30
0.0
 11
76.9941107674323
 21
13.10617089991774
 31
0.0
  0
LINE
  5
1050F
330
1E
100
AcDbEntity
  8
PART
  6
Continuous
100
AcDbLine
 10
76.9941107674323
 20
13.10617089991774
 30
0.0
 11
76.76944241743227
 21
12.95442122491772
 31
0.0
  0
LINE
  5
10510
330
1E
100
AcDbEntity
  8
PART
  6
Continuous
100
AcDbLine
 10
76.76944241743227
 20
12.95442122491772
 30
0.0
 11
76.53775574651749
 21
12.8169799794598
 31
0.0
  0
LINE
  5
10511
330
1E
100
AcDbEntity
  8
PART
  6
Continuous
100
AcDbLine
 10
76.53775574651749
 20
12.8169799794598
 30
0.0
 11
76.29645641743228
 21
12.69230814991772
 31
0.0
  0
LINE
  5
10512
330
1E
100
AcDbEntity
  8
PART
  6
Continuous
100
AcDbLine
 10
76.29645641743228
 20
12.69230814991772
 30
0.0
 11
76.05099244963226
 21
12.58194474991779
 31
0.0
  0
LINE
  5
10513
330
1E
100
AcDbEntity
  8
PART
  6
Continuous
100
AcDbLine
 10
76.05099244963226
 20
12.58194474991779
 30
0.0
 11
75.79785034243228
 21
12.48734754991773
 31
0.0
  0
LINE
  5
10515
330
1E
100
AcDbEntity
  8
PART
  6
Continuous
100
AcDbLine
 10
78.84069132601663
 20
16.85951188741768
 30
0.0
 11
78.83875616743229
 21
16.69889372491769
 31
0.0
  0
LINE
  5
10516
330
1E
100
AcDbEntity
  8
PART
  6
Continuous
100
AcDbLine
 10
78.83875616743229
 20
16.69889372491769
 30
0.0
 11
78.8210191924323
 21
16.4308683249177
 31
0.0
  0
LINE
  5
10517
330
1E
100
AcDbEntity
  8
PART
  6
Continuous
100
AcDbLine
 10
78.8210191924323
 20
16.4308683249177
 30
0.0
 11
78.78751601743228
 21
16.16481369991771
 31
0.0
  0
LINE
  5
10518
330
1E
100
AcDbEntity
  8
PART
  6
Continuous
100
AcDbLine
 10
78.78751601743228
 20
16.16481369991771
 30
0.0
 11
78.77963291743229
 21
16.11751509991774
 31
0.0
  0
LINE
  5
10519
330
1E
100
AcDbEntity
  8
PART
  6
Continuous
100
AcDbLine
 10
78.77963291743229
 20
16.11751509991774
 30
0.0
 11
78.72839276743228
 21
15.85540202491773
 31
0.0
  0
LINE
  5
1051A
330
1E
100
AcDbEntity
  8
PART
  6
Continuous
100
AcDbLine
 10
78.72839276743228
 20
15.85540202491773
 30
0.0
 11
78.6613864174323
 21
15.59525972491769
 31
0.0
  0
LINE
  5
1051B
330
1E
100
AcDbEntity
  8
PART
  6
Continuous
100
AcDbLine
 10
78.6613864174323
 20
15.59525972491769
 30
0.0
 11
78.58058464243228
 21
15.33905897491768
 31
0.0
  0
LINE
  5
1051C
330
1E
100
AcDbEntity
  8
PART
  6
Continuous
100
AcDbLine
 10
78.58058464243228
 20
15.33905897491768
 30
0.0
 11
78.4840166674323
 21
15.08877054991774
 31
0.0
  0
LINE
  5
1051D
330
1E
100
AcDbEntity
  8
PART
  6
Continuous
100
AcDbLine
 10
78.4840166674323
 20
15.08877054991774
 30
0.0
 11
78.38262709992237
 21
14.87249107147511
 31
0.0
  0
LINE
  5
1051E
330
1E
100
AcDbEntity
  8
PART
  6
Continuous
100
AcDbLine
 10
78.38262709992237
 20
14.87249107147511
 30
0.0
 11
78.36971171743228
 21
14.84439444991773
 31
0.0
  0
LINE
  5
1051F
330
1E
100
AcDbEntity
  8
PART
  6
Continuous
100
AcDbLine
 10
78.36971171743228
 20
14.84439444991773
 30
0.0
 11
78.24555289243228
 21
14.60790144991773
 31
0.0
  0
LINE
  5
10520
330
1E
100
AcDbEntity
  8
PART
  6
Continuous
100
AcDbLine
 10
78.24555289243228
 20
14.60790144991773
 30
0.0
 11
78.15883879243229
 21
14.46206409991771
 31
0.0
  0
LINE
  5
10521
330
1E
100
AcDbEntity
  8
PART
  6
Continuous
100
AcDbLine
 10
78.15883879243229
 20
14.46206409991771
 30
0.0
 11
78.01103066743229
 21
14.23739574991771
 31
0.0
  0
LINE
  5
10522
330
1E
100
AcDbEntity
  8
PART
  6
Continuous
100
AcDbLine
 10
78.01103066743229
 20
14.23739574991771
 30
0.0
 11
77.8513978924323
 21
14.02258127491774
 31
0.0
  0
LINE
  5
10523
330
1E
100
AcDbEntity
  8
PART
  6
Continuous
100
AcDbLine
 10
77.8513978924323
 20
14.02258127491774
 30
0.0
 11
77.67796969243228
 21
13.81762067491768
 31
0.0
  0
LINE
  5
10524
330
1E
100
AcDbEntity
  8
PART
  6
Continuous
100
AcDbLine
 10
77.67796969243228
 20
13.81762067491768
 30
0.0
 11
77.4865686141904
 21
13.61673834156926
 31
0.0
  0
LINE
  5
10525
330
1E
100
AcDbEntity
  8
PART
  6
Continuous
100
AcDbLine
 10
77.4865686141904
 20
13.61673834156926
 30
0.0
 11
77.30711216339692
 21
13.44815803930873
 31
0.0
  0
LINE
  5
10526
330
1E
100
AcDbEntity
  8
PART
  6
Continuous
100
AcDbLine
 10
77.30711216339692
 20
13.44815803930873
 30
0.0
 11
77.29761011743228
 21
13.43923187491771
 31
0.0
  0
LINE
  5
10527
330
1E
100
AcDbEntity
  8
PART
  6
Continuous
100
AcDbLine
 10
77.29761011743228
 20
13.43923187491771
 30
0.0
 11
77.0906787424323
 21
13.26777444991774
 31
0.0
  0
LINE
  5
10528
330
1E
100
AcDbEntity
  8
PART
  6
Continuous
100
AcDbLine
 10
77.0906787424323
 20
13.26777444991774
 30
0.0
 11
76.8758642674323
 21
13.1081416749177
 31
0.0
  0
LINE
  5
10529
330
1E
100
AcDbEntity
  8
PART
  6
Continuous
100
AcDbLine
 10
76.8758642674323
 20
13.1081416749177
 30
0.0
 11
76.65119591743231
 21
12.96230432491774
 31
0.0
  0
LINE
  5
1052A
330
1E
100
AcDbEntity
  8
PART
  6
Continuous
100
AcDbLine
 10
76.65119591743231
 20
12.96230432491774
 30
0.0
 11
76.41667369243229
 21
12.82829162491771
 31
0.0
  0
LINE
  5
1052B
330
1E
100
AcDbEntity
  8
PART
  6
Continuous
100
AcDbLine
 10
76.41667369243229
 20
12.82829162491771
 30
0.0
 11
76.17623914243229
 21
12.71004512491771
 31
0.0
  0
LINE
  5
1052C
330
1E
100
AcDbEntity
  8
PART
  6
Continuous
100
AcDbLine
 10
76.17623914243229
 20
12.71004512491771
 30
0.0
 11
75.92989226743229
 21
12.60559404991772
 31
0.0
  0
LINE
  5
1052D
330
1E
100
AcDbEntity
  8
PART
  6
Continuous
100
AcDbLine
 10
75.92989226743229
 20
12.60559404991772
 30
0.0
 11
75.80376266743228
 21
12.56125161241772
 31
0.0
  0
LINE
  5
1052E
330
1E
100
AcDbEntity
  8
PART
100
AcDbLine
 10
78.5687599924323
 20
15.09468287491773
 30
0.0
 11
78.61605859243228
 21
15.21687092491771
 31
0.0
  0
LINE
  5
10530
330
1E
100
AcDbEntity
  8
PART
100
AcDbLine
 10
75.79785034243228
 20
12.48734754991773
 30
0.0
 11
75.60930994300196
 21
12.4168914963189
 31
0.0
  0
LINE
  5
10531
330
1E
100
AcDbEntity
  8
PART
100
AcDbLine
 10
75.60930994300196
 20
12.4168914963189
 30
0.0
 11
75.48335729172105
 21
12.41674217485917
 31
0.0
  0
LINE
  5
10532
330
1E
100
AcDbEntity
  8
PART
100
AcDbLine
 10
75.80376266743228
 20
12.56125161241772
 30
0.0
 11
75.63124703870844
 21
12.50060158669449
 31
0.0
  0
LINE
  5
10533
330
1E
100
AcDbEntity
  8
PART
100
AcDbLine
 10
75.63124703870844
 20
12.50060158669449
 30
0.0
 11
75.48325808132918
 21
12.50042614039055
 31
0.0
  0
LINE
  5
10534
330
1E
100
AcDbEntity
  8
PART
100
AcDbLine
 10
78.9195579424323
 20
16.82009638741772
 30
0.0
 11
78.9195579424323
 21
16.85951188741768
 31
0.0
  0
LINE
  5
10535
330
1E
100
AcDbEntity
  8
PART
100
AcDbLine
 10
94.79986742217848
 20
16.9146935874177
 30
0.0
 11
84.56519489717848
 21
16.9146935874177
 31
0.0
  0
LINE
  5
1053A
330
1E
100
AcDbEntity
  8
PART
100
AcDbLine
 10
89.68253115967847
 20
16.9146935874177
 30
0.0
 11
89.77753115967848
 21
16.9146935874177
 31
0.0
  0
LINE
  5
1053B
330
1E
100
AcDbEntity
  8
PART
100
AcDbLine
 10
89.68253115967847
 20
16.9146935874177
 30
0.0
 11
89.5875311596785
 21
16.9146935874177
 31
0.0
  0
LINE
  5
1053C
330
1E
100
AcDbEntity
  8
PART
100
AcDbLine
 10
89.5875311596785
 20
16.9146935874177
 30
0.0
 11
89.5875311596785
 21
11.83771630714788
 31
0.0
  0
LINE
  5
1053D
330
1E
100
AcDbEntity
  8
PART
100
AcDbLine
 10
89.77753115967848
 20
16.9146935874177
 30
0.0
 11
89.77753115967848
 21
11.83771630714788
 31
0.0
  0
ARC
  5
1053E
330
1E
100
AcDbEntity
  8
PART
  6
Continuous
100
AcDbCircle
 10
89.68253115967847
 20
16.9146935874177
 30
0.0
 40
4.230697293893125
100
AcDbArc
 50
271.2866807059752
 51
0.0
  0
ARC
  5
1053F
330
1E
100
AcDbEntity
  8
PART
  6
Continuous
100
AcDbCircle
 10
89.68253115967847
 20
16.9146935874177
 30
0.0
 40
4.196871481153841
100
AcDbArc
 50
271.2970528194329
 51
0.0
  0
TEXT
  5
10548
330
1E
100
AcDbEntity
  8
TEXT
100
AcDbText
 10
73.59038825946973
 20
9.678541009185499
 30
0.0
 40
0.3
  1
1.  LUMINAIRE # 33 530 - SEE SPECIFICATIONS
100
AcDbText
  0
LWPOLYLINE
  5
10582
330
1E
100
AcDbEntity
  8
PRECISION_PART
 62
     8
100
AcDbPolyline
 90
       11
 70
     0
 43
0.0
 10
89.83410565967849
 20
16.99578975518006
 10
89.77898765967848
 20
16.96429375518006
 10
89.73174365967848
 20
16.97708900518006
 10
89.69827915967847
 20
17.01350625518006
 10
89.68548390967848
 20
17.06960850518006
 10
89.69729490967848
 20
17.12177375518006
 10
89.72879090967849
 20
17.15917525518006
 10
89.77898765967848
 20
17.17393900518006
 10
89.81737340967848
 20
17.16704925518006
 10
89.84788515967847
 20
17.14441150518006
 10
89.86658590967847
 20
17.10504150518006
  0
LWPOLYLINE
  5
10583
330
1E
100
AcDbEntity
  8
PRECISION_PART
 62
     8
100
AcDbPolyline
 90
       10
 70
     0
 43
0.0
 10
89.82721590967846
 20
17.10504150518006
 10
89.78194040967848
 20
17.14047450518006
 10
89.75241290967849
 20
17.13063200518006
 10
89.73371215967848
 20
17.10504150518006
 10
89.72780665967848
 20
17.06960850518006
 10
89.73371215967848
 20
17.03417550518006
 10
89.75241290967849
 20
17.00858500518006
 10
89.78194040967848
 20
16.99874250518006
 10
89.81343640967848
 20
17.01055350518006
 10
89.83115290967848
 20
17.04401800518006
  0
LWPOLYLINE
  5
10584
330
1E
100
AcDbEntity
  8
PRECISION_PART
 62
     8
100
AcDbPolyline
 90
        3
 70
     0
 43
0.0
 10
89.94040465967847
 20
17.04401800518006
 10
89.96501090967848
 20
17.12571075518006
 10
89.98961715967848
 20
17.04401800518006
  0
LWPOLYLINE
  5
10585
330
1E
100
AcDbEntity
  8
PRECISION_PART
 62
     8
100
AcDbPolyline
 90
        3
 70
     0
 43
0.0
 10
89.47879140967847
 20
17.07649825518006
 10
89.49847640967847
 20
17.09421475518006
 10
89.50635040967847
 20
17.11980525518006
  0
LWPOLYLINE
  5
10586
330
1E
100
AcDbEntity
  8
PRECISION_PART
 62
     8
100
AcDbPolyline
 90
        2
 70
     0
 43
0.0
 10
89.35674440967849
 20
16.97019925518006
 10
89.35674440967849
 20
17.16704925518006
  0
LWPOLYLINE
  5
10587
330
1E
100
AcDbEntity
  8
PRECISION_PART
 62
     8
100
AcDbPolyline
 90
        2
 70
     0
 43
0.0
 10
89.39513015967847
 20
17.08830925518006
 10
89.39513015967847
 20
17.13358475518006
  0
LWPOLYLINE
  5
10588
330
1E
100
AcDbEntity
  8
PRECISION_PART
 62
     8
100
AcDbPolyline
 90
        5
 70
     0
 43
0.0
 10
89.43843715967847
 20
17.08830925518006
 10
89.44926390967848
 20
17.09027775518006
 10
89.45910640967849
 20
17.09519900518006
 10
89.46599615967848
 20
17.10110450518006
 10
89.46796465967848
 20
17.10996275518006
  0
LWPOLYLINE
  5
10589
330
1E
100
AcDbEntity
  8
PRECISION_PART
 62
     8
100
AcDbPolyline
 90
        3
 70
     0
 43
0.0
 10
89.53686215967847
 20
16.97019925518006
 10
89.53686215967847
 20
17.16704925518006
 10
89.68253115967847
 20
17.16704925518006
  0
LWPOLYLINE
  5
1058A
330
1E
100
AcDbEntity
  8
PRECISION_PART
 62
     8
100
AcDbPolyline
 90
        2
 70
     0
 43
0.0
 10
89.57820065967847
 20
17.09323050518006
 10
89.57820065967847
 20
17.13358475518006
  0
LWPOLYLINE
  5
1058B
330
1E
100
AcDbEntity
  8
PRECISION_PART
 62
     8
100
AcDbPolyline
 90
        4
 70
     0
 43
0.0
 10
89.87249140967847
 20
16.97019925518006
 10
89.94237315967849
 20
17.16704925518006
 10
89.98764865967848
 20
17.16704925518006
 10
90.05753040967848
 20
16.97019925518006
  0
LWPOLYLINE
  5
1058C
330
1E
100
AcDbEntity
  8
PRECISION_PART
 62
     8
100
AcDbPolyline
 90
        2
 70
     0
 43
0.0
 10
89.35674440967849
 20
16.97019925518006
 10
89.45123240967848
 20
16.97019925518006
  0
LWPOLYLINE
  5
1058D
330
1E
100
AcDbEntity
  8
PRECISION_PART
 62
     8
100
AcDbPolyline
 90
        2
 70
     0
 43
0.0
 10
89.87249140967847
 20
16.97019925518006
 10
89.91579840967848
 20
16.97019925518006
  0
LWPOLYLINE
  5
1058E
330
1E
100
AcDbEntity
  8
PRECISION_PART
 62
     8
100
AcDbPolyline
 90
        2
 70
     0
 43
0.0
 10
89.78390890967848
 20
17.07551400518006
 10
89.78390890967848
 20
17.04401800518006
  0
LWPOLYLINE
  5
1058F
330
1E
100
AcDbEntity
  8
PRECISION_PART
 62
     8
100
AcDbPolyline
 90
        2
 70
     0
 43
0.0
 10
89.78390890967848
 20
17.07551400518006
 10
89.86757015967848
 20
17.07551400518006
  0
LWPOLYLINE
  5
10590
330
1E
100
AcDbEntity
  8
PRECISION_PART
 62
     8
100
AcDbPolyline
 90
        2
 70
     0
 43
0.0
 10
89.86757015967848
 20
16.96921500518006
 10
89.86757015967848
 20
17.07551400518006
  0
LWPOLYLINE
  5
10591
330
1E
100
AcDbEntity
  8
PRECISION_PART
 62
     8
100
AcDbPolyline
 90
        2
 70
     0
 43
0.0
 10
89.83508990967846
 20
16.96921500518006
 10
89.86757015967848
 20
16.96921500518006
  0
LWPOLYLINE
  5
10592
330
1E
100
AcDbEntity
  8
PRECISION_PART
 62
     8
100
AcDbPolyline
 90
        2
 70
     0
 43
0.0
 10
89.83410565967849
 20
16.99578975518006
 10
89.83508990967846
 20
16.96921500518006
  0
LWPOLYLINE
  5
10593
330
1E
100
AcDbEntity
  8
PRECISION_PART
 62
     8
100
AcDbPolyline
 90
        2
 70
     0
 43
0.0
 10
89.78390890967848
 20
17.04401800518006
 10
89.83115290967848
 20
17.04401800518006
  0
LWPOLYLINE
  5
10594
330
1E
100
AcDbEntity
  8
PRECISION_PART
 62
     8
100
AcDbPolyline
 90
        3
 70
     0
 43
0.0
 10
89.51324015967847
 20
17.02630150518006
 10
89.50438190967847
 20
17.05681325518006
 10
89.47879140967847
 20
17.07649825518006
  0
LWPOLYLINE
  5
10595
330
1E
100
AcDbEntity
  8
PRECISION_PART
 62
     8
100
AcDbPolyline
 90
        5
 70
     0
 43
0.0
 10
89.45123240967848
 20
16.97019925518006
 10
89.46501190967849
 20
16.97118350518006
 10
89.47879140967847
 20
16.97413625518006
 10
89.50438190967847
 20
16.99480550518006
 10
89.51324015967847
 20
17.02630150518006
  0
LWPOLYLINE
  5
10596
330
1E
100
AcDbEntity
  8
PRECISION_PART
 62
     8
100
AcDbPolyline
 90
        2
 70
     0
 43
0.0
 10
89.39513015967847
 20
17.08830925518006
 10
89.43843715967847
 20
17.08830925518006
  0
LWPOLYLINE
  5
10597
330
1E
100
AcDbEntity
  8
PRECISION_PART
 62
     8
100
AcDbPolyline
 90
        2
 70
     0
 43
0.0
 10
89.39513015967847
 20
17.05779750518006
 10
89.43843715967847
 20
17.05779750518006
  0
LWPOLYLINE
  5
10598
330
1E
100
AcDbEntity
  8
PRECISION_PART
 62
     8
100
AcDbPolyline
 90
        2
 70
     0
 43
0.0
 10
89.39513015967847
 20
17.00267950518006
 10
89.39513015967847
 20
17.05779750518006
  0
LWPOLYLINE
  5
10599
330
1E
100
AcDbEntity
  8
PRECISION_PART
 62
     8
100
AcDbPolyline
 90
        2
 70
     0
 43
0.0
 10
89.39513015967847
 20
17.00267950518006
 10
89.43843715967847
 20
17.00267950518006
  0
LWPOLYLINE
  5
1059A
330
1E
100
AcDbEntity
  8
PRECISION_PART
 62
     8
100
AcDbPolyline
 90
        3
 70
     0
 43
0.0
 10
89.45910640967849
 20
17.05287625518006
 10
89.44926390967848
 20
17.05681325518006
 10
89.43843715967847
 20
17.05779750518006
  0
LWPOLYLINE
  5
1059B
330
1E
100
AcDbEntity
  8
PRECISION_PART
 62
     8
100
AcDbPolyline
 90
        3
 70
     0
 43
0.0
 10
89.46107490967847
 20
17.00858500518006
 10
89.46894890967847
 20
17.01645900518006
 10
89.47288590967849
 20
17.02728575518006
  0
LWPOLYLINE
  5
1059C
330
1E
100
AcDbEntity
  8
PRECISION_PART
 62
     8
100
AcDbPolyline
 90
        3
 70
     0
 43
0.0
 10
89.43843715967847
 20
17.00267950518006
 10
89.45024815967848
 20
17.00366375518006
 10
89.46107490967847
 20
17.00858500518006
  0
LWPOLYLINE
  5
1059D
330
1E
100
AcDbEntity
  8
PRECISION_PART
 62
     8
100
AcDbPolyline
 90
        3
 70
     0
 43
0.0
 10
89.47288590967849
 20
17.02728575518006
 10
89.47190165967848
 20
17.03319125518006
 10
89.45910640967849
 20
17.05287625518006
  0
LWPOLYLINE
  5
1059E
330
1E
100
AcDbEntity
  8
PRECISION_PART
 62
     8
100
AcDbPolyline
 90
        2
 70
     0
 43
0.0
 10
89.57820065967847
 20
17.09323050518006
 10
89.67072015967849
 20
17.09323050518006
  0
LWPOLYLINE
  5
1059F
330
1E
100
AcDbEntity
  8
PRECISION_PART
 62
     8
100
AcDbPolyline
 90
        2
 70
     0
 43
0.0
 10
89.67072015967849
 20
17.05976600518006
 10
89.67072015967849
 20
17.09323050518006
  0
LWPOLYLINE
  5
105A0
330
1E
100
AcDbEntity
  8
PRECISION_PART
 62
     8
100
AcDbPolyline
 90
        2
 70
     0
 43
0.0
 10
89.57820065967847
 20
17.05976600518006
 10
89.67072015967849
 20
17.05976600518006
  0
LWPOLYLINE
  5
105A1
330
1E
100
AcDbEntity
  8
PRECISION_PART
 62
     8
100
AcDbPolyline
 90
        2
 70
     0
 43
0.0
 10
89.57820065967847
 20
17.00267950518006
 10
89.57820065967847
 20
17.05976600518006
  0
LWPOLYLINE
  5
105A2
330
1E
100
AcDbEntity
  8
PRECISION_PART
 62
     8
100
AcDbPolyline
 90
        2
 70
     0
 43
0.0
 10
89.57820065967847
 20
17.00267950518006
 10
89.68253115967847
 20
17.00267950518006
  0
LWPOLYLINE
  5
105A3
330
1E
100
AcDbEntity
  8
PRECISION_PART
 62
     8
100
AcDbPolyline
 90
        2
 70
     0
 43
0.0
 10
89.68253115967847
 20
16.97019925518006
 10
89.68253115967847
 20
17.00267950518006
  0
LWPOLYLINE
  5
105A4
330
1E
100
AcDbEntity
  8
PRECISION_PART
 62
     8
100
AcDbPolyline
 90
        2
 70
     0
 43
0.0
 10
89.53686215967847
 20
16.97019925518006
 10
89.68253115967847
 20
16.97019925518006
  0
LWPOLYLINE
  5
105A5
330
1E
100
AcDbEntity
  8
PRECISION_PART
 62
     8
100
AcDbPolyline
 90
        2
 70
     0
 43
0.0
 10
89.93056215967847
 20
17.01252200518006
 10
89.99847540967847
 20
17.01252200518006
  0
LWPOLYLINE
  5
105A6
330
1E
100
AcDbEntity
  8
PRECISION_PART
 62
     8
100
AcDbPolyline
 90
        2
 70
     0
 43
0.0
 10
89.91579840967848
 20
16.97019925518006
 10
89.93056215967847
 20
17.01252200518006
  0
LWPOLYLINE
  5
105A7
330
1E
100
AcDbEntity
  8
PRECISION_PART
 62
     8
100
AcDbPolyline
 90
        2
 70
     0
 43
0.0
 10
89.94040465967847
 20
17.04401800518006
 10
89.98961715967848
 20
17.04401800518006
  0
LWPOLYLINE
  5
105A8
330
1E
100
AcDbEntity
  8
PRECISION_PART
 62
     8
100
AcDbPolyline
 90
        2
 70
     0
 43
0.0
 10
90.01422340967847
 20
16.97019925518006
 10
90.05753040967848
 20
16.97019925518006
  0
LWPOLYLINE
  5
105A9
330
1E
100
AcDbEntity
  8
PRECISION_PART
 62
     8
100
AcDbPolyline
 90
        2
 70
     0
 43
0.0
 10
89.99847540967847
 20
17.01252200518006
 10
90.01422340967847
 20
16.97019925518006
  0
LWPOLYLINE
  5
105AA
330
1E
100
AcDbEntity
  8
PRECISION_PART
 62
     8
100
AcDbPolyline
 90
        2
 70
     0
 43
0.0
 10
89.35674440967849
 20
17.16704925518006
 10
89.44926390967848
 20
17.16704925518006
  0
LWPOLYLINE
  5
105AB
330
1E
100
AcDbEntity
  8
PRECISION_PART
 62
     8
100
AcDbPolyline
 90
        2
 70
     0
 43
0.0
 10
89.82721590967846
 20
17.10504150518006
 10
89.86658590967847
 20
17.10504150518006
  0
LWPOLYLINE
  5
105AC
330
1E
100
AcDbEntity
  8
PRECISION_PART
 62
     8
100
AcDbPolyline
 90
        3
 70
     0
 43
0.0
 10
89.48764965967848
 20
17.15720675518006
 10
89.46894890967847
 20
17.16508075518006
 10
89.44926390967848
 20
17.16704925518006
  0
LWPOLYLINE
  5
105AD
330
1E
100
AcDbEntity
  8
PRECISION_PART
 62
     8
100
AcDbPolyline
 90
        4
 70
     0
 43
0.0
 10
89.50635040967847
 20
17.11882100518006
 10
89.50635040967847
 20
17.11980525518006
 10
89.50044490967847
 20
17.14047450518006
 10
89.48764965967848
 20
17.15720675518006
  0
LWPOLYLINE
  5
105AE
330
1E
100
AcDbEntity
  8
PRECISION_PART
 62
     8
100
AcDbPolyline
 90
        2
 70
     0
 43
0.0
 10
89.50635040967847
 20
17.11980525518006
 10
89.50635040967847
 20
17.11980525518006
  0
LWPOLYLINE
  5
105AF
330
1E
100
AcDbEntity
  8
PRECISION_PART
 62
     8
100
AcDbPolyline
 90
        2
 70
     0
 43
0.0
 10
89.39513015967847
 20
17.13358475518006
 10
89.44335840967848
 20
17.13358475518006
  0
LWPOLYLINE
  5
105B0
330
1E
100
AcDbEntity
  8
PRECISION_PART
 62
     8
100
AcDbPolyline
 90
        3
 70
     0
 43
0.0
 10
89.46009065967848
 20
17.12767925518006
 10
89.45221665967848
 20
17.13260050518006
 10
89.44335840967848
 20
17.13358475518006
  0
LWPOLYLINE
  5
105B1
330
1E
100
AcDbEntity
  8
PRECISION_PART
 62
     8
100
AcDbPolyline
 90
        4
 70
     0
 43
0.0
 10
89.46009065967848
 20
17.12767925518006
 10
89.46796465967848
 20
17.11291550518006
 10
89.46796465967848
 20
17.11094700518006
 10
89.46796465967848
 20
17.10996275518006
  0
LWPOLYLINE
  5
105B2
330
1E
100
AcDbEntity
  8
PRECISION_PART
 62
     8
100
AcDbPolyline
 90
        2
 70
     0
 43
0.0
 10
89.68253115967847
 20
17.13358475518006
 10
89.68253115967847
 20
17.16704925518006
  0
LWPOLYLINE
  5
105B3
330
1E
100
AcDbEntity
  8
PRECISION_PART
 62
     8
100
AcDbPolyline
 90
        2
 70
     0
 43
0.0
 10
89.57820065967847
 20
17.13358475518006
 10
89.68253115967847
 20
17.13358475518006
  0
LWPOLYLINE
  5
105B4
330
1E
100
AcDbEntity
  8
PRECISION_PART
 62
     8
100
AcDbPolyline
 90
        2
 70
     0
 43
0.0
 10
89.82721590967846
 20
17.10504150518006
 10
89.86658590967847
 20
17.10504150518006
  0
DIMENSION
  5
105B6
330
1E
100
AcDbEntity
  8
DIM
100
AcDbDimension
  2
*D114
 10
79.4767167674323
 20
23.57532949955125
 30
0.0
 11
76.49789035493229
 21
23.57532949955125
 31
0.0
 70
    32
  1
6"
 71
     5
 42
5.957652824999996
  3
Standard
100
AcDbAlignedDimension
 13
73.51906394243229
 23
21.97958533741769
 33
0.0
 14
79.4767167674323
 24
16.88907351241772
 34
0.0
100
AcDbRotatedDimension
  0
DIMENSION
  5
105C4
330
1E
100
AcDbEntity
  8
DIM
100
AcDbDimension
  2
*D115
 10
94.79986742217848
 20
23.55509859347533
 30
0.0
 11
89.68253115967847
 21
23.55509859347533
 31
0.0
 70
    32
 71
     5
 42
10.23467252499999
  3
Standard
100
AcDbAlignedDimension
 13
84.56519489717848
 23
16.9146935874177
 33
0.0
 14
94.79986742217848
 24
16.9146935874177
 34
0.0
100
AcDbRotatedDimension
  0
TEXT
  5
10622
330
1E
100
AcDbEntity
  8
TEXT
100
AcDbText
 10
73.59038825946973
 20
10.36757229886099
 30
0.0
 40
0.3
  1
NOTES:
100
AcDbText
  0
VIEWPORT
  5
BB2E
102
{ACAD_XDICTIONARY
360
BB2F
102
}
330
1A
100
AcDbEntity
 67
     1
  8
0
100
AcDbViewport
 10
4.930730048023408
 20
4.025244626725806
 30
0.0
 40
12.67452522346436
 41
7.585691456444901
 68
     1
 69
     1
 12
4.930730048023408
 22
4.025244626725806
 13
0.0
 23
0.0
 14
0.5
 24
0.5
 15
0.5
 25
0.5
 16
0.0
 26
0.0
 36
1.0
 17
0.0
 27
0.0
 37
0.0
 42
50.0
 43
0.0
 44
0.0
 45
7.585691456444901
 50
0.0
 51
0.0
 72
   100
 90
   557088
  1

281
     0
 71
     1
 74
     0
110
0.0
120
0.0
130
0.0
111
1.0
121
0.0
131
0.0
112
0.0
122
1.0
132
0.0
 79
     0
146
0.0
170
     0
  0
VIEWPORT
  5
BB32
102
{ACAD_XDICTIONARY
360
BB33
102
}
330
1A
100
AcDbEntity
 67
     1
  8
TITLE
100
AcDbViewport
 10
4.793735519594132
 20
3.977959012607298
 30
0.0
 40
9.060615036231881
 41
6.356583031400967
 68
     2
 69
     2
 12
83.66152572154115
 22
16.87224313960153
 13
0.0
 23
0.0
 14
0.1
 24
0.1
 15
1.0
 25
1.0
 16
0.0
 26
0.0
 36
1.0
 17
0.0
 27
0.0
 37
0.0
 42
50.0
 43
0.0
 44
0.0
 45
19.90809360317598
 50
0.0
 51
0.0
 72
   100
 90
   819232
  1

281
     0
 71
     1
 74
     0
110
0.0
120
0.0
130
0.0
111
1.0
121
0.0
131
0.0
112
0.0
122
1.0
132
0.0
 79
     0
146
0.0
170
     0
  0
INSERT
  5
C0C7
330
1A
100
AcDbEntity
 67
     1
  8
TITLE
100
AcDbBlockReference
  2
Tabloid Submittal (11 x 17)
 10
0.1369587985796413
 20
0.6491089220275894
 30
0.0
 41
0.6022342995169089
 42
0.6022342995169089
 43
0.6022342995169089
  0
TEXT
  5
C0C8
330
1A
100
AcDbEntity
 67
     1
  8
TITLE
100
AcDbText
 10
9.441776041112687
 20
3.82559768458562
 30
0.0
 40
0.0602234299516909
  1
33 530
 50
90.0
 41
1.05
  7
Title
100
AcDbText
  0
TEXT
  5
C0CB
330
1A
100
AcDbEntity
 67
     1
  8
TITLE
100
AcDbText
 10
9.907911546615626
 20
3.827272800431471
 30
0.0
 40
0.0602234299516909
  1
AV
 50
90.0
100
AcDbText
  0
TEXT
  5
C0CC
330
1A
100
AcDbEntity
 67
     1
  8
TITLE
100
AcDbText
 10
9.914867118439895
 20
4.620664162620643
 30
0.0
 40
0.0542010869565218
  1
7/20/15
 50
90.0
100
AcDbText
  0
TEXT
  5
C0CD
330
1A
100
AcDbEntity
 67
     1
  8
TITLE
100
AcDbText
 10
9.901510916694775
 20
5.555076072514681
 30
0.0
 40
0.0602234299516909
  1
33530.dxf
 50
90.0
100
AcDbText
  0
ENDSEC
  0
SECTION
  2
OBJECTS
  0
DICTIONARY
  5
C
330
0
100
AcDbDictionary
281
     1
  3
ACAD_2007HEADERVARS_RT
350
10664
  3
ACAD_CIP_PREVIOUS_PRODUCT_INFO
350
BB23
  3
ACAD_COLOR
350
7810
  3
ACAD_DETAILVIEWSTYLE
350
BB1D
  3
ACAD_GROUP
350
D
  3
ACAD_LAYOUT
350
19
  3
ACAD_MATERIAL
350
77E6
  3
ACAD_MLEADERSTYLE
350
7835
  3
ACAD_MLINESTYLE
350
16
  3
ACAD_PLOTSETTINGS
350
18
  3
ACAD_PLOTSTYLENAME
350
E
  3
ACAD_SCALELIST
350
7813
  3
ACAD_SECTIONVIEWSTYLE
350
BB1A
  3
ACAD_TABLESTYLE
350
7811
  3
ACAD_VISUALSTYLE
350
77FF
  3
AcadDim
350
27B1
  3
ACDB_RECOMPOSE_DATA
350
10663
  3
AcDbVariableDictionary
350
857
  3
AcDsDecomposeData
350
1066B
  3
AEC_PROPERTY_SET_DEFS
350
C0C5
  0
DICTIONARY
  5
345A
330
2
100
AcDbDictionary
280
     1
281
     1
  3
ACAD_LAYERFILTERS
360
F2F7
  3
ACAD_LAYERSTATES
360
345B
  3
ACLYDICTIONARY
360
F2F6
  0
DICTIONARY
  5
7838
330
10
100
AcDbDictionary
280
     1
281
     1
  3
ADSK_XREC_LAYER_RECONCILED
360
C0E1
  0
DICTIONARY
  5
783A
330
22
100
AcDbDictionary
280
     1
281
     1
  3
ADSK_XREC_LAYER_RECONCILED
360
C0E2
  0
DICTIONARY
  5
783C
330
246
100
AcDbDictionary
280
     1
281
     1
  3
ADSK_XREC_LAYER_RECONCILED
360
C0E3
  0
DICTIONARY
  5
783E
330
2135
100
AcDbDictionary
280
     1
281
     1
  3
ADSK_XREC_LAYER_RECONCILED
360
C0E4
  0
DICTIONARY
  5
7F75
330
1E
100
AcDbDictionary
280
     1
281
     1
  3
ACAD_SORTENTS
360
7F76
  0
DICTIONARY
  5
C17D
330
785B
100
AcDbDictionary
280
     1
281
     1
  0
DICTIONARY
  5
C540
330
C53E
100
AcDbDictionary
280
     1
281
     1
  3
ACAD_SORTENTS
360
C541
  0
DICTIONARY
  5
BB2F
330
BB2E
100
AcDbDictionary
280
     1
281
     1
  3
ASDK_XREC_ANNOTATION_SCALE_INFO
360
BB30
  0
DICTIONARY
  5
BB33
330
BB32
100
AcDbDictionary
280
     1
281
     1
  3
ASDK_XREC_ANNOTATION_SCALE_INFO
360
BB34
  0
DICTIONARY
  5
10664
102
{ACAD_REACTORS
330
C
102
}
330
C
100
AcDbDictionary
281
     1
  3
INTERFEREVPVS
350
10665
  0
XRECORD
  5
BB23
102
{ACAD_REACTORS
330
C
102
}
330
C
100
AcDbXrecord
280
     1
300
ACDLT
300
2015
300
ACDLT_F_S
  0
DICTIONARY
  5
7810
102
{ACAD_REACTORS
330
C
102
}
330
C
100
AcDbDictionary
281
     1
  0
DICTIONARY
  5
BB1D
102
{ACAD_REACTORS
330
C
102
}
330
C
100
AcDbDictionary
281
     1
  3
Imperial24
350
BB1E
  0
DICTIONARY
  5
D
102
{ACAD_REACTORS
330
C
102
}
330
C
100
AcDbDictionary
281
     1
  0
DICTIONARY
  5
19
102
{ACAD_REACTORS
330
C
102
}
330
C
100
AcDbDictionary
281
     1
  3
Layout1
350
1D
  3
Model
350
21
  0
DICTIONARY
  5
77E6
102
{ACAD_REACTORS
330
C
102
}
330
C
100
AcDbDictionary
281
     1
  3
ByBlock
350
77EF
  3
ByLayer
350
77E7
  3
Global
350
77F7
  0
DICTIONARY
  5
7835
102
{ACAD_REACTORS
330
C
102
}
330
C
100
AcDbDictionary
281
     1
  3
Standard
350
7836
  0
DICTIONARY
  5
16
102
{ACAD_REACTORS
330
C
102
}
330
C
100
AcDbDictionary
281
     1
  3
Standard
350
17
  0
DICTIONARY
  5
18
102
{ACAD_REACTORS
330
C
102
}
330
C
100
AcDbDictionary
281
     1
  0
ACDBDICTIONARYWDFLT
  5
E
102
{ACAD_REACTORS
330
C
102
}
330
C
100
AcDbDictionary
281
     1
  3
Normal
350
F
100
AcDbDictionaryWithDefault
340
F
  0
DICTIONARY
  5
7813
102
{ACAD_REACTORS
330
C
102
}
330
C
100
AcDbDictionary
281
     1
  3
A0
350
7814
  3
A1
350
7815
  3
A2
350
7816
  3
A3
350
7817
  3
A4
350
7818
  3
A5
350
7819
  3
A6
350
781A
  3
A7
350
781B
  3
A8
350
781C
  3
A9
350
781D
  3
B0
350
781E
  3
B1
350
781F
  3
B2
350
7820
  3
B3
350
7821
  3
B4
350
7822
  3
B5
350
7823
  3
B6
350
7824
  3
B7
350
7825
  3
B8
350
7826
  3
B9
350
7827
  3
C0
350
7828
  3
C1
350
7829
  3
C2
350
782A
  3
C3
350
782B
  3
C4
350
782C
  3
C5
350
782D
  3
C6
350
782E
  3
C7
350
782F
  3
C8
350
7830
  3
C9
350
7831
  3
D0
350
7832
  3
D1
350
7833
  3
D2
350
7834
  0
DICTIONARY
  5
BB1A
102
{ACAD_REACTORS
330
C
102
}
330
C
100
AcDbDictionary
281
     1
  3
Imperial24
350
BB1C
  0
DICTIONARY
  5
7811
102
{ACAD_REACTORS
330
C
102
}
330
C
100
AcDbDictionary
281
     1
  3
Standard
350
7812
  0
DICTIONARY
  5
77FF
102
{ACAD_REACTORS
330
C
102
}
330
C
100
AcDbDictionary
281
     1
  3
2dWireframe
350
7805
  3
3D Hidden
350
7807
  3
3dWireframe
350
7806
  3
Basic
350
7804
  3
Brighten
350
780B
  3
ColorChange
350
780F
  3
Conceptual
350
7808
  3
Dim
350
780A
  3
EdgeColorOff
350
BB19
  3
Facepattern
350
780E
  3
Flat
350
7800
  3
FlatWithEdges
350
7801
  3
Gouraud
350
7802
  3
GouraudWithEdges
350
7803
  3
Hidden
350
BB11
  3
JitterOff
350
BB17
  3
Linepattern
350
780D
  3
OverhangOff
350
BB18
  3
Realistic
350
7809
  3
Shaded
350
BB16
  3
Shaded with edges
350
BB15
  3
Shades of Gray
350
BB12
  3
Sketchy
350
BB13
  3
Thicken
350
780C
  3
Wireframe
350
BB10
  3
X-Ray
350
BB14
  0
XRECORD
  5
27B1
102
{ACAD_REACTORS
330
C
102
}
330
C
100
AcDbXrecord
280
     1
 90
   990106
  3

 60
     4
 61
     0
 62
     1
 63
     3
 64
     0
 65
     0
 66
     0
 67
     3
 68
     1
 69
     0
 70
     0
 71
     0
 72
     0
 40
0.0
170
     0
  0
XRECORD
  5
10663
102
{ACAD_REACTORS
330
C
102
}
330
C
100
AcDbXrecord
280
     1
 90
        1
330
7812
  0
DICTIONARY
  5
857
102
{ACAD_REACTORS
330
C
102
}
330
C
100
AcDbDictionary
281
     1
  3
CANNOSCALE
350
7842
  3
CMLEADERSTYLE
350
7841
  3
CTABLESTYLE
350
7840
  3
CVIEWDETAILSTYLE
350
C0E7
  3
CVIEWSECTIONSTYLE
350
C0E8
  3
DIMASSOC
350
7844
  3
INDEXCTL
350
7843
  3
LAYEREVAL
350
C0E9
  3
LAYERNOTIFY
350
C0EA
  3
LIGHTINGUNITS
350
85B9
  3
LOFTANG1
350
1065F
  3
LOFTANG2
350
10660
  3
LONGITUDE
350
10661
  3
MSLTSCALE
350
85B8
  3
SOLIDHIST
350
F3FB
  3
SORTENTS
350
858
  0
DICTIONARY
  5
1066B
102
{ACAD_REACTORS
330
C
102
}
330
C
100
AcDbDictionary
281
     1
  3
AcDsRecords
350
1066D
  3
AcDsSchemas
350
1066C
1001
ACAD
1070
     2
  0
DICTIONARY
  5
C0C5
102
{ACAD_REACTORS
330
C
102
}
330
C
100
AcDbDictionary
281
     1
  0
DICTIONARY
  5
F2F7
102
{ACAD_REACTORS
330
345A
102
}
330
345A
100
AcDbDictionary
281
     1
  0
DICTIONARY
  5
345B
102
{ACAD_REACTORS
330
345A
102
}
330
345A
100
AcDbDictionary
281
     1
  0
DICTIONARY
  5
F2F6
102
{ACAD_REACTORS
330
345A
102
}
330
345A
100
AcDbDictionary
281
     1
1001
ACAD
1000
<All
  0
XRECORD
  5
C0E1
102
{ACAD_REACTORS
330
7838
102
}
330
7838
100
AcDbXrecord
280
     1
290
     1
  0
XRECORD
  5
C0E2
102
{ACAD_REACTORS
330
783A
102
}
330
783A
100
AcDbXrecord
280
     1
290
     1
  0
XRECORD
  5
C0E3
102
{ACAD_REACTORS
330
783C
102
}
330
783C
100
AcDbXrecord
280
     1
290
     1
  0
XRECORD
  5
C0E4
102
{ACAD_REACTORS
330
783E
102
}
330
783E
100
AcDbXrecord
280
     1
290
     1
  0
SORTENTSTABLE
  5
7F76
102
{ACAD_REACTORS
330
7F75
102
}
330
7F75
100
AcDbSortentsTable
330
1E
331
1025D
  5
1025D
331
10259
  5
10259
331
10255
  5
10255
331
10294
  5
10294
331
10251
  5
10251
331
10290
  5
10290
331
1050E
  5
10511
331
1050A
  5
1050D
331
10506
  5
10509
331
10502
  5
10505
331
1024D
  5
1024D
331
1028C
  5
1028C
331
10288
  5
10288
331
10249
  5
10249
331
10245
  5
10245
331
10284
  5
10284
331
10241
  5
10241
331
10280
  5
10280
331
1053D
  5
1053F
331
104FE
  5
10501
331
104FA
  5
104FD
331
102BE
  5
104FB
331
10535
  5
1053B
331
102BA
  5
102BD
331
10531
  5
10534
331
1023D
  5
1023D
331
1027C
  5
1027C
331
10278
  5
10278
331
10239
  5
10239
331
10235
  5
10235
331
10274
  5
10274
331
10231
  5
10231
331
10270
  5
10270
331
1052D
  5
10531
331
10529
  5
1052C
331
102AE
  5
102B7
331
10525
  5
10528
331
102AA
  5
102AD
331
10521
  5
10524
331
1022D
  5
1022D
331
1026C
  5
1026C
331
10268
  5
10268
331
10225
  5
10225
331
10264
  5
10264
331
10260
  5
10260
331
102A6
  5
102A9
331
1051D
  5
10520
331
10519
  5
1051C
331
102A2
  5
102A5
331
1029E
  5
102A1
331
10515
  5
10518
331
1029A
  5
1029B
331
10511
  5
10515
331
1025C
  5
1025C
331
10258
  5
10258
331
10297
  5
10297
331
10254
  5
10254
331
10293
  5
10293
331
10250
  5
10250
331
1050D
  5
10510
331
10509
  5
1050C
331
10505
  5
10508
331
10501
  5
10504
331
1028F
  5
1028F
331
1028B
  5
1028B
331
1024C
  5
1024C
331
10287
  5
10287
331
10248
  5
10248
331
10244
  5
10244
331
10283
  5
10283
331
10240
  5
10240
331
1053C
  5
1053E
331
104FD
  5
10500
331
104F9
  5
104FC
331
102BD
  5
104FA
331
10534
  5
1053A
331
102B9
  5
102BC
331
10530
  5
10533
331
1027F
  5
1027F
331
1023C
  5
1023C
331
1027B
  5
1027B
331
10277
  5
10277
331
10238
  5
10238
331
10234
  5
10234
331
10273
  5
10273
331
10230
  5
10230
331
1052C
  5
10530
331
10528
  5
1052B
331
102AD
  5
102B0
331
10524
  5
10527
331
102A9
  5
102AC
331
10520
  5
10523
331
1026F
  5
1026F
331
1026B
  5
1026B
331
10267
  5
10267
331
10228
  5
10228
331
10224
  5
10224
331
10263
  5
10263
331
1051C
  5
1051F
331
102A5
  5
102A8
331
10518
  5
1051B
331
102A1
  5
102A4
331
1029D
  5
102A0
331
10510
  5
10513
331
1025F
  5
1025F
331
1025B
  5
1025B
331
10257
  5
10257
331
10296
  5
10296
331
10253
  5
10253
331
10292
  5
10292
331
1050C
  5
1050F
331
10508
  5
1050B
331
10504
  5
10507
331
10500
  5
10503
331
1024F
  5
1024F
331
1028E
  5
1028E
331
1028A
  5
1028A
331
1024B
  5
1024B
331
10247
  5
10247
331
10286
  5
10286
331
10243
  5
10243
331
10282
  5
10282
331
1053F
  5
1029E
331
1053B
  5
1053D
331
104FC
  5
104FF
331
102BC
  5
104F9
331
10533
  5
10536
331
102B8
  5
102BB
331
1023F
  5
1023F
331
1027E
  5
1027E
331
1027A
  5
1027A
331
1023B
  5
1023B
331
10276
  5
10276
331
10237
  5
10237
331
10233
  5
10233
331
10272
  5
10272
331
1052B
  5
1052E
331
102B0
  5
102B9
331
10527
  5
1052A
331
102AC
  5
102AF
331
10523
  5
10526
331
102A8
  5
102AB
331
1022F
  5
1022F
331
1026E
  5
1026E
331
1026A
  5
1026A
331
10266
  5
10266
331
10227
  5
10227
331
10262
  5
10262
331
1051F
  5
10522
331
1051B
  5
1051E
331
102A4
  5
102A7
331
102A0
  5
102A3
331
10517
  5
1051A
331
1029C
  5
1029F
331
10513
  5
10517
331
1025E
  5
1025E
331
1025A
  5
1025A
331
10256
  5
10256
331
10295
  5
10295
331
10252
  5
10252
331
10291
  5
10291
331
1050F
  5
10512
331
1050B
  5
1050E
331
10507
  5
1050A
331
10503
  5
10506
331
1024E
  5
1024E
331
1028D
  5
1028D
331
10289
  5
10289
331
1024A
  5
1024A
331
10246
  5
10246
331
10285
  5
10285
331
10242
  5
10242
331
10281
  5
10281
331
1053E
  5
1029C
331
104FF
  5
10502
331
1053A
  5
1053C
331
104FB
  5
104FE
331
102BB
  5
102BE
331
10532
  5
10535
331
1023E
  5
1023E
331
1027D
  5
1027D
331
10279
  5
10279
331
1023A
  5
1023A
331
10236
  5
10236
331
10275
  5
10275
331
10232
  5
10232
331
10271
  5
10271
331
102B7
  5
102BA
331
1052E
  5
10532
331
1052A
  5
1052D
331
102AF
  5
102B8
331
10526
  5
10529
331
102AB
  5
102AE
331
10522
  5
10525
331
1022E
  5
1022E
331
1026D
  5
1026D
331
10269
  5
10269
331
10265
  5
10265
331
10226
  5
10226
331
10222
  5
10222
331
10261
  5
10261
331
102A7
  5
102AA
331
1051E
  5
10521
331
1051A
  5
1051D
331
102A3
  5
102A6
331
1029F
  5
102A2
331
10516
  5
10519
331
1029B
  5
1029D
331
10512
  5
10516
  0
SORTENTSTABLE
  5
C541
102
{ACAD_REACTORS
330
C540
102
}
330
C540
100
AcDbSortentsTable
330
C53E
  0
XRECORD
  5
BB30
102
{ACAD_REACTORS
330
BB2F
102
}
330
BB2F
100
AcDbXrecord
280
     1
 90
        1
340
7814
  0
XRECORD
  5
BB34
102
{ACAD_REACTORS
330
BB33
102
}
330
BB33
100
AcDbXrecord
280
     1
 90
        1
340
7814
  0
XRECORD
  5
10665
102
{ACAD_REACTORS
330
10664
102
}
330
10664
100
AcDbXrecord
280
     1
340
7806
  0
ACDBDETAILVIEWSTYLE
  5
BB1E
102
{ACAD_XDICTIONARY
360
106A5
102
}
102
{ACAD_REACTORS
330
BB1D
102
}
330
BB1D
100
AcDbModelDocViewStyle
 70
     0
  3
Imperial24
290
     0
100
AcDbDetailViewStyle
 70
     0
 71
     0
 90
        3
 71
     1
340
11
 62
   256
 40
0.24
340
0
 62
   256
 40
0.24
300

 40
0.36
280
     3
 71
     2
340
15
 90
       25
 62
   256
 71
     3
340
11
 62
   256
 40
0.24
 90
        1
 40
0.75
 90
        1
300
%<\AcVar ViewType \f "%tc1">% %<\AcVar ViewDetailId>%\PSCALE %<\AcVar ViewScale \f "%sn">%
 71
     4
340
15
 90
       25
 62
   256
340
15
 90
       25
 62
   256
280
     0
  0
LAYOUT
  5
1D
102
{ACAD_XDICTIONARY
360
C13A
102
}
102
{ACAD_REACTORS
330
19
102
}
330
19
100
AcDbPlotSettings
  1

  2
Adobe PDF
  4
Tabloid
  6

 40
3.174999952316281
 41
3.174999952316281
 42
3.17498779296875
 43
3.17498779296875
 44
279.3999938964844
 45
431.7999877929685
 46
0.8673879146931279
 47
0.0
 48
0.0
 49
0.0
140
0.0
141
0.0
142
1.0
143
0.5954229360737358
 70
   692
 72
     0
 73
     1
 74
     1
  7
monochrome.ctb
 75
     0
147
1.679478467178434
 76
     0
 77
     2
 78
   300
148
-6.683504753545043
149
-20.30913354519513
100
AcDbLayout
  1
Layout1
 70
     0
 71
     1
 10
0.1887025275534379
 20
0.7048111453807693
 11
10.31089215465157
 21
7.254463299114172
 12
0.0
 22
0.0
 32
0.0
 14
0.2634280014781911
 24
0.7996674969068148
 34
0.0
 15
10.2364280014782
 25
7.159261699805374
 35
0.0
146
0.0
 13
0.0
 23
0.0
 33
0.0
 16
1.0
 26
0.0
 36
0.0
 17
0.0
 27
1.0
 37
0.0
 76
     0
330
1A
331
BB2E
1001
ACAD_PSEXT
1000
Adobe PDF
1000
Adobe PDF Converter
1000
Documents\*.pdf
1000

1070
     0
  0
LAYOUT
  5
21
102
{ACAD_XDICTIONARY
360
F452
102
}
102
{ACAD_REACTORS
330
19
102
}
330
19
100
AcDbPlotSettings
  1

  2
\\bega-apps\Down Doc Center BW
  4
Legal
  6

 40
7.143749713897705
 41
5.365769386291503
 42
7.14373779296875
 43
5.027069091796875
 44
215.8999938964842
 45
355.6000061035156
 46
0.0
 47
3.047999999999998
 48
0.0
 49
0.0
140
0.0
141
0.0
142
1.0
143
3.046471206232983
 70
 11956
 72
     0
 73
     1
 74
     1
  7

 75
     0
147
0.3282486300720754
 76
     0
 77
     2
 78
   300
148
-5.262937024793346
149
-6.327134664551186
100
AcDbLayout
  1
Model
 70
     1
 71
     0
 10
0.0
 20
0.0
 11
12.0
 21
9.0
 12
0.0
 22
0.0
 32
0.0
 14
0.0
 24
0.0
 34
0.0
 15
0.0
 25
0.0
 35
0.0
146
0.0
 13
0.0
 23
0.0
 33
0.0
 16
1.0
 26
0.0
 36
0.0
 17
0.0
 27
1.0
 37
0.0
 76
     0
330
1E
331
77E0
  0
MATERIAL
  5
77EF
102
{ACAD_XDICTIONARY
360
77F0
102
}
102
{ACAD_REACTORS
330
77E6
102
}
330
77E6
100
AcDbMaterial
  1
ByBlock
 72
     0
 43
0.0208333333333333
 43
0.0
 43
0.0
 43
0.0
 43
0.0
 43
0.0208333333333333
 43
0.0
 43
0.0
 43
0.0
 43
0.0
 43
1.0
 43
0.0
 43
0.0
 43
0.0
 43
0.0
 43
1.0
 77
     0
 47
0.0208333333333333
 47
0.0
 47
0.0
 47
0.0
 47
0.0
 47
0.0208333333333333
 47
0.0
 47
0.0
 47
0.0
 47
0.0
 47
1.0
 47
0.0
 47
0.0
 47
0.0
 47
0.0
 47
1.0
171
     0
 49
0.0208333333333333
 49
0.0
 49
0.0
 49
0.0
 49
0.0
 49
0.0208333333333333
 49
0.0
 49
0.0
 49
0.0
 49
0.0
 49
1.0
 49
0.0
 49
0.0
 49
0.0
 49
0.0
 49
1.0
175
     0
142
0.0208333333333333
142
0.0
142
0.0
142
0.0
142
0.0
142
0.0208333333333333
142
0.0
142
0.0
142
0.0
142
0.0
142
1.0
142
0.0
142
0.0
142
0.0
142
0.0
142
1.0
179
     0
144
0.0208333333333333
144
0.0
144
0.0
144
0.0
144
0.0
144
0.0208333333333333
144
0.0
144
0.0
144
0.0
144
0.0
144
1.0
144
0.0
144
0.0
144
0.0
144
0.0
144
1.0
147
0.0208333333333333
147
0.0
147
0.0
147
0.0
147
0.0
147
0.0208333333333333
147
0.0
147
0.0
147
0.0
147
0.0
147
1.0
147
0.0
147
0.0
147
0.0
147
0.0
147
1.0
  0
MATERIAL
  5
77E7
102
{ACAD_XDICTIONARY
360
77E8
102
}
102
{ACAD_REACTORS
330
77E6
102
}
330
77E6
100
AcDbMaterial
  1
ByLayer
 72
     0
 43
0.0208333333333333
 43
0.0
 43
0.0
 43
0.0
 43
0.0
 43
0.0208333333333333
 43
0.0
 43
0.0
 43
0.0
 43
0.0
 43
1.0
 43
0.0
 43
0.0
 43
0.0
 43
0.0
 43
1.0
 77
     0
 47
0.0208333333333333
 47
0.0
 47
0.0
 47
0.0
 47
0.0
 47
0.0208333333333333
 47
0.0
 47
0.0
 47
0.0
 47
0.0
 47
1.0
 47
0.0
 47
0.0
 47
0.0
 47
0.0
 47
1.0
171
     0
 49
0.0208333333333333
 49
0.0
 49
0.0
 49
0.0
 49
0.0
 49
0.0208333333333333
 49
0.0
 49
0.0
 49
0.0
 49
0.0
 49
1.0
 49
0.0
 49
0.0
 49
0.0
 49
0.0
 49
1.0
175
     0
142
0.0208333333333333
142
0.0
142
0.0
142
0.0
142
0.0
142
0.0208333333333333
142
0.0
142
0.0
142
0.0
142
0.0
142
1.0
142
0.0
142
0.0
142
0.0
142
0.0
142
1.0
179
     0
144
0.0208333333333333
144
0.0
144
0.0
144
0.0
144
0.0
144
0.0208333333333333
144
0.0
144
0.0
144
0.0
144
0.0
144
1.0
144
0.0
144
0.0
144
0.0
144
0.0
144
1.0
147
0.0208333333333333
147
0.0
147
0.0
147
0.0
147
0.0
147
0.0208333333333333
147
0.0
147
0.0
147
0.0
147
0.0
147
1.0
147
0.0
147
0.0
147
0.0
147
0.0
147
1.0
  0
MATERIAL
  5
77F7
102
{ACAD_XDICTIONARY
360
77F8
102
}
102
{ACAD_REACTORS
330
77E6
102
}
330
77E6
100
AcDbMaterial
  1
Global
 72
     0
 43
0.0208333333333333
 43
0.0
 43
0.0
 43
0.0
 43
0.0
 43
0.0208333333333333
 43
0.0
 43
0.0
 43
0.0
 43
0.0
 43
1.0
 43
0.0
 43
0.0
 43
0.0
 43
0.0
 43
1.0
 77
     0
 47
0.0208333333333333
 47
0.0
 47
0.0
 47
0.0
 47
0.0
 47
0.0208333333333333
 47
0.0
 47
0.0
 47
0.0
 47
0.0
 47
1.0
 47
0.0
 47
0.0
 47
0.0
 47
0.0
 47
1.0
171
     0
 49
0.0208333333333333
 49
0.0
 49
0.0
 49
0.0
 49
0.0
 49
0.0208333333333333
 49
0.0
 49
0.0
 49
0.0
 49
0.0
 49
1.0
 49
0.0
 49
0.0
 49
0.0
 49
0.0
 49
1.0
175
     0
142
0.0208333333333333
142
0.0
142
0.0
142
0.0
142
0.0
142
0.0208333333333333
142
0.0
142
0.0
142
0.0
142
0.0
142
1.0
142
0.0
142
0.0
142
0.0
142
0.0
142
1.0
179
     0
144
0.0208333333333333
144
0.0
144
0.0
144
0.0
144
0.0
144
0.0208333333333333
144
0.0
144
0.0
144
0.0
144
0.0
144
1.0
144
0.0
144
0.0
144
0.0
144
0.0
144
1.0
147
0.0208333333333333
147
0.0
147
0.0
147
0.0
147
0.0
147
0.0208333333333333
147
0.0
147
0.0
147
0.0
147
0.0
147
1.0
147
0.0
147
0.0
147
0.0
147
0.0
147
1.0
  0
MLEADERSTYLE
  5
7836
102
{ACAD_REACTORS
330
7835
102
}
330
7835
100
AcDbMLeaderStyle
170
     2
171
     1
172
     0
 90
        2
 40
0.0
 41
0.0
173
     1
 91
-1056964608
340
13
 92
       -2
290
     1
 42
0.09
291
     1
 43
0.36
  3
Standard
 44
0.18
300

342
11
174
     1
178
     6
175
     1
176
     0
 93
-1056964608
 45
0.18
292
     0
297
     0
 46
0.18
 94
-1056964608
 47
1.0
 49
1.0
140
1.0
293
     1
141
0.0
294
     1
177
     0
142
1.0
295
     0
296
     0
143
0.125
1001
ACAD_MLEADERVER
1070
     2
  0
MLINESTYLE
  5
17
102
{ACAD_REACTORS
330
16
102
}
330
16
100
AcDbMlineStyle
  2
STANDARD
 70
     0
  3

 62
   256
 51
90.0
 52
90.0
 71
     2
 49
0.5
 62
   256
  6
BYLAYER
 49
-0.5
 62
   256
  6
BYLAYER
  0
ACDBPLACEHOLDER
  5
F
102
{ACAD_REACTORS
330
E
102
}
330
E
  0
SCALE
  5
7814
102
{ACAD_REACTORS
330
7813
102
}
330
7813
100
AcDbScale
 70
     0
300
1:1
140
1.0
141
1.0
290
     1
  0
SCALE
  5
7815
102
{ACAD_REACTORS
330
7813
102
}
330
7813
100
AcDbScale
 70
     0
300
1:2
140
1.0
141
2.0
290
     0
  0
SCALE
  5
7816
102
{ACAD_REACTORS
330
7813
102
}
330
7813
100
AcDbScale
 70
     0
300
1:4
140
1.0
141
4.0
290
     0
  0
SCALE
  5
7817
102
{ACAD_REACTORS
330
7813
102
}
330
7813
100
AcDbScale
 70
     0
300
1:5
140
1.0
141
5.0
290
     0
  0
SCALE
  5
7818
102
{ACAD_REACTORS
330
7813
102
}
330
7813
100
AcDbScale
 70
     0
300
1:8
140
1.0
141
8.0
290
     0
  0
SCALE
  5
7819
102
{ACAD_REACTORS
330
7813
102
}
330
7813
100
AcDbScale
 70
     0
300
1:10
140
1.0
141
10.0
290
     0
  0
SCALE
  5
781A
102
{ACAD_REACTORS
330
7813
102
}
330
7813
100
AcDbScale
 70
     0
300
1:16
140
1.0
141
16.0
290
     0
  0
SCALE
  5
781B
102
{ACAD_REACTORS
330
7813
102
}
330
7813
100
AcDbScale
 70
     0
300
1:20
140
1.0
141
20.0
290
     0
  0
SCALE
  5
781C
102
{ACAD_REACTORS
330
7813
102
}
330
7813
100
AcDbScale
 70
     0
300
1:30
140
1.0
141
30.0
290
     0
  0
SCALE
  5
781D
102
{ACAD_REACTORS
330
7813
102
}
330
7813
100
AcDbScale
 70
     0
300
1:40
140
1.0
141
40.0
290
     0
  0
SCALE
  5
781E
102
{ACAD_REACTORS
330
7813
102
}
330
7813
100
AcDbScale
 70
     0
300
1:50
140
1.0
141
50.0
290
     0
  0
SCALE
  5
781F
102
{ACAD_REACTORS
330
7813
102
}
330
7813
100
AcDbScale
 70
     0
300
1:100
140
1.0
141
100.0
290
     0
  0
SCALE
  5
7820
102
{ACAD_REACTORS
330
7813
102
}
330
7813
100
AcDbScale
 70
     0
300
2:1
140
2.0
141
1.0
290
     0
  0
SCALE
  5
7821
102
{ACAD_REACTORS
330
7813
102
}
330
7813
100
AcDbScale
 70
     0
300
4:1
140
4.0
141
1.0
290
     0
  0
SCALE
  5
7822
102
{ACAD_REACTORS
330
7813
102
}
330
7813
100
AcDbScale
 70
     0
300
8:1
140
8.0
141
1.0
290
     0
  0
SCALE
  5
7823
102
{ACAD_REACTORS
330
7813
102
}
330
7813
100
AcDbScale
 70
     0
300
10:1
140
10.0
141
1.0
290
     0
  0
SCALE
  5
7824
102
{ACAD_REACTORS
330
7813
102
}
330
7813
100
AcDbScale
 70
     0
300
100:1
140
100.0
141
1.0
290
     0
  0
SCALE
  5
7825
102
{ACAD_REACTORS
330
7813
102
}
330
7813
100
AcDbScale
 70
     0
300
1/128" = 1'-0"
140
0.0078125
141
12.0
290
     0
  0
SCALE
  5
7826
102
{ACAD_REACTORS
330
7813
102
}
330
7813
100
AcDbScale
 70
     0
300
1/64" = 1'-0"
140
0.015625
141
12.0
290
     0
  0
SCALE
  5
7827
102
{ACAD_REACTORS
330
7813
102
}
330
7813
100
AcDbScale
 70
     0
300
1/32" = 1'-0"
140
0.03125
141
12.0
290
     0
  0
SCALE
  5
7828
102
{ACAD_REACTORS
330
7813
102
}
330
7813
100
AcDbScale
 70
     0
300
1/16" = 1'-0"
140
0.0625
141
12.0
290
     0
  0
SCALE
  5
7829
102
{ACAD_REACTORS
330
7813
102
}
330
7813
100
AcDbScale
 70
     0
300
3/32" = 1'-0"
140
0.09375
141
12.0
290
     0
  0
SCALE
  5
782A
102
{ACAD_REACTORS
330
7813
102
}
330
7813
100
AcDbScale
 70
     0
300
1/8" = 1'-0"
140
0.125
141
12.0
290
     0
  0
SCALE
  5
782B
102
{ACAD_REACTORS
330
7813
102
}
330
7813
100
AcDbScale
 70
     0
300
3/16" = 1'-0"
140
0.1875
141
12.0
290
     0
  0
SCALE
  5
782C
102
{ACAD_REACTORS
330
7813
102
}
330
7813
100
AcDbScale
 70
     0
300
1/4" = 1'-0"
140
0.25
141
12.0
290
     0
  0
SCALE
  5
782D
102
{ACAD_REACTORS
330
7813
102
}
330
7813
100
AcDbScale
 70
     0
300
3/8" = 1'-0"
140
0.375
141
12.0
290
     0
  0
SCALE
  5
782E
102
{ACAD_REACTORS
330
7813
102
}
330
7813
100
AcDbScale
 70
     0
300
1/2" = 1'-0"
140
0.5
141
12.0
290
     0
  0
SCALE
  5
782F
102
{ACAD_REACTORS
330
7813
102
}
330
7813
100
AcDbScale
 70
     0
300
3/4" = 1'-0"
140
0.75
141
12.0
290
     0
  0
SCALE
  5
7830
102
{ACAD_REACTORS
330
7813
102
}
330
7813
100
AcDbScale
 70
     0
300
1" = 1'-0"
140
1.0
141
12.0
290
     0
  0
SCALE
  5
7831
102
{ACAD_REACTORS
330
7813
102
}
330
7813
100
AcDbScale
 70
     0
300
1-1/2" = 1'-0"
140
1.5
141
12.0
290
     0
  0
SCALE
  5
7832
102
{ACAD_REACTORS
330
7813
102
}
330
7813
100
AcDbScale
 70
     0
300
3" = 1'-0"
140
3.0
141
12.0
290
     0
  0
SCALE
  5
7833
102
{ACAD_REACTORS
330
7813
102
}
330
7813
100
AcDbScale
 70
     0
300
6" = 1'-0"
140
6.0
141
12.0
290
     0
  0
SCALE
  5
7834
102
{ACAD_REACTORS
330
7813
102
}
330
7813
100
AcDbScale
 70
     0
300
1'-0" = 1'-0"
140
12.0
141
12.0
290
     0
  0
ACDBSECTIONVIEWSTYLE
  5
BB1C
102
{ACAD_XDICTIONARY
360
106A3
102
}
102
{ACAD_REACTORS
330
BB1A
102
}
330
BB1A
100
AcDbModelDocViewStyle
 70
     0
  3
Imperial24
290
     0
100
AcDbSectionViewStyle
 70
     0
 71
     0
 90
       78
 71
     1
340
11
 62
   256
 40
0.24
340
0
340
0
 62
   256
 40
0.24
300
I, O, Q, S, X, Z
 40
0.48
 90
        3
 40
0.18
 90
        1
 71
     2
340
BB1B
 90
       25
 62
   256
340
15
 90
       50
 62
   256
 40
0.24
 40
0.0
 40
0.24
 71
     3
340
11
 62
   256
 40
0.24
 90
        1
 40
0.75
 90
        1
300
%<\AcVar ViewType \f "%tc1">% %<\AcVar ViewSectionStartId>%-%<\AcVar ViewSectionEndId>%\PSCALE %<\AcVar ViewScale \f "%sn">%
 71
     4
 62
   256
 62
   257
300
ANSI31
 40
1.0
 90
        0
290
     0
290
     0
 90
        6
 40
0.0
 40
1.570796326794896
 40
0.2617993877991494
 40
1.308996938995747
 40
-0.2617993877991494
 40
1.832595714594044
  0
TABLESTYLE
  5
7812
102
{ACAD_XDICTIONARY
360
81C5
102
}
102
{ACAD_REACTORS
330
7811
102
}
330
7811
100
AcDbTableStyle
  3
Standard
 70
     0
 71
     0
 40
0.06
 41
0.06
280
     0
281
     0
  7
STANDARD
140
0.18
170
     2
 62
     0
 63
     7
283
     0
274
    -2
284
     1
 64
     0
275
    -2
285
     1
 65
     0
276
    -2
286
     1
 66
     0
277
    -2
287
     1
 67
     0
278
    -2
288
     1
 68
     0
279
    -2
289
     1
 69
     0
  7
STANDARD
140
0.25
170
     5
 62
     0
 63
     7
283
     0
274
    -2
284
     1
 64
     0
275
    -2
285
     1
 65
     0
276
    -2
286
     1
 66
     0
277
    -2
287
     1
 67
     0
278
    -2
288
     1
 68
     0
279
    -2
289
     1
 69
     0
  7
STANDARD
140
0.18
170
     5
 62
     0
 63
     7
283
     0
274
    -2
284
     1
 64
     0
275
    -2
285
     1
 65
     0
276
    -2
286
     1
 66
     0
277
    -2
287
     1
 67
     0
278
    -2
288
     1
 68
     0
279
    -2
289
     1
 69
     0
  0
VISUALSTYLE
  5
7805
102
{ACAD_XDICTIONARY
360
10678
102
}
102
{ACAD_REACTORS
330
77FF
102
}
330
77FF
100
AcDbVisualStyle
  2

 70
     4
 71
     0
 72
     2
 73
     0
 90
        0
 40
-0.6
 41
-30.0
 62
     5
 63
     7
 74
     1
 91
        4
 64
     7
 65
   257
 75
     1
175
     1
 42
1.0
 92
        0
 66
   257
 43
1.0
 76
     1
 77
     6
 78
     2
 67
     7
 79
     5
170
     0
171
     0
290
     0
174
     0
 93
        1
 44
0.0
173
     0
291
     0
 45
0.0
1001
ACAD
1000
AcDbSavedByObjectVersion
1070
     0
  0
VISUALSTYLE
  5
7807
102
{ACAD_XDICTIONARY
360
1067C
102
}
102
{ACAD_REACTORS
330
77FF
102
}
330
77FF
100
AcDbVisualStyle
  2

 70
     6
 71
     1
 72
     2
 73
     2
 90
        0
 40
-0.6
 41
-30.0
 62
     5
 63
     7
 74
     2
 91
        2
 64
     7
 65
   257
 75
     2
175
     1
 42
40.0
 92
        0
 66
   257
 43
1.0
 76
     1
 77
     6
 78
     2
 67
     7
 79
     3
170
     0
171
     0
290
     0
174
     0
 93
        1
 44
0.0
173
     0
291
     0
 45
0.0
1001
ACAD
1000
AcDbSavedByObjectVersion
1070
     0
  0
VISUALSTYLE
  5
7806
102
{ACAD_XDICTIONARY
360
1067A
102
}
102
{ACAD_REACTORS
330
77FF
102
}
330
77FF
100
AcDbVisualStyle
  2

 70
     5
 71
     0
 72
     2
 73
     0
 90
        0
 40
-0.6
 41
-30.0
 62
     5
 63
     7
 74
     1
 91
        4
 64
     7
 65
   257
 75
     1
175
     1
 42
1.0
 92
        0
 66
   257
 43
1.0
 76
     1
 77
     6
 78
     2
 67
     7
 79
     5
170
     0
171
     0
290
     0
174
     0
 93
        1
 44
0.0
173
     0
291
     0
 45
0.0
1001
ACAD
1000
AcDbSavedByObjectVersion
1070
     0
  0
VISUALSTYLE
  5
7804
102
{ACAD_XDICTIONARY
360
10676
102
}
102
{ACAD_REACTORS
330
77FF
102
}
330
77FF
100
AcDbVisualStyle
  2

 70
     7
 71
     1
 72
     0
 73
     1
 90
        0
 40
-0.6
 41
-30.0
 62
     5
 63
     7
 74
     0
 91
        4
 64
     7
 65
   257
 75
     1
175
     1
 42
1.0
 92
        8
 66
     7
 43
1.0
 76
     1
 77
     6
 78
     2
 67
     7
 79
     5
170
     0
171
     0
290
     0
174
     0
 93
        1
 44
0.0
173
     0
291
     1
 45
0.0
1001
ACAD
1000
AcDbSavedByObjectVersion
1070
     0
  0
VISUALSTYLE
  5
780B
102
{ACAD_XDICTIONARY
360
10684
102
}
102
{ACAD_REACTORS
330
77FF
102
}
330
77FF
100
AcDbVisualStyle
  2

 70
    12
 71
     2
 72
     2
 73
     0
 90
        0
 40
-0.6
 41
-30.0
 62
     5
 63
     7
 74
     1
 91
        4
 64
     7
 65
   257
 75
     1
175
     1
 42
1.0
 92
        8
 66
     7
 43
1.0
 76
     1
 77
     6
 78
     2
 67
     7
 79
     5
170
     0
171
     0
290
     0
174
     0
 93
        1
 44
50.0
173
     0
291
     1
 45
0.0
1001
ACAD
1000
AcDbSavedByObjectVersion
1070
     0
  0
VISUALSTYLE
  5
780F
102
{ACAD_XDICTIONARY
360
1068C
102
}
102
{ACAD_REACTORS
330
77FF
102
}
330
77FF
100
AcDbVisualStyle
  2

 70
    16
 71
     2
 72
     2
 73
     3
 90
        0
 40
-0.6
 41
-30.0
 62
     5
 63
     8
 74
     1
 91
        4
 64
     7
 65
   257
 75
     1
175
     1
 42
1.0
 92
        8
 66
     8
 43
1.0
 76
     1
 77
     6
 78
     2
 67
     7
 79
     5
170
     0
171
     0
290
     0
174
     0
 93
        1
 44
0.0
173
     0
291
     1
 45
0.0
1001
ACAD
1000
AcDbSavedByObjectVersion
1070
     0
  0
VISUALSTYLE
  5
7808
102
{ACAD_XDICTIONARY
360
1067E
102
}
102
{ACAD_REACTORS
330
77FF
102
}
330
77FF
100
AcDbVisualStyle
  2

 70
     9
 71
     3
 72
     2
 73
     0
 90
        0
 40
-0.6
 41
-30.0
 62
     5
 63
     7
 74
     2
 91
        2
 64
     7
 65
   257
 75
     1
175
     1
 42
40.0
 92
        8
 66
     7
 43
1.0
 76
     1
 77
     6
 78
     2
 67
     7
 79
     3
170
     0
171
     0
290
     0
174
     0
 93
        1
 44
0.0
173
     0
291
     0
 45
0.0
1001
ACAD
1000
AcDbSavedByObjectVersion
1070
     0
  0
VISUALSTYLE
  5
780A
102
{ACAD_XDICTIONARY
360
10682
102
}
102
{ACAD_REACTORS
330
77FF
102
}
330
77FF
100
AcDbVisualStyle
  2

 70
    11
 71
     2
 72
     2
 73
     0
 90
        0
 40
-0.6
 41
-30.0
 62
     5
 63
     7
 74
     1
 91
        4
 64
     7
 65
   257
 75
     1
175
     1
 42
1.0
 92
        8
 66
     7
 43
1.0
 76
     1
 77
     6
 78
     2
 67
     7
 79
     5
170
     0
171
     0
290
     0
174
     0
 93
        1
 44
-50.0
173
     0
291
     1
 45
0.0
1001
ACAD
1000
AcDbSavedByObjectVersion
1070
     0
  0
VISUALSTYLE
  5
BB19
102
{ACAD_XDICTIONARY
360
106A1
102
}
102
{ACAD_REACTORS
330
77FF
102
}
330
77FF
100
AcDbVisualStyle
  2

 70
    22
 71
     2
 72
     2
 73
     0
 90
        0
 40
-0.6
 41
-30.0
 62
     5
 63
     7
421
 16777215
 74
     1
 91
        4
 64
     7
 65
   257
 75
     1
175
     1
 42
1.0
 92
        8
 66
     7
 43
1.0
 76
     1
 77
     6
 78
     2
 67
     7
 79
     5
170
     0
171
     0
290
     0
174
     0
 93
        1
 44
0.0
173
     0
291
     1
 45
0.0
1001
ACAD
1000
AcDbSavedByObjectVersion
1070
     0
  0
VISUALSTYLE
  5
780E
102
{ACAD_XDICTIONARY
360
1068A
102
}
102
{ACAD_REACTORS
330
77FF
102
}
330
77FF
100
AcDbVisualStyle
  2

 70
    15
 71
     2
 72
     2
 73
     0
 90
        0
 40
-0.6
 41
-30.0
 62
     5
 63
     7
 74
     1
 91
        4
 64
     7
 65
   257
 75
     1
175
     1
 42
1.0
 92
        8
 66
     7
 43
1.0
 76
     1
 77
     6
 78
     2
 67
     7
 79
     5
170
     0
171
     0
290
     0
174
     0
 93
        1
 44
0.0
173
     0
291
     1
 45
0.0
1001
ACAD
1000
AcDbSavedByObjectVersion
1070
     0
  0
VISUALSTYLE
  5
7800
102
{ACAD_XDICTIONARY
360
1066E
102
}
102
{ACAD_REACTORS
330
77FF
102
}
330
77FF
100
AcDbVisualStyle
  2

 70
     0
 71
     2
 72
     1
 73
     1
 90
        2
 40
-0.6
 41
30.0
 62
     5
 63
     7
 74
     0
 91
        4
 64
     7
 65
   257
 75
     1
175
     1
 42
1.0
 92
        8
 66
     7
 43
1.0
 76
     1
 77
     6
 78
     2
 67
     7
 79
     5
170
     0
171
     0
290
     0
174
     0
 93
       13
 44
0.0
173
     0
291
     1
 45
0.0
1001
ACAD
1000
AcDbSavedByObjectVersion
1070
     0
  0
VISUALSTYLE
  5
7801
102
{ACAD_XDICTIONARY
360
10670
102
}
102
{ACAD_REACTORS
330
77FF
102
}
330
77FF
100
AcDbVisualStyle
  2

 70
     1
 71
     2
 72
     1
 73
     1
 90
        2
 40
-0.6
 41
30.0
 62
     5
 63
     7
 74
     1
 91
        4
 64
     7
 65
   257
 75
     1
175
     1
 42
1.0
 92
        0
 66
   257
 43
1.0
 76
     1
 77
     6
 78
     2
 67
     7
 79
     5
170
     0
171
     0
290
     0
174
     0
 93
       13
 44
0.0
173
     0
291
     1
 45
0.0
1001
ACAD
1000
AcDbSavedByObjectVersion
1070
     0
  0
VISUALSTYLE
  5
7802
102
{ACAD_XDICTIONARY
360
10672
102
}
102
{ACAD_REACTORS
330
77FF
102
}
330
77FF
100
AcDbVisualStyle
  2

 70
     2
 71
     2
 72
     2
 73
     1
 90
        2
 40
-0.6
 41
30.0
 62
     5
 63
     7
 74
     0
 91
        4
 64
     7
 65
   257
 75
     1
175
     1
 42
1.0
 92
        0
 66
     7
 43
1.0
 76
     1
 77
     6
 78
     2
 67
     7
 79
     5
170
     0
171
     0
290
     0
174
     0
 93
       13
 44
0.0
173
     0
291
     1
 45
0.0
1001
ACAD
1000
AcDbSavedByObjectVersion
1070
     0
  0
VISUALSTYLE
  5
7803
102
{ACAD_XDICTIONARY
360
10674
102
}
102
{ACAD_REACTORS
330
77FF
102
}
330
77FF
100
AcDbVisualStyle
  2

 70
     3
 71
     2
 72
     2
 73
     1
 90
        2
 40
-0.6
 41
30.0
 62
     5
 63
     7
 74
     1
 91
        4
 64
     7
 65
   257
 75
     1
175
     1
 42
1.0
 92
        0
 66
   257
 43
1.0
 76
     1
 77
     6
 78
     2
 67
     7
 79
     5
170
     0
171
     0
290
     0
174
     0
 93
       13
 44
0.0
173
     0
291
     1
 45
0.0
1001
ACAD
1000
AcDbSavedByObjectVersion
1070
     0
  0
VISUALSTYLE
  5
BB11
102
{ACAD_XDICTIONARY
360
10691
102
}
102
{ACAD_REACTORS
330
77FF
102
}
330
77FF
100
AcDbVisualStyle
  2

 70
     6
 71
     1
 72
     2
 73
     2
 90
        0
 40
-0.6
 41
-30.0
 62
     5
 63
     7
421
 16777215
 74
     2
 91
        2
 64
     7
 65
   257
 75
     2
175
     1
 42
40.0
 92
        0
 66
   257
 43
1.0
 76
     1
 77
     6
 78
     2
 67
     7
 79
     3
170
     0
171
     0
290
     0
174
     0
 93
        1
 44
0.0
173
     0
291
     0
 45
0.0
1001
ACAD
1000
AcDbSavedByObjectVersion
1070
     0
  0
VISUALSTYLE
  5
BB17
102
{ACAD_XDICTIONARY
360
1069D
102
}
102
{ACAD_REACTORS
330
77FF
102
}
330
77FF
100
AcDbVisualStyle
  2

 70
    20
 71
     2
 72
     2
 73
     0
 90
        0
 40
-0.6
 41
-30.0
 62
     5
 63
     7
421
 16777215
 74
     1
 91
        4
 64
     7
 65
   257
 75
     1
175
     1
 42
1.0
 92
       10
 66
     7
 43
1.0
 76
     1
 77
     6
 78
     2
 67
     7
 79
     5
170
     0
171
     0
290
     0
174
     0
 93
        1
 44
0.0
173
     0
291
     1
 45
0.0
1001
ACAD
1000
AcDbSavedByObjectVersion
1070
     0
  0
VISUALSTYLE
  5
780D
102
{ACAD_XDICTIONARY
360
10688
102
}
102
{ACAD_REACTORS
330
77FF
102
}
330
77FF
100
AcDbVisualStyle
  2

 70
    14
 71
     2
 72
     2
 73
     0
 90
        0
 40
-0.6
 41
-30.0
 62
     5
 63
     7
 74
     1
 91
        4
 64
     7
 65
   257
 75
     7
175
     7
 42
1.0
 92
        8
 66
     7
 43
1.0
 76
     1
 77
     6
 78
     2
 67
     7
 79
     5
170
     0
171
     0
290
     0
174
     0
 93
        1
 44
0.0
173
     0
291
     1
 45
0.0
1001
ACAD
1000
AcDbSavedByObjectVersion
1070
     0
  0
VISUALSTYLE
  5
BB18
102
{ACAD_XDICTIONARY
360
1069F
102
}
102
{ACAD_REACTORS
330
77FF
102
}
330
77FF
100
AcDbVisualStyle
  2

 70
    21
 71
     2
 72
     2
 73
     0
 90
        0
 40
-0.6
 41
-30.0
 62
     5
 63
     7
421
 16777215
 74
     1
 91
        4
 64
     7
 65
   257
 75
     1
175
     1
 42
1.0
 92
        9
 66
     7
 43
1.0
 76
     1
 77
     6
 78
     2
 67
     7
 79
     5
170
     0
171
     0
290
     0
174
     0
 93
        1
 44
0.0
173
     0
291
     1
 45
0.0
1001
ACAD
1000
AcDbSavedByObjectVersion
1070
     0
  0
VISUALSTYLE
  5
7809
102
{ACAD_XDICTIONARY
360
10680
102
}
102
{ACAD_REACTORS
330
77FF
102
}
330
77FF
100
AcDbVisualStyle
  2

 70
     8
 71
     2
 72
     2
 73
     0
 90
        0
 40
-0.6
 41
-30.0
 62
     5
 63
     7
 74
     1
 91
        0
 64
     7
 65
   257
 75
     1
175
     1
 42
1.0
 92
        8
 66
     8
 43
1.0
 76
     1
 77
     6
 78
     2
 67
     7
 79
     5
170
     0
171
     0
290
     0
174
     0
 93
       13
 44
0.0
173
     0
291
     0
 45
0.0
1001
ACAD
1000
AcDbSavedByObjectVersion
1070
     0
  0
VISUALSTYLE
  5
BB16
102
{ACAD_XDICTIONARY
360
1069B
102
}
102
{ACAD_REACTORS
330
77FF
102
}
330
77FF
100
AcDbVisualStyle
  2

 70
    27
 71
     2
 72
     2
 73
     1
 90
        2
 40
-0.6
 41
30.0
 62
     5
 63
     7
421
 16777215
 74
     0
 91
        4
 64
     7
 65
   257
 75
     1
175
     1
 42
1.0
 92
        8
 66
   257
 43
1.0
 76
     1
 77
     6
 78
     2
 67
     8
425
  7895160
 79
     3
170
     0
171
     0
290
     0
174
     0
 93
        5
 44
0.0
173
     0
291
     0
 45
0.0
1001
ACAD
1000
AcDbSavedByObjectVersion
1070
     0
  0
VISUALSTYLE
  5
BB15
102
{ACAD_XDICTIONARY
360
10699
102
}
102
{ACAD_REACTORS
330
77FF
102
}
330
77FF
100
AcDbVisualStyle
  2

 70
    26
 71
     2
 72
     2
 73
     1
 90
        2
 40
-0.6
 41
30.0
 62
     5
 63
     7
421
 16777215
 74
     1
 91
       10
 64
     7
 65
   257
 75
     2
175
     1
 42
1.0
 92
        8
 66
   257
 43
1.0
 76
     1
 77
     6
 78
     2
 67
     7
 79
     3
170
     0
171
     0
290
     0
174
     0
 93
        5
 44
0.0
173
     0
291
     0
 45
0.0
1001
ACAD
1000
AcDbSavedByObjectVersion
1070
     0
  0
VISUALSTYLE
  5
BB12
102
{ACAD_XDICTIONARY
360
10693
102
}
102
{ACAD_REACTORS
330
77FF
102
}
330
77FF
100
AcDbVisualStyle
  2

 70
    23
 71
     2
 72
     2
 73
     3
 90
        0
 40
-0.6
 41
-30.0
 62
     5
 63
     7
421
 16777215
 74
     2
 91
        2
 64
     7
 65
     7
 75
     1
175
     1
 42
40.0
 92
        8
 66
     7
 43
1.0
 76
     1
 77
     6
 78
     2
 67
     7
 79
     3
170
     0
171
     0
290
     0
174
     0
 93
        1
 44
0.0
173
     0
291
     0
 45
0.0
1001
ACAD
1000
AcDbSavedByObjectVersion
1070
     0
  0
VISUALSTYLE
  5
BB13
102
{ACAD_XDICTIONARY
360
10695
102
}
102
{ACAD_REACTORS
330
77FF
102
}
330
77FF
100
AcDbVisualStyle
  2

 70
    24
 71
     1
 72
     2
 73
     2
 90
        0
 40
-0.6
 41
-30.0
 62
     5
 63
     7
421
 16777215
 74
     2
 91
        2
 64
     7
 65
     7
 75
     1
175
     1
 42
40.0
 92
       11
 66
     7
 43
1.0
 76
     1
 77
     6
 78
     2
 67
     7
 79
     6
170
     0
171
     0
290
     0
174
     0
 93
        1
 44
0.0
173
     0
291
     0
 45
0.0
1001
ACAD
1000
AcDbSavedByObjectVersion
1070
     0
  0
VISUALSTYLE
  5
780C
102
{ACAD_XDICTIONARY
360
10686
102
}
102
{ACAD_REACTORS
330
77FF
102
}
330
77FF
100
AcDbVisualStyle
  2

 70
    13
 71
     2
 72
     2
 73
     0
 90
        0
 40
-0.6
 41
-30.0
 62
     5
 63
     7
 74
     1
 91
        4
 64
     7
 65
   257
 75
     1
175
     1
 42
1.0
 92
       12
 66
     7
 43
1.0
 76
     1
 77
     6
 78
     2
 67
     7
 79
     5
170
     0
171
     0
290
     0
174
     0
 93
        1
 44
0.0
173
     0
291
     1
 45
0.0
1001
ACAD
1000
AcDbSavedByObjectVersion
1070
     0
  0
VISUALSTYLE
  5
BB10
102
{ACAD_XDICTIONARY
360
1068F
102
}
102
{ACAD_REACTORS
330
77FF
102
}
330
77FF
100
AcDbVisualStyle
  2

 70
     5
 71
     0
 72
     2
 73
     0
 90
        0
 40
-0.6
 41
-30.0
 62
     5
 63
     7
421
 16777215
 74
     1
 91
        4
 64
     7
 65
   257
 75
     1
175
     1
 42
1.0
 92
        0
 66
   257
 43
1.0
 76
     1
 77
     6
 78
     2
 67
     7
 79
     3
170
     0
171
     0
290
     0
174
     0
 93
        1
 44
0.0
173
     0
291
     0
 45
0.0
1001
ACAD
1000
AcDbSavedByObjectVersion
1070
     0
  0
VISUALSTYLE
  5
BB14
102
{ACAD_XDICTIONARY
360
10697
102
}
102
{ACAD_REACTORS
330
77FF
102
}
330
77FF
100
AcDbVisualStyle
  2

 70
    25
 71
     2
 72
     2
 73
     1
 90
        1
 40
0.5
 41
-30.0
 62
     5
 63
     7
421
 16777215
 74
     1
 91
        0
 64
     7
 65
   257
 75
     1
175
     1
 42
1.0
 92
        8
 66
     7
 43
1.0
 76
     1
 77
     6
 78
     2
 67
     7
 79
     3
170
     0
171
     0
290
     0
174
     0
 93
       13
 44
0.0
173
     0
291
     0
 45
0.0
1001
ACAD
1000
AcDbSavedByObjectVersion
1070
     0
  0
DICTIONARYVAR
  5
7842
102
{ACAD_REACTORS
330
857
102
}
330
857
100
DictionaryVariables
280
     0
  1
1:1
  0
DICTIONARYVAR
  5
7841
102
{ACAD_REACTORS
330
857
102
}
330
857
100
DictionaryVariables
280
     0
  1
STANDARD
  0
DICTIONARYVAR
  5
7840
102
{ACAD_REACTORS
330
857
102
}
330
857
100
DictionaryVariables
280
     0
  1
STANDARD
  0
DICTIONARYVAR
  5
C0E7
102
{ACAD_REACTORS
330
857
102
}
330
857
100
DictionaryVariables
280
     0
  1
Imperial24
  0
DICTIONARYVAR
  5
C0E8
102
{ACAD_REACTORS
330
857
102
}
330
857
100
DictionaryVariables
280
     0
  1
Imperial24
  0
DICTIONARYVAR
  5
7844
102
{ACAD_REACTORS
330
857
102
}
330
857
100
DictionaryVariables
280
     0
  1
1
  0
DICTIONARYVAR
  5
7843
102
{ACAD_REACTORS
330
857
102
}
330
857
100
DictionaryVariables
280
     0
  1
0
  0
DICTIONARYVAR
  5
C0E9
102
{ACAD_REACTORS
330
857
102
}
330
857
100
DictionaryVariables
280
     0
  1
1
  0
DICTIONARYVAR
  5
C0EA
102
{ACAD_REACTORS
330
857
102
}
330
857
100
DictionaryVariables
280
     0
  1
15
  0
DICTIONARYVAR
  5
85B9
102
{ACAD_REACTORS
330
857
102
}
330
857
100
DictionaryVariables
280
     0
  1
0
  0
DICTIONARYVAR
  5
1065F
102
{ACAD_REACTORS
330
857
102
}
330
857
100
DictionaryVariables
280
     0
  1
1.570796
  0
DICTIONARYVAR
  5
10660
102
{ACAD_REACTORS
330
857
102
}
330
857
100
DictionaryVariables
280
     0
  1
1.570796
  0
DICTIONARYVAR
  5
10661
102
{ACAD_REACTORS
330
857
102
}
330
857
100
DictionaryVariables
280
     0
  1
-122.394000
  0
DICTIONARYVAR
  5
85B8
102
{ACAD_REACTORS
330
857
102
}
330
857
100
DictionaryVariables
280
     0
  1
0
  0
DICTIONARYVAR
  5
F3FB
102
{ACAD_REACTORS
330
857
102
}
330
857
100
DictionaryVariables
280
     0
  1
1
  0
DICTIONARYVAR
  5
858
102
{ACAD_REACTORS
330
857
102
}
330
857
100
DictionaryVariables
280
     0
  1
96
  0
DICTIONARY
  5
1066D
102
{ACAD_REACTORS
330
1066B
102
}
330
1066B
100
AcDbDictionary
281
     1
  0
DICTIONARY
  5
1066C
102
{ACAD_REACTORS
330
1066B
102
}
330
1066B
100
AcDbDictionary
281
     1
  3
8796088721888
350
10666
  3
8796088721904
350
10667
  3
8796088721920
350
10668
  3
8796088721936
350
10669
  3
8796088721952
350
1066A
  0
DICTIONARY
  5
106A5
330
BB1E
100
AcDbDictionary
280
     1
281
     1
  3
ACAD_XREC_ROUNDTRIP
360
106A6
  0
DICTIONARY
  5
C13A
330
1D
100
AcDbDictionary
280
     1
281
     1
  0
DICTIONARY
  5
F452
330
21
100
AcDbDictionary
280
     1
281
     1
  0
DICTIONARY
  5
77F0
330
77EF
100
AcDbDictionary
280
     1
281
     1
  3
ACAD_XREC_ROUNDTRIP
360
81D8
  3
BUMPTILE
360
77F2
  3
DIFFUSETILE
360
77F1
  3
OPACITYTILE
360
77F5
  3
REFLECTIONTILE
360
77F4
  3
REFRACTIONTILE
360
77F6
  3
SPECULARTILE
360
77F3
  0
DICTIONARY
  5
77E8
330
77E7
100
AcDbDictionary
280
     1
281
     1
  3
ACAD_XREC_ROUNDTRIP
360
81D7
  3
BUMPTILE
360
77EA
  3
DIFFUSETILE
360
77E9
  3
OPACITYTILE
360
77ED
  3
REFLECTIONTILE
360
77EC
  3
REFRACTIONTILE
360
77EE
  3
SPECULARTILE
360
77EB
  0
DICTIONARY
  5
77F8
330
77F7
100
AcDbDictionary
280
     1
281
     1
  3
ACAD_XREC_ROUNDTRIP
360
81D9
  3
BUMPTILE
360
77FA
  3
DIFFUSETILE
360
77F9
  3
OPACITYTILE
360
77FD
  3
REFLECTIONTILE
360
77FC
  3
REFRACTIONTILE
360
77FE
  3
SPECULARTILE
360
77FB
  0
DICTIONARY
  5
106A3
330
BB1C
100
AcDbDictionary
280
     1
281
     1
  3
ACAD_XREC_ROUNDTRIP
360
106A4
  0
DICTIONARY
  5
81C5
330
7812
100
AcDbDictionary
280
     1
281
     1
  3
ACAD_ROUNDTRIP_2008_TABLESTYLE_CELLSTYLEMAP
360
10662
  3
ACAD_XREC_ROUNDTRIP
360
1068E
  0
DICTIONARY
  5
10678
330
7805
100
AcDbDictionary
280
     1
281
     1
  3
ACAD_XREC_ROUNDTRIP
360
10679
  0
DICTIONARY
  5
1067C
330
7807
100
AcDbDictionary
280
     1
281
     1
  3
ACAD_XREC_ROUNDTRIP
360
1067D
  0
DICTIONARY
  5
1067A
330
7806
100
AcDbDictionary
280
     1
281
     1
  3
ACAD_XREC_ROUNDTRIP
360
1067B
  0
DICTIONARY
  5
10676
330
7804
100
AcDbDictionary
280
     1
281
     1
  3
ACAD_XREC_ROUNDTRIP
360
10677
  0
DICTIONARY
  5
10684
330
780B
100
AcDbDictionary
280
     1
281
     1
  3
ACAD_XREC_ROUNDTRIP
360
10685
  0
DICTIONARY
  5
1068C
330
780F
100
AcDbDictionary
280
     1
281
     1
  3
ACAD_XREC_ROUNDTRIP
360
1068D
  0
DICTIONARY
  5
1067E
330
7808
100
AcDbDictionary
280
     1
281
     1
  3
ACAD_XREC_ROUNDTRIP
360
1067F
  0
DICTIONARY
  5
10682
330
780A
100
AcDbDictionary
280
     1
281
     1
  3
ACAD_XREC_ROUNDTRIP
360
10683
  0
DICTIONARY
  5
106A1
330
BB19
100
AcDbDictionary
280
     1
281
     1
  3
ACAD_XREC_ROUNDTRIP
360
106A2
  0
DICTIONARY
  5
1068A
330
780E
100
AcDbDictionary
280
     1
281
     1
  3
ACAD_XREC_ROUNDTRIP
360
1068B
  0
DICTIONARY
  5
1066E
330
7800
100
AcDbDictionary
280
     1
281
     1
  3
ACAD_XREC_ROUNDTRIP
360
1066F
  0
DICTIONARY
  5
10670
330
7801
100
AcDbDictionary
280
     1
281
     1
  3
ACAD_XREC_ROUNDTRIP
360
10671
  0
DICTIONARY
  5
10672
330
7802
100
AcDbDictionary
280
     1
281
     1
  3
ACAD_XREC_ROUNDTRIP
360
10673
  0
DICTIONARY
  5
10674
330
7803
100
AcDbDictionary
280
     1
281
     1
  3
ACAD_XREC_ROUNDTRIP
360
10675
  0
DICTIONARY
  5
10691
330
BB11
100
AcDbDictionary
280
     1
281
     1
  3
ACAD_XREC_ROUNDTRIP
360
10692
  0
DICTIONARY
  5
1069D
330
BB17
100
AcDbDictionary
280
     1
281
     1
  3
ACAD_XREC_ROUNDTRIP
360
1069E
  0
DICTIONARY
  5
10688
330
780D
100
AcDbDictionary
280
     1
281
     1
  3
ACAD_XREC_ROUNDTRIP
360
10689
  0
DICTIONARY
  5
1069F
330
BB18
100
AcDbDictionary
280
     1
281
     1
  3
ACAD_XREC_ROUNDTRIP
360
106A0
  0
DICTIONARY
  5
10680
330
7809
100
AcDbDictionary
280
     1
281
     1
  3
ACAD_XREC_ROUNDTRIP
360
10681
  0
DICTIONARY
  5
1069B
330
BB16
100
AcDbDictionary
280
     1
281
     1
  3
ACAD_XREC_ROUNDTRIP
360
1069C
  0
DICTIONARY
  5
10699
330
BB15
100
AcDbDictionary
280
     1
281
     1
  3
ACAD_XREC_ROUNDTRIP
360
1069A
  0
DICTIONARY
  5
10693
330
BB12
100
AcDbDictionary
280
     1
281
     1
  3
ACAD_XREC_ROUNDTRIP
360
10694
  0
DICTIONARY
  5
10695
330
BB13
100
AcDbDictionary
280
     1
281
     1
  3
ACAD_XREC_ROUNDTRIP
360
10696
  0
DICTIONARY
  5
10686
330
780C
100
AcDbDictionary
280
     1
281
     1
  3
ACAD_XREC_ROUNDTRIP
360
10687
  0
DICTIONARY
  5
1068F
330
BB10
100
AcDbDictionary
280
     1
281
     1
  3
ACAD_XREC_ROUNDTRIP
360
10690
  0
DICTIONARY
  5
10697
330
BB14
100
AcDbDictionary
280
     1
281
     1
  3
ACAD_XREC_ROUNDTRIP
360
10698
  0
XRECORD
  5
10666
102
{ACAD_REACTORS
330
1066C
102
}
330
1066C
100
AcDbXrecord
280
     1
  1
AcDb_Thumbnail_Schema
102
{ATTRRECORD
341
10667
  2
AcDbDs::TreatedAsObjectData
280
     1
291
     1
102
ATTRRECORD}
102
{ATTRRECORD
341
10668
  2
AcDbDs::Legacy
280
     1
291
     1
102
ATTRRECORD}
  2
AcDbDs::ID
280
    10
 91
        8
102
{ATTRRECORD
341
10669
  2
AcDs:Indexable
280
     1
291
     1
102
ATTRRECORD}
102
{ATTRRECORD
341
1066A
  2
AcDbDs::HandleAttribute
280
     7
282
     1
102
ATTRRECORD}
  2
Thumbnail_Data
280
    15
 91
        0
  0
XRECORD
  5
10667
102
{ACAD_REACTORS
330
1066C
102
}
330
1066C
100
AcDbXrecord
280
     1
  1
AcDbDs::TreatedAsObjectDataSchema
  2
AcDbDs::TreatedAsObjectData
280
     1
 91
        0
  0
XRECORD
  5
10668
102
{ACAD_REACTORS
330
1066C
102
}
330
1066C
100
AcDbXrecord
280
     1
  1
AcDbDs::LegacySchema
  2
AcDbDs::Legacy
280
     1
 91
        0
  0
XRECORD
  5
10669
102
{ACAD_REACTORS
330
1066C
102
}
330
1066C
100
AcDbXrecord
280
     1
  1
AcDbDs::IndexedPropertySchema
  2
AcDs:Indexable
280
     1
 91
        0
  0
XRECORD
  5
1066A
102
{ACAD_REACTORS
330
1066C
102
}
330
1066C
100
AcDbXrecord
280
     1
  1
AcDbDs::HandleAttributeSchema
  2
AcDbDs::HandleAttribute
280
     7
 91
        1
284
     1
  0
XRECORD
  5
106A6
102
{ACAD_REACTORS
330
106A5
102
}
330
106A5
100
AcDbXrecord
280
     1
102
DISPLAYNAME
  1
Imperial24
102
FLAGS
 90
        0
  0
XRECORD
  5
81D8
102
{ACAD_REACTORS
330
77F0
102
}
330
77F0
100
AcDbXrecord
280
     1
102
MATERIAL
148
0.0
149
0.0
149
0.0
 93
        0
 94
      127
282
     0
 72
     0
 77
     0
171
     0
175
     0
179
     0
273
     0
  0
XRECORD
  5
77F2
102
{ACAD_REACTORS
330
77F0
102
}
330
77F0
100
AcDbXrecord
280
     1
270
     1
271
     1
  0
XRECORD
  5
77F1
102
{ACAD_REACTORS
330
77F0
102
}
330
77F0
100
AcDbXrecord
280
     1
270
     1
271
     1
  0
XRECORD
  5
77F5
102
{ACAD_REACTORS
330
77F0
102
}
330
77F0
100
AcDbXrecord
280
     1
270
     1
271
     1
  0
XRECORD
  5
77F4
102
{ACAD_REACTORS
330
77F0
102
}
330
77F0
100
AcDbXrecord
280
     1
270
     1
271
     1
  0
XRECORD
  5
77F6
102
{ACAD_REACTORS
330
77F0
102
}
330
77F0
100
AcDbXrecord
280
     1
270
     1
271
     1
  0
XRECORD
  5
77F3
102
{ACAD_REACTORS
330
77F0
102
}
330
77F0
100
AcDbXrecord
280
     1
270
     1
271
     1
  0
XRECORD
  5
81D7
102
{ACAD_REACTORS
330
77E8
102
}
330
77E8
100
AcDbXrecord
280
     1
102
MATERIAL
148
0.0
149
0.0
149
0.0
 93
        0
 94
      127
282
     0
 72
     0
 77
     0
171
     0
175
     0
179
     0
273
     0
  0
XRECORD
  5
77EA
102
{ACAD_REACTORS
330
77E8
102
}
330
77E8
100
AcDbXrecord
280
     1
270
     1
271
     1
  0
XRECORD
  5
77E9
102
{ACAD_REACTORS
330
77E8
102
}
330
77E8
100
AcDbXrecord
280
     1
270
     1
271
     1
  0
XRECORD
  5
77ED
102
{ACAD_REACTORS
330
77E8
102
}
330
77E8
100
AcDbXrecord
280
     1
270
     1
271
     1
  0
XRECORD
  5
77EC
102
{ACAD_REACTORS
330
77E8
102
}
330
77E8
100
AcDbXrecord
280
     1
270
     1
271
     1
  0
XRECORD
  5
77EE
102
{ACAD_REACTORS
330
77E8
102
}
330
77E8
100
AcDbXrecord
280
     1
270
     1
271
     1
  0
XRECORD
  5
77EB
102
{ACAD_REACTORS
330
77E8
102
}
330
77E8
100
AcDbXrecord
280
     1
270
     1
271
     1
  0
XRECORD
  5
81D9
102
{ACAD_REACTORS
330
77F8
102
}
330
77F8
100
AcDbXrecord
280
     1
102
MATERIAL
148
0.0
149
0.0
149
0.0
 93
        0
 94
      127
282
     0
 72
     0
 77
     0
171
     0
175
     0
179
     0
273
     0
  0
XRECORD
  5
77FA
102
{ACAD_REACTORS
330
77F8
102
}
330
77F8
100
AcDbXrecord
280
     1
270
     1
271
     1
  0
XRECORD
  5
77F9
102
{ACAD_REACTORS
330
77F8
102
}
330
77F8
100
AcDbXrecord
280
     1
270
     1
271
     1
  0
XRECORD
  5
77FD
102
{ACAD_REACTORS
330
77F8
102
}
330
77F8
100
AcDbXrecord
280
     1
270
     1
271
     1
  0
XRECORD
  5
77FC
102
{ACAD_REACTORS
330
77F8
102
}
330
77F8
100
AcDbXrecord
280
     1
270
     1
271
     1
  0
XRECORD
  5
77FE
102
{ACAD_REACTORS
330
77F8
102
}
330
77F8
100
AcDbXrecord
280
     1
270
     1
271
     1
  0
XRECORD
  5
77FB
102
{ACAD_REACTORS
330
77F8
102
}
330
77F8
100
AcDbXrecord
280
     1
270
     1
271
     1
  0
XRECORD
  5
106A4
102
{ACAD_REACTORS
330
106A3
102
}
330
106A3
100
AcDbXrecord
280
     1
102
DISPLAYNAME
  1
Imperial24
102
FLAGS
 90
        0
  0
CELLSTYLEMAP
  5
10662
102
{ACAD_REACTORS
330
81C5
102
}
330
81C5
100
AcDbCellStyleMap
 90
        3
300
CELLSTYLE
  1
TABLEFORMAT_BEGIN
 90
        5
170
     1
 91
        0
 92
    32768
 62
   257
 93
        1
300
CONTENTFORMAT
  1
CONTENTFORMAT_BEGIN
 90
        0
 91
        0
 92
      512
 93
        0
300

 40
0.0
140
1.0
 94
        5
 62
     0
340
11
144
0.25
309
CONTENTFORMAT_END
171
     1
301
MARGIN
  1
CELLMARGIN_BEGIN
 40
0.06
 40
0.06
 40
0.06
 40
0.06
 40
0.18
 40
0.18
309
CELLMARGIN_END
 94
        6
 95
        1
302
GRIDFORMAT
  1
GRIDFORMAT_BEGIN
 90
        0
 91
        1
 62
     0
 92
       -2
340
0
 93
        0
 40
0.045
309
GRIDFORMAT_END
 95
        2
302
GRIDFORMAT
  1
GRIDFORMAT_BEGIN
 90
        0
 91
        1
 62
     0
 92
       -2
340
0
 93
        0
 40
0.045
309
GRIDFORMAT_END
 95
        4
302
GRIDFORMAT
  1
GRIDFORMAT_BEGIN
 90
        0
 91
        1
 62
     0
 92
       -2
340
0
 93
        0
 40
0.045
309
GRIDFORMAT_END
 95
        8
302
GRIDFORMAT
  1
GRIDFORMAT_BEGIN
 90
        0
 91
        1
 62
     0
 92
       -2
340
0
 93
        0
 40
0.045
309
GRIDFORMAT_END
 95
       16
302
GRIDFORMAT
  1
GRIDFORMAT_BEGIN
 90
        0
 91
        1
 62
     0
 92
       -2
340
0
 93
        0
 40
0.045
309
GRIDFORMAT_END
 95
       32
302
GRIDFORMAT
  1
GRIDFORMAT_BEGIN
 90
        0
 91
        1
 62
     0
 92
       -2
340
0
 93
        0
 40
0.045
309
GRIDFORMAT_END
309
TABLEFORMAT_END
  1
CELLSTYLE_BEGIN
 90
        1
 91
        1
300
_TITLE
309
CELLSTYLE_END
300
CELLSTYLE
  1
TABLEFORMAT_BEGIN
 90
        5
170
     1
 91
        0
 92
        0
 62
   257
 93
        1
300
CONTENTFORMAT
  1
CONTENTFORMAT_BEGIN
 90
        0
 91
        0
 92
      512
 93
        0
300

 40
0.0
140
1.0
 94
        5
 62
     0
340
11
144
0.18
309
CONTENTFORMAT_END
171
     1
301
MARGIN
  1
CELLMARGIN_BEGIN
 40
0.06
 40
0.06
 40
0.06
 40
0.06
 40
0.18
 40
0.18
309
CELLMARGIN_END
 94
        6
 95
        1
302
GRIDFORMAT
  1
GRIDFORMAT_BEGIN
 90
        0
 91
        1
 62
     0
 92
       -2
340
0
 93
        0
 40
0.045
309
GRIDFORMAT_END
 95
        2
302
GRIDFORMAT
  1
GRIDFORMAT_BEGIN
 90
        0
 91
        1
 62
     0
 92
       -2
340
0
 93
        0
 40
0.045
309
GRIDFORMAT_END
 95
        4
302
GRIDFORMAT
  1
GRIDFORMAT_BEGIN
 90
        0
 91
        1
 62
     0
 92
       -2
340
0
 93
        0
 40
0.045
309
GRIDFORMAT_END
 95
        8
302
GRIDFORMAT
  1
GRIDFORMAT_BEGIN
 90
        0
 91
        1
 62
     0
 92
       -2
340
0
 93
        0
 40
0.045
309
GRIDFORMAT_END
 95
       16
302
GRIDFORMAT
  1
GRIDFORMAT_BEGIN
 90
        0
 91
        1
 62
     0
 92
       -2
340
0
 93
        0
 40
0.045
309
GRIDFORMAT_END
 95
       32
302
GRIDFORMAT
  1
GRIDFORMAT_BEGIN
 90
        0
 91
        1
 62
     0
 92
       -2
340
0
 93
        0
 40
0.045
309
GRIDFORMAT_END
309
TABLEFORMAT_END
  1
CELLSTYLE_BEGIN
 90
        2
 91
        1
300
_HEADER
309
CELLSTYLE_END
300
CELLSTYLE
  1
TABLEFORMAT_BEGIN
 90
        5
170
     1
 91
        0
 92
        0
 62
   257
 93
        1
300
CONTENTFORMAT
  1
CONTENTFORMAT_BEGIN
 90
        0
 91
        0
 92
      512
 93
        0
300

 40
0.0
140
1.0
 94
        2
 62
     0
340
11
144
0.18
309
CONTENTFORMAT_END
171
     1
301
MARGIN
  1
CELLMARGIN_BEGIN
 40
0.06
 40
0.06
 40
0.06
 40
0.06
 40
0.18
 40
0.18
309
CELLMARGIN_END
 94
        6
 95
        1
302
GRIDFORMAT
  1
GRIDFORMAT_BEGIN
 90
        0
 91
        1
 62
     0
 92
       -2
340
0
 93
        0
 40
0.045
309
GRIDFORMAT_END
 95
        2
302
GRIDFORMAT
  1
GRIDFORMAT_BEGIN
 90
        0
 91
        1
 62
     0
 92
       -2
340
0
 93
        0
 40
0.045
309
GRIDFORMAT_END
 95
        4
302
GRIDFORMAT
  1
GRIDFORMAT_BEGIN
 90
        0
 91
        1
 62
     0
 92
       -2
340
0
 93
        0
 40
0.045
309
GRIDFORMAT_END
 95
        8
302
GRIDFORMAT
  1
GRIDFORMAT_BEGIN
 90
        0
 91
        1
 62
     0
 92
       -2
340
0
 93
        0
 40
0.045
309
GRIDFORMAT_END
 95
       16
302
GRIDFORMAT
  1
GRIDFORMAT_BEGIN
 90
        0
 91
        1
 62
     0
 92
       -2
340
0
 93
        0
 40
0.045
309
GRIDFORMAT_END
 95
       32
302
GRIDFORMAT
  1
GRIDFORMAT_BEGIN
 90
        0
 91
        1
 62
     0
 92
       -2
340
0
 93
        0
 40
0.045
309
GRIDFORMAT_END
309
TABLEFORMAT_END
  1
CELLSTYLE_BEGIN
 90
        3
 91
        2
300
_DATA
309
CELLSTYLE_END
  0
XRECORD
  5
1068E
102
{ACAD_REACTORS
330
81C5
102
}
330
81C5
100
AcDbXrecord
280
     1
102
ACAD_ROUNDTRIP_PRE2007_TABLESTYLE
 90
      512
 91
        0
  1

 92
      512
 93
        0
  2

 94
      512
 95
        0
  3

  0
XRECORD
  5
10679
102
{ACAD_REACTORS
330
10678
102
}
330
10678
100
AcDbXrecord
280
     1
102
RTVSPost2010Prop28
280
     1
102
RTVSPost2010PropOp28
 70
     1
102
RTVSPost2010Prop29
280
     1
102
RTVSPost2010PropOp29
 70
     1
102
RTVSPost2010Prop30
280
     0
102
RTVSPost2010PropOp30
 70
     1
102
RTVSPost2010Prop31
280
     0
102
RTVSPost2010PropOp31
 70
     1
102
RTVSPost2010Prop32
280
     0
102
RTVSPost2010PropOp32
 70
     1
102
RTVSPost2010Prop33
280
     0
102
RTVSPost2010PropOp33
 70
     1
102
RTVSPost2010Prop34
280
     0
102
RTVSPost2010PropOp34
 70
     1
102
RTVSPost2010Prop35
280
     0
102
RTVSPost2010PropOp35
 70
     1
102
RTVSPost2010Prop36
280
     0
102
RTVSPost2010PropOp36
 70
     1
102
RTVSPost2010Prop37
 90
       50
102
RTVSPost2010PropOp37
 70
     1
102
RTVSPost2010Prop38
140
0.0
102
RTVSPost2010PropOp38
 70
     1
102
RTVSPost2010Prop39
140
1.0
102
RTVSPost2010PropOp39
 70
     1
102
RTVSPost2010Prop40
 90
        0
102
RTVSPost2010PropOp40
 70
     1
102
RTVSPost2010Prop41ColorIndex
 90
       18
102
RTVSPost2010Prop41ColorRGB
 90
-16777216
102
RTVSPost2010PropOp41
 70
     1
102
RTVSPost2010Prop42
 90
       50
102
RTVSPost2010PropOp42
 70
     1
102
RTVSPost2010Prop43
 90
        3
102
RTVSPost2010PropOp43
 70
     1
102
RTVSPost2010Prop44ColorIndex
 90
        5
102
RTVSPost2010Prop44ColorRGB
 90
      255
102
RTVSPost2010PropOp44
 70
     1
102
RTVSPost2010Prop45
280
     0
102
RTVSPost2010PropOp45
 70
     1
102
RTVSPost2010Prop46
 90
       50
102
RTVSPost2010PropOp46
 70
     1
102
RTVSPost2010Prop47
 90
       50
102
RTVSPost2010PropOp47
 70
     1
102
RTVSPost2010Prop48
 90
       50
102
RTVSPost2010PropOp48
 70
     1
102
RTVSPost2010Prop49
280
     0
102
RTVSPost2010PropOp49
 70
     1
102
RTVSPost2010Prop50
 90
       50
102
RTVSPost2010PropOp50
 70
     1
102
RTVSPost2010Prop51ColorIndex
 90
      256
102
RTVSPost2010Prop51ColorRGB
 90
-16777216
102
RTVSPost2010PropOp51
 70
     0
102
RTVSPost2010Prop52
140
1.0
102
RTVSPost2010PropOp52
 70
     0
102
RTVSPost2010Prop53
 90
        2
102
RTVSPost2010PropOp53
 70
     1
102
RTVSPost2010Prop54
  1
strokes_ogs.tif
102
RTVSPost2010PropOp54
 70
     1
102
RTVSPost2010Prop55
280
     0
102
RTVSPost2010PropOp55
 70
     1
102
RTVSPost2010Prop56
140
1.0
102
RTVSPost2010PropOp56
 70
     1
102
RTVSPost2010Prop57
140
1.0
102
RTVSPost2010PropOp57
 70
     1
102
RTVSPropertyOp0
 70
     1
102
RTVSPropertyOp1
 70
     1
102
RTVSPropertyOp2
 70
     1
102
RTVSPropertyOp3
 70
     1
102
RTVSPropertyOp4
 70
     1
102
RTVSPropertyOp5
 70
     1
102
RTVSPropertyOp6
 70
     1
102
RTVSPropertyOp7
 70
     1
102
RTVSPropertyOp8
 70
     1
102
RTVSPropertyOp9
 70
     1
102
RTVSPropertyOp10
 70
     1
102
RTVSPropertyOp11
 70
     1
102
RTVSPropertyOp12
 70
     1
102
RTVSPropertyOp13
 70
     1
102
RTVSPropertyOp14
 70
     1
102
RTVSPropertyOp15
 70
     1
102
RTVSPropertyOp16
 70
     1
102
RTVSPropertyOp17
 70
     1
102
RTVSPropertyOp18
 70
     1
102
RTVSPropertyOp19
 70
     1
102
RTVSPropertyOp20
 70
     1
102
RTVSPropertyOp21
 70
     1
102
RTVSPropertyOp22
 70
     1
102
RTVSPropertyOp23
 70
     1
102
RTVSPropertyOp24
 70
     1
102
RTVSPropertyOp25
 70
     1
102
RTVSPropertyOp26
 70
     1
102
RTVSPropertyOp27
 70
     1
102
RTVSPropertyOp28
 70
     1
102
RTVSPropertyOp29
 70
     1
102
RTVSPropertyOp30
 70
     1
102
RTVSPropertyOp31
 70
     1
102
RTVSPropertyOp32
 70
     1
102
RTVSPropertyOp33
 70
     1
102
RTVSPropertyOp34
 70
     1
102
RTVSPropertyOp35
 70
     1
102
RTVSPropertyOp36
 70
     1
102
RTVSPropertyOp37
 70
     1
102
RTVSPropertyOp38
 70
     1
102
RTVSPropertyOp39
 70
     1
102
RTVSPropertyOp40
 70
     1
102
RTVSPropertyOp41
 70
     1
102
RTVSPropertyOp42
 70
     1
102
RTVSPropertyOp43
 70
     1
102
RTVSPropertyOp44
 70
     1
102
RTVSPropertyOp45
 70
     1
102
RTVSPropertyOp46
 70
     1
102
RTVSPropertyOp47
 70
     1
102
RTVSPropertyOp48
 70
     1
102
RTVSPropertyOp49
 70
     1
102
RTVSPropertyOp50
 70
     1
102
RTVSPropertyOp51
 70
     0
102
RTVSPropertyOp52
 70
     0
102
RTVSPropertyOp53
 70
     1
102
RTVSPropertyOp54
 70
     1
102
RTVSPropertyOp55
 70
     1
102
RTVSPropertyOp56
 70
     1
102
RTVSPropertyOp57
 70
     1
102
RTVSPropertyOp58
 70
     1
102
RTVSPropertyOp59
 70
     1
102
RTVSPropertyOp60
 70
     1
102
RTVSPropertyOp61
 70
     1
102
RTVSPropertyOp62
 70
     1
  0
XRECORD
  5
1067D
102
{ACAD_REACTORS
330
1067C
102
}
330
1067C
100
AcDbXrecord
280
     1
102
RTVSPost2010Prop28
280
     0
102
RTVSPost2010PropOp28
 70
     1
102
RTVSPost2010Prop29
280
     1
102
RTVSPost2010PropOp29
 70
     1
102
RTVSPost2010Prop30
280
     1
102
RTVSPost2010PropOp30
 70
     1
102
RTVSPost2010Prop31
280
     0
102
RTVSPost2010PropOp31
 70
     1
102
RTVSPost2010Prop32
280
     0
102
RTVSPost2010PropOp32
 70
     1
102
RTVSPost2010Prop33
280
     0
102
RTVSPost2010PropOp33
 70
     1
102
RTVSPost2010Prop34
280
     0
102
RTVSPost2010PropOp34
 70
     1
102
RTVSPost2010Prop35
280
     0
102
RTVSPost2010PropOp35
 70
     1
102
RTVSPost2010Prop36
280
     0
102
RTVSPost2010PropOp36
 70
     1
102
RTVSPost2010Prop37
 90
       50
102
RTVSPost2010PropOp37
 70
     1
102
RTVSPost2010Prop38
140
0.0
102
RTVSPost2010PropOp38
 70
     1
102
RTVSPost2010Prop39
140
1.0
102
RTVSPost2010PropOp39
 70
     1
102
RTVSPost2010Prop40
 90
        0
102
RTVSPost2010PropOp40
 70
     1
102
RTVSPost2010Prop41ColorIndex
 90
       18
102
RTVSPost2010Prop41ColorRGB
 90
-16777216
102
RTVSPost2010PropOp41
 70
     1
102
RTVSPost2010Prop42
 90
       50
102
RTVSPost2010PropOp42
 70
     1
102
RTVSPost2010Prop43
 90
        3
102
RTVSPost2010PropOp43
 70
     1
102
RTVSPost2010Prop44ColorIndex
 90
        5
102
RTVSPost2010Prop44ColorRGB
 90
      255
102
RTVSPost2010PropOp44
 70
     1
102
RTVSPost2010Prop45
280
     0
102
RTVSPost2010PropOp45
 70
     1
102
RTVSPost2010Prop46
 90
       50
102
RTVSPost2010PropOp46
 70
     1
102
RTVSPost2010Prop47
 90
       50
102
RTVSPost2010PropOp47
 70
     1
102
RTVSPost2010Prop48
 90
       50
102
RTVSPost2010PropOp48
 70
     1
102
RTVSPost2010Prop49
280
     0
102
RTVSPost2010PropOp49
 70
     1
102
RTVSPost2010Prop50
 90
       50
102
RTVSPost2010PropOp50
 70
     1
102
RTVSPost2010Prop51ColorIndex
 90
      256
102
RTVSPost2010Prop51ColorRGB
 90
-16777216
102
RTVSPost2010PropOp51
 70
     0
102
RTVSPost2010Prop52
140
1.0
102
RTVSPost2010PropOp52
 70
     0
102
RTVSPost2010Prop53
 90
        2
102
RTVSPost2010PropOp53
 70
     1
102
RTVSPost2010Prop54
  1
strokes_ogs.tif
102
RTVSPost2010PropOp54
 70
     1
102
RTVSPost2010Prop55
280
     0
102
RTVSPost2010PropOp55
 70
     1
102
RTVSPost2010Prop56
140
1.0
102
RTVSPost2010PropOp56
 70
     1
102
RTVSPost2010Prop57
140
1.0
102
RTVSPost2010PropOp57
 70
     1
102
RTVSPropertyOp0
 70
     1
102
RTVSPropertyOp1
 70
     1
102
RTVSPropertyOp2
 70
     1
102
RTVSPropertyOp3
 70
     1
102
RTVSPropertyOp4
 70
     1
102
RTVSPropertyOp5
 70
     1
102
RTVSPropertyOp6
 70
     1
102
RTVSPropertyOp7
 70
     1
102
RTVSPropertyOp8
 70
     1
102
RTVSPropertyOp9
 70
     1
102
RTVSPropertyOp10
 70
     1
102
RTVSPropertyOp11
 70
     1
102
RTVSPropertyOp12
 70
     1
102
RTVSPropertyOp13
 70
     1
102
RTVSPropertyOp14
 70
     1
102
RTVSPropertyOp15
 70
     1
102
RTVSPropertyOp16
 70
     1
102
RTVSPropertyOp17
 70
     1
102
RTVSPropertyOp18
 70
     1
102
RTVSPropertyOp19
 70
     1
102
RTVSPropertyOp20
 70
     1
102
RTVSPropertyOp21
 70
     1
102
RTVSPropertyOp22
 70
     1
102
RTVSPropertyOp23
 70
     1
102
RTVSPropertyOp24
 70
     1
102
RTVSPropertyOp25
 70
     1
102
RTVSPropertyOp26
 70
     1
102
RTVSPropertyOp27
 70
     1
102
RTVSPropertyOp28
 70
     1
102
RTVSPropertyOp29
 70
     1
102
RTVSPropertyOp30
 70
     1
102
RTVSPropertyOp31
 70
     1
102
RTVSPropertyOp32
 70
     1
102
RTVSPropertyOp33
 70
     1
102
RTVSPropertyOp34
 70
     1
102
RTVSPropertyOp35
 70
     1
102
RTVSPropertyOp36
 70
     1
102
RTVSPropertyOp37
 70
     1
102
RTVSPropertyOp38
 70
     1
102
RTVSPropertyOp39
 70
     1
102
RTVSPropertyOp40
 70
     1
102
RTVSPropertyOp41
 70
     1
102
RTVSPropertyOp42
 70
     1
102
RTVSPropertyOp43
 70
     1
102
RTVSPropertyOp44
 70
     1
102
RTVSPropertyOp45
 70
     1
102
RTVSPropertyOp46
 70
     1
102
RTVSPropertyOp47
 70
     1
102
RTVSPropertyOp48
 70
     1
102
RTVSPropertyOp49
 70
     1
102
RTVSPropertyOp50
 70
     1
102
RTVSPropertyOp51
 70
     0
102
RTVSPropertyOp52
 70
     0
102
RTVSPropertyOp53
 70
     1
102
RTVSPropertyOp54
 70
     1
102
RTVSPropertyOp55
 70
     1
102
RTVSPropertyOp56
 70
     1
102
RTVSPropertyOp57
 70
     1
102
RTVSPropertyOp58
 70
     1
102
RTVSPropertyOp59
 70
     1
102
RTVSPropertyOp60
 70
     1
102
RTVSPropertyOp61
 70
     1
102
RTVSPropertyOp62
 70
     1
  0
XRECORD
  5
1067B
102
{ACAD_REACTORS
330
1067A
102
}
330
1067A
100
AcDbXrecord
280
     1
102
RTVSPost2010Prop28
280
     0
102
RTVSPost2010PropOp28
 70
     1
102
RTVSPost2010Prop29
280
     1
102
RTVSPost2010PropOp29
 70
     1
102
RTVSPost2010Prop30
280
     1
102
RTVSPost2010PropOp30
 70
     1
102
RTVSPost2010Prop31
280
     0
102
RTVSPost2010PropOp31
 70
     1
102
RTVSPost2010Prop32
280
     0
102
RTVSPost2010PropOp32
 70
     1
102
RTVSPost2010Prop33
280
     0
102
RTVSPost2010PropOp33
 70
     1
102
RTVSPost2010Prop34
280
     0
102
RTVSPost2010PropOp34
 70
     1
102
RTVSPost2010Prop35
280
     0
102
RTVSPost2010PropOp35
 70
     1
102
RTVSPost2010Prop36
280
     0
102
RTVSPost2010PropOp36
 70
     1
102
RTVSPost2010Prop37
 90
       50
102
RTVSPost2010PropOp37
 70
     1
102
RTVSPost2010Prop38
140
0.0
102
RTVSPost2010PropOp38
 70
     1
102
RTVSPost2010Prop39
140
1.0
102
RTVSPost2010PropOp39
 70
     1
102
RTVSPost2010Prop40
 90
        0
102
RTVSPost2010PropOp40
 70
     1
102
RTVSPost2010Prop41ColorIndex
 90
       18
102
RTVSPost2010Prop41ColorRGB
 90
-16777216
102
RTVSPost2010PropOp41
 70
     1
102
RTVSPost2010Prop42
 90
       50
102
RTVSPost2010PropOp42
 70
     1
102
RTVSPost2010Prop43
 90
        3
102
RTVSPost2010PropOp43
 70
     1
102
RTVSPost2010Prop44ColorIndex
 90
        5
102
RTVSPost2010Prop44ColorRGB
 90
      255
102
RTVSPost2010PropOp44
 70
     1
102
RTVSPost2010Prop45
280
     0
102
RTVSPost2010PropOp45
 70
     1
102
RTVSPost2010Prop46
 90
       50
102
RTVSPost2010PropOp46
 70
     1
102
RTVSPost2010Prop47
 90
       50
102
RTVSPost2010PropOp47
 70
     1
102
RTVSPost2010Prop48
 90
       50
102
RTVSPost2010PropOp48
 70
     1
102
RTVSPost2010Prop49
280
     0
102
RTVSPost2010PropOp49
 70
     1
102
RTVSPost2010Prop50
 90
       50
102
RTVSPost2010PropOp50
 70
     1
102
RTVSPost2010Prop51ColorIndex
 90
      256
102
RTVSPost2010Prop51ColorRGB
 90
-16777216
102
RTVSPost2010PropOp51
 70
     0
102
RTVSPost2010Prop52
140
1.0
102
RTVSPost2010PropOp52
 70
     0
102
RTVSPost2010Prop53
 90
        2
102
RTVSPost2010PropOp53
 70
     1
102
RTVSPost2010Prop54
  1
strokes_ogs.tif
102
RTVSPost2010PropOp54
 70
     1
102
RTVSPost2010Prop55
280
     0
102
RTVSPost2010PropOp55
 70
     1
102
RTVSPost2010Prop56
140
1.0
102
RTVSPost2010PropOp56
 70
     1
102
RTVSPost2010Prop57
140
1.0
102
RTVSPost2010PropOp57
 70
     1
102
RTVSPropertyOp0
 70
     1
102
RTVSPropertyOp1
 70
     1
102
RTVSPropertyOp2
 70
     1
102
RTVSPropertyOp3
 70
     1
102
RTVSPropertyOp4
 70
     1
102
RTVSPropertyOp5
 70
     1
102
RTVSPropertyOp6
 70
     1
102
RTVSPropertyOp7
 70
     1
102
RTVSPropertyOp8
 70
     1
102
RTVSPropertyOp9
 70
     1
102
RTVSPropertyOp10
 70
     1
102
RTVSPropertyOp11
 70
     1
102
RTVSPropertyOp12
 70
     1
102
RTVSPropertyOp13
 70
     1
102
RTVSPropertyOp14
 70
     1
102
RTVSPropertyOp15
 70
     1
102
RTVSPropertyOp16
 70
     1
102
RTVSPropertyOp17
 70
     1
102
RTVSPropertyOp18
 70
     1
102
RTVSPropertyOp19
 70
     1
102
RTVSPropertyOp20
 70
     1
102
RTVSPropertyOp21
 70
     1
102
RTVSPropertyOp22
 70
     1
102
RTVSPropertyOp23
 70
     1
102
RTVSPropertyOp24
 70
     1
102
RTVSPropertyOp25
 70
     1
102
RTVSPropertyOp26
 70
     1
102
RTVSPropertyOp27
 70
     1
102
RTVSPropertyOp28
 70
     1
102
RTVSPropertyOp29
 70
     1
102
RTVSPropertyOp30
 70
     1
102
RTVSPropertyOp31
 70
     1
102
RTVSPropertyOp32
 70
     1
102
RTVSPropertyOp33
 70
     1
102
RTVSPropertyOp34
 70
     1
102
RTVSPropertyOp35
 70
     1
102
RTVSPropertyOp36
 70
     1
102
RTVSPropertyOp37
 70
     1
102
RTVSPropertyOp38
 70
     1
102
RTVSPropertyOp39
 70
     1
102
RTVSPropertyOp40
 70
     1
102
RTVSPropertyOp41
 70
     1
102
RTVSPropertyOp42
 70
     1
102
RTVSPropertyOp43
 70
     1
102
RTVSPropertyOp44
 70
     1
102
RTVSPropertyOp45
 70
     1
102
RTVSPropertyOp46
 70
     1
102
RTVSPropertyOp47
 70
     1
102
RTVSPropertyOp48
 70
     1
102
RTVSPropertyOp49
 70
     1
102
RTVSPropertyOp50
 70
     1
102
RTVSPropertyOp51
 70
     0
102
RTVSPropertyOp52
 70
     0
102
RTVSPropertyOp53
 70
     1
102
RTVSPropertyOp54
 70
     1
102
RTVSPropertyOp55
 70
     1
102
RTVSPropertyOp56
 70
     1
102
RTVSPropertyOp57
 70
     1
102
RTVSPropertyOp58
 70
     1
102
RTVSPropertyOp59
 70
     1
102
RTVSPropertyOp60
 70
     1
102
RTVSPropertyOp61
 70
     1
102
RTVSPropertyOp62
 70
     1
  0
XRECORD
  5
10677
102
{ACAD_REACTORS
330
10676
102
}
330
10676
100
AcDbXrecord
280
     1
102
RTVSPost2010Prop28
280
     0
102
RTVSPost2010PropOp28
 70
     1
102
RTVSPost2010Prop29
280
     1
102
RTVSPost2010PropOp29
 70
     1
102
RTVSPost2010Prop30
280
     1
102
RTVSPost2010PropOp30
 70
     1
102
RTVSPost2010Prop31
280
     0
102
RTVSPost2010PropOp31
 70
     1
102
RTVSPost2010Prop32
280
     0
102
RTVSPost2010PropOp32
 70
     1
102
RTVSPost2010Prop33
280
     0
102
RTVSPost2010PropOp33
 70
     1
102
RTVSPost2010Prop34
280
     0
102
RTVSPost2010PropOp34
 70
     1
102
RTVSPost2010Prop35
280
     0
102
RTVSPost2010PropOp35
 70
     1
102
RTVSPost2010Prop36
280
     0
102
RTVSPost2010PropOp36
 70
     1
102
RTVSPost2010Prop37
 90
       50
102
RTVSPost2010PropOp37
 70
     1
102
RTVSPost2010Prop38
140
0.0
102
RTVSPost2010PropOp38
 70
     1
102
RTVSPost2010Prop39
140
1.0
102
RTVSPost2010PropOp39
 70
     1
102
RTVSPost2010Prop40
 90
        0
102
RTVSPost2010PropOp40
 70
     1
102
RTVSPost2010Prop41ColorIndex
 90
       18
102
RTVSPost2010Prop41ColorRGB
 90
-16777216
102
RTVSPost2010PropOp41
 70
     1
102
RTVSPost2010Prop42
 90
       50
102
RTVSPost2010PropOp42
 70
     1
102
RTVSPost2010Prop43
 90
        3
102
RTVSPost2010PropOp43
 70
     1
102
RTVSPost2010Prop44ColorIndex
 90
        5
102
RTVSPost2010Prop44ColorRGB
 90
      255
102
RTVSPost2010PropOp44
 70
     1
102
RTVSPost2010Prop45
280
     0
102
RTVSPost2010PropOp45
 70
     1
102
RTVSPost2010Prop46
 90
       50
102
RTVSPost2010PropOp46
 70
     1
102
RTVSPost2010Prop47
 90
       50
102
RTVSPost2010PropOp47
 70
     1
102
RTVSPost2010Prop48
 90
       50
102
RTVSPost2010PropOp48
 70
     1
102
RTVSPost2010Prop49
280
     0
102
RTVSPost2010PropOp49
 70
     1
102
RTVSPost2010Prop50
 90
       50
102
RTVSPost2010PropOp50
 70
     1
102
RTVSPost2010Prop51ColorIndex
 90
      256
102
RTVSPost2010Prop51ColorRGB
 90
-16777216
102
RTVSPost2010PropOp51
 70
     0
102
RTVSPost2010Prop52
140
1.0
102
RTVSPost2010PropOp52
 70
     0
102
RTVSPost2010Prop53
 90
        2
102
RTVSPost2010PropOp53
 70
     1
102
RTVSPost2010Prop54
  1
strokes_ogs.tif
102
RTVSPost2010PropOp54
 70
     1
102
RTVSPost2010Prop55
280
     0
102
RTVSPost2010PropOp55
 70
     1
102
RTVSPost2010Prop56
140
1.0
102
RTVSPost2010PropOp56
 70
     1
102
RTVSPost2010Prop57
140
1.0
102
RTVSPost2010PropOp57
 70
     1
102
RTVSPropertyOp0
 70
     1
102
RTVSPropertyOp1
 70
     1
102
RTVSPropertyOp2
 70
     1
102
RTVSPropertyOp3
 70
     1
102
RTVSPropertyOp4
 70
     1
102
RTVSPropertyOp5
 70
     1
102
RTVSPropertyOp6
 70
     1
102
RTVSPropertyOp7
 70
     1
102
RTVSPropertyOp8
 70
     1
102
RTVSPropertyOp9
 70
     1
102
RTVSPropertyOp10
 70
     1
102
RTVSPropertyOp11
 70
     1
102
RTVSPropertyOp12
 70
     1
102
RTVSPropertyOp13
 70
     1
102
RTVSPropertyOp14
 70
     1
102
RTVSPropertyOp15
 70
     1
102
RTVSPropertyOp16
 70
     1
102
RTVSPropertyOp17
 70
     1
102
RTVSPropertyOp18
 70
     1
102
RTVSPropertyOp19
 70
     1
102
RTVSPropertyOp20
 70
     1
102
RTVSPropertyOp21
 70
     1
102
RTVSPropertyOp22
 70
     1
102
RTVSPropertyOp23
 70
     1
102
RTVSPropertyOp24
 70
     1
102
RTVSPropertyOp25
 70
     1
102
RTVSPropertyOp26
 70
     1
102
RTVSPropertyOp27
 70
     1
102
RTVSPropertyOp28
 70
     1
102
RTVSPropertyOp29
 70
     1
102
RTVSPropertyOp30
 70
     1
102
RTVSPropertyOp31
 70
     1
102
RTVSPropertyOp32
 70
     1
102
RTVSPropertyOp33
 70
     1
102
RTVSPropertyOp34
 70
     1
102
RTVSPropertyOp35
 70
     1
102
RTVSPropertyOp36
 70
     1
102
RTVSPropertyOp37
 70
     1
102
RTVSPropertyOp38
 70
     1
102
RTVSPropertyOp39
 70
     1
102
RTVSPropertyOp40
 70
     1
102
RTVSPropertyOp41
 70
     1
102
RTVSPropertyOp42
 70
     1
102
RTVSPropertyOp43
 70
     1
102
RTVSPropertyOp44
 70
     1
102
RTVSPropertyOp45
 70
     1
102
RTVSPropertyOp46
 70
     1
102
RTVSPropertyOp47
 70
     1
102
RTVSPropertyOp48
 70
     1
102
RTVSPropertyOp49
 70
     1
102
RTVSPropertyOp50
 70
     1
102
RTVSPropertyOp51
 70
     0
102
RTVSPropertyOp52
 70
     0
102
RTVSPropertyOp53
 70
     1
102
RTVSPropertyOp54
 70
     1
102
RTVSPropertyOp55
 70
     1
102
RTVSPropertyOp56
 70
     1
102
RTVSPropertyOp57
 70
     1
102
RTVSPropertyOp58
 70
     1
102
RTVSPropertyOp59
 70
     1
102
RTVSPropertyOp60
 70
     1
102
RTVSPropertyOp61
 70
     1
102
RTVSPropertyOp62
 70
     1
  0
XRECORD
  5
10685
102
{ACAD_REACTORS
330
10684
102
}
330
10684
100
AcDbXrecord
280
     1
102
RTVSPost2010Prop28
280
     0
102
RTVSPost2010PropOp28
 70
     1
102
RTVSPost2010Prop29
280
     1
102
RTVSPost2010PropOp29
 70
     1
102
RTVSPost2010Prop30
280
     1
102
RTVSPost2010PropOp30
 70
     1
102
RTVSPost2010Prop31
280
     0
102
RTVSPost2010PropOp31
 70
     1
102
RTVSPost2010Prop32
280
     0
102
RTVSPost2010PropOp32
 70
     1
102
RTVSPost2010Prop33
280
     0
102
RTVSPost2010PropOp33
 70
     1
102
RTVSPost2010Prop34
280
     0
102
RTVSPost2010PropOp34
 70
     1
102
RTVSPost2010Prop35
280
     0
102
RTVSPost2010PropOp35
 70
     1
102
RTVSPost2010Prop36
280
     0
102
RTVSPost2010PropOp36
 70
     1
102
RTVSPost2010Prop37
 90
       50
102
RTVSPost2010PropOp37
 70
     1
102
RTVSPost2010Prop38
140
0.0
102
RTVSPost2010PropOp38
 70
     1
102
RTVSPost2010Prop39
140
1.0
102
RTVSPost2010PropOp39
 70
     1
102
RTVSPost2010Prop40
 90
        0
102
RTVSPost2010PropOp40
 70
     1
102
RTVSPost2010Prop41ColorIndex
 90
       18
102
RTVSPost2010Prop41ColorRGB
 90
-16777216
102
RTVSPost2010PropOp41
 70
     1
102
RTVSPost2010Prop42
 90
       50
102
RTVSPost2010PropOp42
 70
     1
102
RTVSPost2010Prop43
 90
        3
102
RTVSPost2010PropOp43
 70
     1
102
RTVSPost2010Prop44ColorIndex
 90
        5
102
RTVSPost2010Prop44ColorRGB
 90
      255
102
RTVSPost2010PropOp44
 70
     1
102
RTVSPost2010Prop45
280
     0
102
RTVSPost2010PropOp45
 70
     1
102
RTVSPost2010Prop46
 90
       50
102
RTVSPost2010PropOp46
 70
     1
102
RTVSPost2010Prop47
 90
       50
102
RTVSPost2010PropOp47
 70
     1
102
RTVSPost2010Prop48
 90
       50
102
RTVSPost2010PropOp48
 70
     1
102
RTVSPost2010Prop49
280
     0
102
RTVSPost2010PropOp49
 70
     1
102
RTVSPost2010Prop50
 90
       50
102
RTVSPost2010PropOp50
 70
     1
102
RTVSPost2010Prop51ColorIndex
 90
      256
102
RTVSPost2010Prop51ColorRGB
 90
-16777216
102
RTVSPost2010PropOp51
 70
     0
102
RTVSPost2010Prop52
140
1.0
102
RTVSPost2010PropOp52
 70
     0
102
RTVSPost2010Prop53
 90
        2
102
RTVSPost2010PropOp53
 70
     1
102
RTVSPost2010Prop54
  1
strokes_ogs.tif
102
RTVSPost2010PropOp54
 70
     1
102
RTVSPost2010Prop55
280
     0
102
RTVSPost2010PropOp55
 70
     1
102
RTVSPost2010Prop56
140
1.0
102
RTVSPost2010PropOp56
 70
     1
102
RTVSPost2010Prop57
140
1.0
102
RTVSPost2010PropOp57
 70
     1
102
RTVSPropertyOp0
 70
     1
102
RTVSPropertyOp1
 70
     1
102
RTVSPropertyOp2
 70
     1
102
RTVSPropertyOp3
 70
     1
102
RTVSPropertyOp4
 70
     1
102
RTVSPropertyOp5
 70
     1
102
RTVSPropertyOp6
 70
     1
102
RTVSPropertyOp7
 70
     1
102
RTVSPropertyOp8
 70
     1
102
RTVSPropertyOp9
 70
     1
102
RTVSPropertyOp10
 70
     1
102
RTVSPropertyOp11
 70
     1
102
RTVSPropertyOp12
 70
     1
102
RTVSPropertyOp13
 70
     1
102
RTVSPropertyOp14
 70
     1
102
RTVSPropertyOp15
 70
     1
102
RTVSPropertyOp16
 70
     1
102
RTVSPropertyOp17
 70
     1
102
RTVSPropertyOp18
 70
     1
102
RTVSPropertyOp19
 70
     1
102
RTVSPropertyOp20
 70
     1
102
RTVSPropertyOp21
 70
     1
102
RTVSPropertyOp22
 70
     1
102
RTVSPropertyOp23
 70
     1
102
RTVSPropertyOp24
 70
     1
102
RTVSPropertyOp25
 70
     1
102
RTVSPropertyOp26
 70
     1
102
RTVSPropertyOp27
 70
     1
102
RTVSPropertyOp28
 70
     1
102
RTVSPropertyOp29
 70
     1
102
RTVSPropertyOp30
 70
     1
102
RTVSPropertyOp31
 70
     1
102
RTVSPropertyOp32
 70
     1
102
RTVSPropertyOp33
 70
     1
102
RTVSPropertyOp34
 70
     1
102
RTVSPropertyOp35
 70
     1
102
RTVSPropertyOp36
 70
     1
102
RTVSPropertyOp37
 70
     1
102
RTVSPropertyOp38
 70
     1
102
RTVSPropertyOp39
 70
     1
102
RTVSPropertyOp40
 70
     1
102
RTVSPropertyOp41
 70
     1
102
RTVSPropertyOp42
 70
     1
102
RTVSPropertyOp43
 70
     1
102
RTVSPropertyOp44
 70
     1
102
RTVSPropertyOp45
 70
     1
102
RTVSPropertyOp46
 70
     1
102
RTVSPropertyOp47
 70
     1
102
RTVSPropertyOp48
 70
     1
102
RTVSPropertyOp49
 70
     1
102
RTVSPropertyOp50
 70
     1
102
RTVSPropertyOp51
 70
     0
102
RTVSPropertyOp52
 70
     0
102
RTVSPropertyOp53
 70
     1
102
RTVSPropertyOp54
 70
     1
102
RTVSPropertyOp55
 70
     1
102
RTVSPropertyOp56
 70
     1
102
RTVSPropertyOp57
 70
     1
102
RTVSPropertyOp58
 70
     1
102
RTVSPropertyOp59
 70
     1
102
RTVSPropertyOp60
 70
     1
102
RTVSPropertyOp61
 70
     1
102
RTVSPropertyOp62
 70
     1
  0
XRECORD
  5
1068D
102
{ACAD_REACTORS
330
1068C
102
}
330
1068C
100
AcDbXrecord
280
     1
102
RTVSPost2010Prop28
280
     0
102
RTVSPost2010PropOp28
 70
     1
102
RTVSPost2010Prop29
280
     1
102
RTVSPost2010PropOp29
 70
     1
102
RTVSPost2010Prop30
280
     1
102
RTVSPost2010PropOp30
 70
     1
102
RTVSPost2010Prop31
280
     0
102
RTVSPost2010PropOp31
 70
     1
102
RTVSPost2010Prop32
280
     0
102
RTVSPost2010PropOp32
 70
     1
102
RTVSPost2010Prop33
280
     0
102
RTVSPost2010PropOp33
 70
     1
102
RTVSPost2010Prop34
280
     0
102
RTVSPost2010PropOp34
 70
     1
102
RTVSPost2010Prop35
280
     0
102
RTVSPost2010PropOp35
 70
     1
102
RTVSPost2010Prop36
280
     0
102
RTVSPost2010PropOp36
 70
     1
102
RTVSPost2010Prop37
 90
       50
102
RTVSPost2010PropOp37
 70
     1
102
RTVSPost2010Prop38
140
0.0
102
RTVSPost2010PropOp38
 70
     1
102
RTVSPost2010Prop39
140
1.0
102
RTVSPost2010PropOp39
 70
     1
102
RTVSPost2010Prop40
 90
        0
102
RTVSPost2010PropOp40
 70
     1
102
RTVSPost2010Prop41ColorIndex
 90
       18
102
RTVSPost2010Prop41ColorRGB
 90
-16777216
102
RTVSPost2010PropOp41
 70
     1
102
RTVSPost2010Prop42
 90
       50
102
RTVSPost2010PropOp42
 70
     1
102
RTVSPost2010Prop43
 90
        3
102
RTVSPost2010PropOp43
 70
     1
102
RTVSPost2010Prop44ColorIndex
 90
        5
102
RTVSPost2010Prop44ColorRGB
 90
      255
102
RTVSPost2010PropOp44
 70
     1
102
RTVSPost2010Prop45
280
     0
102
RTVSPost2010PropOp45
 70
     1
102
RTVSPost2010Prop46
 90
       50
102
RTVSPost2010PropOp46
 70
     1
102
RTVSPost2010Prop47
 90
       50
102
RTVSPost2010PropOp47
 70
     1
102
RTVSPost2010Prop48
 90
       50
102
RTVSPost2010PropOp48
 70
     1
102
RTVSPost2010Prop49
280
     0
102
RTVSPost2010PropOp49
 70
     1
102
RTVSPost2010Prop50
 90
       50
102
RTVSPost2010PropOp50
 70
     1
102
RTVSPost2010Prop51ColorIndex
 90
      256
102
RTVSPost2010Prop51ColorRGB
 90
-16777216
102
RTVSPost2010PropOp51
 70
     0
102
RTVSPost2010Prop52
140
1.0
102
RTVSPost2010PropOp52
 70
     0
102
RTVSPost2010Prop53
 90
        2
102
RTVSPost2010PropOp53
 70
     1
102
RTVSPost2010Prop54
  1
strokes_ogs.tif
102
RTVSPost2010PropOp54
 70
     1
102
RTVSPost2010Prop55
280
     0
102
RTVSPost2010PropOp55
 70
     1
102
RTVSPost2010Prop56
140
1.0
102
RTVSPost2010PropOp56
 70
     1
102
RTVSPost2010Prop57
140
1.0
102
RTVSPost2010PropOp57
 70
     1
102
RTVSPropertyOp0
 70
     1
102
RTVSPropertyOp1
 70
     1
102
RTVSPropertyOp2
 70
     1
102
RTVSPropertyOp3
 70
     1
102
RTVSPropertyOp4
 70
     1
102
RTVSPropertyOp5
 70
     1
102
RTVSPropertyOp6
 70
     1
102
RTVSPropertyOp7
 70
     1
102
RTVSPropertyOp8
 70
     1
102
RTVSPropertyOp9
 70
     1
102
RTVSPropertyOp10
 70
     1
102
RTVSPropertyOp11
 70
     1
102
RTVSPropertyOp12
 70
     1
102
RTVSPropertyOp13
 70
     1
102
RTVSPropertyOp14
 70
     1
102
RTVSPropertyOp15
 70
     1
102
RTVSPropertyOp16
 70
     1
102
RTVSPropertyOp17
 70
     1
102
RTVSPropertyOp18
 70
     1
102
RTVSPropertyOp19
 70
     1
102
RTVSPropertyOp20
 70
     1
102
RTVSPropertyOp21
 70
     1
102
RTVSPropertyOp22
 70
     1
102
RTVSPropertyOp23
 70
     1
102
RTVSPropertyOp24
 70
     1
102
RTVSPropertyOp25
 70
     1
102
RTVSPropertyOp26
 70
     1
102
RTVSPropertyOp27
 70
     1
102
RTVSPropertyOp28
 70
     1
102
RTVSPropertyOp29
 70
     1
102
RTVSPropertyOp30
 70
     1
102
RTVSPropertyOp31
 70
     1
102
RTVSPropertyOp32
 70
     1
102
RTVSPropertyOp33
 70
     1
102
RTVSPropertyOp34
 70
     1
102
RTVSPropertyOp35
 70
     1
102
RTVSPropertyOp36
 70
     1
102
RTVSPropertyOp37
 70
     1
102
RTVSPropertyOp38
 70
     1
102
RTVSPropertyOp39
 70
     1
102
RTVSPropertyOp40
 70
     1
102
RTVSPropertyOp41
 70
     1
102
RTVSPropertyOp42
 70
     1
102
RTVSPropertyOp43
 70
     1
102
RTVSPropertyOp44
 70
     1
102
RTVSPropertyOp45
 70
     1
102
RTVSPropertyOp46
 70
     1
102
RTVSPropertyOp47
 70
     1
102
RTVSPropertyOp48
 70
     1
102
RTVSPropertyOp49
 70
     1
102
RTVSPropertyOp50
 70
     1
102
RTVSPropertyOp51
 70
     0
102
RTVSPropertyOp52
 70
     0
102
RTVSPropertyOp53
 70
     1
102
RTVSPropertyOp54
 70
     1
102
RTVSPropertyOp55
 70
     1
102
RTVSPropertyOp56
 70
     1
102
RTVSPropertyOp57
 70
     1
102
RTVSPropertyOp58
 70
     1
102
RTVSPropertyOp59
 70
     1
102
RTVSPropertyOp60
 70
     1
102
RTVSPropertyOp61
 70
     1
102
RTVSPropertyOp62
 70
     1
  0
XRECORD
  5
1067F
102
{ACAD_REACTORS
330
1067E
102
}
330
1067E
100
AcDbXrecord
280
     1
102
RTVSPost2010Prop28
280
     0
102
RTVSPost2010PropOp28
 70
     1
102
RTVSPost2010Prop29
280
     1
102
RTVSPost2010PropOp29
 70
     1
102
RTVSPost2010Prop30
280
     1
102
RTVSPost2010PropOp30
 70
     1
102
RTVSPost2010Prop31
280
     0
102
RTVSPost2010PropOp31
 70
     1
102
RTVSPost2010Prop32
280
     0
102
RTVSPost2010PropOp32
 70
     1
102
RTVSPost2010Prop33
280
     0
102
RTVSPost2010PropOp33
 70
     1
102
RTVSPost2010Prop34
280
     0
102
RTVSPost2010PropOp34
 70
     1
102
RTVSPost2010Prop35
280
     0
102
RTVSPost2010PropOp35
 70
     1
102
RTVSPost2010Prop36
280
     0
102
RTVSPost2010PropOp36
 70
     1
102
RTVSPost2010Prop37
 90
       50
102
RTVSPost2010PropOp37
 70
     1
102
RTVSPost2010Prop38
140
0.0
102
RTVSPost2010PropOp38
 70
     1
102
RTVSPost2010Prop39
140
1.0
102
RTVSPost2010PropOp39
 70
     1
102
RTVSPost2010Prop40
 90
        0
102
RTVSPost2010PropOp40
 70
     1
102
RTVSPost2010Prop41ColorIndex
 90
       18
102
RTVSPost2010Prop41ColorRGB
 90
-16777216
102
RTVSPost2010PropOp41
 70
     1
102
RTVSPost2010Prop42
 90
       50
102
RTVSPost2010PropOp42
 70
     1
102
RTVSPost2010Prop43
 90
        3
102
RTVSPost2010PropOp43
 70
     1
102
RTVSPost2010Prop44ColorIndex
 90
        5
102
RTVSPost2010Prop44ColorRGB
 90
      255
102
RTVSPost2010PropOp44
 70
     1
102
RTVSPost2010Prop45
280
     0
102
RTVSPost2010PropOp45
 70
     1
102
RTVSPost2010Prop46
 90
       50
102
RTVSPost2010PropOp46
 70
     1
102
RTVSPost2010Prop47
 90
       50
102
RTVSPost2010PropOp47
 70
     1
102
RTVSPost2010Prop48
 90
       50
102
RTVSPost2010PropOp48
 70
     1
102
RTVSPost2010Prop49
280
     0
102
RTVSPost2010PropOp49
 70
     1
102
RTVSPost2010Prop50
 90
       50
102
RTVSPost2010PropOp50
 70
     1
102
RTVSPost2010Prop51ColorIndex
 90
      256
102
RTVSPost2010Prop51ColorRGB
 90
-16777216
102
RTVSPost2010PropOp51
 70
     0
102
RTVSPost2010Prop52
140
1.0
102
RTVSPost2010PropOp52
 70
     0
102
RTVSPost2010Prop53
 90
        2
102
RTVSPost2010PropOp53
 70
     1
102
RTVSPost2010Prop54
  1
strokes_ogs.tif
102
RTVSPost2010PropOp54
 70
     1
102
RTVSPost2010Prop55
280
     0
102
RTVSPost2010PropOp55
 70
     1
102
RTVSPost2010Prop56
140
1.0
102
RTVSPost2010PropOp56
 70
     1
102
RTVSPost2010Prop57
140
1.0
102
RTVSPost2010PropOp57
 70
     1
102
RTVSPropertyOp0
 70
     1
102
RTVSPropertyOp1
 70
     1
102
RTVSPropertyOp2
 70
     1
102
RTVSPropertyOp3
 70
     1
102
RTVSPropertyOp4
 70
     1
102
RTVSPropertyOp5
 70
     1
102
RTVSPropertyOp6
 70
     1
102
RTVSPropertyOp7
 70
     1
102
RTVSPropertyOp8
 70
     1
102
RTVSPropertyOp9
 70
     1
102
RTVSPropertyOp10
 70
     1
102
RTVSPropertyOp11
 70
     1
102
RTVSPropertyOp12
 70
     1
102
RTVSPropertyOp13
 70
     1
102
RTVSPropertyOp14
 70
     1
102
RTVSPropertyOp15
 70
     1
102
RTVSPropertyOp16
 70
     1
102
RTVSPropertyOp17
 70
     1
102
RTVSPropertyOp18
 70
     1
102
RTVSPropertyOp19
 70
     1
102
RTVSPropertyOp20
 70
     1
102
RTVSPropertyOp21
 70
     1
102
RTVSPropertyOp22
 70
     1
102
RTVSPropertyOp23
 70
     1
102
RTVSPropertyOp24
 70
     1
102
RTVSPropertyOp25
 70
     1
102
RTVSPropertyOp26
 70
     1
102
RTVSPropertyOp27
 70
     1
102
RTVSPropertyOp28
 70
     1
102
RTVSPropertyOp29
 70
     1
102
RTVSPropertyOp30
 70
     1
102
RTVSPropertyOp31
 70
     1
102
RTVSPropertyOp32
 70
     1
102
RTVSPropertyOp33
 70
     1
102
RTVSPropertyOp34
 70
     1
102
RTVSPropertyOp35
 70
     1
102
RTVSPropertyOp36
 70
     1
102
RTVSPropertyOp37
 70
     1
102
RTVSPropertyOp38
 70
     1
102
RTVSPropertyOp39
 70
     1
102
RTVSPropertyOp40
 70
     1
102
RTVSPropertyOp41
 70
     1
102
RTVSPropertyOp42
 70
     1
102
RTVSPropertyOp43
 70
     1
102
RTVSPropertyOp44
 70
     1
102
RTVSPropertyOp45
 70
     1
102
RTVSPropertyOp46
 70
     1
102
RTVSPropertyOp47
 70
     1
102
RTVSPropertyOp48
 70
     1
102
RTVSPropertyOp49
 70
     1
102
RTVSPropertyOp50
 70
     1
102
RTVSPropertyOp51
 70
     0
102
RTVSPropertyOp52
 70
     0
102
RTVSPropertyOp53
 70
     1
102
RTVSPropertyOp54
 70
     1
102
RTVSPropertyOp55
 70
     1
102
RTVSPropertyOp56
 70
     1
102
RTVSPropertyOp57
 70
     1
102
RTVSPropertyOp58
 70
     1
102
RTVSPropertyOp59
 70
     1
102
RTVSPropertyOp60
 70
     1
102
RTVSPropertyOp61
 70
     1
102
RTVSPropertyOp62
 70
     1
  0
XRECORD
  5
10683
102
{ACAD_REACTORS
330
10682
102
}
330
10682
100
AcDbXrecord
280
     1
102
RTVSPost2010Prop28
280
     0
102
RTVSPost2010PropOp28
 70
     1
102
RTVSPost2010Prop29
280
     1
102
RTVSPost2010PropOp29
 70
     1
102
RTVSPost2010Prop30
280
     1
102
RTVSPost2010PropOp30
 70
     1
102
RTVSPost2010Prop31
280
     0
102
RTVSPost2010PropOp31
 70
     1
102
RTVSPost2010Prop32
280
     0
102
RTVSPost2010PropOp32
 70
     1
102
RTVSPost2010Prop33
280
     0
102
RTVSPost2010PropOp33
 70
     1
102
RTVSPost2010Prop34
280
     0
102
RTVSPost2010PropOp34
 70
     1
102
RTVSPost2010Prop35
280
     0
102
RTVSPost2010PropOp35
 70
     1
102
RTVSPost2010Prop36
280
     0
102
RTVSPost2010PropOp36
 70
     1
102
RTVSPost2010Prop37
 90
       50
102
RTVSPost2010PropOp37
 70
     1
102
RTVSPost2010Prop38
140
0.0
102
RTVSPost2010PropOp38
 70
     1
102
RTVSPost2010Prop39
140
1.0
102
RTVSPost2010PropOp39
 70
     1
102
RTVSPost2010Prop40
 90
        0
102
RTVSPost2010PropOp40
 70
     1
102
RTVSPost2010Prop41ColorIndex
 90
       18
102
RTVSPost2010Prop41ColorRGB
 90
-16777216
102
RTVSPost2010PropOp41
 70
     1
102
RTVSPost2010Prop42
 90
       50
102
RTVSPost2010PropOp42
 70
     1
102
RTVSPost2010Prop43
 90
        3
102
RTVSPost2010PropOp43
 70
     1
102
RTVSPost2010Prop44ColorIndex
 90
        5
102
RTVSPost2010Prop44ColorRGB
 90
      255
102
RTVSPost2010PropOp44
 70
     1
102
RTVSPost2010Prop45
280
     0
102
RTVSPost2010PropOp45
 70
     1
102
RTVSPost2010Prop46
 90
       50
102
RTVSPost2010PropOp46
 70
     1
102
RTVSPost2010Prop47
 90
       50
102
RTVSPost2010PropOp47
 70
     1
102
RTVSPost2010Prop48
 90
       50
102
RTVSPost2010PropOp48
 70
     1
102
RTVSPost2010Prop49
280
     0
102
RTVSPost2010PropOp49
 70
     1
102
RTVSPost2010Prop50
 90
       50
102
RTVSPost2010PropOp50
 70
     1
102
RTVSPost2010Prop51ColorIndex
 90
      256
102
RTVSPost2010Prop51ColorRGB
 90
-16777216
102
RTVSPost2010PropOp51
 70
     0
102
RTVSPost2010Prop52
140
1.0
102
RTVSPost2010PropOp52
 70
     0
102
RTVSPost2010Prop53
 90
        2
102
RTVSPost2010PropOp53
 70
     1
102
RTVSPost2010Prop54
  1
strokes_ogs.tif
102
RTVSPost2010PropOp54
 70
     1
102
RTVSPost2010Prop55
280
     0
102
RTVSPost2010PropOp55
 70
     1
102
RTVSPost2010Prop56
140
1.0
102
RTVSPost2010PropOp56
 70
     1
102
RTVSPost2010Prop57
140
1.0
102
RTVSPost2010PropOp57
 70
     1
102
RTVSPropertyOp0
 70
     1
102
RTVSPropertyOp1
 70
     1
102
RTVSPropertyOp2
 70
     1
102
RTVSPropertyOp3
 70
     1
102
RTVSPropertyOp4
 70
     1
102
RTVSPropertyOp5
 70
     1
102
RTVSPropertyOp6
 70
     1
102
RTVSPropertyOp7
 70
     1
102
RTVSPropertyOp8
 70
     1
102
RTVSPropertyOp9
 70
     1
102
RTVSPropertyOp10
 70
     1
102
RTVSPropertyOp11
 70
     1
102
RTVSPropertyOp12
 70
     1
102
RTVSPropertyOp13
 70
     1
102
RTVSPropertyOp14
 70
     1
102
RTVSPropertyOp15
 70
     1
102
RTVSPropertyOp16
 70
     1
102
RTVSPropertyOp17
 70
     1
102
RTVSPropertyOp18
 70
     1
102
RTVSPropertyOp19
 70
     1
102
RTVSPropertyOp20
 70
     1
102
RTVSPropertyOp21
 70
     1
102
RTVSPropertyOp22
 70
     1
102
RTVSPropertyOp23
 70
     1
102
RTVSPropertyOp24
 70
     1
102
RTVSPropertyOp25
 70
     1
102
RTVSPropertyOp26
 70
     1
102
RTVSPropertyOp27
 70
     1
102
RTVSPropertyOp28
 70
     1
102
RTVSPropertyOp29
 70
     1
102
RTVSPropertyOp30
 70
     1
102
RTVSPropertyOp31
 70
     1
102
RTVSPropertyOp32
 70
     1
102
RTVSPropertyOp33
 70
     1
102
RTVSPropertyOp34
 70
     1
102
RTVSPropertyOp35
 70
     1
102
RTVSPropertyOp36
 70
     1
102
RTVSPropertyOp37
 70
     1
102
RTVSPropertyOp38
 70
     1
102
RTVSPropertyOp39
 70
     1
102
RTVSPropertyOp40
 70
     1
102
RTVSPropertyOp41
 70
     1
102
RTVSPropertyOp42
 70
     1
102
RTVSPropertyOp43
 70
     1
102
RTVSPropertyOp44
 70
     1
102
RTVSPropertyOp45
 70
     1
102
RTVSPropertyOp46
 70
     1
102
RTVSPropertyOp47
 70
     1
102
RTVSPropertyOp48
 70
     1
102
RTVSPropertyOp49
 70
     1
102
RTVSPropertyOp50
 70
     1
102
RTVSPropertyOp51
 70
     0
102
RTVSPropertyOp52
 70
     0
102
RTVSPropertyOp53
 70
     1
102
RTVSPropertyOp54
 70
     1
102
RTVSPropertyOp55
 70
     1
102
RTVSPropertyOp56
 70
     1
102
RTVSPropertyOp57
 70
     1
102
RTVSPropertyOp58
 70
     1
102
RTVSPropertyOp59
 70
     1
102
RTVSPropertyOp60
 70
     1
102
RTVSPropertyOp61
 70
     1
102
RTVSPropertyOp62
 70
     1
  0
XRECORD
  5
106A2
102
{ACAD_REACTORS
330
106A1
102
}
330
106A1
100
AcDbXrecord
280
     1
102
RTVSPost2010Prop28
280
     0
102
RTVSPost2010PropOp28
 70
     0
102
RTVSPost2010Prop29
280
     1
102
RTVSPost2010PropOp29
 70
     0
102
RTVSPost2010Prop30
280
     1
102
RTVSPost2010PropOp30
 70
     0
102
RTVSPost2010Prop31
280
     0
102
RTVSPost2010PropOp31
 70
     0
102
RTVSPost2010Prop32
280
     0
102
RTVSPost2010PropOp32
 70
     0
102
RTVSPost2010Prop33
280
     0
102
RTVSPost2010PropOp33
 70
     0
102
RTVSPost2010Prop34
280
     0
102
RTVSPost2010PropOp34
 70
     0
102
RTVSPost2010Prop35
280
     0
102
RTVSPost2010PropOp35
 70
     0
102
RTVSPost2010Prop36
280
     0
102
RTVSPost2010PropOp36
 70
     0
102
RTVSPost2010Prop37
 90
       50
102
RTVSPost2010PropOp37
 70
     0
102
RTVSPost2010Prop38
140
0.0
102
RTVSPost2010PropOp38
 70
     0
102
RTVSPost2010Prop39
140
1.0
102
RTVSPost2010PropOp39
 70
     0
102
RTVSPost2010Prop40
 90
        0
102
RTVSPost2010PropOp40
 70
     0
102
RTVSPost2010Prop41ColorIndex
 90
       18
102
RTVSPost2010Prop41ColorRGB
 90
-16777216
102
RTVSPost2010PropOp41
 70
     0
102
RTVSPost2010Prop42
 90
       50
102
RTVSPost2010PropOp42
 70
     0
102
RTVSPost2010Prop43
 90
        3
102
RTVSPost2010PropOp43
 70
     0
102
RTVSPost2010Prop44ColorIndex
 90
        5
102
RTVSPost2010Prop44ColorRGB
 90
      255
102
RTVSPost2010PropOp44
 70
     0
102
RTVSPost2010Prop45
280
     0
102
RTVSPost2010PropOp45
 70
     0
102
RTVSPost2010Prop46
 90
       50
102
RTVSPost2010PropOp46
 70
     0
102
RTVSPost2010Prop47
 90
       50
102
RTVSPost2010PropOp47
 70
     0
102
RTVSPost2010Prop48
 90
       50
102
RTVSPost2010PropOp48
 70
     0
102
RTVSPost2010Prop49
280
     0
102
RTVSPost2010PropOp49
 70
     0
102
RTVSPost2010Prop50
 90
       50
102
RTVSPost2010PropOp50
 70
     0
102
RTVSPost2010Prop51ColorIndex
 90
      256
102
RTVSPost2010Prop51ColorRGB
 90
-16777216
102
RTVSPost2010PropOp51
 70
     0
102
RTVSPost2010Prop52
140
1.0
102
RTVSPost2010PropOp52
 70
     0
102
RTVSPost2010Prop53
 90
        2
102
RTVSPost2010PropOp53
 70
     0
102
RTVSPost2010Prop54
  1
strokes_ogs.tif
102
RTVSPost2010PropOp54
 70
     0
102
RTVSPost2010Prop55
280
     0
102
RTVSPost2010PropOp55
 70
     0
102
RTVSPost2010Prop56
140
1.0
102
RTVSPost2010PropOp56
 70
     0
102
RTVSPost2010Prop57
140
1.0
102
RTVSPost2010PropOp57
 70
     0
102
RTVSPropertyOp0
 70
     0
102
RTVSPropertyOp1
 70
     0
102
RTVSPropertyOp2
 70
     0
102
RTVSPropertyOp3
 70
     0
102
RTVSPropertyOp4
 70
     0
102
RTVSPropertyOp5
 70
     0
102
RTVSPropertyOp6
 70
     0
102
RTVSPropertyOp7
 70
     0
102
RTVSPropertyOp8
 70
     0
102
RTVSPropertyOp9
 70
     0
102
RTVSPropertyOp10
 70
     0
102
RTVSPropertyOp11
 70
     0
102
RTVSPropertyOp12
 70
     0
102
RTVSPropertyOp13
 70
     0
102
RTVSPropertyOp14
 70
     2
102
RTVSPropertyOp15
 70
     0
102
RTVSPropertyOp16
 70
     0
102
RTVSPropertyOp17
 70
     0
102
RTVSPropertyOp18
 70
     0
102
RTVSPropertyOp19
 70
     0
102
RTVSPropertyOp20
 70
     0
102
RTVSPropertyOp21
 70
     0
102
RTVSPropertyOp22
 70
     0
102
RTVSPropertyOp23
 70
     0
102
RTVSPropertyOp24
 70
     0
102
RTVSPropertyOp25
 70
     0
102
RTVSPropertyOp26
 70
     0
102
RTVSPropertyOp27
 70
     0
102
RTVSPropertyOp28
 70
     0
102
RTVSPropertyOp29
 70
     0
102
RTVSPropertyOp30
 70
     0
102
RTVSPropertyOp31
 70
     0
102
RTVSPropertyOp32
 70
     0
102
RTVSPropertyOp33
 70
     0
102
RTVSPropertyOp34
 70
     0
102
RTVSPropertyOp35
 70
     0
102
RTVSPropertyOp36
 70
     0
102
RTVSPropertyOp37
 70
     0
102
RTVSPropertyOp38
 70
     0
102
RTVSPropertyOp39
 70
     0
102
RTVSPropertyOp40
 70
     0
102
RTVSPropertyOp41
 70
     0
102
RTVSPropertyOp42
 70
     0
102
RTVSPropertyOp43
 70
     0
102
RTVSPropertyOp44
 70
     0
102
RTVSPropertyOp45
 70
     0
102
RTVSPropertyOp46
 70
     0
102
RTVSPropertyOp47
 70
     0
102
RTVSPropertyOp48
 70
     0
102
RTVSPropertyOp49
 70
     0
102
RTVSPropertyOp50
 70
     0
102
RTVSPropertyOp51
 70
     0
102
RTVSPropertyOp52
 70
     0
102
RTVSPropertyOp53
 70
     0
102
RTVSPropertyOp54
 70
     0
102
RTVSPropertyOp55
 70
     0
102
RTVSPropertyOp56
 70
     0
102
RTVSPropertyOp57
 70
     0
102
RTVSPropertyOp58
 70
     1
102
RTVSPropertyOp59
 70
     1
102
RTVSPropertyOp60
 70
     1
102
RTVSPropertyOp61
 70
     1
102
RTVSPropertyOp62
 70
     1
  0
XRECORD
  5
1068B
102
{ACAD_REACTORS
330
1068A
102
}
330
1068A
100
AcDbXrecord
280
     1
102
RTVSPost2010Prop28
280
     0
102
RTVSPost2010PropOp28
 70
     1
102
RTVSPost2010Prop29
280
     1
102
RTVSPost2010PropOp29
 70
     1
102
RTVSPost2010Prop30
280
     1
102
RTVSPost2010PropOp30
 70
     1
102
RTVSPost2010Prop31
280
     0
102
RTVSPost2010PropOp31
 70
     1
102
RTVSPost2010Prop32
280
     0
102
RTVSPost2010PropOp32
 70
     1
102
RTVSPost2010Prop33
280
     0
102
RTVSPost2010PropOp33
 70
     1
102
RTVSPost2010Prop34
280
     0
102
RTVSPost2010PropOp34
 70
     1
102
RTVSPost2010Prop35
280
     0
102
RTVSPost2010PropOp35
 70
     1
102
RTVSPost2010Prop36
280
     0
102
RTVSPost2010PropOp36
 70
     1
102
RTVSPost2010Prop37
 90
       50
102
RTVSPost2010PropOp37
 70
     1
102
RTVSPost2010Prop38
140
0.0
102
RTVSPost2010PropOp38
 70
     1
102
RTVSPost2010Prop39
140
1.0
102
RTVSPost2010PropOp39
 70
     1
102
RTVSPost2010Prop40
 90
        0
102
RTVSPost2010PropOp40
 70
     1
102
RTVSPost2010Prop41ColorIndex
 90
       18
102
RTVSPost2010Prop41ColorRGB
 90
-16777216
102
RTVSPost2010PropOp41
 70
     1
102
RTVSPost2010Prop42
 90
       50
102
RTVSPost2010PropOp42
 70
     1
102
RTVSPost2010Prop43
 90
        3
102
RTVSPost2010PropOp43
 70
     1
102
RTVSPost2010Prop44ColorIndex
 90
        5
102
RTVSPost2010Prop44ColorRGB
 90
      255
102
RTVSPost2010PropOp44
 70
     1
102
RTVSPost2010Prop45
280
     0
102
RTVSPost2010PropOp45
 70
     1
102
RTVSPost2010Prop46
 90
       50
102
RTVSPost2010PropOp46
 70
     1
102
RTVSPost2010Prop47
 90
       50
102
RTVSPost2010PropOp47
 70
     1
102
RTVSPost2010Prop48
 90
       50
102
RTVSPost2010PropOp48
 70
     1
102
RTVSPost2010Prop49
280
     0
102
RTVSPost2010PropOp49
 70
     1
102
RTVSPost2010Prop50
 90
       50
102
RTVSPost2010PropOp50
 70
     1
102
RTVSPost2010Prop51ColorIndex
 90
      256
102
RTVSPost2010Prop51ColorRGB
 90
-16777216
102
RTVSPost2010PropOp51
 70
     0
102
RTVSPost2010Prop52
140
1.0
102
RTVSPost2010PropOp52
 70
     0
102
RTVSPost2010Prop53
 90
        2
102
RTVSPost2010PropOp53
 70
     1
102
RTVSPost2010Prop54
  1
strokes_ogs.tif
102
RTVSPost2010PropOp54
 70
     1
102
RTVSPost2010Prop55
280
     0
102
RTVSPost2010PropOp55
 70
     1
102
RTVSPost2010Prop56
140
1.0
102
RTVSPost2010PropOp56
 70
     1
102
RTVSPost2010Prop57
140
1.0
102
RTVSPost2010PropOp57
 70
     1
102
RTVSPropertyOp0
 70
     1
102
RTVSPropertyOp1
 70
     1
102
RTVSPropertyOp2
 70
     1
102
RTVSPropertyOp3
 70
     1
102
RTVSPropertyOp4
 70
     1
102
RTVSPropertyOp5
 70
     1
102
RTVSPropertyOp6
 70
     1
102
RTVSPropertyOp7
 70
     1
102
RTVSPropertyOp8
 70
     1
102
RTVSPropertyOp9
 70
     1
102
RTVSPropertyOp10
 70
     1
102
RTVSPropertyOp11
 70
     1
102
RTVSPropertyOp12
 70
     1
102
RTVSPropertyOp13
 70
     1
102
RTVSPropertyOp14
 70
     1
102
RTVSPropertyOp15
 70
     1
102
RTVSPropertyOp16
 70
     1
102
RTVSPropertyOp17
 70
     1
102
RTVSPropertyOp18
 70
     1
102
RTVSPropertyOp19
 70
     1
102
RTVSPropertyOp20
 70
     1
102
RTVSPropertyOp21
 70
     1
102
RTVSPropertyOp22
 70
     1
102
RTVSPropertyOp23
 70
     1
102
RTVSPropertyOp24
 70
     1
102
RTVSPropertyOp25
 70
     1
102
RTVSPropertyOp26
 70
     1
102
RTVSPropertyOp27
 70
     1
102
RTVSPropertyOp28
 70
     1
102
RTVSPropertyOp29
 70
     1
102
RTVSPropertyOp30
 70
     1
102
RTVSPropertyOp31
 70
     1
102
RTVSPropertyOp32
 70
     1
102
RTVSPropertyOp33
 70
     1
102
RTVSPropertyOp34
 70
     1
102
RTVSPropertyOp35
 70
     1
102
RTVSPropertyOp36
 70
     1
102
RTVSPropertyOp37
 70
     1
102
RTVSPropertyOp38
 70
     1
102
RTVSPropertyOp39
 70
     1
102
RTVSPropertyOp40
 70
     1
102
RTVSPropertyOp41
 70
     1
102
RTVSPropertyOp42
 70
     1
102
RTVSPropertyOp43
 70
     1
102
RTVSPropertyOp44
 70
     1
102
RTVSPropertyOp45
 70
     1
102
RTVSPropertyOp46
 70
     1
102
RTVSPropertyOp47
 70
     1
102
RTVSPropertyOp48
 70
     1
102
RTVSPropertyOp49
 70
     1
102
RTVSPropertyOp50
 70
     1
102
RTVSPropertyOp51
 70
     0
102
RTVSPropertyOp52
 70
     0
102
RTVSPropertyOp53
 70
     1
102
RTVSPropertyOp54
 70
     1
102
RTVSPropertyOp55
 70
     1
102
RTVSPropertyOp56
 70
     1
102
RTVSPropertyOp57
 70
     1
102
RTVSPropertyOp58
 70
     1
102
RTVSPropertyOp59
 70
     1
102
RTVSPropertyOp60
 70
     1
102
RTVSPropertyOp61
 70
     1
102
RTVSPropertyOp62
 70
     1
  0
XRECORD
  5
1066F
102
{ACAD_REACTORS
330
1066E
102
}
330
1066E
100
AcDbXrecord
280
     1
102
RTVSPost2010Prop28
280
     0
102
RTVSPost2010PropOp28
 70
     1
102
RTVSPost2010Prop29
280
     1
102
RTVSPost2010PropOp29
 70
     1
102
RTVSPost2010Prop30
280
     1
102
RTVSPost2010PropOp30
 70
     1
102
RTVSPost2010Prop31
280
     0
102
RTVSPost2010PropOp31
 70
     1
102
RTVSPost2010Prop32
280
     0
102
RTVSPost2010PropOp32
 70
     1
102
RTVSPost2010Prop33
280
     0
102
RTVSPost2010PropOp33
 70
     1
102
RTVSPost2010Prop34
280
     0
102
RTVSPost2010PropOp34
 70
     1
102
RTVSPost2010Prop35
280
     0
102
RTVSPost2010PropOp35
 70
     1
102
RTVSPost2010Prop36
280
     0
102
RTVSPost2010PropOp36
 70
     1
102
RTVSPost2010Prop37
 90
       50
102
RTVSPost2010PropOp37
 70
     1
102
RTVSPost2010Prop38
140
0.0
102
RTVSPost2010PropOp38
 70
     1
102
RTVSPost2010Prop39
140
1.0
102
RTVSPost2010PropOp39
 70
     1
102
RTVSPost2010Prop40
 90
        0
102
RTVSPost2010PropOp40
 70
     1
102
RTVSPost2010Prop41ColorIndex
 90
       18
102
RTVSPost2010Prop41ColorRGB
 90
-16777216
102
RTVSPost2010PropOp41
 70
     1
102
RTVSPost2010Prop42
 90
       50
102
RTVSPost2010PropOp42
 70
     1
102
RTVSPost2010Prop43
 90
        3
102
RTVSPost2010PropOp43
 70
     1
102
RTVSPost2010Prop44ColorIndex
 90
        5
102
RTVSPost2010Prop44ColorRGB
 90
      255
102
RTVSPost2010PropOp44
 70
     1
102
RTVSPost2010Prop45
280
     0
102
RTVSPost2010PropOp45
 70
     1
102
RTVSPost2010Prop46
 90
       50
102
RTVSPost2010PropOp46
 70
     1
102
RTVSPost2010Prop47
 90
       50
102
RTVSPost2010PropOp47
 70
     1
102
RTVSPost2010Prop48
 90
       50
102
RTVSPost2010PropOp48
 70
     1
102
RTVSPost2010Prop49
280
     0
102
RTVSPost2010PropOp49
 70
     1
102
RTVSPost2010Prop50
 90
       50
102
RTVSPost2010PropOp50
 70
     1
102
RTVSPost2010Prop51ColorIndex
 90
      256
102
RTVSPost2010Prop51ColorRGB
 90
-16777216
102
RTVSPost2010PropOp51
 70
     0
102
RTVSPost2010Prop52
140
1.0
102
RTVSPost2010PropOp52
 70
     0
102
RTVSPost2010Prop53
 90
        2
102
RTVSPost2010PropOp53
 70
     1
102
RTVSPost2010Prop54
  1
strokes_ogs.tif
102
RTVSPost2010PropOp54
 70
     1
102
RTVSPost2010Prop55
280
     0
102
RTVSPost2010PropOp55
 70
     1
102
RTVSPost2010Prop56
140
1.0
102
RTVSPost2010PropOp56
 70
     1
102
RTVSPost2010Prop57
140
1.0
102
RTVSPost2010PropOp57
 70
     1
102
RTVSPropertyOp0
 70
     1
102
RTVSPropertyOp1
 70
     1
102
RTVSPropertyOp2
 70
     1
102
RTVSPropertyOp3
 70
     1
102
RTVSPropertyOp4
 70
     1
102
RTVSPropertyOp5
 70
     1
102
RTVSPropertyOp6
 70
     1
102
RTVSPropertyOp7
 70
     1
102
RTVSPropertyOp8
 70
     1
102
RTVSPropertyOp9
 70
     1
102
RTVSPropertyOp10
 70
     1
102
RTVSPropertyOp11
 70
     1
102
RTVSPropertyOp12
 70
     1
102
RTVSPropertyOp13
 70
     1
102
RTVSPropertyOp14
 70
     1
102
RTVSPropertyOp15
 70
     1
102
RTVSPropertyOp16
 70
     1
102
RTVSPropertyOp17
 70
     1
102
RTVSPropertyOp18
 70
     1
102
RTVSPropertyOp19
 70
     1
102
RTVSPropertyOp20
 70
     1
102
RTVSPropertyOp21
 70
     1
102
RTVSPropertyOp22
 70
     1
102
RTVSPropertyOp23
 70
     1
102
RTVSPropertyOp24
 70
     1
102
RTVSPropertyOp25
 70
     1
102
RTVSPropertyOp26
 70
     1
102
RTVSPropertyOp27
 70
     1
102
RTVSPropertyOp28
 70
     1
102
RTVSPropertyOp29
 70
     1
102
RTVSPropertyOp30
 70
     1
102
RTVSPropertyOp31
 70
     1
102
RTVSPropertyOp32
 70
     1
102
RTVSPropertyOp33
 70
     1
102
RTVSPropertyOp34
 70
     1
102
RTVSPropertyOp35
 70
     1
102
RTVSPropertyOp36
 70
     1
102
RTVSPropertyOp37
 70
     1
102
RTVSPropertyOp38
 70
     1
102
RTVSPropertyOp39
 70
     1
102
RTVSPropertyOp40
 70
     1
102
RTVSPropertyOp41
 70
     1
102
RTVSPropertyOp42
 70
     1
102
RTVSPropertyOp43
 70
     1
102
RTVSPropertyOp44
 70
     1
102
RTVSPropertyOp45
 70
     1
102
RTVSPropertyOp46
 70
     1
102
RTVSPropertyOp47
 70
     1
102
RTVSPropertyOp48
 70
     1
102
RTVSPropertyOp49
 70
     1
102
RTVSPropertyOp50
 70
     1
102
RTVSPropertyOp51
 70
     0
102
RTVSPropertyOp52
 70
     0
102
RTVSPropertyOp53
 70
     1
102
RTVSPropertyOp54
 70
     1
102
RTVSPropertyOp55
 70
     1
102
RTVSPropertyOp56
 70
     1
102
RTVSPropertyOp57
 70
     1
102
RTVSPropertyOp58
 70
     1
102
RTVSPropertyOp59
 70
     1
102
RTVSPropertyOp60
 70
     1
102
RTVSPropertyOp61
 70
     1
102
RTVSPropertyOp62
 70
     1
  0
XRECORD
  5
10671
102
{ACAD_REACTORS
330
10670
102
}
330
10670
100
AcDbXrecord
280
     1
102
RTVSPost2010Prop28
280
     0
102
RTVSPost2010PropOp28
 70
     1
102
RTVSPost2010Prop29
280
     1
102
RTVSPost2010PropOp29
 70
     1
102
RTVSPost2010Prop30
280
     1
102
RTVSPost2010PropOp30
 70
     1
102
RTVSPost2010Prop31
280
     0
102
RTVSPost2010PropOp31
 70
     1
102
RTVSPost2010Prop32
280
     0
102
RTVSPost2010PropOp32
 70
     1
102
RTVSPost2010Prop33
280
     0
102
RTVSPost2010PropOp33
 70
     1
102
RTVSPost2010Prop34
280
     0
102
RTVSPost2010PropOp34
 70
     1
102
RTVSPost2010Prop35
280
     0
102
RTVSPost2010PropOp35
 70
     1
102
RTVSPost2010Prop36
280
     0
102
RTVSPost2010PropOp36
 70
     1
102
RTVSPost2010Prop37
 90
       50
102
RTVSPost2010PropOp37
 70
     1
102
RTVSPost2010Prop38
140
0.0
102
RTVSPost2010PropOp38
 70
     1
102
RTVSPost2010Prop39
140
1.0
102
RTVSPost2010PropOp39
 70
     1
102
RTVSPost2010Prop40
 90
        0
102
RTVSPost2010PropOp40
 70
     1
102
RTVSPost2010Prop41ColorIndex
 90
       18
102
RTVSPost2010Prop41ColorRGB
 90
-16777216
102
RTVSPost2010PropOp41
 70
     1
102
RTVSPost2010Prop42
 90
       50
102
RTVSPost2010PropOp42
 70
     1
102
RTVSPost2010Prop43
 90
        3
102
RTVSPost2010PropOp43
 70
     1
102
RTVSPost2010Prop44ColorIndex
 90
        5
102
RTVSPost2010Prop44ColorRGB
 90
      255
102
RTVSPost2010PropOp44
 70
     1
102
RTVSPost2010Prop45
280
     0
102
RTVSPost2010PropOp45
 70
     1
102
RTVSPost2010Prop46
 90
       50
102
RTVSPost2010PropOp46
 70
     1
102
RTVSPost2010Prop47
 90
       50
102
RTVSPost2010PropOp47
 70
     1
102
RTVSPost2010Prop48
 90
       50
102
RTVSPost2010PropOp48
 70
     1
102
RTVSPost2010Prop49
280
     0
102
RTVSPost2010PropOp49
 70
     1
102
RTVSPost2010Prop50
 90
       50
102
RTVSPost2010PropOp50
 70
     1
102
RTVSPost2010Prop51ColorIndex
 90
      256
102
RTVSPost2010Prop51ColorRGB
 90
-16777216
102
RTVSPost2010PropOp51
 70
     0
102
RTVSPost2010Prop52
140
1.0
102
RTVSPost2010PropOp52
 70
     0
102
RTVSPost2010Prop53
 90
        2
102
RTVSPost2010PropOp53
 70
     1
102
RTVSPost2010Prop54
  1
strokes_ogs.tif
102
RTVSPost2010PropOp54
 70
     1
102
RTVSPost2010Prop55
280
     0
102
RTVSPost2010PropOp55
 70
     1
102
RTVSPost2010Prop56
140
1.0
102
RTVSPost2010PropOp56
 70
     1
102
RTVSPost2010Prop57
140
1.0
102
RTVSPost2010PropOp57
 70
     1
102
RTVSPropertyOp0
 70
     1
102
RTVSPropertyOp1
 70
     1
102
RTVSPropertyOp2
 70
     1
102
RTVSPropertyOp3
 70
     1
102
RTVSPropertyOp4
 70
     1
102
RTVSPropertyOp5
 70
     1
102
RTVSPropertyOp6
 70
     1
102
RTVSPropertyOp7
 70
     1
102
RTVSPropertyOp8
 70
     1
102
RTVSPropertyOp9
 70
     1
102
RTVSPropertyOp10
 70
     1
102
RTVSPropertyOp11
 70
     1
102
RTVSPropertyOp12
 70
     1
102
RTVSPropertyOp13
 70
     1
102
RTVSPropertyOp14
 70
     1
102
RTVSPropertyOp15
 70
     1
102
RTVSPropertyOp16
 70
     1
102
RTVSPropertyOp17
 70
     1
102
RTVSPropertyOp18
 70
     1
102
RTVSPropertyOp19
 70
     1
102
RTVSPropertyOp20
 70
     1
102
RTVSPropertyOp21
 70
     1
102
RTVSPropertyOp22
 70
     1
102
RTVSPropertyOp23
 70
     1
102
RTVSPropertyOp24
 70
     1
102
RTVSPropertyOp25
 70
     1
102
RTVSPropertyOp26
 70
     1
102
RTVSPropertyOp27
 70
     1
102
RTVSPropertyOp28
 70
     1
102
RTVSPropertyOp29
 70
     1
102
RTVSPropertyOp30
 70
     1
102
RTVSPropertyOp31
 70
     1
102
RTVSPropertyOp32
 70
     1
102
RTVSPropertyOp33
 70
     1
102
RTVSPropertyOp34
 70
     1
102
RTVSPropertyOp35
 70
     1
102
RTVSPropertyOp36
 70
     1
102
RTVSPropertyOp37
 70
     1
102
RTVSPropertyOp38
 70
     1
102
RTVSPropertyOp39
 70
     1
102
RTVSPropertyOp40
 70
     1
102
RTVSPropertyOp41
 70
     1
102
RTVSPropertyOp42
 70
     1
102
RTVSPropertyOp43
 70
     1
102
RTVSPropertyOp44
 70
     1
102
RTVSPropertyOp45
 70
     1
102
RTVSPropertyOp46
 70
     1
102
RTVSPropertyOp47
 70
     1
102
RTVSPropertyOp48
 70
     1
102
RTVSPropertyOp49
 70
     1
102
RTVSPropertyOp50
 70
     1
102
RTVSPropertyOp51
 70
     0
102
RTVSPropertyOp52
 70
     0
102
RTVSPropertyOp53
 70
     1
102
RTVSPropertyOp54
 70
     1
102
RTVSPropertyOp55
 70
     1
102
RTVSPropertyOp56
 70
     1
102
RTVSPropertyOp57
 70
     1
102
RTVSPropertyOp58
 70
     1
102
RTVSPropertyOp59
 70
     1
102
RTVSPropertyOp60
 70
     1
102
RTVSPropertyOp61
 70
     1
102
RTVSPropertyOp62
 70
     1
  0
XRECORD
  5
10673
102
{ACAD_REACTORS
330
10672
102
}
330
10672
100
AcDbXrecord
280
     1
102
RTVSPost2010Prop28
280
     0
102
RTVSPost2010PropOp28
 70
     1
102
RTVSPost2010Prop29
280
     1
102
RTVSPost2010PropOp29
 70
     1
102
RTVSPost2010Prop30
280
     1
102
RTVSPost2010PropOp30
 70
     1
102
RTVSPost2010Prop31
280
     0
102
RTVSPost2010PropOp31
 70
     1
102
RTVSPost2010Prop32
280
     0
102
RTVSPost2010PropOp32
 70
     1
102
RTVSPost2010Prop33
280
     0
102
RTVSPost2010PropOp33
 70
     1
102
RTVSPost2010Prop34
280
     0
102
RTVSPost2010PropOp34
 70
     1
102
RTVSPost2010Prop35
280
     0
102
RTVSPost2010PropOp35
 70
     1
102
RTVSPost2010Prop36
280
     0
102
RTVSPost2010PropOp36
 70
     1
102
RTVSPost2010Prop37
 90
       50
102
RTVSPost2010PropOp37
 70
     1
102
RTVSPost2010Prop38
140
0.0
102
RTVSPost2010PropOp38
 70
     1
102
RTVSPost2010Prop39
140
1.0
102
RTVSPost2010PropOp39
 70
     1
102
RTVSPost2010Prop40
 90
        0
102
RTVSPost2010PropOp40
 70
     1
102
RTVSPost2010Prop41ColorIndex
 90
       18
102
RTVSPost2010Prop41ColorRGB
 90
-16777216
102
RTVSPost2010PropOp41
 70
     1
102
RTVSPost2010Prop42
 90
       50
102
RTVSPost2010PropOp42
 70
     1
102
RTVSPost2010Prop43
 90
        3
102
RTVSPost2010PropOp43
 70
     1
102
RTVSPost2010Prop44ColorIndex
 90
        5
102
RTVSPost2010Prop44ColorRGB
 90
      255
102
RTVSPost2010PropOp44
 70
     1
102
RTVSPost2010Prop45
280
     0
102
RTVSPost2010PropOp45
 70
     1
102
RTVSPost2010Prop46
 90
       50
102
RTVSPost2010PropOp46
 70
     1
102
RTVSPost2010Prop47
 90
       50
102
RTVSPost2010PropOp47
 70
     1
102
RTVSPost2010Prop48
 90
       50
102
RTVSPost2010PropOp48
 70
     1
102
RTVSPost2010Prop49
280
     0
102
RTVSPost2010PropOp49
 70
     1
102
RTVSPost2010Prop50
 90
       50
102
RTVSPost2010PropOp50
 70
     1
102
RTVSPost2010Prop51ColorIndex
 90
      256
102
RTVSPost2010Prop51ColorRGB
 90
-16777216
102
RTVSPost2010PropOp51
 70
     0
102
RTVSPost2010Prop52
140
1.0
102
RTVSPost2010PropOp52
 70
     0
102
RTVSPost2010Prop53
 90
        2
102
RTVSPost2010PropOp53
 70
     1
102
RTVSPost2010Prop54
  1
strokes_ogs.tif
102
RTVSPost2010PropOp54
 70
     1
102
RTVSPost2010Prop55
280
     0
102
RTVSPost2010PropOp55
 70
     1
102
RTVSPost2010Prop56
140
1.0
102
RTVSPost2010PropOp56
 70
     1
102
RTVSPost2010Prop57
140
1.0
102
RTVSPost2010PropOp57
 70
     1
102
RTVSPropertyOp0
 70
     1
102
RTVSPropertyOp1
 70
     1
102
RTVSPropertyOp2
 70
     1
102
RTVSPropertyOp3
 70
     1
102
RTVSPropertyOp4
 70
     1
102
RTVSPropertyOp5
 70
     1
102
RTVSPropertyOp6
 70
     1
102
RTVSPropertyOp7
 70
     1
102
RTVSPropertyOp8
 70
     1
102
RTVSPropertyOp9
 70
     1
102
RTVSPropertyOp10
 70
     1
102
RTVSPropertyOp11
 70
     1
102
RTVSPropertyOp12
 70
     1
102
RTVSPropertyOp13
 70
     1
102
RTVSPropertyOp14
 70
     1
102
RTVSPropertyOp15
 70
     1
102
RTVSPropertyOp16
 70
     1
102
RTVSPropertyOp17
 70
     1
102
RTVSPropertyOp18
 70
     1
102
RTVSPropertyOp19
 70
     1
102
RTVSPropertyOp20
 70
     1
102
RTVSPropertyOp21
 70
     1
102
RTVSPropertyOp22
 70
     1
102
RTVSPropertyOp23
 70
     1
102
RTVSPropertyOp24
 70
     1
102
RTVSPropertyOp25
 70
     1
102
RTVSPropertyOp26
 70
     1
102
RTVSPropertyOp27
 70
     1
102
RTVSPropertyOp28
 70
     1
102
RTVSPropertyOp29
 70
     1
102
RTVSPropertyOp30
 70
     1
102
RTVSPropertyOp31
 70
     1
102
RTVSPropertyOp32
 70
     1
102
RTVSPropertyOp33
 70
     1
102
RTVSPropertyOp34
 70
     1
102
RTVSPropertyOp35
 70
     1
102
RTVSPropertyOp36
 70
     1
102
RTVSPropertyOp37
 70
     1
102
RTVSPropertyOp38
 70
     1
102
RTVSPropertyOp39
 70
     1
102
RTVSPropertyOp40
 70
     1
102
RTVSPropertyOp41
 70
     1
102
RTVSPropertyOp42
 70
     1
102
RTVSPropertyOp43
 70
     1
102
RTVSPropertyOp44
 70
     1
102
RTVSPropertyOp45
 70
     1
102
RTVSPropertyOp46
 70
     1
102
RTVSPropertyOp47
 70
     1
102
RTVSPropertyOp48
 70
     1
102
RTVSPropertyOp49
 70
     1
102
RTVSPropertyOp50
 70
     1
102
RTVSPropertyOp51
 70
     0
102
RTVSPropertyOp52
 70
     0
102
RTVSPropertyOp53
 70
     1
102
RTVSPropertyOp54
 70
     1
102
RTVSPropertyOp55
 70
     1
102
RTVSPropertyOp56
 70
     1
102
RTVSPropertyOp57
 70
     1
102
RTVSPropertyOp58
 70
     1
102
RTVSPropertyOp59
 70
     1
102
RTVSPropertyOp60
 70
     1
102
RTVSPropertyOp61
 70
     1
102
RTVSPropertyOp62
 70
     1
  0
XRECORD
  5
10675
102
{ACAD_REACTORS
330
10674
102
}
330
10674
100
AcDbXrecord
280
     1
102
RTVSPost2010Prop28
280
     0
102
RTVSPost2010PropOp28
 70
     1
102
RTVSPost2010Prop29
280
     1
102
RTVSPost2010PropOp29
 70
     1
102
RTVSPost2010Prop30
280
     1
102
RTVSPost2010PropOp30
 70
     1
102
RTVSPost2010Prop31
280
     0
102
RTVSPost2010PropOp31
 70
     1
102
RTVSPost2010Prop32
280
     0
102
RTVSPost2010PropOp32
 70
     1
102
RTVSPost2010Prop33
280
     0
102
RTVSPost2010PropOp33
 70
     1
102
RTVSPost2010Prop34
280
     0
102
RTVSPost2010PropOp34
 70
     1
102
RTVSPost2010Prop35
280
     0
102
RTVSPost2010PropOp35
 70
     1
102
RTVSPost2010Prop36
280
     0
102
RTVSPost2010PropOp36
 70
     1
102
RTVSPost2010Prop37
 90
       50
102
RTVSPost2010PropOp37
 70
     1
102
RTVSPost2010Prop38
140
0.0
102
RTVSPost2010PropOp38
 70
     1
102
RTVSPost2010Prop39
140
1.0
102
RTVSPost2010PropOp39
 70
     1
102
RTVSPost2010Prop40
 90
        0
102
RTVSPost2010PropOp40
 70
     1
102
RTVSPost2010Prop41ColorIndex
 90
       18
102
RTVSPost2010Prop41ColorRGB
 90
-16777216
102
RTVSPost2010PropOp41
 70
     1
102
RTVSPost2010Prop42
 90
       50
102
RTVSPost2010PropOp42
 70
     1
102
RTVSPost2010Prop43
 90
        3
102
RTVSPost2010PropOp43
 70
     1
102
RTVSPost2010Prop44ColorIndex
 90
        5
102
RTVSPost2010Prop44ColorRGB
 90
      255
102
RTVSPost2010PropOp44
 70
     1
102
RTVSPost2010Prop45
280
     0
102
RTVSPost2010PropOp45
 70
     1
102
RTVSPost2010Prop46
 90
       50
102
RTVSPost2010PropOp46
 70
     1
102
RTVSPost2010Prop47
 90
       50
102
RTVSPost2010PropOp47
 70
     1
102
RTVSPost2010Prop48
 90
       50
102
RTVSPost2010PropOp48
 70
     1
102
RTVSPost2010Prop49
280
     0
102
RTVSPost2010PropOp49
 70
     1
102
RTVSPost2010Prop50
 90
       50
102
RTVSPost2010PropOp50
 70
     1
102
RTVSPost2010Prop51ColorIndex
 90
      256
102
RTVSPost2010Prop51ColorRGB
 90
-16777216
102
RTVSPost2010PropOp51
 70
     0
102
RTVSPost2010Prop52
140
1.0
102
RTVSPost2010PropOp52
 70
     0
102
RTVSPost2010Prop53
 90
        2
102
RTVSPost2010PropOp53
 70
     1
102
RTVSPost2010Prop54
  1
strokes_ogs.tif
102
RTVSPost2010PropOp54
 70
     1
102
RTVSPost2010Prop55
280
     0
102
RTVSPost2010PropOp55
 70
     1
102
RTVSPost2010Prop56
140
1.0
102
RTVSPost2010PropOp56
 70
     1
102
RTVSPost2010Prop57
140
1.0
102
RTVSPost2010PropOp57
 70
     1
102
RTVSPropertyOp0
 70
     1
102
RTVSPropertyOp1
 70
     1
102
RTVSPropertyOp2
 70
     1
102
RTVSPropertyOp3
 70
     1
102
RTVSPropertyOp4
 70
     1
102
RTVSPropertyOp5
 70
     1
102
RTVSPropertyOp6
 70
     1
102
RTVSPropertyOp7
 70
     1
102
RTVSPropertyOp8
 70
     1
102
RTVSPropertyOp9
 70
     1
102
RTVSPropertyOp10
 70
     1
102
RTVSPropertyOp11
 70
     1
102
RTVSPropertyOp12
 70
     1
102
RTVSPropertyOp13
 70
     1
102
RTVSPropertyOp14
 70
     1
102
RTVSPropertyOp15
 70
     1
102
RTVSPropertyOp16
 70
     1
102
RTVSPropertyOp17
 70
     1
102
RTVSPropertyOp18
 70
     1
102
RTVSPropertyOp19
 70
     1
102
RTVSPropertyOp20
 70
     1
102
RTVSPropertyOp21
 70
     1
102
RTVSPropertyOp22
 70
     1
102
RTVSPropertyOp23
 70
     1
102
RTVSPropertyOp24
 70
     1
102
RTVSPropertyOp25
 70
     1
102
RTVSPropertyOp26
 70
     1
102
RTVSPropertyOp27
 70
     1
102
RTVSPropertyOp28
 70
     1
102
RTVSPropertyOp29
 70
     1
102
RTVSPropertyOp30
 70
     1
102
RTVSPropertyOp31
 70
     1
102
RTVSPropertyOp32
 70
     1
102
RTVSPropertyOp33
 70
     1
102
RTVSPropertyOp34
 70
     1
102
RTVSPropertyOp35
 70
     1
102
RTVSPropertyOp36
 70
     1
102
RTVSPropertyOp37
 70
     1
102
RTVSPropertyOp38
 70
     1
102
RTVSPropertyOp39
 70
     1
102
RTVSPropertyOp40
 70
     1
102
RTVSPropertyOp41
 70
     1
102
RTVSPropertyOp42
 70
     1
102
RTVSPropertyOp43
 70
     1
102
RTVSPropertyOp44
 70
     1
102
RTVSPropertyOp45
 70
     1
102
RTVSPropertyOp46
 70
     1
102
RTVSPropertyOp47
 70
     1
102
RTVSPropertyOp48
 70
     1
102
RTVSPropertyOp49
 70
     1
102
RTVSPropertyOp50
 70
     1
102
RTVSPropertyOp51
 70
     0
102
RTVSPropertyOp52
 70
     0
102
RTVSPropertyOp53
 70
     1
102
RTVSPropertyOp54
 70
     1
102
RTVSPropertyOp55
 70
     1
102
RTVSPropertyOp56
 70
     1
102
RTVSPropertyOp57
 70
     1
102
RTVSPropertyOp58
 70
     1
102
RTVSPropertyOp59
 70
     1
102
RTVSPropertyOp60
 70
     1
102
RTVSPropertyOp61
 70
     1
102
RTVSPropertyOp62
 70
     1
  0
XRECORD
  5
10692
102
{ACAD_REACTORS
330
10691
102
}
330
10691
100
AcDbXrecord
280
     1
102
RTVSPost2010Prop28
280
     0
102
RTVSPost2010PropOp28
 70
     1
102
RTVSPost2010Prop29
280
     1
102
RTVSPost2010PropOp29
 70
     1
102
RTVSPost2010Prop30
280
     1
102
RTVSPost2010PropOp30
 70
     1
102
RTVSPost2010Prop31
280
     0
102
RTVSPost2010PropOp31
 70
     1
102
RTVSPost2010Prop32
280
     0
102
RTVSPost2010PropOp32
 70
     1
102
RTVSPost2010Prop33
280
     0
102
RTVSPost2010PropOp33
 70
     1
102
RTVSPost2010Prop34
280
     0
102
RTVSPost2010PropOp34
 70
     1
102
RTVSPost2010Prop35
280
     0
102
RTVSPost2010PropOp35
 70
     1
102
RTVSPost2010Prop36
280
     0
102
RTVSPost2010PropOp36
 70
     1
102
RTVSPost2010Prop37
 90
       50
102
RTVSPost2010PropOp37
 70
     1
102
RTVSPost2010Prop38
140
0.0
102
RTVSPost2010PropOp38
 70
     1
102
RTVSPost2010Prop39
140
1.0
102
RTVSPost2010PropOp39
 70
     1
102
RTVSPost2010Prop40
 90
        0
102
RTVSPost2010PropOp40
 70
     1
102
RTVSPost2010Prop41ColorIndex
 90
       18
102
RTVSPost2010Prop41ColorRGB
 90
-16777216
102
RTVSPost2010PropOp41
 70
     1
102
RTVSPost2010Prop42
 90
       50
102
RTVSPost2010PropOp42
 70
     1
102
RTVSPost2010Prop43
 90
        3
102
RTVSPost2010PropOp43
 70
     1
102
RTVSPost2010Prop44ColorIndex
 90
        5
102
RTVSPost2010Prop44ColorRGB
 90
      255
102
RTVSPost2010PropOp44
 70
     1
102
RTVSPost2010Prop45
280
     0
102
RTVSPost2010PropOp45
 70
     1
102
RTVSPost2010Prop46
 90
       50
102
RTVSPost2010PropOp46
 70
     1
102
RTVSPost2010Prop47
 90
       50
102
RTVSPost2010PropOp47
 70
     1
102
RTVSPost2010Prop48
 90
       50
102
RTVSPost2010PropOp48
 70
     1
102
RTVSPost2010Prop49
280
     0
102
RTVSPost2010PropOp49
 70
     1
102
RTVSPost2010Prop50
 90
       50
102
RTVSPost2010PropOp50
 70
     1
102
RTVSPost2010Prop51ColorIndex
 90
      256
102
RTVSPost2010Prop51ColorRGB
 90
-16777216
102
RTVSPost2010PropOp51
 70
     0
102
RTVSPost2010Prop52
140
1.0
102
RTVSPost2010PropOp52
 70
     0
102
RTVSPost2010Prop53
 90
        2
102
RTVSPost2010PropOp53
 70
     1
102
RTVSPost2010Prop54
  1
strokes_ogs.tif
102
RTVSPost2010PropOp54
 70
     1
102
RTVSPost2010Prop55
280
     0
102
RTVSPost2010PropOp55
 70
     1
102
RTVSPost2010Prop56
140
1.0
102
RTVSPost2010PropOp56
 70
     1
102
RTVSPost2010Prop57
140
1.0
102
RTVSPost2010PropOp57
 70
     1
102
RTVSPropertyOp0
 70
     1
102
RTVSPropertyOp1
 70
     1
102
RTVSPropertyOp2
 70
     1
102
RTVSPropertyOp3
 70
     1
102
RTVSPropertyOp4
 70
     1
102
RTVSPropertyOp5
 70
     1
102
RTVSPropertyOp6
 70
     1
102
RTVSPropertyOp7
 70
     1
102
RTVSPropertyOp8
 70
     1
102
RTVSPropertyOp9
 70
     1
102
RTVSPropertyOp10
 70
     1
102
RTVSPropertyOp11
 70
     1
102
RTVSPropertyOp12
 70
     1
102
RTVSPropertyOp13
 70
     1
102
RTVSPropertyOp14
 70
     1
102
RTVSPropertyOp15
 70
     1
102
RTVSPropertyOp16
 70
     1
102
RTVSPropertyOp17
 70
     1
102
RTVSPropertyOp18
 70
     1
102
RTVSPropertyOp19
 70
     1
102
RTVSPropertyOp20
 70
     1
102
RTVSPropertyOp21
 70
     1
102
RTVSPropertyOp22
 70
     1
102
RTVSPropertyOp23
 70
     1
102
RTVSPropertyOp24
 70
     1
102
RTVSPropertyOp25
 70
     1
102
RTVSPropertyOp26
 70
     1
102
RTVSPropertyOp27
 70
     1
102
RTVSPropertyOp28
 70
     1
102
RTVSPropertyOp29
 70
     1
102
RTVSPropertyOp30
 70
     1
102
RTVSPropertyOp31
 70
     1
102
RTVSPropertyOp32
 70
     1
102
RTVSPropertyOp33
 70
     1
102
RTVSPropertyOp34
 70
     1
102
RTVSPropertyOp35
 70
     1
102
RTVSPropertyOp36
 70
     1
102
RTVSPropertyOp37
 70
     1
102
RTVSPropertyOp38
 70
     1
102
RTVSPropertyOp39
 70
     1
102
RTVSPropertyOp40
 70
     1
102
RTVSPropertyOp41
 70
     1
102
RTVSPropertyOp42
 70
     1
102
RTVSPropertyOp43
 70
     1
102
RTVSPropertyOp44
 70
     1
102
RTVSPropertyOp45
 70
     1
102
RTVSPropertyOp46
 70
     1
102
RTVSPropertyOp47
 70
     1
102
RTVSPropertyOp48
 70
     1
102
RTVSPropertyOp49
 70
     1
102
RTVSPropertyOp50
 70
     1
102
RTVSPropertyOp51
 70
     0
102
RTVSPropertyOp52
 70
     0
102
RTVSPropertyOp53
 70
     1
102
RTVSPropertyOp54
 70
     1
102
RTVSPropertyOp55
 70
     1
102
RTVSPropertyOp56
 70
     1
102
RTVSPropertyOp57
 70
     1
102
RTVSPropertyOp58
 70
     1
102
RTVSPropertyOp59
 70
     1
102
RTVSPropertyOp60
 70
     1
102
RTVSPropertyOp61
 70
     1
102
RTVSPropertyOp62
 70
     1
  0
XRECORD
  5
1069E
102
{ACAD_REACTORS
330
1069D
102
}
330
1069D
100
AcDbXrecord
280
     1
102
RTVSPost2010Prop28
280
     0
102
RTVSPost2010PropOp28
 70
     0
102
RTVSPost2010Prop29
280
     1
102
RTVSPost2010PropOp29
 70
     0
102
RTVSPost2010Prop30
280
     1
102
RTVSPost2010PropOp30
 70
     0
102
RTVSPost2010Prop31
280
     0
102
RTVSPost2010PropOp31
 70
     0
102
RTVSPost2010Prop32
280
     0
102
RTVSPost2010PropOp32
 70
     0
102
RTVSPost2010Prop33
280
     0
102
RTVSPost2010PropOp33
 70
     0
102
RTVSPost2010Prop34
280
     0
102
RTVSPost2010PropOp34
 70
     0
102
RTVSPost2010Prop35
280
     0
102
RTVSPost2010PropOp35
 70
     0
102
RTVSPost2010Prop36
280
     0
102
RTVSPost2010PropOp36
 70
     0
102
RTVSPost2010Prop37
 90
       50
102
RTVSPost2010PropOp37
 70
     0
102
RTVSPost2010Prop38
140
0.0
102
RTVSPost2010PropOp38
 70
     0
102
RTVSPost2010Prop39
140
1.0
102
RTVSPost2010PropOp39
 70
     0
102
RTVSPost2010Prop40
 90
        0
102
RTVSPost2010PropOp40
 70
     0
102
RTVSPost2010Prop41ColorIndex
 90
       18
102
RTVSPost2010Prop41ColorRGB
 90
-16777216
102
RTVSPost2010PropOp41
 70
     0
102
RTVSPost2010Prop42
 90
       50
102
RTVSPost2010PropOp42
 70
     0
102
RTVSPost2010Prop43
 90
        3
102
RTVSPost2010PropOp43
 70
     0
102
RTVSPost2010Prop44ColorIndex
 90
        5
102
RTVSPost2010Prop44ColorRGB
 90
      255
102
RTVSPost2010PropOp44
 70
     0
102
RTVSPost2010Prop45
280
     0
102
RTVSPost2010PropOp45
 70
     0
102
RTVSPost2010Prop46
 90
       50
102
RTVSPost2010PropOp46
 70
     0
102
RTVSPost2010Prop47
 90
       50
102
RTVSPost2010PropOp47
 70
     0
102
RTVSPost2010Prop48
 90
       50
102
RTVSPost2010PropOp48
 70
     0
102
RTVSPost2010Prop49
280
     0
102
RTVSPost2010PropOp49
 70
     0
102
RTVSPost2010Prop50
 90
       50
102
RTVSPost2010PropOp50
 70
     0
102
RTVSPost2010Prop51ColorIndex
 90
      256
102
RTVSPost2010Prop51ColorRGB
 90
-16777216
102
RTVSPost2010PropOp51
 70
     0
102
RTVSPost2010Prop52
140
1.0
102
RTVSPost2010PropOp52
 70
     0
102
RTVSPost2010Prop53
 90
        2
102
RTVSPost2010PropOp53
 70
     0
102
RTVSPost2010Prop54
  1
strokes_ogs.tif
102
RTVSPost2010PropOp54
 70
     0
102
RTVSPost2010Prop55
280
     0
102
RTVSPost2010PropOp55
 70
     0
102
RTVSPost2010Prop56
140
1.0
102
RTVSPost2010PropOp56
 70
     0
102
RTVSPost2010Prop57
140
1.0
102
RTVSPost2010PropOp57
 70
     0
102
RTVSPropertyOp0
 70
     0
102
RTVSPropertyOp1
 70
     0
102
RTVSPropertyOp2
 70
     0
102
RTVSPropertyOp3
 70
     0
102
RTVSPropertyOp4
 70
     0
102
RTVSPropertyOp5
 70
     0
102
RTVSPropertyOp6
 70
     0
102
RTVSPropertyOp7
 70
     0
102
RTVSPropertyOp8
 70
     0
102
RTVSPropertyOp9
 70
     0
102
RTVSPropertyOp10
 70
     0
102
RTVSPropertyOp11
 70
     0
102
RTVSPropertyOp12
 70
     0
102
RTVSPropertyOp13
 70
     0
102
RTVSPropertyOp14
 70
     2
102
RTVSPropertyOp15
 70
     0
102
RTVSPropertyOp16
 70
     0
102
RTVSPropertyOp17
 70
     0
102
RTVSPropertyOp18
 70
     0
102
RTVSPropertyOp19
 70
     0
102
RTVSPropertyOp20
 70
     0
102
RTVSPropertyOp21
 70
     0
102
RTVSPropertyOp22
 70
     0
102
RTVSPropertyOp23
 70
     0
102
RTVSPropertyOp24
 70
     0
102
RTVSPropertyOp25
 70
     0
102
RTVSPropertyOp26
 70
     0
102
RTVSPropertyOp27
 70
     0
102
RTVSPropertyOp28
 70
     0
102
RTVSPropertyOp29
 70
     0
102
RTVSPropertyOp30
 70
     0
102
RTVSPropertyOp31
 70
     0
102
RTVSPropertyOp32
 70
     0
102
RTVSPropertyOp33
 70
     0
102
RTVSPropertyOp34
 70
     0
102
RTVSPropertyOp35
 70
     0
102
RTVSPropertyOp36
 70
     0
102
RTVSPropertyOp37
 70
     0
102
RTVSPropertyOp38
 70
     0
102
RTVSPropertyOp39
 70
     0
102
RTVSPropertyOp40
 70
     0
102
RTVSPropertyOp41
 70
     0
102
RTVSPropertyOp42
 70
     0
102
RTVSPropertyOp43
 70
     0
102
RTVSPropertyOp44
 70
     0
102
RTVSPropertyOp45
 70
     0
102
RTVSPropertyOp46
 70
     0
102
RTVSPropertyOp47
 70
     0
102
RTVSPropertyOp48
 70
     0
102
RTVSPropertyOp49
 70
     0
102
RTVSPropertyOp50
 70
     0
102
RTVSPropertyOp51
 70
     0
102
RTVSPropertyOp52
 70
     0
102
RTVSPropertyOp53
 70
     0
102
RTVSPropertyOp54
 70
     0
102
RTVSPropertyOp55
 70
     0
102
RTVSPropertyOp56
 70
     0
102
RTVSPropertyOp57
 70
     0
102
RTVSPropertyOp58
 70
     1
102
RTVSPropertyOp59
 70
     1
102
RTVSPropertyOp60
 70
     1
102
RTVSPropertyOp61
 70
     1
102
RTVSPropertyOp62
 70
     1
  0
XRECORD
  5
10689
102
{ACAD_REACTORS
330
10688
102
}
330
10688
100
AcDbXrecord
280
     1
102
RTVSPost2010Prop28
280
     0
102
RTVSPost2010PropOp28
 70
     1
102
RTVSPost2010Prop29
280
     1
102
RTVSPost2010PropOp29
 70
     1
102
RTVSPost2010Prop30
280
     1
102
RTVSPost2010PropOp30
 70
     1
102
RTVSPost2010Prop31
280
     0
102
RTVSPost2010PropOp31
 70
     1
102
RTVSPost2010Prop32
280
     0
102
RTVSPost2010PropOp32
 70
     1
102
RTVSPost2010Prop33
280
     0
102
RTVSPost2010PropOp33
 70
     1
102
RTVSPost2010Prop34
280
     0
102
RTVSPost2010PropOp34
 70
     1
102
RTVSPost2010Prop35
280
     0
102
RTVSPost2010PropOp35
 70
     1
102
RTVSPost2010Prop36
280
     0
102
RTVSPost2010PropOp36
 70
     1
102
RTVSPost2010Prop37
 90
       50
102
RTVSPost2010PropOp37
 70
     1
102
RTVSPost2010Prop38
140
0.0
102
RTVSPost2010PropOp38
 70
     1
102
RTVSPost2010Prop39
140
1.0
102
RTVSPost2010PropOp39
 70
     1
102
RTVSPost2010Prop40
 90
        0
102
RTVSPost2010PropOp40
 70
     1
102
RTVSPost2010Prop41ColorIndex
 90
       18
102
RTVSPost2010Prop41ColorRGB
 90
-16777216
102
RTVSPost2010PropOp41
 70
     1
102
RTVSPost2010Prop42
 90
       50
102
RTVSPost2010PropOp42
 70
     1
102
RTVSPost2010Prop43
 90
        3
102
RTVSPost2010PropOp43
 70
     1
102
RTVSPost2010Prop44ColorIndex
 90
        5
102
RTVSPost2010Prop44ColorRGB
 90
      255
102
RTVSPost2010PropOp44
 70
     1
102
RTVSPost2010Prop45
280
     0
102
RTVSPost2010PropOp45
 70
     1
102
RTVSPost2010Prop46
 90
       50
102
RTVSPost2010PropOp46
 70
     1
102
RTVSPost2010Prop47
 90
       50
102
RTVSPost2010PropOp47
 70
     1
102
RTVSPost2010Prop48
 90
       50
102
RTVSPost2010PropOp48
 70
     1
102
RTVSPost2010Prop49
280
     0
102
RTVSPost2010PropOp49
 70
     1
102
RTVSPost2010Prop50
 90
       50
102
RTVSPost2010PropOp50
 70
     1
102
RTVSPost2010Prop51ColorIndex
 90
      256
102
RTVSPost2010Prop51ColorRGB
 90
-16777216
102
RTVSPost2010PropOp51
 70
     0
102
RTVSPost2010Prop52
140
1.0
102
RTVSPost2010PropOp52
 70
     0
102
RTVSPost2010Prop53
 90
        2
102
RTVSPost2010PropOp53
 70
     1
102
RTVSPost2010Prop54
  1
strokes_ogs.tif
102
RTVSPost2010PropOp54
 70
     1
102
RTVSPost2010Prop55
280
     0
102
RTVSPost2010PropOp55
 70
     1
102
RTVSPost2010Prop56
140
1.0
102
RTVSPost2010PropOp56
 70
     1
102
RTVSPost2010Prop57
140
1.0
102
RTVSPost2010PropOp57
 70
     1
102
RTVSPropertyOp0
 70
     1
102
RTVSPropertyOp1
 70
     1
102
RTVSPropertyOp2
 70
     1
102
RTVSPropertyOp3
 70
     1
102
RTVSPropertyOp4
 70
     1
102
RTVSPropertyOp5
 70
     1
102
RTVSPropertyOp6
 70
     1
102
RTVSPropertyOp7
 70
     1
102
RTVSPropertyOp8
 70
     1
102
RTVSPropertyOp9
 70
     1
102
RTVSPropertyOp10
 70
     1
102
RTVSPropertyOp11
 70
     1
102
RTVSPropertyOp12
 70
     1
102
RTVSPropertyOp13
 70
     1
102
RTVSPropertyOp14
 70
     1
102
RTVSPropertyOp15
 70
     1
102
RTVSPropertyOp16
 70
     1
102
RTVSPropertyOp17
 70
     1
102
RTVSPropertyOp18
 70
     1
102
RTVSPropertyOp19
 70
     1
102
RTVSPropertyOp20
 70
     1
102
RTVSPropertyOp21
 70
     1
102
RTVSPropertyOp22
 70
     1
102
RTVSPropertyOp23
 70
     1
102
RTVSPropertyOp24
 70
     1
102
RTVSPropertyOp25
 70
     1
102
RTVSPropertyOp26
 70
     1
102
RTVSPropertyOp27
 70
     1
102
RTVSPropertyOp28
 70
     1
102
RTVSPropertyOp29
 70
     1
102
RTVSPropertyOp30
 70
     1
102
RTVSPropertyOp31
 70
     1
102
RTVSPropertyOp32
 70
     1
102
RTVSPropertyOp33
 70
     1
102
RTVSPropertyOp34
 70
     1
102
RTVSPropertyOp35
 70
     1
102
RTVSPropertyOp36
 70
     1
102
RTVSPropertyOp37
 70
     1
102
RTVSPropertyOp38
 70
     1
102
RTVSPropertyOp39
 70
     1
102
RTVSPropertyOp40
 70
     1
102
RTVSPropertyOp41
 70
     1
102
RTVSPropertyOp42
 70
     1
102
RTVSPropertyOp43
 70
     1
102
RTVSPropertyOp44
 70
     1
102
RTVSPropertyOp45
 70
     1
102
RTVSPropertyOp46
 70
     1
102
RTVSPropertyOp47
 70
     1
102
RTVSPropertyOp48
 70
     1
102
RTVSPropertyOp49
 70
     1
102
RTVSPropertyOp50
 70
     1
102
RTVSPropertyOp51
 70
     0
102
RTVSPropertyOp52
 70
     0
102
RTVSPropertyOp53
 70
     1
102
RTVSPropertyOp54
 70
     1
102
RTVSPropertyOp55
 70
     1
102
RTVSPropertyOp56
 70
     1
102
RTVSPropertyOp57
 70
     1
102
RTVSPropertyOp58
 70
     1
102
RTVSPropertyOp59
 70
     1
102
RTVSPropertyOp60
 70
     1
102
RTVSPropertyOp61
 70
     1
102
RTVSPropertyOp62
 70
     1
  0
XRECORD
  5
106A0
102
{ACAD_REACTORS
330
1069F
102
}
330
1069F
100
AcDbXrecord
280
     1
102
RTVSPost2010Prop28
280
     0
102
RTVSPost2010PropOp28
 70
     0
102
RTVSPost2010Prop29
280
     1
102
RTVSPost2010PropOp29
 70
     0
102
RTVSPost2010Prop30
280
     1
102
RTVSPost2010PropOp30
 70
     0
102
RTVSPost2010Prop31
280
     0
102
RTVSPost2010PropOp31
 70
     0
102
RTVSPost2010Prop32
280
     0
102
RTVSPost2010PropOp32
 70
     0
102
RTVSPost2010Prop33
280
     0
102
RTVSPost2010PropOp33
 70
     0
102
RTVSPost2010Prop34
280
     0
102
RTVSPost2010PropOp34
 70
     0
102
RTVSPost2010Prop35
280
     0
102
RTVSPost2010PropOp35
 70
     0
102
RTVSPost2010Prop36
280
     0
102
RTVSPost2010PropOp36
 70
     0
102
RTVSPost2010Prop37
 90
       50
102
RTVSPost2010PropOp37
 70
     0
102
RTVSPost2010Prop38
140
0.0
102
RTVSPost2010PropOp38
 70
     0
102
RTVSPost2010Prop39
140
1.0
102
RTVSPost2010PropOp39
 70
     0
102
RTVSPost2010Prop40
 90
        0
102
RTVSPost2010PropOp40
 70
     0
102
RTVSPost2010Prop41ColorIndex
 90
       18
102
RTVSPost2010Prop41ColorRGB
 90
-16777216
102
RTVSPost2010PropOp41
 70
     0
102
RTVSPost2010Prop42
 90
       50
102
RTVSPost2010PropOp42
 70
     0
102
RTVSPost2010Prop43
 90
        3
102
RTVSPost2010PropOp43
 70
     0
102
RTVSPost2010Prop44ColorIndex
 90
        5
102
RTVSPost2010Prop44ColorRGB
 90
      255
102
RTVSPost2010PropOp44
 70
     0
102
RTVSPost2010Prop45
280
     0
102
RTVSPost2010PropOp45
 70
     0
102
RTVSPost2010Prop46
 90
       50
102
RTVSPost2010PropOp46
 70
     0
102
RTVSPost2010Prop47
 90
       50
102
RTVSPost2010PropOp47
 70
     0
102
RTVSPost2010Prop48
 90
       50
102
RTVSPost2010PropOp48
 70
     0
102
RTVSPost2010Prop49
280
     0
102
RTVSPost2010PropOp49
 70
     0
102
RTVSPost2010Prop50
 90
       50
102
RTVSPost2010PropOp50
 70
     0
102
RTVSPost2010Prop51ColorIndex
 90
      256
102
RTVSPost2010Prop51ColorRGB
 90
-16777216
102
RTVSPost2010PropOp51
 70
     0
102
RTVSPost2010Prop52
140
1.0
102
RTVSPost2010PropOp52
 70
     0
102
RTVSPost2010Prop53
 90
        2
102
RTVSPost2010PropOp53
 70
     0
102
RTVSPost2010Prop54
  1
strokes_ogs.tif
102
RTVSPost2010PropOp54
 70
     0
102
RTVSPost2010Prop55
280
     0
102
RTVSPost2010PropOp55
 70
     0
102
RTVSPost2010Prop56
140
1.0
102
RTVSPost2010PropOp56
 70
     0
102
RTVSPost2010Prop57
140
1.0
102
RTVSPost2010PropOp57
 70
     0
102
RTVSPropertyOp0
 70
     0
102
RTVSPropertyOp1
 70
     0
102
RTVSPropertyOp2
 70
     0
102
RTVSPropertyOp3
 70
     0
102
RTVSPropertyOp4
 70
     0
102
RTVSPropertyOp5
 70
     0
102
RTVSPropertyOp6
 70
     0
102
RTVSPropertyOp7
 70
     0
102
RTVSPropertyOp8
 70
     0
102
RTVSPropertyOp9
 70
     0
102
RTVSPropertyOp10
 70
     0
102
RTVSPropertyOp11
 70
     0
102
RTVSPropertyOp12
 70
     0
102
RTVSPropertyOp13
 70
     0
102
RTVSPropertyOp14
 70
     2
102
RTVSPropertyOp15
 70
     0
102
RTVSPropertyOp16
 70
     0
102
RTVSPropertyOp17
 70
     0
102
RTVSPropertyOp18
 70
     0
102
RTVSPropertyOp19
 70
     0
102
RTVSPropertyOp20
 70
     0
102
RTVSPropertyOp21
 70
     0
102
RTVSPropertyOp22
 70
     0
102
RTVSPropertyOp23
 70
     0
102
RTVSPropertyOp24
 70
     0
102
RTVSPropertyOp25
 70
     0
102
RTVSPropertyOp26
 70
     0
102
RTVSPropertyOp27
 70
     0
102
RTVSPropertyOp28
 70
     0
102
RTVSPropertyOp29
 70
     0
102
RTVSPropertyOp30
 70
     0
102
RTVSPropertyOp31
 70
     0
102
RTVSPropertyOp32
 70
     0
102
RTVSPropertyOp33
 70
     0
102
RTVSPropertyOp34
 70
     0
102
RTVSPropertyOp35
 70
     0
102
RTVSPropertyOp36
 70
     0
102
RTVSPropertyOp37
 70
     0
102
RTVSPropertyOp38
 70
     0
102
RTVSPropertyOp39
 70
     0
102
RTVSPropertyOp40
 70
     0
102
RTVSPropertyOp41
 70
     0
102
RTVSPropertyOp42
 70
     0
102
RTVSPropertyOp43
 70
     0
102
RTVSPropertyOp44
 70
     0
102
RTVSPropertyOp45
 70
     0
102
RTVSPropertyOp46
 70
     0
102
RTVSPropertyOp47
 70
     0
102
RTVSPropertyOp48
 70
     0
102
RTVSPropertyOp49
 70
     0
102
RTVSPropertyOp50
 70
     0
102
RTVSPropertyOp51
 70
     0
102
RTVSPropertyOp52
 70
     0
102
RTVSPropertyOp53
 70
     0
102
RTVSPropertyOp54
 70
     0
102
RTVSPropertyOp55
 70
     0
102
RTVSPropertyOp56
 70
     0
102
RTVSPropertyOp57
 70
     0
102
RTVSPropertyOp58
 70
     1
102
RTVSPropertyOp59
 70
     1
102
RTVSPropertyOp60
 70
     1
102
RTVSPropertyOp61
 70
     1
102
RTVSPropertyOp62
 70
     1
  0
XRECORD
  5
10681
102
{ACAD_REACTORS
330
10680
102
}
330
10680
100
AcDbXrecord
280
     1
102
RTVSPost2010Prop28
280
     0
102
RTVSPost2010PropOp28
 70
     1
102
RTVSPost2010Prop29
280
     1
102
RTVSPost2010PropOp29
 70
     1
102
RTVSPost2010Prop30
280
     1
102
RTVSPost2010PropOp30
 70
     1
102
RTVSPost2010Prop31
280
     0
102
RTVSPost2010PropOp31
 70
     1
102
RTVSPost2010Prop32
280
     0
102
RTVSPost2010PropOp32
 70
     1
102
RTVSPost2010Prop33
280
     0
102
RTVSPost2010PropOp33
 70
     1
102
RTVSPost2010Prop34
280
     0
102
RTVSPost2010PropOp34
 70
     1
102
RTVSPost2010Prop35
280
     0
102
RTVSPost2010PropOp35
 70
     1
102
RTVSPost2010Prop36
280
     0
102
RTVSPost2010PropOp36
 70
     1
102
RTVSPost2010Prop37
 90
       50
102
RTVSPost2010PropOp37
 70
     1
102
RTVSPost2010Prop38
140
0.0
102
RTVSPost2010PropOp38
 70
     1
102
RTVSPost2010Prop39
140
1.0
102
RTVSPost2010PropOp39
 70
     1
102
RTVSPost2010Prop40
 90
        0
102
RTVSPost2010PropOp40
 70
     1
102
RTVSPost2010Prop41ColorIndex
 90
       18
102
RTVSPost2010Prop41ColorRGB
 90
-16777216
102
RTVSPost2010PropOp41
 70
     1
102
RTVSPost2010Prop42
 90
       50
102
RTVSPost2010PropOp42
 70
     1
102
RTVSPost2010Prop43
 90
        3
102
RTVSPost2010PropOp43
 70
     1
102
RTVSPost2010Prop44ColorIndex
 90
        5
102
RTVSPost2010Prop44ColorRGB
 90
      255
102
RTVSPost2010PropOp44
 70
     1
102
RTVSPost2010Prop45
280
     0
102
RTVSPost2010PropOp45
 70
     1
102
RTVSPost2010Prop46
 90
       50
102
RTVSPost2010PropOp46
 70
     1
102
RTVSPost2010Prop47
 90
       50
102
RTVSPost2010PropOp47
 70
     1
102
RTVSPost2010Prop48
 90
       50
102
RTVSPost2010PropOp48
 70
     1
102
RTVSPost2010Prop49
280
     0
102
RTVSPost2010PropOp49
 70
     1
102
RTVSPost2010Prop50
 90
       50
102
RTVSPost2010PropOp50
 70
     1
102
RTVSPost2010Prop51ColorIndex
 90
      256
102
RTVSPost2010Prop51ColorRGB
 90
-16777216
102
RTVSPost2010PropOp51
 70
     0
102
RTVSPost2010Prop52
140
1.0
102
RTVSPost2010PropOp52
 70
     0
102
RTVSPost2010Prop53
 90
        2
102
RTVSPost2010PropOp53
 70
     1
102
RTVSPost2010Prop54
  1
strokes_ogs.tif
102
RTVSPost2010PropOp54
 70
     1
102
RTVSPost2010Prop55
280
     0
102
RTVSPost2010PropOp55
 70
     1
102
RTVSPost2010Prop56
140
1.0
102
RTVSPost2010PropOp56
 70
     1
102
RTVSPost2010Prop57
140
1.0
102
RTVSPost2010PropOp57
 70
     1
102
RTVSPropertyOp0
 70
     1
102
RTVSPropertyOp1
 70
     1
102
RTVSPropertyOp2
 70
     1
102
RTVSPropertyOp3
 70
     1
102
RTVSPropertyOp4
 70
     1
102
RTVSPropertyOp5
 70
     1
102
RTVSPropertyOp6
 70
     1
102
RTVSPropertyOp7
 70
     1
102
RTVSPropertyOp8
 70
     1
102
RTVSPropertyOp9
 70
     1
102
RTVSPropertyOp10
 70
     1
102
RTVSPropertyOp11
 70
     1
102
RTVSPropertyOp12
 70
     1
102
RTVSPropertyOp13
 70
     1
102
RTVSPropertyOp14
 70
     1
102
RTVSPropertyOp15
 70
     1
102
RTVSPropertyOp16
 70
     1
102
RTVSPropertyOp17
 70
     1
102
RTVSPropertyOp18
 70
     1
102
RTVSPropertyOp19
 70
     1
102
RTVSPropertyOp20
 70
     1
102
RTVSPropertyOp21
 70
     1
102
RTVSPropertyOp22
 70
     1
102
RTVSPropertyOp23
 70
     1
102
RTVSPropertyOp24
 70
     1
102
RTVSPropertyOp25
 70
     1
102
RTVSPropertyOp26
 70
     1
102
RTVSPropertyOp27
 70
     1
102
RTVSPropertyOp28
 70
     1
102
RTVSPropertyOp29
 70
     1
102
RTVSPropertyOp30
 70
     1
102
RTVSPropertyOp31
 70
     1
102
RTVSPropertyOp32
 70
     1
102
RTVSPropertyOp33
 70
     1
102
RTVSPropertyOp34
 70
     1
102
RTVSPropertyOp35
 70
     1
102
RTVSPropertyOp36
 70
     1
102
RTVSPropertyOp37
 70
     1
102
RTVSPropertyOp38
 70
     1
102
RTVSPropertyOp39
 70
     1
102
RTVSPropertyOp40
 70
     1
102
RTVSPropertyOp41
 70
     1
102
RTVSPropertyOp42
 70
     1
102
RTVSPropertyOp43
 70
     1
102
RTVSPropertyOp44
 70
     1
102
RTVSPropertyOp45
 70
     1
102
RTVSPropertyOp46
 70
     1
102
RTVSPropertyOp47
 70
     1
102
RTVSPropertyOp48
 70
     1
102
RTVSPropertyOp49
 70
     1
102
RTVSPropertyOp50
 70
     1
102
RTVSPropertyOp51
 70
     0
102
RTVSPropertyOp52
 70
     0
102
RTVSPropertyOp53
 70
     1
102
RTVSPropertyOp54
 70
     1
102
RTVSPropertyOp55
 70
     1
102
RTVSPropertyOp56
 70
     1
102
RTVSPropertyOp57
 70
     1
102
RTVSPropertyOp58
 70
     1
102
RTVSPropertyOp59
 70
     1
102
RTVSPropertyOp60
 70
     1
102
RTVSPropertyOp61
 70
     1
102
RTVSPropertyOp62
 70
     1
  0
XRECORD
  5
1069C
102
{ACAD_REACTORS
330
1069B
102
}
330
1069B
100
AcDbXrecord
280
     1
102
RTVSPost2010Prop28
280
     0
102
RTVSPost2010PropOp28
 70
     1
102
RTVSPost2010Prop29
280
     1
102
RTVSPost2010PropOp29
 70
     1
102
RTVSPost2010Prop30
280
     1
102
RTVSPost2010PropOp30
 70
     1
102
RTVSPost2010Prop31
280
     0
102
RTVSPost2010PropOp31
 70
     1
102
RTVSPost2010Prop32
280
     0
102
RTVSPost2010PropOp32
 70
     1
102
RTVSPost2010Prop33
280
     0
102
RTVSPost2010PropOp33
 70
     1
102
RTVSPost2010Prop34
280
     0
102
RTVSPost2010PropOp34
 70
     1
102
RTVSPost2010Prop35
280
     0
102
RTVSPost2010PropOp35
 70
     1
102
RTVSPost2010Prop36
280
     0
102
RTVSPost2010PropOp36
 70
     1
102
RTVSPost2010Prop37
 90
       50
102
RTVSPost2010PropOp37
 70
     1
102
RTVSPost2010Prop38
140
0.0
102
RTVSPost2010PropOp38
 70
     1
102
RTVSPost2010Prop39
140
1.0
102
RTVSPost2010PropOp39
 70
     1
102
RTVSPost2010Prop40
 90
        0
102
RTVSPost2010PropOp40
 70
     1
102
RTVSPost2010Prop41ColorIndex
 90
       18
102
RTVSPost2010Prop41ColorRGB
 90
-16777216
102
RTVSPost2010PropOp41
 70
     1
102
RTVSPost2010Prop42
 90
       50
102
RTVSPost2010PropOp42
 70
     1
102
RTVSPost2010Prop43
 90
        3
102
RTVSPost2010PropOp43
 70
     1
102
RTVSPost2010Prop44ColorIndex
 90
        5
102
RTVSPost2010Prop44ColorRGB
 90
      255
102
RTVSPost2010PropOp44
 70
     1
102
RTVSPost2010Prop45
280
     0
102
RTVSPost2010PropOp45
 70
     1
102
RTVSPost2010Prop46
 90
       50
102
RTVSPost2010PropOp46
 70
     1
102
RTVSPost2010Prop47
 90
       50
102
RTVSPost2010PropOp47
 70
     1
102
RTVSPost2010Prop48
 90
       50
102
RTVSPost2010PropOp48
 70
     1
102
RTVSPost2010Prop49
280
     0
102
RTVSPost2010PropOp49
 70
     1
102
RTVSPost2010Prop50
 90
       50
102
RTVSPost2010PropOp50
 70
     1
102
RTVSPost2010Prop51ColorIndex
 90
      256
102
RTVSPost2010Prop51ColorRGB
 90
-16777216
102
RTVSPost2010PropOp51
 70
     0
102
RTVSPost2010Prop52
140
1.0
102
RTVSPost2010PropOp52
 70
     0
102
RTVSPost2010Prop53
 90
        2
102
RTVSPost2010PropOp53
 70
     1
102
RTVSPost2010Prop54
  1
strokes_ogs.tif
102
RTVSPost2010PropOp54
 70
     1
102
RTVSPost2010Prop55
280
     0
102
RTVSPost2010PropOp55
 70
     1
102
RTVSPost2010Prop56
140
1.0
102
RTVSPost2010PropOp56
 70
     1
102
RTVSPost2010Prop57
140
1.0
102
RTVSPost2010PropOp57
 70
     1
102
RTVSPropertyOp0
 70
     1
102
RTVSPropertyOp1
 70
     1
102
RTVSPropertyOp2
 70
     1
102
RTVSPropertyOp3
 70
     1
102
RTVSPropertyOp4
 70
     1
102
RTVSPropertyOp5
 70
     1
102
RTVSPropertyOp6
 70
     1
102
RTVSPropertyOp7
 70
     1
102
RTVSPropertyOp8
 70
     1
102
RTVSPropertyOp9
 70
     1
102
RTVSPropertyOp10
 70
     1
102
RTVSPropertyOp11
 70
     1
102
RTVSPropertyOp12
 70
     1
102
RTVSPropertyOp13
 70
     1
102
RTVSPropertyOp14
 70
     1
102
RTVSPropertyOp15
 70
     1
102
RTVSPropertyOp16
 70
     1
102
RTVSPropertyOp17
 70
     1
102
RTVSPropertyOp18
 70
     1
102
RTVSPropertyOp19
 70
     1
102
RTVSPropertyOp20
 70
     1
102
RTVSPropertyOp21
 70
     1
102
RTVSPropertyOp22
 70
     1
102
RTVSPropertyOp23
 70
     1
102
RTVSPropertyOp24
 70
     1
102
RTVSPropertyOp25
 70
     1
102
RTVSPropertyOp26
 70
     1
102
RTVSPropertyOp27
 70
     1
102
RTVSPropertyOp28
 70
     1
102
RTVSPropertyOp29
 70
     1
102
RTVSPropertyOp30
 70
     1
102
RTVSPropertyOp31
 70
     1
102
RTVSPropertyOp32
 70
     1
102
RTVSPropertyOp33
 70
     1
102
RTVSPropertyOp34
 70
     1
102
RTVSPropertyOp35
 70
     1
102
RTVSPropertyOp36
 70
     1
102
RTVSPropertyOp37
 70
     1
102
RTVSPropertyOp38
 70
     1
102
RTVSPropertyOp39
 70
     1
102
RTVSPropertyOp40
 70
     1
102
RTVSPropertyOp41
 70
     1
102
RTVSPropertyOp42
 70
     1
102
RTVSPropertyOp43
 70
     1
102
RTVSPropertyOp44
 70
     1
102
RTVSPropertyOp45
 70
     1
102
RTVSPropertyOp46
 70
     1
102
RTVSPropertyOp47
 70
     1
102
RTVSPropertyOp48
 70
     1
102
RTVSPropertyOp49
 70
     1
102
RTVSPropertyOp50
 70
     1
102
RTVSPropertyOp51
 70
     0
102
RTVSPropertyOp52
 70
     0
102
RTVSPropertyOp53
 70
     1
102
RTVSPropertyOp54
 70
     1
102
RTVSPropertyOp55
 70
     1
102
RTVSPropertyOp56
 70
     1
102
RTVSPropertyOp57
 70
     1
102
RTVSPropertyOp58
 70
     1
102
RTVSPropertyOp59
 70
     1
102
RTVSPropertyOp60
 70
     1
102
RTVSPropertyOp61
 70
     1
102
RTVSPropertyOp62
 70
     1
  0
XRECORD
  5
1069A
102
{ACAD_REACTORS
330
10699
102
}
330
10699
100
AcDbXrecord
280
     1
102
RTVSPost2010Prop28
280
     0
102
RTVSPost2010PropOp28
 70
     1
102
RTVSPost2010Prop29
280
     1
102
RTVSPost2010PropOp29
 70
     1
102
RTVSPost2010Prop30
280
     1
102
RTVSPost2010PropOp30
 70
     1
102
RTVSPost2010Prop31
280
     0
102
RTVSPost2010PropOp31
 70
     1
102
RTVSPost2010Prop32
280
     0
102
RTVSPost2010PropOp32
 70
     1
102
RTVSPost2010Prop33
280
     0
102
RTVSPost2010PropOp33
 70
     1
102
RTVSPost2010Prop34
280
     0
102
RTVSPost2010PropOp34
 70
     1
102
RTVSPost2010Prop35
280
     0
102
RTVSPost2010PropOp35
 70
     1
102
RTVSPost2010Prop36
280
     0
102
RTVSPost2010PropOp36
 70
     1
102
RTVSPost2010Prop37
 90
       50
102
RTVSPost2010PropOp37
 70
     1
102
RTVSPost2010Prop38
140
0.0
102
RTVSPost2010PropOp38
 70
     1
102
RTVSPost2010Prop39
140
1.0
102
RTVSPost2010PropOp39
 70
     1
102
RTVSPost2010Prop40
 90
        0
102
RTVSPost2010PropOp40
 70
     1
102
RTVSPost2010Prop41ColorIndex
 90
       18
102
RTVSPost2010Prop41ColorRGB
 90
-16777216
102
RTVSPost2010PropOp41
 70
     1
102
RTVSPost2010Prop42
 90
       50
102
RTVSPost2010PropOp42
 70
     1
102
RTVSPost2010Prop43
 90
        3
102
RTVSPost2010PropOp43
 70
     1
102
RTVSPost2010Prop44ColorIndex
 90
        5
102
RTVSPost2010Prop44ColorRGB
 90
      255
102
RTVSPost2010PropOp44
 70
     1
102
RTVSPost2010Prop45
280
     0
102
RTVSPost2010PropOp45
 70
     1
102
RTVSPost2010Prop46
 90
       50
102
RTVSPost2010PropOp46
 70
     1
102
RTVSPost2010Prop47
 90
       50
102
RTVSPost2010PropOp47
 70
     1
102
RTVSPost2010Prop48
 90
       50
102
RTVSPost2010PropOp48
 70
     1
102
RTVSPost2010Prop49
280
     0
102
RTVSPost2010PropOp49
 70
     1
102
RTVSPost2010Prop50
 90
       50
102
RTVSPost2010PropOp50
 70
     1
102
RTVSPost2010Prop51ColorIndex
 90
      256
102
RTVSPost2010Prop51ColorRGB
 90
-16777216
102
RTVSPost2010PropOp51
 70
     0
102
RTVSPost2010Prop52
140
1.0
102
RTVSPost2010PropOp52
 70
     0
102
RTVSPost2010Prop53
 90
        2
102
RTVSPost2010PropOp53
 70
     1
102
RTVSPost2010Prop54
  1
strokes_ogs.tif
102
RTVSPost2010PropOp54
 70
     1
102
RTVSPost2010Prop55
280
     0
102
RTVSPost2010PropOp55
 70
     1
102
RTVSPost2010Prop56
140
1.0
102
RTVSPost2010PropOp56
 70
     1
102
RTVSPost2010Prop57
140
1.0
102
RTVSPost2010PropOp57
 70
     1
102
RTVSPropertyOp0
 70
     1
102
RTVSPropertyOp1
 70
     1
102
RTVSPropertyOp2
 70
     1
102
RTVSPropertyOp3
 70
     1
102
RTVSPropertyOp4
 70
     1
102
RTVSPropertyOp5
 70
     1
102
RTVSPropertyOp6
 70
     1
102
RTVSPropertyOp7
 70
     1
102
RTVSPropertyOp8
 70
     1
102
RTVSPropertyOp9
 70
     1
102
RTVSPropertyOp10
 70
     1
102
RTVSPropertyOp11
 70
     1
102
RTVSPropertyOp12
 70
     1
102
RTVSPropertyOp13
 70
     1
102
RTVSPropertyOp14
 70
     1
102
RTVSPropertyOp15
 70
     1
102
RTVSPropertyOp16
 70
     1
102
RTVSPropertyOp17
 70
     1
102
RTVSPropertyOp18
 70
     1
102
RTVSPropertyOp19
 70
     1
102
RTVSPropertyOp20
 70
     1
102
RTVSPropertyOp21
 70
     1
102
RTVSPropertyOp22
 70
     1
102
RTVSPropertyOp23
 70
     1
102
RTVSPropertyOp24
 70
     1
102
RTVSPropertyOp25
 70
     1
102
RTVSPropertyOp26
 70
     1
102
RTVSPropertyOp27
 70
     1
102
RTVSPropertyOp28
 70
     1
102
RTVSPropertyOp29
 70
     1
102
RTVSPropertyOp30
 70
     1
102
RTVSPropertyOp31
 70
     1
102
RTVSPropertyOp32
 70
     1
102
RTVSPropertyOp33
 70
     1
102
RTVSPropertyOp34
 70
     1
102
RTVSPropertyOp35
 70
     1
102
RTVSPropertyOp36
 70
     1
102
RTVSPropertyOp37
 70
     1
102
RTVSPropertyOp38
 70
     1
102
RTVSPropertyOp39
 70
     1
102
RTVSPropertyOp40
 70
     1
102
RTVSPropertyOp41
 70
     1
102
RTVSPropertyOp42
 70
     1
102
RTVSPropertyOp43
 70
     1
102
RTVSPropertyOp44
 70
     1
102
RTVSPropertyOp45
 70
     1
102
RTVSPropertyOp46
 70
     1
102
RTVSPropertyOp47
 70
     1
102
RTVSPropertyOp48
 70
     1
102
RTVSPropertyOp49
 70
     1
102
RTVSPropertyOp50
 70
     1
102
RTVSPropertyOp51
 70
     0
102
RTVSPropertyOp52
 70
     0
102
RTVSPropertyOp53
 70
     1
102
RTVSPropertyOp54
 70
     1
102
RTVSPropertyOp55
 70
     1
102
RTVSPropertyOp56
 70
     1
102
RTVSPropertyOp57
 70
     1
102
RTVSPropertyOp58
 70
     1
102
RTVSPropertyOp59
 70
     1
102
RTVSPropertyOp60
 70
     1
102
RTVSPropertyOp61
 70
     1
102
RTVSPropertyOp62
 70
     1
  0
XRECORD
  5
10694
102
{ACAD_REACTORS
330
10693
102
}
330
10693
100
AcDbXrecord
280
     1
102
RTVSPost2010Prop28
280
     0
102
RTVSPost2010PropOp28
 70
     1
102
RTVSPost2010Prop29
280
     1
102
RTVSPost2010PropOp29
 70
     1
102
RTVSPost2010Prop30
280
     1
102
RTVSPost2010PropOp30
 70
     1
102
RTVSPost2010Prop31
280
     0
102
RTVSPost2010PropOp31
 70
     1
102
RTVSPost2010Prop32
280
     0
102
RTVSPost2010PropOp32
 70
     1
102
RTVSPost2010Prop33
280
     0
102
RTVSPost2010PropOp33
 70
     1
102
RTVSPost2010Prop34
280
     0
102
RTVSPost2010PropOp34
 70
     1
102
RTVSPost2010Prop35
280
     0
102
RTVSPost2010PropOp35
 70
     1
102
RTVSPost2010Prop36
280
     0
102
RTVSPost2010PropOp36
 70
     1
102
RTVSPost2010Prop37
 90
       50
102
RTVSPost2010PropOp37
 70
     1
102
RTVSPost2010Prop38
140
0.0
102
RTVSPost2010PropOp38
 70
     1
102
RTVSPost2010Prop39
140
1.0
102
RTVSPost2010PropOp39
 70
     1
102
RTVSPost2010Prop40
 90
        0
102
RTVSPost2010PropOp40
 70
     1
102
RTVSPost2010Prop41ColorIndex
 90
       18
102
RTVSPost2010Prop41ColorRGB
 90
-16777216
102
RTVSPost2010PropOp41
 70
     1
102
RTVSPost2010Prop42
 90
       50
102
RTVSPost2010PropOp42
 70
     1
102
RTVSPost2010Prop43
 90
        3
102
RTVSPost2010PropOp43
 70
     1
102
RTVSPost2010Prop44ColorIndex
 90
        5
102
RTVSPost2010Prop44ColorRGB
 90
      255
102
RTVSPost2010PropOp44
 70
     1
102
RTVSPost2010Prop45
280
     0
102
RTVSPost2010PropOp45
 70
     1
102
RTVSPost2010Prop46
 90
       50
102
RTVSPost2010PropOp46
 70
     1
102
RTVSPost2010Prop47
 90
       50
102
RTVSPost2010PropOp47
 70
     1
102
RTVSPost2010Prop48
 90
       50
102
RTVSPost2010PropOp48
 70
     1
102
RTVSPost2010Prop49
280
     0
102
RTVSPost2010PropOp49
 70
     1
102
RTVSPost2010Prop50
 90
       50
102
RTVSPost2010PropOp50
 70
     1
102
RTVSPost2010Prop51ColorIndex
 90
      256
102
RTVSPost2010Prop51ColorRGB
 90
-16777216
102
RTVSPost2010PropOp51
 70
     0
102
RTVSPost2010Prop52
140
1.0
102
RTVSPost2010PropOp52
 70
     0
102
RTVSPost2010Prop53
 90
        2
102
RTVSPost2010PropOp53
 70
     1
102
RTVSPost2010Prop54
  1
strokes_ogs.tif
102
RTVSPost2010PropOp54
 70
     1
102
RTVSPost2010Prop55
280
     0
102
RTVSPost2010PropOp55
 70
     1
102
RTVSPost2010Prop56
140
1.0
102
RTVSPost2010PropOp56
 70
     1
102
RTVSPost2010Prop57
140
1.0
102
RTVSPost2010PropOp57
 70
     1
102
RTVSPropertyOp0
 70
     1
102
RTVSPropertyOp1
 70
     1
102
RTVSPropertyOp2
 70
     1
102
RTVSPropertyOp3
 70
     1
102
RTVSPropertyOp4
 70
     1
102
RTVSPropertyOp5
 70
     1
102
RTVSPropertyOp6
 70
     1
102
RTVSPropertyOp7
 70
     1
102
RTVSPropertyOp8
 70
     1
102
RTVSPropertyOp9
 70
     1
102
RTVSPropertyOp10
 70
     1
102
RTVSPropertyOp11
 70
     1
102
RTVSPropertyOp12
 70
     1
102
RTVSPropertyOp13
 70
     1
102
RTVSPropertyOp14
 70
     1
102
RTVSPropertyOp15
 70
     1
102
RTVSPropertyOp16
 70
     1
102
RTVSPropertyOp17
 70
     1
102
RTVSPropertyOp18
 70
     1
102
RTVSPropertyOp19
 70
     1
102
RTVSPropertyOp20
 70
     1
102
RTVSPropertyOp21
 70
     1
102
RTVSPropertyOp22
 70
     1
102
RTVSPropertyOp23
 70
     1
102
RTVSPropertyOp24
 70
     1
102
RTVSPropertyOp25
 70
     1
102
RTVSPropertyOp26
 70
     1
102
RTVSPropertyOp27
 70
     1
102
RTVSPropertyOp28
 70
     1
102
RTVSPropertyOp29
 70
     1
102
RTVSPropertyOp30
 70
     1
102
RTVSPropertyOp31
 70
     1
102
RTVSPropertyOp32
 70
     1
102
RTVSPropertyOp33
 70
     1
102
RTVSPropertyOp34
 70
     1
102
RTVSPropertyOp35
 70
     1
102
RTVSPropertyOp36
 70
     1
102
RTVSPropertyOp37
 70
     1
102
RTVSPropertyOp38
 70
     1
102
RTVSPropertyOp39
 70
     1
102
RTVSPropertyOp40
 70
     1
102
RTVSPropertyOp41
 70
     1
102
RTVSPropertyOp42
 70
     1
102
RTVSPropertyOp43
 70
     1
102
RTVSPropertyOp44
 70
     1
102
RTVSPropertyOp45
 70
     1
102
RTVSPropertyOp46
 70
     1
102
RTVSPropertyOp47
 70
     1
102
RTVSPropertyOp48
 70
     1
102
RTVSPropertyOp49
 70
     1
102
RTVSPropertyOp50
 70
     1
102
RTVSPropertyOp51
 70
     0
102
RTVSPropertyOp52
 70
     0
102
RTVSPropertyOp53
 70
     1
102
RTVSPropertyOp54
 70
     1
102
RTVSPropertyOp55
 70
     1
102
RTVSPropertyOp56
 70
     1
102
RTVSPropertyOp57
 70
     1
102
RTVSPropertyOp58
 70
     1
102
RTVSPropertyOp59
 70
     1
102
RTVSPropertyOp60
 70
     1
102
RTVSPropertyOp61
 70
     1
102
RTVSPropertyOp62
 70
     1
  0
XRECORD
  5
10696
102
{ACAD_REACTORS
330
10695
102
}
330
10695
100
AcDbXrecord
280
     1
102
RTVSPost2010Prop28
280
     0
102
RTVSPost2010PropOp28
 70
     1
102
RTVSPost2010Prop29
280
     1
102
RTVSPost2010PropOp29
 70
     1
102
RTVSPost2010Prop30
280
     1
102
RTVSPost2010PropOp30
 70
     1
102
RTVSPost2010Prop31
280
     0
102
RTVSPost2010PropOp31
 70
     1
102
RTVSPost2010Prop32
280
     0
102
RTVSPost2010PropOp32
 70
     1
102
RTVSPost2010Prop33
280
     0
102
RTVSPost2010PropOp33
 70
     1
102
RTVSPost2010Prop34
280
     0
102
RTVSPost2010PropOp34
 70
     1
102
RTVSPost2010Prop35
280
     0
102
RTVSPost2010PropOp35
 70
     1
102
RTVSPost2010Prop36
280
     0
102
RTVSPost2010PropOp36
 70
     1
102
RTVSPost2010Prop37
 90
       50
102
RTVSPost2010PropOp37
 70
     1
102
RTVSPost2010Prop38
140
0.0
102
RTVSPost2010PropOp38
 70
     1
102
RTVSPost2010Prop39
140
1.0
102
RTVSPost2010PropOp39
 70
     1
102
RTVSPost2010Prop40
 90
        0
102
RTVSPost2010PropOp40
 70
     1
102
RTVSPost2010Prop41ColorIndex
 90
       18
102
RTVSPost2010Prop41ColorRGB
 90
-16777216
102
RTVSPost2010PropOp41
 70
     1
102
RTVSPost2010Prop42
 90
       50
102
RTVSPost2010PropOp42
 70
     1
102
RTVSPost2010Prop43
 90
        3
102
RTVSPost2010PropOp43
 70
     1
102
RTVSPost2010Prop44ColorIndex
 90
        5
102
RTVSPost2010Prop44ColorRGB
 90
      255
102
RTVSPost2010PropOp44
 70
     1
102
RTVSPost2010Prop45
280
     0
102
RTVSPost2010PropOp45
 70
     1
102
RTVSPost2010Prop46
 90
       50
102
RTVSPost2010PropOp46
 70
     1
102
RTVSPost2010Prop47
 90
       50
102
RTVSPost2010PropOp47
 70
     1
102
RTVSPost2010Prop48
 90
       50
102
RTVSPost2010PropOp48
 70
     1
102
RTVSPost2010Prop49
280
     0
102
RTVSPost2010PropOp49
 70
     1
102
RTVSPost2010Prop50
 90
       50
102
RTVSPost2010PropOp50
 70
     1
102
RTVSPost2010Prop51ColorIndex
 90
      256
102
RTVSPost2010Prop51ColorRGB
 90
-16777216
102
RTVSPost2010PropOp51
 70
     0
102
RTVSPost2010Prop52
140
1.0
102
RTVSPost2010PropOp52
 70
     0
102
RTVSPost2010Prop53
 90
        2
102
RTVSPost2010PropOp53
 70
     1
102
RTVSPost2010Prop54
  1
strokes_ogs.tif
102
RTVSPost2010PropOp54
 70
     1
102
RTVSPost2010Prop55
280
     0
102
RTVSPost2010PropOp55
 70
     1
102
RTVSPost2010Prop56
140
1.0
102
RTVSPost2010PropOp56
 70
     1
102
RTVSPost2010Prop57
140
1.0
102
RTVSPost2010PropOp57
 70
     1
102
RTVSPropertyOp0
 70
     1
102
RTVSPropertyOp1
 70
     1
102
RTVSPropertyOp2
 70
     1
102
RTVSPropertyOp3
 70
     1
102
RTVSPropertyOp4
 70
     1
102
RTVSPropertyOp5
 70
     1
102
RTVSPropertyOp6
 70
     1
102
RTVSPropertyOp7
 70
     1
102
RTVSPropertyOp8
 70
     1
102
RTVSPropertyOp9
 70
     1
102
RTVSPropertyOp10
 70
     1
102
RTVSPropertyOp11
 70
     1
102
RTVSPropertyOp12
 70
     1
102
RTVSPropertyOp13
 70
     1
102
RTVSPropertyOp14
 70
     1
102
RTVSPropertyOp15
 70
     1
102
RTVSPropertyOp16
 70
     1
102
RTVSPropertyOp17
 70
     1
102
RTVSPropertyOp18
 70
     1
102
RTVSPropertyOp19
 70
     1
102
RTVSPropertyOp20
 70
     1
102
RTVSPropertyOp21
 70
     1
102
RTVSPropertyOp22
 70
     1
102
RTVSPropertyOp23
 70
     1
102
RTVSPropertyOp24
 70
     1
102
RTVSPropertyOp25
 70
     1
102
RTVSPropertyOp26
 70
     1
102
RTVSPropertyOp27
 70
     1
102
RTVSPropertyOp28
 70
     1
102
RTVSPropertyOp29
 70
     1
102
RTVSPropertyOp30
 70
     1
102
RTVSPropertyOp31
 70
     1
102
RTVSPropertyOp32
 70
     1
102
RTVSPropertyOp33
 70
     1
102
RTVSPropertyOp34
 70
     1
102
RTVSPropertyOp35
 70
     1
102
RTVSPropertyOp36
 70
     1
102
RTVSPropertyOp37
 70
     1
102
RTVSPropertyOp38
 70
     1
102
RTVSPropertyOp39
 70
     1
102
RTVSPropertyOp40
 70
     1
102
RTVSPropertyOp41
 70
     1
102
RTVSPropertyOp42
 70
     1
102
RTVSPropertyOp43
 70
     1
102
RTVSPropertyOp44
 70
     1
102
RTVSPropertyOp45
 70
     1
102
RTVSPropertyOp46
 70
     1
102
RTVSPropertyOp47
 70
     1
102
RTVSPropertyOp48
 70
     1
102
RTVSPropertyOp49
 70
     1
102
RTVSPropertyOp50
 70
     1
102
RTVSPropertyOp51
 70
     0
102
RTVSPropertyOp52
 70
     0
102
RTVSPropertyOp53
 70
     1
102
RTVSPropertyOp54
 70
     1
102
RTVSPropertyOp55
 70
     1
102
RTVSPropertyOp56
 70
     1
102
RTVSPropertyOp57
 70
     1
102
RTVSPropertyOp58
 70
     1
102
RTVSPropertyOp59
 70
     1
102
RTVSPropertyOp60
 70
     1
102
RTVSPropertyOp61
 70
     1
102
RTVSPropertyOp62
 70
     1
  0
XRECORD
  5
10687
102
{ACAD_REACTORS
330
10686
102
}
330
10686
100
AcDbXrecord
280
     1
102
RTVSPost2010Prop28
280
     0
102
RTVSPost2010PropOp28
 70
     1
102
RTVSPost2010Prop29
280
     1
102
RTVSPost2010PropOp29
 70
     1
102
RTVSPost2010Prop30
280
     1
102
RTVSPost2010PropOp30
 70
     1
102
RTVSPost2010Prop31
280
     0
102
RTVSPost2010PropOp31
 70
     1
102
RTVSPost2010Prop32
280
     0
102
RTVSPost2010PropOp32
 70
     1
102
RTVSPost2010Prop33
280
     0
102
RTVSPost2010PropOp33
 70
     1
102
RTVSPost2010Prop34
280
     0
102
RTVSPost2010PropOp34
 70
     1
102
RTVSPost2010Prop35
280
     0
102
RTVSPost2010PropOp35
 70
     1
102
RTVSPost2010Prop36
280
     0
102
RTVSPost2010PropOp36
 70
     1
102
RTVSPost2010Prop37
 90
       50
102
RTVSPost2010PropOp37
 70
     1
102
RTVSPost2010Prop38
140
0.0
102
RTVSPost2010PropOp38
 70
     1
102
RTVSPost2010Prop39
140
1.0
102
RTVSPost2010PropOp39
 70
     1
102
RTVSPost2010Prop40
 90
        0
102
RTVSPost2010PropOp40
 70
     1
102
RTVSPost2010Prop41ColorIndex
 90
       18
102
RTVSPost2010Prop41ColorRGB
 90
-16777216
102
RTVSPost2010PropOp41
 70
     1
102
RTVSPost2010Prop42
 90
       50
102
RTVSPost2010PropOp42
 70
     1
102
RTVSPost2010Prop43
 90
        3
102
RTVSPost2010PropOp43
 70
     1
102
RTVSPost2010Prop44ColorIndex
 90
        5
102
RTVSPost2010Prop44ColorRGB
 90
      255
102
RTVSPost2010PropOp44
 70
     1
102
RTVSPost2010Prop45
280
     0
102
RTVSPost2010PropOp45
 70
     1
102
RTVSPost2010Prop46
 90
       50
102
RTVSPost2010PropOp46
 70
     1
102
RTVSPost2010Prop47
 90
       50
102
RTVSPost2010PropOp47
 70
     1
102
RTVSPost2010Prop48
 90
       50
102
RTVSPost2010PropOp48
 70
     1
102
RTVSPost2010Prop49
280
     0
102
RTVSPost2010PropOp49
 70
     1
102
RTVSPost2010Prop50
 90
       50
102
RTVSPost2010PropOp50
 70
     1
102
RTVSPost2010Prop51ColorIndex
 90
      256
102
RTVSPost2010Prop51ColorRGB
 90
-16777216
102
RTVSPost2010PropOp51
 70
     0
102
RTVSPost2010Prop52
140
1.0
102
RTVSPost2010PropOp52
 70
     0
102
RTVSPost2010Prop53
 90
        2
102
RTVSPost2010PropOp53
 70
     1
102
RTVSPost2010Prop54
  1
strokes_ogs.tif
102
RTVSPost2010PropOp54
 70
     1
102
RTVSPost2010Prop55
280
     0
102
RTVSPost2010PropOp55
 70
     1
102
RTVSPost2010Prop56
140
1.0
102
RTVSPost2010PropOp56
 70
     1
102
RTVSPost2010Prop57
140
1.0
102
RTVSPost2010PropOp57
 70
     1
102
RTVSPropertyOp0
 70
     1
102
RTVSPropertyOp1
 70
     1
102
RTVSPropertyOp2
 70
     1
102
RTVSPropertyOp3
 70
     1
102
RTVSPropertyOp4
 70
     1
102
RTVSPropertyOp5
 70
     1
102
RTVSPropertyOp6
 70
     1
102
RTVSPropertyOp7
 70
     1
102
RTVSPropertyOp8
 70
     1
102
RTVSPropertyOp9
 70
     1
102
RTVSPropertyOp10
 70
     1
102
RTVSPropertyOp11
 70
     1
102
RTVSPropertyOp12
 70
     1
102
RTVSPropertyOp13
 70
     1
102
RTVSPropertyOp14
 70
     1
102
RTVSPropertyOp15
 70
     1
102
RTVSPropertyOp16
 70
     1
102
RTVSPropertyOp17
 70
     1
102
RTVSPropertyOp18
 70
     1
102
RTVSPropertyOp19
 70
     1
102
RTVSPropertyOp20
 70
     1
102
RTVSPropertyOp21
 70
     1
102
RTVSPropertyOp22
 70
     1
102
RTVSPropertyOp23
 70
     1
102
RTVSPropertyOp24
 70
     1
102
RTVSPropertyOp25
 70
     1
102
RTVSPropertyOp26
 70
     1
102
RTVSPropertyOp27
 70
     1
102
RTVSPropertyOp28
 70
     1
102
RTVSPropertyOp29
 70
     1
102
RTVSPropertyOp30
 70
     1
102
RTVSPropertyOp31
 70
     1
102
RTVSPropertyOp32
 70
     1
102
RTVSPropertyOp33
 70
     1
102
RTVSPropertyOp34
 70
     1
102
RTVSPropertyOp35
 70
     1
102
RTVSPropertyOp36
 70
     1
102
RTVSPropertyOp37
 70
     1
102
RTVSPropertyOp38
 70
     1
102
RTVSPropertyOp39
 70
     1
102
RTVSPropertyOp40
 70
     1
102
RTVSPropertyOp41
 70
     1
102
RTVSPropertyOp42
 70
     1
102
RTVSPropertyOp43
 70
     1
102
RTVSPropertyOp44
 70
     1
102
RTVSPropertyOp45
 70
     1
102
RTVSPropertyOp46
 70
     1
102
RTVSPropertyOp47
 70
     1
102
RTVSPropertyOp48
 70
     1
102
RTVSPropertyOp49
 70
     1
102
RTVSPropertyOp50
 70
     1
102
RTVSPropertyOp51
 70
     0
102
RTVSPropertyOp52
 70
     0
102
RTVSPropertyOp53
 70
     1
102
RTVSPropertyOp54
 70
     1
102
RTVSPropertyOp55
 70
     1
102
RTVSPropertyOp56
 70
     1
102
RTVSPropertyOp57
 70
     1
102
RTVSPropertyOp58
 70
     1
102
RTVSPropertyOp59
 70
     1
102
RTVSPropertyOp60
 70
     1
102
RTVSPropertyOp61
 70
     1
102
RTVSPropertyOp62
 70
     1
  0
XRECORD
  5
10690
102
{ACAD_REACTORS
330
1068F
102
}
330
1068F
100
AcDbXrecord
280
     1
102
RTVSPost2010Prop28
280
     0
102
RTVSPost2010PropOp28
 70
     1
102
RTVSPost2010Prop29
280
     1
102
RTVSPost2010PropOp29
 70
     1
102
RTVSPost2010Prop30
280
     1
102
RTVSPost2010PropOp30
 70
     1
102
RTVSPost2010Prop31
280
     0
102
RTVSPost2010PropOp31
 70
     1
102
RTVSPost2010Prop32
280
     0
102
RTVSPost2010PropOp32
 70
     1
102
RTVSPost2010Prop33
280
     0
102
RTVSPost2010PropOp33
 70
     1
102
RTVSPost2010Prop34
280
     0
102
RTVSPost2010PropOp34
 70
     1
102
RTVSPost2010Prop35
280
     0
102
RTVSPost2010PropOp35
 70
     1
102
RTVSPost2010Prop36
280
     0
102
RTVSPost2010PropOp36
 70
     1
102
RTVSPost2010Prop37
 90
       50
102
RTVSPost2010PropOp37
 70
     1
102
RTVSPost2010Prop38
140
0.0
102
RTVSPost2010PropOp38
 70
     1
102
RTVSPost2010Prop39
140
1.0
102
RTVSPost2010PropOp39
 70
     1
102
RTVSPost2010Prop40
 90
        0
102
RTVSPost2010PropOp40
 70
     1
102
RTVSPost2010Prop41ColorIndex
 90
       18
102
RTVSPost2010Prop41ColorRGB
 90
-16777216
102
RTVSPost2010PropOp41
 70
     1
102
RTVSPost2010Prop42
 90
       50
102
RTVSPost2010PropOp42
 70
     1
102
RTVSPost2010Prop43
 90
        3
102
RTVSPost2010PropOp43
 70
     1
102
RTVSPost2010Prop44ColorIndex
 90
        5
102
RTVSPost2010Prop44ColorRGB
 90
      255
102
RTVSPost2010PropOp44
 70
     1
102
RTVSPost2010Prop45
280
     0
102
RTVSPost2010PropOp45
 70
     1
102
RTVSPost2010Prop46
 90
       50
102
RTVSPost2010PropOp46
 70
     1
102
RTVSPost2010Prop47
 90
       50
102
RTVSPost2010PropOp47
 70
     1
102
RTVSPost2010Prop48
 90
       50
102
RTVSPost2010PropOp48
 70
     1
102
RTVSPost2010Prop49
280
     0
102
RTVSPost2010PropOp49
 70
     1
102
RTVSPost2010Prop50
 90
       50
102
RTVSPost2010PropOp50
 70
     1
102
RTVSPost2010Prop51ColorIndex
 90
      256
102
RTVSPost2010Prop51ColorRGB
 90
-16777216
102
RTVSPost2010PropOp51
 70
     0
102
RTVSPost2010Prop52
140
1.0
102
RTVSPost2010PropOp52
 70
     0
102
RTVSPost2010Prop53
 90
        2
102
RTVSPost2010PropOp53
 70
     1
102
RTVSPost2010Prop54
  1
strokes_ogs.tif
102
RTVSPost2010PropOp54
 70
     1
102
RTVSPost2010Prop55
280
     0
102
RTVSPost2010PropOp55
 70
     1
102
RTVSPost2010Prop56
140
1.0
102
RTVSPost2010PropOp56
 70
     1
102
RTVSPost2010Prop57
140
1.0
102
RTVSPost2010PropOp57
 70
     1
102
RTVSPropertyOp0
 70
     1
102
RTVSPropertyOp1
 70
     1
102
RTVSPropertyOp2
 70
     1
102
RTVSPropertyOp3
 70
     1
102
RTVSPropertyOp4
 70
     1
102
RTVSPropertyOp5
 70
     1
102
RTVSPropertyOp6
 70
     1
102
RTVSPropertyOp7
 70
     1
102
RTVSPropertyOp8
 70
     1
102
RTVSPropertyOp9
 70
     1
102
RTVSPropertyOp10
 70
     1
102
RTVSPropertyOp11
 70
     1
102
RTVSPropertyOp12
 70
     1
102
RTVSPropertyOp13
 70
     1
102
RTVSPropertyOp14
 70
     1
102
RTVSPropertyOp15
 70
     1
102
RTVSPropertyOp16
 70
     1
102
RTVSPropertyOp17
 70
     1
102
RTVSPropertyOp18
 70
     1
102
RTVSPropertyOp19
 70
     1
102
RTVSPropertyOp20
 70
     1
102
RTVSPropertyOp21
 70
     1
102
RTVSPropertyOp22
 70
     1
102
RTVSPropertyOp23
 70
     1
102
RTVSPropertyOp24
 70
     1
102
RTVSPropertyOp25
 70
     1
102
RTVSPropertyOp26
 70
     1
102
RTVSPropertyOp27
 70
     1
102
RTVSPropertyOp28
 70
     1
102
RTVSPropertyOp29
 70
     1
102
RTVSPropertyOp30
 70
     1
102
RTVSPropertyOp31
 70
     1
102
RTVSPropertyOp32
 70
     1
102
RTVSPropertyOp33
 70
     1
102
RTVSPropertyOp34
 70
     1
102
RTVSPropertyOp35
 70
     1
102
RTVSPropertyOp36
 70
     1
102
RTVSPropertyOp37
 70
     1
102
RTVSPropertyOp38
 70
     1
102
RTVSPropertyOp39
 70
     1
102
RTVSPropertyOp40
 70
     1
102
RTVSPropertyOp41
 70
     1
102
RTVSPropertyOp42
 70
     1
102
RTVSPropertyOp43
 70
     1
102
RTVSPropertyOp44
 70
     1
102
RTVSPropertyOp45
 70
     1
102
RTVSPropertyOp46
 70
     1
102
RTVSPropertyOp47
 70
     1
102
RTVSPropertyOp48
 70
     1
102
RTVSPropertyOp49
 70
     1
102
RTVSPropertyOp50
 70
     1
102
RTVSPropertyOp51
 70
     0
102
RTVSPropertyOp52
 70
     0
102
RTVSPropertyOp53
 70
     1
102
RTVSPropertyOp54
 70
     1
102
RTVSPropertyOp55
 70
     1
102
RTVSPropertyOp56
 70
     1
102
RTVSPropertyOp57
 70
     1
102
RTVSPropertyOp58
 70
     1
102
RTVSPropertyOp59
 70
     1
102
RTVSPropertyOp60
 70
     1
102
RTVSPropertyOp61
 70
     1
102
RTVSPropertyOp62
 70
     1
  0
XRECORD
  5
10698
102
{ACAD_REACTORS
330
10697
102
}
330
10697
100
AcDbXrecord
280
     1
102
RTVSPost2010Prop28
280
     0
102
RTVSPost2010PropOp28
 70
     1
102
RTVSPost2010Prop29
280
     1
102
RTVSPost2010PropOp29
 70
     1
102
RTVSPost2010Prop30
280
     1
102
RTVSPost2010PropOp30
 70
     1
102
RTVSPost2010Prop31
280
     0
102
RTVSPost2010PropOp31
 70
     1
102
RTVSPost2010Prop32
280
     0
102
RTVSPost2010PropOp32
 70
     1
102
RTVSPost2010Prop33
280
     0
102
RTVSPost2010PropOp33
 70
     1
102
RTVSPost2010Prop34
280
     0
102
RTVSPost2010PropOp34
 70
     1
102
RTVSPost2010Prop35
280
     0
102
RTVSPost2010PropOp35
 70
     1
102
RTVSPost2010Prop36
280
     0
102
RTVSPost2010PropOp36
 70
     1
102
RTVSPost2010Prop37
 90
       50
102
RTVSPost2010PropOp37
 70
     1
102
RTVSPost2010Prop38
140
0.0
102
RTVSPost2010PropOp38
 70
     1
102
RTVSPost2010Prop39
140
1.0
102
RTVSPost2010PropOp39
 70
     1
102
RTVSPost2010Prop40
 90
        0
102
RTVSPost2010PropOp40
 70
     1
102
RTVSPost2010Prop41ColorIndex
 90
       18
102
RTVSPost2010Prop41ColorRGB
 90
-16777216
102
RTVSPost2010PropOp41
 70
     1
102
RTVSPost2010Prop42
 90
       50
102
RTVSPost2010PropOp42
 70
     1
102
RTVSPost2010Prop43
 90
        3
102
RTVSPost2010PropOp43
 70
     1
102
RTVSPost2010Prop44ColorIndex
 90
        5
102
RTVSPost2010Prop44ColorRGB
 90
      255
102
RTVSPost2010PropOp44
 70
     1
102
RTVSPost2010Prop45
280
     0
102
RTVSPost2010PropOp45
 70
     1
102
RTVSPost2010Prop46
 90
       50
102
RTVSPost2010PropOp46
 70
     1
102
RTVSPost2010Prop47
 90
       50
102
RTVSPost2010PropOp47
 70
     1
102
RTVSPost2010Prop48
 90
       50
102
RTVSPost2010PropOp48
 70
     1
102
RTVSPost2010Prop49
280
     0
102
RTVSPost2010PropOp49
 70
     1
102
RTVSPost2010Prop50
 90
       50
102
RTVSPost2010PropOp50
 70
     1
102
RTVSPost2010Prop51ColorIndex
 90
      256
102
RTVSPost2010Prop51ColorRGB
 90
-16777216
102
RTVSPost2010PropOp51
 70
     0
102
RTVSPost2010Prop52
140
1.0
102
RTVSPost2010PropOp52
 70
     0
102
RTVSPost2010Prop53
 90
        2
102
RTVSPost2010PropOp53
 70
     1
102
RTVSPost2010Prop54
  1
strokes_ogs.tif
102
RTVSPost2010PropOp54
 70
     1
102
RTVSPost2010Prop55
280
     0
102
RTVSPost2010PropOp55
 70
     1
102
RTVSPost2010Prop56
140
1.0
102
RTVSPost2010PropOp56
 70
     1
102
RTVSPost2010Prop57
140
1.0
102
RTVSPost2010PropOp57
 70
     1
102
RTVSPropertyOp0
 70
     1
102
RTVSPropertyOp1
 70
     1
102
RTVSPropertyOp2
 70
     1
102
RTVSPropertyOp3
 70
     1
102
RTVSPropertyOp4
 70
     1
102
RTVSPropertyOp5
 70
     1
102
RTVSPropertyOp6
 70
     1
102
RTVSPropertyOp7
 70
     1
102
RTVSPropertyOp8
 70
     1
102
RTVSPropertyOp9
 70
     1
102
RTVSPropertyOp10
 70
     1
102
RTVSPropertyOp11
 70
     1
102
RTVSPropertyOp12
 70
     1
102
RTVSPropertyOp13
 70
     1
102
RTVSPropertyOp14
 70
     1
102
RTVSPropertyOp15
 70
     1
102
RTVSPropertyOp16
 70
     1
102
RTVSPropertyOp17
 70
     1
102
RTVSPropertyOp18
 70
     1
102
RTVSPropertyOp19
 70
     1
102
RTVSPropertyOp20
 70
     1
102
RTVSPropertyOp21
 70
     1
102
RTVSPropertyOp22
 70
     1
102
RTVSPropertyOp23
 70
     1
102
RTVSPropertyOp24
 70
     1
102
RTVSPropertyOp25
 70
     1
102
RTVSPropertyOp26
 70
     1
102
RTVSPropertyOp27
 70
     1
102
RTVSPropertyOp28
 70
     1
102
RTVSPropertyOp29
 70
     1
102
RTVSPropertyOp30
 70
     1
102
RTVSPropertyOp31
 70
     1
102
RTVSPropertyOp32
 70
     1
102
RTVSPropertyOp33
 70
     1
102
RTVSPropertyOp34
 70
     1
102
RTVSPropertyOp35
 70
     1
102
RTVSPropertyOp36
 70
     1
102
RTVSPropertyOp37
 70
     1
102
RTVSPropertyOp38
 70
     1
102
RTVSPropertyOp39
 70
     1
102
RTVSPropertyOp40
 70
     1
102
RTVSPropertyOp41
 70
     1
102
RTVSPropertyOp42
 70
     1
102
RTVSPropertyOp43
 70
     1
102
RTVSPropertyOp44
 70
     1
102
RTVSPropertyOp45
 70
     1
102
RTVSPropertyOp46
 70
     1
102
RTVSPropertyOp47
 70
     1
102
RTVSPropertyOp48
 70
     1
102
RTVSPropertyOp49
 70
     1
102
RTVSPropertyOp50
 70
     1
102
RTVSPropertyOp51
 70
     0
102
RTVSPropertyOp52
 70
     0
102
RTVSPropertyOp53
 70
     1
102
RTVSPropertyOp54
 70
     1
102
RTVSPropertyOp55
 70
     1
102
RTVSPropertyOp56
 70
     1
102
RTVSPropertyOp57
 70
     1
102
RTVSPropertyOp58
 70
     1
102
RTVSPropertyOp59
 70
     1
102
RTVSPropertyOp60
 70
     1
102
RTVSPropertyOp61
 70
     1
102
RTVSPropertyOp62
 70
     1
  0
ENDSEC
  0
EOF
