  0
SECTION
  2
HEADER
  9
$ACADVER
  1
AC1018
  9
$ACADMAINTVER
 70
   104
  9
$DWGCODEPAGE
  3
ANSI_1252
  9
$LASTSAVEDBY
  1
rantoniak
  9
$INSBASE
 10
0.0
 20
0.0
 30
0.0
  9
$EXTMIN
 10
1.341939293638729
 20
1.511394483001661
 30
0.0
  9
$EXTMAX
 10
16.48057350164079
 20
15.37319464903222
 30
0.0
  9
$LIMMIN
 10
0.0
 20
0.0
  9
$LIMMAX
 10
19.83049408084655
 20
16.16036666335439
  9
$ORTHOMODE
 70
     1
  9
$REGENMODE
 70
     1
  9
$FILLMODE
 70
     1
  9
$QTEXTMODE
 70
     0
  9
$MIRRTEXT
 70
     1
  9
$LTSCALE
 40
1.0
  9
$ATTMODE
 70
     1
  9
$TEXTSIZE
 40
0.4
  9
$TRACEWID
 40
0.05
  9
$TEXTSTYLE
  7
STANDARD
  9
$CLAYER
  8
PART
  9
$CELTYPE
  6
ByLayer
  9
$CECOLOR
 62
   256
  9
$CELTSCALE
 40
1.0
  9
$DISPSILH
 70
     0
  9
$DIMSCALE
 40
2.0
  9
$DIMASZ
 40
0.1
  9
$DIMEXO
 40
0.12
  9
$DIMDLI
 40
0.38
  9
$DIMRND
 40
0.0
  9
$DIMDLE
 40
0.0
  9
$DIMEXE
 40
0.1
  9
$DIMTP
 40
0.0
  9
$DIMTM
 40
0.0
  9
$DIMTXT
 40
0.1
  9
$DIMCEN
 40
0.125
  9
$DIMTSZ
 40
0.0
  9
$DIMTOL
 70
     0
  9
$DIMLIM
 70
     0
  9
$DIMTIH
 70
     1
  9
$DIMTOH
 70
     1
  9
$DIMSE1
 70
     0
  9
$DIMSE2
 70
     0
  9
$DIMTAD
 70
     0
  9
$DIMZIN
 70
     0
  9
$DIMBLK
  1

  9
$DIMASO
 70
     1
  9
$DIMSHO
 70
     1
  9
$DIMPOST
  1
"
  9
$DIMAPOST
  1

  9
$DIMALT
 70
     0
  9
$DIMALTD
 70
     2
  9
$DIMALTF
 40
25.4
  9
$DIMLFAC
 40
1.0
  9
$DIMTOFL
 70
     0
  9
$DIMTVP
 40
0.0
  9
$DIMTIX
 70
     0
  9
$DIMSOXD
 70
     0
  9
$DIMSAH
 70
     0
  9
$DIMBLK1
  1

  9
$DIMBLK2
  1

  9
$DIMSTYLE
  2
Standard
  9
$DIMCLRD
 70
   256
  9
$DIMCLRE
 70
   256
  9
$DIMCLRT
 70
   256
  9
$DIMTFAC
 40
1.0
  9
$DIMGAP
 40
0.1
  9
$DIMJUST
 70
     0
  9
$DIMSD1
 70
     0
  9
$DIMSD2
 70
     0
  9
$DIMTOLJ
 70
     1
  9
$DIMTZIN
 70
     0
  9
$DIMALTZ
 70
     0
  9
$DIMALTTZ
 70
     0
  9
$DIMUPT
 70
     0
  9
$DIMDEC
 70
     3
  9
$DIMTDEC
 70
     3
  9
$DIMALTU
 70
     2
  9
$DIMALTTD
 70
     2
  9
$DIMTXSTY
  7
STANDARD
  9
$DIMAUNIT
 70
     0
  9
$DIMADEC
 70
     0
  9
$DIMALTRND
 40
0.0
  9
$DIMAZIN
 70
     1
  9
$DIMDSEP
 70
    46
  9
$DIMATFIT
 70
     3
  9
$DIMFRAC
 70
     1
  9
$DIMLDRBLK
  1

  9
$DIMLUNIT
 70
     5
  9
$DIMLWD
 70
    -1
  9
$DIMLWE
 70
    -1
  9
$DIMTMOVE
 70
     0
  9
$LUNITS
 70
     2
  9
$LUPREC
 70
     3
  9
$SKETCHINC
 40
0.1
  9
$FILLETRAD
 40
0.0
  9
$AUNITS
 70
     0
  9
$AUPREC
 70
     0
  9
$MENU
  1
acad
  9
$ELEVATION
 40
0.0
  9
$PELEVATION
 40
0.0
  9
$THICKNESS
 40
0.0
  9
$LIMCHECK
 70
     0
  9
$CHAMFERA
 40
0.021
  9
$CHAMFERB
 40
0.021
  9
$CHAMFERC
 40
0.0
  9
$CHAMFERD
 40
0.0
  9
$SKPOLY
 70
     0
  9
$TDCREATE
 40
2311942.560442801
  9
$TDUCREATE
 40
2311942.852109468
  9
$TDUPDATE
 40
2458337.560002477
  9
$TDUUPDATE
 40
2458337.851669144
  9
$TDINDWG
 40
1.6575769097
  9
$TDUSRTIMER
 40
1.6575743866
  9
$USRTIMER
 70
     1
  9
$ANGBASE
 50
0.0
  9
$ANGDIR
 70
     0
  9
$PDMODE
 70
     0
  9
$PDSIZE
 40
0.0
  9
$PLINEWID
 40
0.0
  9
$SPLFRAME
 70
     0
  9
$SPLINETYPE
 70
     6
  9
$SPLINESEGS
 70
     8
  9
$HANDSEED
  5
7E629
  9
$SURFTAB1
 70
     6
  9
$SURFTAB2
 70
     6
  9
$SURFTYPE
 70
     6
  9
$SURFU
 70
     6
  9
$SURFV
 70
     6
  9
$UCSBASE
  2

  9
$UCSNAME
  2

  9
$UCSORG
 10
0.0
 20
0.0
 30
0.0
  9
$UCSXDIR
 10
1.0
 20
0.0
 30
0.0
  9
$UCSYDIR
 10
0.0
 20
1.0
 30
0.0
  9
$UCSORTHOREF
  2

  9
$UCSORTHOVIEW
 70
     0
  9
$UCSORGTOP
 10
0.0
 20
0.0
 30
0.0
  9
$UCSORGBOTTOM
 10
0.0
 20
0.0
 30
0.0
  9
$UCSORGLEFT
 10
0.0
 20
0.0
 30
0.0
  9
$UCSORGRIGHT
 10
0.0
 20
0.0
 30
0.0
  9
$UCSORGFRONT
 10
0.0
 20
0.0
 30
0.0
  9
$UCSORGBACK
 10
0.0
 20
0.0
 30
0.0
  9
$PUCSBASE
  2

  9
$PUCSNAME
  2

  9
$PUCSORG
 10
0.0
 20
0.0
 30
0.0
  9
$PUCSXDIR
 10
1.0
 20
0.0
 30
0.0
  9
$PUCSYDIR
 10
0.0
 20
1.0
 30
0.0
  9
$PUCSORTHOREF
  2

  9
$PUCSORTHOVIEW
 70
     0
  9
$PUCSORGTOP
 10
0.0
 20
0.0
 30
0.0
  9
$PUCSORGBOTTOM
 10
0.0
 20
0.0
 30
0.0
  9
$PUCSORGLEFT
 10
0.0
 20
0.0
 30
0.0
  9
$PUCSORGRIGHT
 10
0.0
 20
0.0
 30
0.0
  9
$PUCSORGFRONT
 10
0.0
 20
0.0
 30
0.0
  9
$PUCSORGBACK
 10
0.0
 20
0.0
 30
0.0
  9
$USERI1
 70
     0
  9
$USERI2
 70
     0
  9
$USERI3
 70
     0
  9
$USERI4
 70
     0
  9
$USERI5
 70
     0
  9
$USERR1
 40
0.0
  9
$USERR2
 40
0.0
  9
$USERR3
 40
0.0
  9
$USERR4
 40
0.0
  9
$USERR5
 40
0.0
  9
$WORLDVIEW
 70
     1
  9
$SHADEDGE
 70
     3
  9
$SHADEDIF
 70
    70
  9
$TILEMODE
 70
     0
  9
$MAXACTVP
 70
    16
  9
$PINSBASE
 10
0.0
 20
0.0
 30
0.0
  9
$PLIMCHECK
 70
     0
  9
$PEXTMIN
 10
0.2633030393348008
 20
0.7995540538336066
 30
-0.0015258207003583
  9
$PEXTMAX
 10
10.23706395178807
 20
7.15972042116053
 30
0.0000000349246037
  9
$PLIMMIN
 10
0.1887025275534379
 20
0.7048111453807693
  9
$PLIMMAX
 10
10.31089215465157
 20
7.254463299114172
  9
$UNITMODE
 70
     0
  9
$VISRETAIN
 70
     0
  9
$PLINEGEN
 70
     0
  9
$PSLTSCALE
 70
     0
  9
$TREEDEPTH
 70
  3020
  9
$CMLSTYLE
  2
Standard
  9
$CMLJUST
 70
     0
  9
$CMLSCALE
 40
1.0
  9
$PROXYGRAPHICS
 70
     1
  9
$MEASUREMENT
 70
     0
  9
$CELWEIGHT
370
    -1
  9
$ENDCAPS
280
     0
  9
$JOINSTYLE
280
     0
  9
$LWDISPLAY
290
     1
  9
$INSUNITS
 70
     0
  9
$HYPERLINKBASE
  1

  9
$STYLESHEET
  1

  9
$XEDIT
290
     1
  9
$CEPSNTYPE
380
     0
  9
$PSTYLEMODE
290
     1
  9
$FINGERPRINTGUID
  2
{320D6187-D83E-4B0B-934E-58E275B97F63}
  9
$VERSIONGUID
  2
{679D881C-CD98-4E4F-87D6-A47B826C14D9}
  9
$EXTNAMES
290
     1
  9
$PSVPSCALE
 40
0.0
  9
$OLESTARTUP
290
     0
  9
$SORTENTS
280
    96
  9
$INDEXCTL
280
     0
  9
$HIDETEXT
280
     0
  9
$XCLIPFRAME
290
     0
  9
$HALOGAP
280
     0
  9
$OBSCOLOR
 70
   257
  9
$OBSLTYPE
280
     0
  9
$INTERSECTIONDISPLAY
280
     0
  9
$INTERSECTIONCOLOR
 70
   257
  9
$DIMASSOC
280
     1
  9
$PROJECTNAME
  1

  0
ENDSEC
  0
SECTION
  2
CLASSES
  0
CLASS
  1
ACDBDICTIONARYWDFLT
  2
AcDbDictionaryWithDefault
  3
ObjectDBX Classes
 90
        0
 91
        1
280
     0
281
     0
  0
CLASS
  1
DICTIONARYVAR
  2
AcDbDictionaryVar
  3
ObjectDBX Classes
 90
        0
 91
       16
280
     0
281
     0
  0
CLASS
  1
MATERIAL
  2
AcDbMaterial
  3
ObjectDBX Classes
 90
     1153
 91
        3
280
     0
281
     0
  0
CLASS
  1
VISUALSTYLE
  2
AcDbVisualStyle
  3
ObjectDBX Classes
 90
     4095
 91
       26
280
     0
281
     0
  0
CLASS
  1
TABLESTYLE
  2
AcDbTableStyle
  3
ObjectDBX Classes
 90
     4095
 91
        1
280
     0
281
     0
  0
CLASS
  1
SCALE
  2
AcDbScale
  3
ObjectDBX Classes
 90
     1153
 91
       33
280
     0
281
     0
  0
CLASS
  1
MLEADERSTYLE
  2
AcDbMLeaderStyle
  3
ACDB_MLEADERSTYLE_CLASS
 90
     4095
 91
        1
280
     0
281
     0
  0
CLASS
  1
CELLSTYLEMAP
  2
AcDbCellStyleMap
  3
ObjectDBX Classes
 90
     1152
 91
        4
280
     0
281
     0
  0
CLASS
  1
SORTENTSTABLE
  2
AcDbSortentsTable
  3
ObjectDBX Classes
 90
        0
 91
        2
280
     0
281
     0
  0
CLASS
  1
ACDBSECTIONVIEWSTYLE
  2
AcDbSectionViewStyle
  3
ObjectDBX Classes
 90
     1025
 91
        1
280
     0
281
     0
  0
CLASS
  1
ACDBDETAILVIEWSTYLE
  2
AcDbDetailViewStyle
  3
ObjectDBX Classes
 90
     1025
 91
        1
280
     0
281
     0
  0
CLASS
  1
ACAD_EVALUATION_GRAPH
  2
AcDbEvalGraph
  3
ObjectDBX Classes
 90
     1153
 91
        0
280
     0
281
     0
  0
CLASS
  1
ACAECUSTOBJ
  2
AcAeEditorObj
  3
AcAeEditorObj
 90
     1024
 91
        0
280
     0
281
     0
  0
CLASS
  1
ACDB_DYNAMICBLOCKPURGEPREVENTER_VERSION
  2
AcDbDynamicBlockPurgePreventer
  3
ObjectDBX Classes
 90
     1153
 91
        0
280
     0
281
     0
  0
ENDSEC
  0
SECTION
  2
TABLES
  0
TABLE
  2
VPORT
  5
8
330
0
100
AcDbSymbolTable
 70
     1
  0
VPORT
  5
77E0
330
8
100
AcDbSymbolTableRecord
100
AcDbViewportTableRecord
  2
*Active
 70
     0
 10
0.0
 20
0.0
 11
1.0
 21
1.0
 12
10.69571208217795
 22
8.367274968060907
 13
0.0
 23
0.0
 14
0.1
 24
0.1
 15
1.0
 25
1.0
 16
0.0
 26
0.0
 36
1.0
 17
0.0
 27
0.0
 37
0.0
 40
16.4972887529832
 41
2.292712066905615
 42
50.0
 43
0.0
 44
0.0
 50
0.0
 51
0.0
 71
     0
 72
   100
 73
     1
 74
     1
 75
     0
 76
     0
 77
     0
 78
     0
281
     0
 65
     1
110
0.0
120
0.0
130
0.0
111
1.0
121
0.0
131
0.0
112
0.0
122
1.0
132
0.0
 79
     0
146
0.0
1001
ACAD_NAV_VCDISPLAY
1070
     3
  0
ENDTAB
  0
TABLE
  2
LTYPE
  5
5
330
0
100
AcDbSymbolTable
 70
     3
  0
LTYPE
  5
13
330
5
100
AcDbSymbolTableRecord
100
AcDbLinetypeTableRecord
  2
ByBlock
 70
     0
  3

 72
    65
 73
     0
 40
0.0
  0
LTYPE
  5
14
330
5
100
AcDbSymbolTableRecord
100
AcDbLinetypeTableRecord
  2
ByLayer
 70
     0
  3

 72
    65
 73
     0
 40
0.0
  0
LTYPE
  5
15
330
5
100
AcDbSymbolTableRecord
100
AcDbLinetypeTableRecord
  2
CONTINUOUS
 70
     0
  3
Solid line
 72
    65
 73
     0
 40
0.0
  0
LTYPE
  5
BB1B
330
5
100
AcDbSymbolTableRecord
100
AcDbLinetypeTableRecord
  2
PHANTOM2
 70
     0
  3
___ _ _ ___ _ _ ___ _ _ ___ _ _
 72
    65
 73
     6
 40
1.25
 49
0.625
 74
     0
 49
-0.125
 74
     0
 49
0.125
 74
     0
 49
-0.125
 74
     0
 49
0.125
 74
     0
 49
-0.125
 74
     0
  0
ENDTAB
  0
TABLE
  2
LAYER
  5
2
102
{ACAD_XDICTIONARY
360
345A
102
}
330
0
100
AcDbSymbolTable
 70
     7
  0
LAYER
  5
10
102
{ACAD_XDICTIONARY
360
7838
102
}
330
2
100
AcDbSymbolTableRecord
100
AcDbLayerTableRecord
  2
0
 70
     0
 62
     7
  6
CONTINUOUS
370
    -3
390
F
  0
LAYER
  5
22
102
{ACAD_XDICTIONARY
360
783A
102
}
330
2
100
AcDbSymbolTableRecord
100
AcDbLayerTableRecord
  2
DIM
 70
     0
 62
     7
  6
CONTINUOUS
370
    -3
390
F
  0
LAYER
  5
21E
330
2
100
AcDbSymbolTableRecord
100
AcDbLayerTableRecord
  2
Defpoints
 70
     0
 62
     7
  6
CONTINUOUS
290
     0
370
    -3
390
F
  0
LAYER
  5
246
102
{ACAD_XDICTIONARY
360
783C
102
}
330
2
100
AcDbSymbolTableRecord
100
AcDbLayerTableRecord
  2
TITLE
 70
     0
 62
     7
  6
CONTINUOUS
370
    -3
390
F
  0
LAYER
  5
2135
102
{ACAD_XDICTIONARY
360
783E
102
}
330
2
100
AcDbSymbolTableRecord
100
AcDbLayerTableRecord
  2
PART
 70
     0
 62
     7
  6
CONTINUOUS
370
    -3
390
F
  0
LAYER
  5
F248
330
2
100
AcDbSymbolTableRecord
100
AcDbLayerTableRecord
  2
TEXT
 70
     0
 62
     7
  6
CONTINUOUS
370
    -3
390
F
1001
AcAecLayerStandard
1000

1000

  0
LAYER
  5
F38A
330
2
100
AcDbSymbolTableRecord
100
AcDbLayerTableRecord
  2
PRECISION_PART
 70
     0
 62
     7
  6
CONTINUOUS
370
    -3
390
F
1001
AcAecLayerStandard
1000

1000

1001
AcCmTransparency
1071
        0
  0
ENDTAB
  0
TABLE
  2
STYLE
  5
3
330
0
100
AcDbSymbolTable
 70
     5
  0
STYLE
  5
11
330
3
100
AcDbSymbolTableRecord
100
AcDbTextStyleTableRecord
  2
STANDARD
 70
     0
 40
0.0
 41
1.0
 50
0.0
 71
     0
 42
0.4
  3
simplex.shx
  4

  0
STYLE
  5
249
330
3
100
AcDbSymbolTableRecord
100
AcDbTextStyleTableRecord
  2
Title
 70
     0
 40
0.0
 41
1.0
 50
0.0
 71
     0
 42
0.1
  3
arial.ttf
  4

1001
ACAD
1000
Arial
1071
       34
  0
STYLE
  5
24A
330
3
100
AcDbSymbolTableRecord
100
AcDbTextStyleTableRecord
  2
Title Bold
 70
     0
 40
0.0
 41
1.0
 50
0.0
 71
     0
 42
0.09
  3
arialbd.ttf
  4

1001
ACAD
1000
Arial
1071
 33554466
  0
STYLE
  5
24B
330
3
100
AcDbSymbolTableRecord
100
AcDbTextStyleTableRecord
  2
Title light
 70
     0
 40
0.0
 41
1.0
 50
0.0
 71
     0
 42
0.2
  3
simplex.shx
  4

  0
ENDTAB
  0
TABLE
  2
VIEW
  5
6
330
0
100
AcDbSymbolTable
 70
     4
  0
ENDTAB
  0
TABLE
  2
UCS
  5
7
330
0
100
AcDbSymbolTable
 70
     0
  0
ENDTAB
  0
TABLE
  2
APPID
  5
9
330
0
100
AcDbSymbolTable
 70
    22
  0
APPID
  5
12
330
9
100
AcDbSymbolTableRecord
100
AcDbRegAppTableRecord
  2
ACAD
 70
     0
  0
APPID
  5
7837
330
9
100
AcDbSymbolTableRecord
100
AcDbRegAppTableRecord
  2
ACAD_MLEADERVER
 70
     0
  0
APPID
  5
7DB7
330
9
100
AcDbSymbolTableRecord
100
AcDbRegAppTableRecord
  2
ACAD_DSTYLE_DIMJAG
 70
     0
  0
APPID
  5
7DB8
330
9
100
AcDbSymbolTableRecord
100
AcDbRegAppTableRecord
  2
ACAD_DSTYLE_DIMTALN
 70
     0
  0
APPID
  5
7DE4
330
9
100
AcDbSymbolTableRecord
100
AcDbRegAppTableRecord
  2
AcAecLayerStandard
 70
     0
  0
APPID
  5
7F3C
330
9
100
AcDbSymbolTableRecord
100
AcDbRegAppTableRecord
  2
ACAD_EXEMPT_FROM_CAD_STANDARDS
 70
     0
  0
APPID
  5
8C55
330
9
100
AcDbSymbolTableRecord
100
AcDbRegAppTableRecord
  2
ACAD_PSEXT
 70
     0
  0
APPID
  5
BB2B
330
9
100
AcDbSymbolTableRecord
100
AcDbRegAppTableRecord
  2
ACAD_NAV_VCDISPLAY
 70
     0
  0
APPID
  5
C0AB
330
9
100
AcDbSymbolTableRecord
100
AcDbRegAppTableRecord
  2
ACAUTHENVIRON
 70
     0
  0
APPID
  5
C0AF
330
9
100
AcDbSymbolTableRecord
100
AcDbRegAppTableRecord
  2
AcDbDynamicBlockTrueName
 70
     0
  0
APPID
  5
C0B0
330
9
100
AcDbSymbolTableRecord
100
AcDbRegAppTableRecord
  2
AcDbDynamicBlockGUID
 70
     0
  0
APPID
  5
C146
330
9
100
AcDbSymbolTableRecord
100
AcDbRegAppTableRecord
  2
AcadAnnoAV
 70
     0
  0
APPID
  5
C5B3
330
9
100
AcDbSymbolTableRecord
100
AcDbRegAppTableRecord
  2
AcDbBlockRepETag
 70
     0
  0
APPID
  5
C5BD
330
9
100
AcDbSymbolTableRecord
100
AcDbRegAppTableRecord
  2
ACAD_DSTYLE_DIMBREAK
 70
     0
  0
APPID
  5
F38B
330
9
100
AcDbSymbolTableRecord
100
AcDbRegAppTableRecord
  2
AcCmTransparency
 70
     0
  0
APPID
  5
F396
330
9
100
AcDbSymbolTableRecord
100
AcDbRegAppTableRecord
  2
AcLayerTools
 70
     0
  0
APPID
  5
6C3A7
330
9
100
AcDbSymbolTableRecord
100
AcDbRegAppTableRecord
  2
GradientColor1ACI
 70
     0
  0
APPID
  5
6C3A8
330
9
100
AcDbSymbolTableRecord
100
AcDbRegAppTableRecord
  2
GradientColor2ACI
 70
     0
  0
APPID
  5
70493
330
9
100
AcDbSymbolTableRecord
100
AcDbRegAppTableRecord
  2
AcadAnnoMonitorAlertIconDisabled
 70
     0
  0
APPID
  5
7E5EF
330
9
100
AcDbSymbolTableRecord
100
AcDbRegAppTableRecord
  2
ACAD_DSTYLE_DIM_LINETYPE
 70
     0
  0
APPID
  5
7E5F0
330
9
100
AcDbSymbolTableRecord
100
AcDbRegAppTableRecord
  2
ACAD_DSTYLE_DIM_EXT1_LINETYPE
 70
     0
  0
APPID
  5
7E5F1
330
9
100
AcDbSymbolTableRecord
100
AcDbRegAppTableRecord
  2
ACAD_DSTYLE_DIM_EXT2_LINETYPE
 70
     0
  0
ENDTAB
  0
TABLE
  2
DIMSTYLE
  5
A
330
0
100
AcDbSymbolTable
 70
     2
100
AcDbDimStyleTable
 71
     1
340
24C
  0
DIMSTYLE
105
24C
102
{ACAD_REACTORS
330
7E3B3
330
7E3C1
330
7E3CF
102
}
330
A
100
AcDbSymbolTableRecord
100
AcDbDimStyleTableRecord
  2
Standard
 70
     0
  3
"
 40
2.0
 41
0.1
 42
0.12
 44
0.1
 79
     1
140
0.1
141
0.125
147
0.1
176
   256
177
   256
178
   256
271
     3
272
     3
276
     1
277
     5
340
11
371
    -1
372
    -1
1001
ACAD_DSTYLE_DIMJAG
1070
   388
1040
1.5
1001
ACAD_DSTYLE_DIMBREAK
1070
   391
1040
0.1
1001
ACAD_DSTYLE_DIMTALN
1070
   392
1070
     0
1001
ACAD_DSTYLE_DIM_LINETYPE
1070
   380
1005
14
1001
ACAD_DSTYLE_DIM_EXT1_LINETYPE
1070
   381
1005
14
1001
ACAD_DSTYLE_DIM_EXT2_LINETYPE
1070
   382
1005
14
  0
ENDTAB
  0
TABLE
  2
BLOCK_RECORD
  5
1
330
0
100
AcDbSymbolTable
 70
     7
  0
BLOCK_RECORD
  5
1E
102
{ACAD_XDICTIONARY
360
7F75
102
}
330
1
100
AcDbSymbolTableRecord
100
AcDbBlockTableRecord
  2
*Model_Space
340
21
  0
BLOCK_RECORD
  5
1A
330
1
100
AcDbSymbolTableRecord
100
AcDbBlockTableRecord
  2
*Paper_Space
340
1D
  0
BLOCK_RECORD
  5
785B
102
{ACAD_XDICTIONARY
360
C17D
102
}
330
1
100
AcDbSymbolTableRecord
100
AcDbBlockTableRecord
  2
Tabloid Submittal (11 x 17)
340
0
102
{BLKREFS
331
C0C7
102
}
1001
AcDbDynamicBlockGUID
1000
{688B0879-2949-41E6-9BA8-2485A9AF8A04}
1001
AcDbBlockRepETag
1070
     1
1071
       41
1001
ACAD
1000
DesignCenter Data
1002
{
1070
     1
1070
     1
1002
}
  0
BLOCK_RECORD
  5
C4DE
330
1
100
AcDbSymbolTableRecord
100
AcDbBlockTableRecord
  2
bega
340
0
310
2800000020000000200000000100080000000000000400000000000000000000000000000000000000000000000080000080000000808000800000008000800080800000C0C0C000C0DCC000F0CAA6000020400000206000002080000020A0000020C0000020E00000400000004020000040400000406000004080000040A0
310
000040C0000040E00000600000006020000060400000606000006080000060A0000060C0000060E00000800000008020000080400000806000008080000080A0000080C0000080E00000A0000000A0200000A0400000A0600000A0800000A0A00000A0C00000A0E00000C0000000C0200000C0400000C0600000C0800000C0
310
A00000C0C00000C0E00000E0000000E0200000E0400000E0600000E0800000E0A00000E0C00000E0E00040000000400020004000400040006000400080004000A0004000C0004000E00040200000402020004020400040206000402080004020A0004020C0004020E000404000004040200040404000404060004040800040
310
40A0004040C0004040E00040600000406020004060400040606000406080004060A0004060C0004060E00040800000408020004080400040806000408080004080A0004080C0004080E00040A0000040A0200040A0400040A0600040A0800040A0A00040A0C00040A0E00040C0000040C0200040C0400040C0600040C08000
310
40C0A00040C0C00040C0E00040E0000040E0200040E0400040E0600040E0800040E0A00040E0C00040E0E00080000000800020008000400080006000800080008000A0008000C0008000E00080200000802020008020400080206000802080008020A0008020C0008020E00080400000804020008040400080406000804080
310
008040A0008040C0008040E00080600000806020008060400080606000806080008060A0008060C0008060E00080800000808020008080400080806000808080008080A0008080C0008080E00080A0000080A0200080A0400080A0600080A0800080A0A00080A0C00080A0E00080C0000080C0200080C0400080C0600080C0
310
800080C0A00080C0C00080C0E00080E0000080E0200080E0400080E0600080E0800080E0A00080E0C00080E0E000C0000000C0002000C0004000C0006000C0008000C000A000C000C000C000E000C0200000C0202000C0204000C0206000C0208000C020A000C020C000C020E000C0400000C0402000C0404000C0406000C0
310
408000C040A000C040C000C040E000C0600000C0602000C0604000C0606000C0608000C060A000C060C000C060E000C0800000C0802000C0804000C0806000C0808000C080A000C080C000C080E000C0A00000C0A02000C0A04000C0A06000C0A08000C0A0A000C0A0C000C0A0E000C0C00000C0C02000C0C04000C0C06000
310
C0C08000C0C0A000F0FBFF00A4A0A000808080000000FF0000FF000000FFFF00FF000000FF00FF00FFFF0000FFFFFF0000000000000000000000000000000000000000000000000000000000000000000000000000000000000000000000000000000000000000000000000000000000000000000000000000000000000000
310
00000000000000000000000000000000000000000000000000000000000000000000000000000000000000000000000000000000000000000000000000000000000000000000000000000000000000000000000000000000000000000000000000000000000000000000000000000000000000000000000000000000000000
310
00000000000000000000000000000000000000000000000000000000000000000000000000000000000000000000000000000000000000000000000000000000000000000000000000000000000000000000000000000000000000000000000000000000000000000000000000000000000000000000000000000000000000
310
000000000000000000000000000000000000000000000000000000000000000000000000FFFFFF00000000000000000000000000FFFFFFFFFFFFFFFFFFFFFFFFFFFF00FFFFFFFFFFFFFFFFFF000000FFFFFF0000FFFFFFFFFFFFFFFFFFFFFFFFFFFFFFFFFFFFFFFFFFFFFFFFFFFFFFFFFFFF0000FFFFFF0000FFFFFFFFFF00
310
000000FFFFFF0000FFFFFFFFFFFFFFFFFFFF000000FFFFFFFFFFFFFFFFFFFFFFFFFFFFFFFF00FFFFFFFFFFFFFFFFFFFFFFFF000000FFFFFFFFFFFFFFFFFFFFFFFFFFFFFFFF00FFFFFFFFFF00FFFF00FFFF00000000FFFFFF00FFFFFFFFFFFF00000000FFFFFF0000FFFFFF00FFFFFFFFFF00000000FFFFFFFFFFFFFFFFFFFF
310
FFFFFFFFFFFFFFFFFFFFFF000000FFFFFF0000000000FFFFFFFFFFFFFFFFFFFFFFFFFFFF00FFFFFFFFFFFF000000FFFFFF000000000000000000000000000000000000000000FFFFFF000000000000000000000000000000000000000000000000000000000000000000000000000000000000000000000000000000000000
310
00000000000000000000000000000000000000000000000000000000000000000000000000000000000000000000000000000000000000000000000000000000000000000000000000000000000000000000000000000000000000000000000000000000000000000000000000000000000000000000000000000000000000
310
00000000000000000000000000000000000000000000000000000000000000000000000000000000000000000000000000000000000000000000000000000000000000000000000000000000000000000000000000000000000000000000000000000000000000000000000000000000000000000000000000000000000000
310
0000000000000000000000000000000000000000000000000000000000000000000000000000000000000000000000000000000000000000
102
{BLKREFS
331
C53F
102
}
1001
ACAD
1000
DesignCenter Data
1002
{
1070
     1
1070
     1
1002
}
  0
BLOCK_RECORD
  5
C53E
102
{ACAD_XDICTIONARY
360
C540
102
}
330
1
100
AcDbSymbolTableRecord
100
AcDbBlockTableRecord
  2
bega logo
340
0
102
{BLKREFS
331
C545
102
}
1001
ACAD
1000
DesignCenter Data
1002
{
1070
     1
1070
     1
1002
}
  0
BLOCK_RECORD
  5
7E3B4
330
1
100
AcDbSymbolTableRecord
100
AcDbBlockTableRecord
  2
*D3
340
0
  0
BLOCK_RECORD
  5
7E3C2
330
1
100
AcDbSymbolTableRecord
100
AcDbBlockTableRecord
  2
*D4
340
0
  0
BLOCK_RECORD
  5
7E3D0
330
1
100
AcDbSymbolTableRecord
100
AcDbBlockTableRecord
  2
*D5
340
0
  0
ENDTAB
  0
ENDSEC
  0
SECTION
  2
BLOCKS
  0
BLOCK
  5
1F
330
1E
100
AcDbEntity
  8
0
100
AcDbBlockBegin
  2
*Model_Space
 70
     0
 10
0.0
 20
0.0
 30
0.0
  3
*Model_Space
  1

  0
ENDBLK
  5
20
330
1E
100
AcDbEntity
  8
0
100
AcDbBlockEnd
  0
BLOCK
  5
1B
330
1A
100
AcDbEntity
 67
     1
  8
0
100
AcDbBlockBegin
  2
*Paper_Space
 70
     0
 10
0.0
 20
0.0
 30
0.0
  3
*Paper_Space
  1

  0
ENDBLK
  5
1C
330
1A
100
AcDbEntity
 67
     1
  8
0
100
AcDbBlockEnd
  0
BLOCK
  5
785C
330
785B
100
AcDbEntity
  8
0
100
AcDbBlockBegin
  2
Tabloid Submittal (11 x 17)
 70
     0
 10
0.0
 20
0.0
 30
0.0
  3
Tabloid Submittal (11 x 17)
  1

  0
LINE
  5
C14A
330
785B
100
AcDbEntity
  8
TITLE
  6
Continuous
100
AcDbLine
 10
16.76999999999998
 20
0.2499999999999996
 30
0.0
 11
0.2099999999999991
 21
0.2499999999999996
 31
0.0
1001
AcDbBlockRepETag
1070
     1
1071
        0
1005
C14A
  0
LINE
  5
C14B
330
785B
100
AcDbEntity
  8
TITLE
  6
Continuous
100
AcDbLine
 10
0.2099999999999991
 20
0.2499999999999996
 30
0.0
 11
0.2100000000000002
 21
10.81
 31
0.0
1001
AcDbBlockRepETag
1070
     1
1071
        1
1005
C14B
  0
LINE
  5
C14C
330
785B
100
AcDbEntity
  8
TITLE
  6
Continuous
100
AcDbLine
 10
16.00597655206839
 20
5.184545991836441
 30
0.0
 11
16.0059765520684
 21
9.205
 31
0.0
1001
AcDbBlockRepETag
1070
     1
1071
        2
1005
C14C
  0
LINE
  5
C14D
330
785B
100
AcDbEntity
  8
TITLE
  6
Continuous
100
AcDbLine
 10
15.76980151342427
 20
5.187499999999998
 30
0.0
 11
15.76980151342428
 21
9.205
 31
0.0
1001
AcDbBlockRepETag
1070
     1
1071
        3
1005
C14D
  0
LINE
  5
C14E
330
785B
100
AcDbEntity
  8
TITLE
  6
Continuous
100
AcDbLine
 10
15.51980151342426
 20
5.0625
 30
0.0
 11
15.51980151342426
 21
9.205000000000003
 31
0.0
1001
AcDbBlockRepETag
1070
     1
1071
        4
1005
C14E
  0
LINE
  5
C14F
330
785B
100
AcDbEntity
  8
TITLE
  6
Continuous
100
AcDbLine
 10
15.255
 20
10.81
 30
0.0
 11
15.255
 21
0.25
 31
0.0
1001
AcDbBlockRepETag
1070
     1
1071
        5
1005
C14F
  0
LINE
  5
C150
330
785B
100
AcDbEntity
  8
TITLE
  6
Continuous
100
AcDbLine
 10
15.71749999999999
 20
1.626531582664471
 30
0.0
 11
15.71749999999999
 21
4.063583231516509
 31
0.0
1001
AcDbBlockRepETag
1070
     1
1071
        6
1005
C150
  0
TEXT
  5
C151
330
785B
100
AcDbEntity
  8
TITLE
  6
Continuous
100
AcDbText
 10
15.4875170007043
 20
0.8987379925370396
 30
0.0
 40
0.15
  1
SUBMITTAL APPROVAL
 50
90.0
 41
1.199999999999999
  7
Title Bold
100
AcDbText
1001
AcDbBlockRepETag
1070
     1
1071
        7
1005
C151
  0
TEXT
  5
C152
330
785B
100
AcDbEntity
  8
TITLE
  6
Continuous
100
AcDbText
 10
16.333
 20
1.6875
 30
0.0
 40
0.09375
  1
DESCRIPTION
 50
90.0
  7
Title
100
AcDbText
1001
AcDbBlockRepETag
1070
     1
1071
        8
1005
C152
  0
LINE
  5
C153
330
785B
100
AcDbEntity
  8
TITLE
  6
Continuous
100
AcDbLine
 10
16.1925
 20
0.25
 30
0.0
 11
16.1925
 21
4.375
 31
0.0
1001
AcDbBlockRepETag
1070
     1
1071
        9
1005
C153
  0
LINE
  5
C154
330
785B
100
AcDbEntity
  8
TITLE
  6
Continuous
100
AcDbLine
 10
16.005
 20
0.25
 30
0.0
 11
16.00499999999999
 21
4.375
 31
0.0
1001
AcDbBlockRepETag
1070
     1
1071
       10
1005
C154
  0
TEXT
  5
C155
330
785B
100
AcDbEntity
  8
TITLE
  6
Continuous
100
AcDbText
 10
15.9175
 20
0.5033168384209468
 30
0.0
 40
0.09
  1
SIGNED:
 50
90.0
  7
Title
100
AcDbText
1001
AcDbBlockRepETag
1070
     1
1071
       11
1005
C155
  0
TEXT
  5
C156
330
785B
100
AcDbEntity
  8
TITLE
  6
Continuous
100
AcDbText
 10
15.6790112921469
 20
0.6299407769738857
 30
0.0
 40
0.09
  1
APPROVED BY:
 50
90.0
  7
Title
100
AcDbText
1001
AcDbBlockRepETag
1070
     1
1071
       12
1005
C156
  0
TEXT
  5
C157
330
785B
100
AcDbEntity
  8
TITLE
  6
Continuous
100
AcDbText
 10
16.333
 20
0.3125
 30
0.0
 40
0.09375
  1
REV.
 50
90.0
  7
Title
100
AcDbText
1001
AcDbBlockRepETag
1070
     1
1071
       13
1005
C157
  0
TEXT
  5
C158
330
785B
100
AcDbEntity
  8
TITLE
  6
Continuous
100
AcDbText
 10
16.333
 20
0.8125
 30
0.0
 40
0.09375
  1
DATE
 50
90.0
  7
Title
100
AcDbText
1001
AcDbBlockRepETag
1070
     1
1071
       14
1005
C158
  0
LINE
  5
C159
330
785B
100
AcDbEntity
  8
TITLE
  6
Continuous
100
AcDbLine
 10
16.37999999999999
 20
0.75
 30
0.0
 11
16.005
 21
0.75
 31
0.0
1001
AcDbBlockRepETag
1070
     1
1071
       15
1005
C159
  0
LINE
  5
C15A
330
785B
100
AcDbEntity
  8
TITLE
  6
Continuous
100
AcDbLine
 10
16.37999999999999
 20
1.625
 30
0.0
 11
16.005
 21
1.625
 31
0.0
1001
AcDbBlockRepETag
1070
     1
1071
       16
1005
C15A
  0
TEXT
  5
C15B
330
785B
100
AcDbEntity
  8
TITLE
  6
Continuous
100
AcDbText
 10
15.98625
 20
4.4375
 30
0.0
 40
0.09375
  1
LOCATION:
 50
90.0
  7
Title
100
AcDbText
1001
AcDbBlockRepETag
1070
     1
1071
       17
1005
C15B
  0
LINE
  5
C15C
330
785B
100
AcDbEntity
  8
TITLE
  6
Continuous
100
AcDbLine
 10
16.37999999999999
 20
4.375
 30
0.0
 11
15.255
 21
4.375
 31
0.0
1001
AcDbBlockRepETag
1070
     1
1071
       18
1005
C15C
  0
TEXT
  5
C15D
330
785B
100
AcDbEntity
  8
TITLE
  6
Continuous
100
AcDbText
 10
15.9175
 20
2.966202077614363
 30
0.0
 40
0.09
  1
DATE:
 50
90.0
  7
Title
100
AcDbText
1001
AcDbBlockRepETag
1070
     1
1071
       19
1005
C15D
  0
TEXT
  5
C15E
330
785B
100
AcDbEntity
  8
TITLE
  6
Continuous
100
AcDbText
 10
15.7425
 20
4.4375
 30
0.0
 40
0.09375
  1
PROJECT: 
 50
90.0
  7
Title
100
AcDbText
1001
AcDbBlockRepETag
1070
     1
1071
       20
1005
C15E
  0
TEXT
  5
C15F
330
785B
100
AcDbEntity
  8
TITLE
  6
Continuous
100
AcDbText
 10
15.49875
 20
4.4375
 30
0.0
 40
0.09375
  1
CAT NO.:
 50
90.0
  7
Title
100
AcDbText
1001
AcDbBlockRepETag
1070
     1
1071
       21
1005
C15F
  0
TEXT
  5
C160
330
785B
100
AcDbEntity
  8
TITLE
  6
Continuous
100
AcDbText
 10
16.22999899999999
 20
4.4375
 30
0.0
 40
0.09375
  1
DRAWN:
 50
90.0
  7
Title
100
AcDbText
1001
AcDbBlockRepETag
1070
     1
1071
       22
1005
C160
  0
POLYLINE
  5
C169
330
785B
100
AcDbEntity
  8
TITLE
  6
Continuous
100
AcDb3dPolyline
 66
     1
 10
0.0
 20
0.0
 30
0.0
 70
     8
1001
AcDbBlockRepETag
1070
     1
1071
       23
1005
C169
  0
VERTEX
  5
C16A
330
C169
100
AcDbEntity
  8
TITLE
  6
Continuous
100
AcDbVertex
100
AcDb3dPolylineVertex
 10
15.85499999999998
 20
10.80499999999999
 30
0.0
 70
    32
  0
VERTEX
  5
C16B
330
C169
100
AcDbEntity
  8
TITLE
  6
Continuous
100
AcDbVertex
100
AcDb3dPolylineVertex
 10
15.85499999999998
 20
9.205
 30
0.0
 70
    32
  0
SEQEND
  5
C16C
330
C169
100
AcDbEntity
  8
TITLE
  6
Continuous
  0
LINE
  5
C16D
330
785B
100
AcDbEntity
  8
TITLE
  6
Continuous
100
AcDbLine
 10
15.25499999999999
 20
9.205
 30
0.0
 11
16.36964585231884
 21
9.205
 31
0.0
1001
AcDbBlockRepETag
1070
     1
1071
       24
1005
C16D
  0
TEXT
  5
C16E
330
785B
100
AcDbEntity
  8
TITLE
  6
Continuous
100
AcDbText
 10
16.22999899999999
 20
6.041926288453423
 30
0.0
 40
0.09375
  1
DATE:
 50
90.0
  7
Title
100
AcDbText
1001
AcDbBlockRepETag
1070
     1
1071
       25
1005
C16E
  0
LINE
  5
C16F
330
785B
100
AcDbEntity
  8
TITLE
  6
Continuous
100
AcDbLine
 10
16.292499
 20
5.949813424672798
 30
0.0
 11
16.292499
 21
4.98686106646417
 31
0.0
1001
AcDbBlockRepETag
1070
     1
1071
       26
1005
C16F
  0
LINE
  5
C170
330
785B
100
AcDbEntity
  8
TITLE
  6
Continuous
100
AcDbLine
 10
16.29216747152271
 20
6.442672359146097
 30
0.0
 11
16.29216747152272
 21
7.284820569518225
 31
0.0
1001
AcDbBlockRepETag
1070
     1
1071
       27
1005
C170
  0
TEXT
  5
C171
330
785B
100
AcDbEntity
  8
TITLE
  6
Continuous
100
AcDbText
 10
16.0001090549661
 20
9.496129554854851
 30
0.0
 40
0.1
  1
1000 Bega Way
 50
90.0
  7
Title
100
AcDbText
1001
AcDbBlockRepETag
1070
     1
1071
       28
1005
C171
  0
TEXT
  5
C172
330
785B
100
AcDbEntity
  8
TITLE
  6
Continuous
100
AcDbText
 10
16.16075025551181
 20
9.336231968673896
 30
0.0
 40
0.1
  1
Carpinteria, Ca. 93013
 50
90.0
  7
Title
100
AcDbText
1001
AcDbBlockRepETag
1070
     1
1071
       29
1005
C172
  0
TEXT
  5
C173
330
785B
100
AcDbEntity
  8
TITLE
  6
Continuous
100
AcDbText
 10
16.32139145605751
 20
9.516116743162447
 30
0.0
 40
0.1
  1
(805) 684-0533
 50
90.0
  7
Title
100
AcDbText
1001
AcDbBlockRepETag
1070
     1
1071
       30
1005
C173
  0
LINE
  5
C174
330
785B
100
AcDbEntity
  8
TITLE
100
AcDbLine
 10
16.37999999999999
 20
0.2499999999999996
 30
0.0
 11
16.37999999999999
 21
10.81
 31
0.0
1001
AcDbBlockRepETag
1070
     1
1071
       31
1005
C174
  0
TEXT
  5
C175
330
785B
100
AcDbEntity
  8
TITLE
100
AcDbText
 10
16.54312790891764
 20
1.16077209706627
 30
0.0
 40
0.09
  1
This print contains confidential information which is the property of BEGA U.S.  By acception this information,
 50
90.0
 41
1.1
  7
Title light
100
AcDbText
1001
AcDbBlockRepETag
1070
     1
1071
       32
1005
C175
  0
TEXT
  5
C176
330
785B
100
AcDbEntity
  8
TITLE
100
AcDbText
 10
15.08455463558403
 20
0.4465869233911591
 30
0.0
 40
0.2
  1
TYPE:
 50
90.0
  7
Title Bold
100
AcDbText
1001
AcDbBlockRepETag
1070
     1
1071
       33
1005
C176
  0
LINE
  5
C177
330
785B
100
AcDbEntity
  8
0
100
AcDbLine
 10
15.13167492131488
 20
1.37556601420562
 30
0.0
 11
15.13167492131488
 21
3.301947850782372
 31
0.0
1001
AcDbBlockRepETag
1070
     1
1071
       34
1005
C177
  0
LINE
  5
C178
330
785B
100
AcDbEntity
  8
TITLE
  6
Continuous
100
AcDbLine
 10
16.77
 20
10.80999999999999
 30
0.0
 11
0.2100000000000002
 21
10.81
 31
0.0
1001
AcDbBlockRepETag
1070
     1
1071
       35
1005
C178
  0
TEXT
  5
C179
330
785B
100
AcDbEntity
  8
TITLE
  6
Continuous
100
AcDbText
 10
16.22999899999999
 20
7.388539952482142
 30
0.0
 40
0.09375
  1
File Name:
 50
90.0
 41
0.9
  7
Title light
100
AcDbText
1001
AcDbBlockRepETag
1070
     1
1071
       36
1005
C179
  0
LINE
  5
C17A
330
785B
100
AcDbEntity
  8
TITLE
  6
Continuous
100
AcDbLine
 10
16.29216747152272
 20
8.120960284649104
 30
0.0
 11
16.29216747152272
 21
9.070380015566758
 31
0.0
1001
AcDbBlockRepETag
1070
     1
1071
       37
1005
C17A
  0
TEXT
  5
C17B
330
785B
100
AcDbEntity
  8
TITLE
100
AcDbText
 10
16.69501123957599
 20
1.351357065619774
 30
0.0
 40
0.09
  1
the borrower agrees that it will not be used for any other purpose other than that which is was loaned.
 50
90.0
 41
1.1
  7
Title light
100
AcDbText
1001
AcDbBlockRepETag
1070
     1
1071
       38
1005
C17B
  0
LINE
  5
C17C
330
785B
100
AcDbEntity
  8
TITLE
  6
Continuous
100
AcDbLine
 10
16.76999999999998
 20
0.2499999999999996
 30
0.0
 11
16.77
 21
10.80999999999999
 31
0.0
1001
AcDbBlockRepETag
1070
     1
1071
       39
1005
C17C
  0
INSERT
  5
C545
330
785B
100
AcDbEntity
  8
0
100
AcDbBlockReference
  2
bega logo
 10
15.93530099606815
 20
9.335079095538807
 30
0.0
 41
0.12890625
 42
0.12890625
 43
0.12890625
 50
90.0
1001
AcDbBlockRepETag
1070
     1
1071
       40
1005
C545
  0
ENDBLK
  5
7DB6
330
785B
100
AcDbEntity
  8
0
100
AcDbBlockEnd
  0
BLOCK
  5
C4DF
330
C4DE
100
AcDbEntity
  8
0
100
AcDbBlockBegin
  2
bega
 70
     0
 10
0.0
 20
0.0
 30
0.0
  3
bega
  1

  0
HATCH
  5
C4E0
330
C4DE
100
AcDbEntity
  8
0
100
AcDbHatch
 10
0.0
 20
0.0
 30
0.0
210
0.0
220
0.0
230
1.0
  2
SOLID
 70
     1
 71
     1
 91
       17
 92
        1
 93
       15
 72
     4
 94
        3
 73
     0
 74
     0
 95
        8
 96
        4
 40
0.0
 40
0.0
 40
0.0
 40
0.0
 40
11.8016654154607
 40
11.8016654154607
 40
11.8016654154607
 40
11.8016654154607
 10
7.035577472388887
 20
-2.481201227998744
 10
7.03544731696475
 20
-2.515837259605794
 10
7.057892042171959
 20
-2.536879190038558
 10
7.085416479737973
 20
-2.536946076400318
 72
     4
 94
        3
 73
     0
 74
     0
 95
        8
 96
        4
 40
0.0
 40
0.0
 40
0.0
 40
0.0
 40
4.629221768901988
 40
4.629221768901988
 40
4.629221768901988
 40
4.629221768901988
 10
7.085416479737973
 20
-2.536946076400318
 10
7.097963906578137
 20
-2.536974998711921
 10
7.108408947015837
 20
-2.530141796392404
 10
7.11448471464611
 20
-2.520470461122103
 72
     1
 10
7.114484698988838
 20
-2.520470459082845
 11
7.115377742088837
 21
-2.534389948782845
 72
     1
 10
7.115377742088837
 20
-2.534389948782845
 11
7.132486064388837
 21
-2.534389948782845
 72
     1
 10
7.132486064388837
 20
-2.534389948782845
 11
7.132486064388837
 21
-2.477715932982845
 72
     1
 10
7.132486064388837
 20
-2.477715932982845
 11
7.087956329888837
 21
-2.477715932982845
 72
     1
 10
7.087956329888837
 20
-2.477715932982845
 11
7.087958138788838
 21
-2.494699516782845
 72
     1
 10
7.087958138788838
 20
-2.494699516782845
 11
7.113098177288837
 21
-2.494695898982845
 72
     4
 94
        3
 73
     0
 74
     0
 95
        8
 96
        4
 40
0.0
 40
0.0
 40
0.0
 40
0.0
 40
5.368284882327459
 40
5.368284882327459
 40
5.368284882327459
 40
5.368284882327459
 10
7.113098188924324
 20
-2.494695903011865
 10
7.11051313902058
 20
-2.50987357154594
 10
7.099232931340701
 20
-2.518830852691102
 10
7.086763235643485
 20
-2.518830853589292
 72
     4
 94
        3
 73
     0
 74
     0
 95
        8
 96
        4
 40
0.0
 40
0.0
 40
0.0
 40
0.0
 40
7.529152638125497
 40
7.529152638125497
 40
7.529152638125497
 40
7.529152638125497
 10
7.086763235643485
 20
-2.518830853589292
 10
7.067988192731542
 20
-2.518830851715375
 10
7.057864927154875
 20
-2.501946693631877
 10
7.057864926982067
 20
-2.481123495794018
 72
     4
 94
        3
 73
     0
 74
     0
 95
        8
 96
        4
 40
0.0
 40
0.0
 40
0.0
 40
0.0
 40
7.504907119165637
 40
7.504907119165637
 40
7.504907119165637
 40
7.504907119165637
 10
7.057864926982067
 20
-2.481123495794018
 10
7.057864927298699
 20
-2.460296682434186
 10
7.068394930943732
 20
-2.443412524496772
 10
7.086763235643485
 20
-2.443412522539423
 72
     4
 94
        3
 73
     0
 74
     0
 95
        8
 96
        4
 40
0.0
 40
0.0
 40
0.0
 40
0.0
 40
4.530982702601268
 40
4.530982702601268
 40
4.530982702601268
 40
4.530982702601268
 10
7.086763235643485
 20
-2.443412522539423
 10
7.09740893442861
 20
-2.443412519965713
 10
7.106062518978284
 20
-2.447807106512711
 10
7.111010265302276
 20
-2.462312298444937
 72
     1
 10
7.111010254688837
 20
-2.462312297582845
 11
7.132261911388837
 21
-2.462310488682845
 72
     4
 94
        3
 73
     0
 74
     0
 95
        8
 96
        4
 40
0.0
 40
0.0
 40
0.0
 40
0.0
 40
8.922377717083382
 40
8.922377717083382
 40
8.922377717083382
 40
8.922377717083382
 10
7.13226189286133
 20
-2.462310490728403
 10
7.125898696395945
 20
-2.436047847076395
 10
7.106955536142994
 20
-2.425476264021082
 10
7.085416479737973
 20
-2.425458187342576
 72
     4
 94
        3
 73
     0
 74
     0
 95
        8
 96
        4
 40
0.0
 40
0.0
 40
0.0
 40
0.0
 40
11.8149668603718
 40
11.8149668603718
 40
11.8149668603718
 40
11.8149668603718
 10
7.085416479737973
 20
-2.425458187342576
 10
7.054224166378205
 20
-2.42542926477272
 10
7.035693167191277
 20
-2.450697657733943
 10
7.035577472388887
 20
-2.481201227998744
 97
       15
330
C517
330
C4E2
330
C4E1
330
C4F0
330
C4EA
330
C4E8
330
C4E9
330
C4E7
330
C4E5
330
C4F7
330
C4F8
330
C4EB
330
C4EC
330
C4EE
330
C4EF
 92
       17
 93
        2
 72
     4
 94
        3
 73
     0
 74
     0
 95
        8
 96
        4
 40
0.0
 40
0.0
 40
0.0
 40
0.0
 40
7.529152638125497
 40
7.529152638125497
 40
7.529152638125497
 40
7.529152638125497
 10
7.057864926982067
 20
-2.481123495794018
 10
7.057864927154875
 20
-2.501946693631877
 10
7.067988192731542
 20
-2.518830851715375
 10
7.086763235643485
 20
-2.518830853589292
 72
     4
 94
        3
 73
     0
 74
     0
 95
        8
 96
        4
 40
0.0
 40
0.0
 40
0.0
 40
0.0
 40
7.529152638125497
 40
7.529152638125497
 40
7.529152638125497
 40
7.529152638125497
 10
7.086763235643485
 20
-2.518830853589292
 10
7.067988192731542
 20
-2.518830851715375
 10
7.057864927154875
 20
-2.501946693631877
 10
7.057864926982067
 20
-2.481123495794018
 97
        1
330
C4F7
 92
       49
 93
        2
 72
     4
 94
        3
 73
     0
 74
     0
 95
        8
 96
        4
 40
0.0
 40
0.0
 40
0.0
 40
0.0
 40
7.504907119165637
 40
7.504907119165637
 40
7.504907119165637
 40
7.504907119165637
 10
7.057864926982067
 20
-2.481123495794018
 10
7.057864927298699
 20
-2.460296682434186
 10
7.068394930943732
 20
-2.443412524496772
 10
7.086763235643485
 20
-2.443412522539423
 72
     4
 94
        3
 73
     0
 74
     0
 95
        8
 96
        4
 40
0.0
 40
0.0
 40
0.0
 40
0.0
 40
7.504907119165637
 40
7.504907119165637
 40
7.504907119165637
 40
7.504907119165637
 10
7.057864926982067
 20
-2.481123495794018
 10
7.057864927298699
 20
-2.460296682434186
 10
7.068394930943732
 20
-2.443412524496772
 10
7.086763235643485
 20
-2.443412522539423
 97
        1
330
C4F8
 92
       49
 93
        2
 72
     4
 94
        3
 73
     0
 74
     0
 95
        8
 96
        4
 40
0.0
 40
0.0
 40
0.0
 40
0.0
 40
4.530982702601268
 40
4.530982702601268
 40
4.530982702601268
 40
4.530982702601268
 10
7.086763235643485
 20
-2.443412522539423
 10
7.09740893442861
 20
-2.443412519965713
 10
7.106062518978284
 20
-2.447807106512711
 10
7.111010265302276
 20
-2.462312298444937
 72
     4
 94
        3
 73
     0
 74
     0
 95
        8
 96
        4
 40
0.0
 40
0.0
 40
0.0
 40
0.0
 40
4.530982702601268
 40
4.530982702601268
 40
4.530982702601268
 40
4.530982702601268
 10
7.086763235643485
 20
-2.443412522539423
 10
7.09740893442861
 20
-2.443412519965713
 10
7.106062518978284
 20
-2.447807106512711
 10
7.111010265302276
 20
-2.462312298444937
 97
        1
330
C4EB
 92
       17
 93
        2
 72
     4
 94
        3
 73
     0
 74
     0
 95
        8
 96
        4
 40
0.0
 40
0.0
 40
0.0
 40
0.0
 40
8.922377717083382
 40
8.922377717083382
 40
8.922377717083382
 40
8.922377717083382
 10
7.085416479737973
 20
-2.425458187342576
 10
7.106955536142994
 20
-2.425476264021082
 10
7.125898696395945
 20
-2.436047847076395
 10
7.13226189286133
 20
-2.462310490728403
 72
     4
 94
        3
 73
     0
 74
     0
 95
        8
 96
        4
 40
0.0
 40
0.0
 40
0.0
 40
0.0
 40
8.922377717083382
 40
8.922377717083382
 40
8.922377717083382
 40
8.922377717083382
 10
7.13226189286133
 20
-2.462310490728403
 10
7.125898696395945
 20
-2.436047847076395
 10
7.106955536142994
 20
-2.425476264021082
 10
7.085416479737973
 20
-2.425458187342576
 97
        1
330
C4EE
 92
       49
 93
        2
 72
     4
 94
        3
 73
     0
 74
     0
 95
        8
 96
        4
 40
0.0
 40
0.0
 40
0.0
 40
0.0
 40
5.368284882327459
 40
5.368284882327459
 40
5.368284882327459
 40
5.368284882327459
 10
7.113098188924324
 20
-2.494695903011865
 10
7.11051313902058
 20
-2.50987357154594
 10
7.099232931340701
 20
-2.518830852691102
 10
7.086763235643485
 20
-2.518830853589292
 72
     4
 94
        3
 73
     0
 74
     0
 95
        8
 96
        4
 40
0.0
 40
0.0
 40
0.0
 40
0.0
 40
5.368284882327459
 40
5.368284882327459
 40
5.368284882327459
 40
5.368284882327459
 10
7.113098188924324
 20
-2.494695903011865
 10
7.11051313902058
 20
-2.50987357154594
 10
7.099232931340701
 20
-2.518830852691102
 10
7.086763235643485
 20
-2.518830853589292
 97
        1
330
C4E5
 92
       49
 93
        2
 72
     1
 10
7.087958138788838
 20
-2.494699516782845
 11
7.113098177288837
 21
-2.494695898982845
 72
     1
 10
7.087958138788838
 20
-2.494699516782845
 11
7.113098177288837
 21
-2.494695898982845
 97
        1
330
C4E7
 92
       49
 93
        2
 72
     1
 10
7.087956329888837
 20
-2.477715932982845
 11
7.087958138788838
 21
-2.494699516782845
 72
     1
 10
7.087956329888837
 20
-2.477715932982845
 11
7.087958138788838
 21
-2.494699516782845
 97
        1
330
C4E9
 92
       49
 93
        2
 72
     1
 10
7.132486064388837
 20
-2.477715932982845
 11
7.087956329888837
 21
-2.477715932982845
 72
     1
 10
7.132486064388837
 20
-2.477715932982845
 11
7.087956329888837
 21
-2.477715932982845
 97
        1
330
C4E8
 92
       49
 93
        2
 72
     1
 10
7.132486064388837
 20
-2.534389948782845
 11
7.132486064388837
 21
-2.477715932982845
 72
     1
 10
7.132486064388837
 20
-2.534389948782845
 11
7.132486064388837
 21
-2.477715932982845
 97
        1
330
C4EA
 92
       49
 93
        2
 72
     1
 10
7.115377742088837
 20
-2.534389948782845
 11
7.132486064388837
 21
-2.534389948782845
 72
     1
 10
7.115377742088837
 20
-2.534389948782845
 11
7.132486064388837
 21
-2.534389948782845
 97
        1
330
C4F0
 92
       49
 93
        2
 72
     1
 10
7.114484698988838
 20
-2.520470459082845
 11
7.115377742088837
 21
-2.534389948782845
 72
     1
 10
7.114484698988838
 20
-2.520470459082845
 11
7.115377742088837
 21
-2.534389948782845
 97
        1
330
C4E1
 92
       49
 93
        2
 72
     4
 94
        3
 73
     0
 74
     0
 95
        8
 96
        4
 40
0.0
 40
0.0
 40
0.0
 40
0.0
 40
4.629221768901988
 40
4.629221768901988
 40
4.629221768901988
 40
4.629221768901988
 10
7.085416479737973
 20
-2.536946076400318
 10
7.097963906578137
 20
-2.536974998711921
 10
7.108408947015837
 20
-2.530141796392404
 10
7.11448471464611
 20
-2.520470461122103
 72
     4
 94
        3
 73
     0
 74
     0
 95
        8
 96
        4
 40
0.0
 40
0.0
 40
0.0
 40
0.0
 40
4.629221768901988
 40
4.629221768901988
 40
4.629221768901988
 40
4.629221768901988
 10
7.085416479737973
 20
-2.536946076400318
 10
7.097963906578137
 20
-2.536974998711921
 10
7.108408947015837
 20
-2.530141796392404
 10
7.11448471464611
 20
-2.520470461122103
 97
        1
330
C4E2
 92
       49
 93
        2
 72
     4
 94
        3
 73
     0
 74
     0
 95
        8
 96
        4
 40
0.0
 40
0.0
 40
0.0
 40
0.0
 40
11.8016654154607
 40
11.8016654154607
 40
11.8016654154607
 40
11.8016654154607
 10
7.035577472388887
 20
-2.481201227998744
 10
7.03544731696475
 20
-2.515837259605794
 10
7.057892042171959
 20
-2.536879190038558
 10
7.085416479737973
 20
-2.536946076400318
 72
     4
 94
        3
 73
     0
 74
     0
 95
        8
 96
        4
 40
0.0
 40
0.0
 40
0.0
 40
0.0
 40
11.8016654154607
 40
11.8016654154607
 40
11.8016654154607
 40
11.8016654154607
 10
7.035577472388887
 20
-2.481201227998744
 10
7.03544731696475
 20
-2.515837259605794
 10
7.057892042171959
 20
-2.536879190038558
 10
7.085416479737973
 20
-2.536946076400318
 97
        1
330
C517
 92
       49
 93
        2
 72
     4
 94
        3
 73
     0
 74
     0
 95
        8
 96
        4
 40
0.0
 40
0.0
 40
0.0
 40
0.0
 40
11.8149668603718
 40
11.8149668603718
 40
11.8149668603718
 40
11.8149668603718
 10
7.085416479737973
 20
-2.425458187342576
 10
7.054224166378205
 20
-2.42542926477272
 10
7.035693167191277
 20
-2.450697657733943
 10
7.035577472388887
 20
-2.481201227998744
 72
     4
 94
        3
 73
     0
 74
     0
 95
        8
 96
        4
 40
0.0
 40
0.0
 40
0.0
 40
0.0
 40
11.8149668603718
 40
11.8149668603718
 40
11.8149668603718
 40
11.8149668603718
 10
7.085416479737973
 20
-2.425458187342576
 10
7.054224166378205
 20
-2.42542926477272
 10
7.035693167191277
 20
-2.450697657733943
 10
7.035577472388887
 20
-2.481201227998744
 97
        1
330
C4EF
 92
       48
 93
        2
 72
     1
 10
7.111010254688837
 20
-2.462312297582845
 11
7.132261911388837
 21
-2.462310488682845
 72
     1
 10
7.111010254688837
 20
-2.462312297582845
 11
7.132261911388837
 21
-2.462310488682845
 97
        1
330
C4EC
 92
       48
 93
        1
 72
     1
 10
7.085416385888837
 20
-2.425562919882845
 11
7.085416483688838
 21
-2.425458188882845
 97
        4
330
C4EC
330
C4EC
330
C4EC
330
C4ED
 75
     0
 76
     1
 98
        1
 10
0.0
 20
0.0
450
        0
451
        0
460
0.0
461
0.0
452
        1
462
1.0
453
        2
463
0.0
 63
     5
421
      255
463
1.0
 63
    51
421
 16777113
470
LINEAR
1001
ACAD
1010
0.0
1020
0.0
1030
0.0
  0
LINE
  5
C4E1
102
{ACAD_REACTORS
330
C4E0
102
}
330
C4DE
100
AcDbEntity
  8
0
  6
Continuous
 62
     7
370
    15
100
AcDbLine
 10
7.114484698988838
 20
-2.520470459082845
 30
0.0
 11
7.115377742088837
 21
-2.534389948782845
 31
0.0
  0
SPLINE
  5
C4E2
102
{ACAD_REACTORS
330
C4E0
102
}
330
C4DE
100
AcDbEntity
  8
0
  6
Continuous
 62
     7
370
    15
100
AcDbSpline
210
0.0
220
0.0
230
1.0
 70
     8
 71
     3
 72
     8
 73
     4
 74
     0
 42
0.000000001
 43
0.0000000001
 40
0.0
 40
0.0
 40
0.0
 40
0.0
 40
4.629221768901988
 40
4.629221768901988
 40
4.629221768901988
 40
4.629221768901988
 10
7.085416479737973
 20
-2.536946076400318
 30
0.0
 10
7.097963906578137
 20
-2.536974998711921
 30
0.0
 10
7.108408947015837
 20
-2.530141796392404
 30
0.0
 10
7.11448471464611
 20
-2.520470461122103
 30
0.0
  0
HATCH
  5
C4E3
330
C4DE
100
AcDbEntity
  8
0
100
AcDbHatch
 10
0.0
 20
0.0
 30
0.0
210
0.0
220
0.0
230
1.0
  2
SOLID
 70
     1
 71
     1
 91
        3
 92
       16
 93
        8
 72
     1
 10
6.876636387927156
 20
-2.446783116982845
 11
6.876636387927156
 21
-2.470859895482845
 72
     1
 10
6.876636387927156
 20
-2.470859895482845
 11
6.899094999627157
 21
-2.470859895482845
 72
     2
 10
6.899095014227156
 20
-2.449481463082845
 40
0.021378434297707
 50
270.0000000507
 51
302.7538327093
 73
     1
 72
     2
 10
6.905897067027157
 20
-2.459258813382845
 40
0.0094853188547192
 50
300.1513158430999
 51
360.8238440749
 73
     1
 72
     1
 10
6.915381362527152
 20
-2.459122432182845
 11
6.915366891627156
 21
-2.458110981682845
 72
     4
 94
        3
 73
     0
 74
     0
 95
        8
 96
        4
 40
0.0
 40
0.0
 40
0.0
 40
0.0
 40
1.234817782031019
 40
1.234817782031019
 40
1.234817782031019
 40
1.234817782031019
 10
6.915366860976281
 20
-2.458110979461423
 10
6.915260831578787
 20
-2.45496133154696
 10
6.913756238899043
 20
-2.451889956249106
 10
6.911329683810924
 20
-2.449879146679267
 72
     2
 10
6.901452276727156
 20
-2.464087284082844
 40
0.0173041711593509
 50
55.19321811040001
 51
89.99999999280001
 73
     1
 72
     1
 10
6.901452296827157
 20
-2.446783116982845
 11
6.876636387927156
 21
-2.446783116982845
 97
        8
330
C523
330
C516
330
C51D
330
C51E
330
C4E6
330
C4E4
330
C521
330
C522
 92
       16
 93
        8
 72
     1
 10
6.876636387927156
 20
-2.516801268082845
 11
6.900384184727156
 21
-2.516801268082845
 72
     2
 10
6.900384175127157
 20
-2.493727653982845
 40
0.0230736156625213
 50
270.0000000021
 51
299.6729218121
 73
     1
 72
     2
 10
6.905084866927158
 20
-2.503065769382845
 40
0.0126444541283982
 50
302.1139766277
 51
357.5033071323001
 73
     1
 72
     4
 94
        3
 73
     0
 74
     0
 95
        8
 96
        4
 40
0.0
 40
0.0
 40
0.0
 40
0.0
 40
1.0
 40
1.0
 40
1.0
 40
1.0
 10
6.917717318165067
 20
-2.503616583572982
 10
6.917765569072273
 20
-2.502509988822556
 10
6.917734181256207
 20
-2.501405648970588
 10
6.917623430238558
 20
-2.500303536250148
 72
     4
 94
        3
 73
     0
 74
     0
 95
       10
 96
        6
 40
0.0
 40
0.0
 40
0.0
 40
0.0
 40
0.5
 40
0.5
 40
1.0
 40
1.0
 40
1.0
 40
1.0
 10
6.917623430238558
 20
-2.500303536250148
 10
6.917405671676237
 20
-2.49813656654854
 10
6.916659848823567
 20
-2.49602188163258
 10
6.914280738359588
 20
-2.492370764145272
 10
6.912647447353577
 20
-2.490834326364914
 10
6.910753031288428
 20
-2.489759943258022
 72
     2
 10
6.900262396127157
 20
-2.510424799282845
 40
0.023175195852144
 50
63.08510597700003
 51
89.99999999290002
 73
     1
 72
     1
 10
6.900262355027152
 20
-2.487249608382845
 11
6.876636387927156
 21
-2.487249608382845
 72
     1
 10
6.876636387927156
 20
-2.487249608382845
 11
6.876636387927156
 21
-2.516801268082845
 97
        8
330
C51C
330
C507
330
C508
330
C509
330
C518
330
C519
330
C51A
330
C51B
 92
        1
 93
        9
 72
     2
 10
6.911145075327156
 20
-2.503482871582844
 40
0.0281849953663461
 50
358.2750093542999
 51
429.1859787467999
 73
     1
 72
     2
 10
6.910344636927157
 20
-2.454425532082845
 40
0.025155504803769
 50
295.4642982438
 51
359.8582049783
 73
     1
 72
     2
 10
6.910101396227156
 20
-2.454545993682845
 40
0.0253987350977654
 50
0.13130661799998
 51
52.56383084060001
 73
     1
 72
     2
 10
6.907353580927157
 20
-2.464020839782845
 40
0.0347769093137198
 50
58.46861031739998
 51
93.09517018550002
 73
     1
 72
     1
 10
6.905475805927157
 20
-2.429294663382845
 11
6.855860219027157
 21
-2.429294663382845
 72
     1
 10
6.855860219027157
 20
-2.429294663382845
 11
6.855860219027157
 21
-2.534285101682845
 72
     1
 10
6.855860219027157
 20
-2.534285101682845
 11
6.906167477927156
 21
-2.534285101682845
 72
     2
 10
6.906153707627155
 20
-2.490937190982845
 40
0.0433479148632238
 50
270.0181584594
 51
289.8507158831
 73
     1
 72
     2
 10
6.911384295927157
 20
-2.505415203482844
 40
0.0279540238095668
 50
289.8435790134
 51
362.222167714
 73
     1
 97
        9
330
C506
330
C4FE
330
C4FF
330
C500
330
C501
330
C502
330
C503
330
C504
330
C505
 75
     0
 76
     1
 98
        1
 10
0.0
 20
0.0
450
        0
451
        0
460
0.0
461
0.0
452
        1
462
1.0
453
        2
463
0.0
 63
     5
421
      255
463
1.0
 63
    51
421
 16777113
470
LINEAR
1001
ACAD
1010
0.0
1020
0.0
1030
0.0
  0
SPLINE
  5
C4E4
102
{ACAD_REACTORS
330
C4E3
102
}
330
C4DE
100
AcDbEntity
  8
0
  6
Continuous
 62
     7
370
    15
100
AcDbSpline
210
0.0
220
0.0
230
1.0
 70
     8
 71
     3
 72
     8
 73
     4
 74
     0
 42
0.000000001
 43
0.0000000001
 40
0.0
 40
0.0
 40
0.0
 40
0.0
 40
1.234817782031019
 40
1.234817782031019
 40
1.234817782031019
 40
1.234817782031019
 10
6.915366860976281
 20
-2.458110979461423
 30
0.0
 10
6.915260831578787
 20
-2.45496133154696
 30
0.0
 10
6.913756238899043
 20
-2.451889956249106
 30
0.0
 10
6.911329683810924
 20
-2.449879146679267
 30
0.0
  0
SPLINE
  5
C4E5
102
{ACAD_REACTORS
330
C4E0
102
}
330
C4DE
100
AcDbEntity
  8
0
  6
Continuous
 62
     7
370
    15
100
AcDbSpline
210
0.0
220
0.0
230
1.0
 70
     8
 71
     3
 72
     8
 73
     4
 74
     0
 42
0.000000001
 43
0.0000000001
 40
0.0
 40
0.0
 40
0.0
 40
0.0
 40
5.368284882327459
 40
5.368284882327459
 40
5.368284882327459
 40
5.368284882327459
 10
7.113098188924324
 20
-2.494695903011865
 30
0.0
 10
7.11051313902058
 20
-2.50987357154594
 30
0.0
 10
7.099232931340701
 20
-2.518830852691102
 30
0.0
 10
7.086763235643485
 20
-2.518830853589292
 30
0.0
  0
LINE
  5
C4E6
102
{ACAD_REACTORS
330
C4E3
102
}
330
C4DE
100
AcDbEntity
  8
0
  6
Continuous
 62
     7
370
    15
100
AcDbLine
 10
6.915381362527152
 20
-2.459122432182845
 30
0.0
 11
6.915366891627156
 21
-2.458110981682845
 31
0.0
  0
LINE
  5
C4E7
102
{ACAD_REACTORS
330
C4E0
102
}
330
C4DE
100
AcDbEntity
  8
0
  6
Continuous
 62
     7
370
    15
100
AcDbLine
 10
7.087958138788838
 20
-2.494699516782845
 30
0.0
 11
7.113098177288837
 21
-2.494695898982845
 31
0.0
  0
LINE
  5
C4E8
102
{ACAD_REACTORS
330
C4E0
102
}
330
C4DE
100
AcDbEntity
  8
0
  6
Continuous
 62
     7
370
    15
100
AcDbLine
 10
7.132486064388837
 20
-2.477715932982845
 30
0.0
 11
7.087956329888837
 21
-2.477715932982845
 31
0.0
  0
LINE
  5
C4E9
102
{ACAD_REACTORS
330
C4E0
102
}
330
C4DE
100
AcDbEntity
  8
0
  6
Continuous
 62
     7
370
    15
100
AcDbLine
 10
7.087956329888837
 20
-2.477715932982845
 30
0.0
 11
7.087958138788838
 21
-2.494699516782845
 31
0.0
  0
LINE
  5
C4EA
102
{ACAD_REACTORS
330
C4E0
102
}
330
C4DE
100
AcDbEntity
  8
0
  6
Continuous
 62
     7
370
    15
100
AcDbLine
 10
7.132486064388837
 20
-2.534389948782845
 30
0.0
 11
7.132486064388837
 21
-2.477715932982845
 31
0.0
  0
SPLINE
  5
C4EB
102
{ACAD_REACTORS
330
C4E0
102
}
330
C4DE
100
AcDbEntity
  8
0
  6
Continuous
 62
     7
370
    15
100
AcDbSpline
210
0.0
220
0.0
230
1.0
 70
     8
 71
     3
 72
     8
 73
     4
 74
     0
 42
0.000000001
 43
0.0000000001
 40
0.0
 40
0.0
 40
0.0
 40
0.0
 40
4.530982702601268
 40
4.530982702601268
 40
4.530982702601268
 40
4.530982702601268
 10
7.086763235643485
 20
-2.443412522539423
 30
0.0
 10
7.09740893442861
 20
-2.443412519965713
 30
0.0
 10
7.106062518978284
 20
-2.447807106512711
 30
0.0
 10
7.111010265302276
 20
-2.462312298444937
 30
0.0
  0
LINE
  5
C4EC
102
{ACAD_REACTORS
330
C4E0
102
}
330
C4DE
100
AcDbEntity
  8
0
  6
Continuous
 62
     7
370
    15
100
AcDbLine
 10
7.111010254688837
 20
-2.462312297582845
 30
0.0
 11
7.132261911388837
 21
-2.462310488682845
 31
0.0
  0
LINE
  5
C4ED
102
{ACAD_REACTORS
330
C4E0
102
}
330
C4DE
100
AcDbEntity
  8
0
  6
Continuous
 62
     7
370
    15
100
AcDbLine
 10
7.085416385888837
 20
-2.425562919882845
 30
0.0
 11
7.085416483688838
 21
-2.425458188882845
 31
0.0
  0
SPLINE
  5
C4EE
102
{ACAD_REACTORS
330
C4E0
102
}
330
C4DE
100
AcDbEntity
  8
0
  6
Continuous
 62
     7
370
    15
100
AcDbSpline
210
0.0
220
0.0
230
1.0
 70
     8
 71
     3
 72
     8
 73
     4
 74
     0
 42
0.000000001
 43
0.0000000001
 40
0.0
 40
0.0
 40
0.0
 40
0.0
 40
8.922377717083382
 40
8.922377717083382
 40
8.922377717083382
 40
8.922377717083382
 10
7.13226189286133
 20
-2.462310490728403
 30
0.0
 10
7.125898696395945
 20
-2.436047847076395
 30
0.0
 10
7.106955536142994
 20
-2.425476264021082
 30
0.0
 10
7.085416479737973
 20
-2.425458187342576
 30
0.0
  0
SPLINE
  5
C4EF
102
{ACAD_REACTORS
330
C4E0
102
}
330
C4DE
100
AcDbEntity
  8
0
  6
Continuous
 62
     7
370
    15
100
AcDbSpline
210
0.0
220
0.0
230
1.0
 70
     8
 71
     3
 72
     8
 73
     4
 74
     0
 42
0.000000001
 43
0.0000000001
 40
0.0
 40
0.0
 40
0.0
 40
0.0
 40
11.8149668603718
 40
11.8149668603718
 40
11.8149668603718
 40
11.8149668603718
 10
7.085416479737973
 20
-2.425458187342576
 30
0.0
 10
7.054224166378205
 20
-2.42542926477272
 30
0.0
 10
7.035693167191277
 20
-2.450697657733943
 30
0.0
 10
7.035577472388887
 20
-2.481201227998744
 30
0.0
  0
LINE
  5
C4F0
102
{ACAD_REACTORS
330
C4E0
102
}
330
C4DE
100
AcDbEntity
  8
0
  6
Continuous
 62
     7
370
    15
100
AcDbLine
 10
7.115377742088837
 20
-2.534389948782845
 30
0.0
 11
7.132486064388837
 21
-2.534389948782845
 31
0.0
  0
HATCH
  5
C4F1
330
C4DE
100
AcDbEntity
  8
0
100
AcDbHatch
 10
0.0
 20
0.0
 30
0.0
210
0.0
220
0.0
230
1.0
  2
SOLID
 70
     1
 71
     1
 91
        1
 92
        1
 93
       12
 72
     1
 10
6.973973432327157
 20
-2.486165240882845
 11
7.023188770527157
 21
-2.486165240882845
 72
     1
 10
7.023188770527157
 20
-2.486165240882845
 11
7.023188770527157
 21
-2.468666459682845
 72
     1
 10
7.023188770527157
 20
-2.468666459682845
 11
6.973973432327157
 21
-2.468666459682845
 72
     1
 10
6.973973432327157
 20
-2.468666459682845
 11
6.973973432327157
 21
-2.446794776782845
 72
     1
 10
6.973973432327157
 20
-2.446794776782845
 11
7.029747236927157
 21
-2.446794776782845
 72
     1
 10
7.029747236927157
 20
-2.446794776782845
 11
7.029747236927157
 21
-2.429294186782845
 72
     1
 10
7.029747236927157
 20
-2.429294186782845
 11
6.952099965027157
 21
-2.429294186782845
 72
     1
 10
6.952099965027157
 20
-2.429294186782845
 11
6.952099965027157
 21
-2.534285107782844
 72
     1
 10
6.952099965027157
 20
-2.534285107782844
 11
7.029747236927157
 21
-2.534285107782844
 72
     1
 10
7.029747236927157
 20
-2.534285107782844
 11
7.029747236927157
 21
-2.516788129382845
 72
     1
 10
7.029747236927157
 20
-2.516788129382845
 11
6.973973432327157
 21
-2.516788129382845
 72
     1
 10
6.973973432327157
 20
-2.516788129382845
 11
6.973973432327157
 21
-2.486165240882845
 97
       12
330
C512
330
C4F9
330
C4FA
330
C4FB
330
C4FC
330
C4FD
330
C4F2
330
C4F3
330
C4F4
330
C4F5
330
C4F6
330
C511
 75
     0
 76
     1
 98
        1
 10
0.0
 20
0.0
450
        0
451
        0
460
0.0
461
0.0
452
        1
462
1.0
453
        2
463
0.0
 63
     5
421
      255
463
1.0
 63
    51
421
 16777113
470
LINEAR
1001
ACAD
1010
0.0
1020
0.0
1030
0.0
  0
LINE
  5
C4F2
102
{ACAD_REACTORS
330
C4F1
102
}
330
C4DE
100
AcDbEntity
  8
0
  6
Continuous
 62
     7
370
    15
100
AcDbLine
 10
7.029747236927157
 20
-2.429294186782845
 30
0.0
 11
6.952099965027157
 21
-2.429294186782845
 31
0.0
  0
LINE
  5
C4F3
102
{ACAD_REACTORS
330
C4F1
102
}
330
C4DE
100
AcDbEntity
  8
0
  6
Continuous
 62
     7
370
    15
100
AcDbLine
 10
6.952099965027157
 20
-2.429294186782845
 30
0.0
 11
6.952099965027157
 21
-2.534285107782844
 31
0.0
  0
LINE
  5
C4F4
102
{ACAD_REACTORS
330
C4F1
102
}
330
C4DE
100
AcDbEntity
  8
0
  6
Continuous
 62
     7
370
    15
100
AcDbLine
 10
6.952099965027157
 20
-2.534285107782844
 30
0.0
 11
7.029747236927157
 21
-2.534285107782844
 31
0.0
  0
LINE
  5
C4F5
102
{ACAD_REACTORS
330
C4F1
102
}
330
C4DE
100
AcDbEntity
  8
0
  6
Continuous
 62
     7
370
    15
100
AcDbLine
 10
7.029747236927157
 20
-2.534285107782844
 30
0.0
 11
7.029747236927157
 21
-2.516788129382845
 31
0.0
  0
LINE
  5
C4F6
102
{ACAD_REACTORS
330
C4F1
102
}
330
C4DE
100
AcDbEntity
  8
0
  6
Continuous
 62
     7
370
    15
100
AcDbLine
 10
7.029747236927157
 20
-2.516788129382845
 30
0.0
 11
6.973973432327157
 21
-2.516788129382845
 31
0.0
  0
SPLINE
  5
C4F7
102
{ACAD_REACTORS
330
C4E0
102
}
330
C4DE
100
AcDbEntity
  8
0
  6
Continuous
 62
     7
370
    15
100
AcDbSpline
210
0.0
220
0.0
230
1.0
 70
     8
 71
     3
 72
     8
 73
     4
 74
     0
 42
0.000000001
 43
0.0000000001
 40
0.0
 40
0.0
 40
0.0
 40
0.0
 40
7.529152638125497
 40
7.529152638125497
 40
7.529152638125497
 40
7.529152638125497
 10
7.086763235643485
 20
-2.518830853589292
 30
0.0
 10
7.067988192731542
 20
-2.518830851715375
 30
0.0
 10
7.057864927154875
 20
-2.501946693631877
 30
0.0
 10
7.057864926982067
 20
-2.481123495794018
 30
0.0
  0
SPLINE
  5
C4F8
102
{ACAD_REACTORS
330
C4E0
102
}
330
C4DE
100
AcDbEntity
  8
0
  6
Continuous
 62
     7
370
    15
100
AcDbSpline
210
0.0
220
0.0
230
1.0
 70
     8
 71
     3
 72
     8
 73
     4
 74
     0
 42
0.000000001
 43
0.0000000001
 40
0.0
 40
0.0
 40
0.0
 40
0.0
 40
7.504907119165637
 40
7.504907119165637
 40
7.504907119165637
 40
7.504907119165637
 10
7.057864926982067
 20
-2.481123495794018
 30
0.0
 10
7.057864927298699
 20
-2.460296682434186
 30
0.0
 10
7.068394930943732
 20
-2.443412524496772
 30
0.0
 10
7.086763235643485
 20
-2.443412522539423
 30
0.0
  0
LINE
  5
C4F9
102
{ACAD_REACTORS
330
C4F1
102
}
330
C4DE
100
AcDbEntity
  8
0
  6
Continuous
 62
     7
370
    15
100
AcDbLine
 10
7.023188770527157
 20
-2.486165240882845
 30
0.0
 11
7.023188770527157
 21
-2.468666459682845
 31
0.0
  0
LINE
  5
C4FA
102
{ACAD_REACTORS
330
C4F1
102
}
330
C4DE
100
AcDbEntity
  8
0
  6
Continuous
 62
     7
370
    15
100
AcDbLine
 10
7.023188770527157
 20
-2.468666459682845
 30
0.0
 11
6.973973432327157
 21
-2.468666459682845
 31
0.0
  0
LINE
  5
C4FB
102
{ACAD_REACTORS
330
C4F1
102
}
330
C4DE
100
AcDbEntity
  8
0
  6
Continuous
 62
     7
370
    15
100
AcDbLine
 10
6.973973432327157
 20
-2.468666459682845
 30
0.0
 11
6.973973432327157
 21
-2.446794776782845
 31
0.0
  0
LINE
  5
C4FC
102
{ACAD_REACTORS
330
C4F1
102
}
330
C4DE
100
AcDbEntity
  8
0
  6
Continuous
 62
     7
370
    15
100
AcDbLine
 10
6.973973432327157
 20
-2.446794776782845
 30
0.0
 11
7.029747236927157
 21
-2.446794776782845
 31
0.0
  0
LINE
  5
C4FD
102
{ACAD_REACTORS
330
C4F1
102
}
330
C4DE
100
AcDbEntity
  8
0
  6
Continuous
 62
     7
370
    15
100
AcDbLine
 10
7.029747236927157
 20
-2.446794776782845
 30
0.0
 11
7.029747236927157
 21
-2.429294186782845
 31
0.0
  0
ARC
  5
C4FE
102
{ACAD_REACTORS
330
C4E3
102
}
330
C4DE
100
AcDbEntity
  8
0
  6
Continuous
 62
     7
370
    15
100
AcDbCircle
 10
6.910344636927157
 20
-2.454425532082845
 30
0.0
 40
0.025155504803769
100
AcDbArc
 50
295.4642982438
 51
359.8582049783
  0
ARC
  5
C4FF
102
{ACAD_REACTORS
330
C4E3
102
}
330
C4DE
100
AcDbEntity
  8
0
  6
Continuous
 62
     7
370
    15
100
AcDbCircle
 10
6.910101396227156
 20
-2.454545993682845
 30
0.0
 40
0.0253987350977654
100
AcDbArc
 50
0.13130661799998
 51
52.56383084060001
  0
ARC
  5
C500
102
{ACAD_REACTORS
330
C4E3
102
}
330
C4DE
100
AcDbEntity
  8
0
  6
Continuous
 62
     7
370
    15
100
AcDbCircle
 10
6.907353580927157
 20
-2.464020839782845
 30
0.0
 40
0.0347769093137198
100
AcDbArc
 50
58.46861031739998
 51
93.09517018550002
  0
LINE
  5
C501
102
{ACAD_REACTORS
330
C4E3
102
}
330
C4DE
100
AcDbEntity
  8
0
  6
Continuous
 62
     7
370
    15
100
AcDbLine
 10
6.905475805927157
 20
-2.429294663382845
 30
0.0
 11
6.855860219027157
 21
-2.429294663382845
 31
0.0
  0
LINE
  5
C502
102
{ACAD_REACTORS
330
C4E3
102
}
330
C4DE
100
AcDbEntity
  8
0
  6
Continuous
 62
     7
370
    15
100
AcDbLine
 10
6.855860219027157
 20
-2.429294663382845
 30
0.0
 11
6.855860219027157
 21
-2.534285101682845
 31
0.0
  0
LINE
  5
C503
102
{ACAD_REACTORS
330
C4E3
102
}
330
C4DE
100
AcDbEntity
  8
0
  6
Continuous
 62
     7
370
    15
100
AcDbLine
 10
6.855860219027157
 20
-2.534285101682845
 30
0.0
 11
6.906167477927156
 21
-2.534285101682845
 31
0.0
  0
ARC
  5
C504
102
{ACAD_REACTORS
330
C4E3
102
}
330
C4DE
100
AcDbEntity
  8
0
  6
Continuous
 62
     7
370
    15
100
AcDbCircle
 10
6.906153707627155
 20
-2.490937190982845
 30
0.0
 40
0.0433479148632238
100
AcDbArc
 50
270.0181584594
 51
289.8507158831
  0
ARC
  5
C505
102
{ACAD_REACTORS
330
C4E3
102
}
330
C4DE
100
AcDbEntity
  8
0
  6
Continuous
 62
     7
370
    15
100
AcDbCircle
 10
6.911384295927157
 20
-2.505415203482844
 30
0.0
 40
0.0279540238095668
100
AcDbArc
 50
289.8435790134
 51
2.222167713999982
  0
ARC
  5
C506
102
{ACAD_REACTORS
330
C4E3
102
}
330
C4DE
100
AcDbEntity
  8
0
  6
Continuous
 62
     7
370
    15
100
AcDbCircle
 10
6.911145075327156
 20
-2.503482871582844
 30
0.0
 40
0.0281849953663461
100
AcDbArc
 50
358.2750093542999
 51
69.1859787468
  0
ARC
  5
C507
102
{ACAD_REACTORS
330
C4E3
102
}
330
C4DE
100
AcDbEntity
  8
0
  6
Continuous
 62
     7
370
    15
100
AcDbCircle
 10
6.900384175127157
 20
-2.493727653982845
 30
0.0
 40
0.0230736156625213
100
AcDbArc
 50
270.0000000021
 51
299.6729218121
  0
ARC
  5
C508
102
{ACAD_REACTORS
330
C4E3
102
}
330
C4DE
100
AcDbEntity
  8
0
  6
Continuous
 62
     7
370
    15
100
AcDbCircle
 10
6.905084866927158
 20
-2.503065769382845
 30
0.0
 40
0.0126444541283982
100
AcDbArc
 50
302.1139766277
 51
357.5033071323001
  0
SPLINE
  5
C509
102
{ACAD_REACTORS
330
C4E3
102
}
330
C4DE
100
AcDbEntity
  8
0
  6
Continuous
 62
     7
370
    15
100
AcDbSpline
210
0.0
220
0.0
230
1.0
 70
     8
 71
     3
 72
     8
 73
     4
 74
     0
 42
0.000000001
 43
0.0000000001
 40
0.0
 40
0.0
 40
0.0
 40
0.0
 40
1.0
 40
1.0
 40
1.0
 40
1.0
 10
6.917717318165067
 20
-2.503616583572982
 30
0.0
 10
6.917765569072273
 20
-2.502509988822556
 30
0.0
 10
6.917734181256207
 20
-2.501405648970588
 30
0.0
 10
6.917623430238558
 20
-2.500303536250148
 30
0.0
  0
HATCH
  5
C50A
330
C4DE
100
AcDbEntity
  8
0
100
AcDbHatch
 10
0.0
 20
0.0
 30
0.0
210
0.0
220
0.0
230
1.0
  2
SOLID
 70
     1
 71
     1
 91
        2
 92
        1
 93
        8
 72
     1
 10
7.219521596025813
 20
-2.534285107782844
 11
7.242488792925811
 21
-2.534285107782844
 72
     1
 10
7.242488792925811
 20
-2.534285107782844
 11
7.205305653525812
 21
-2.429294186782845
 72
     1
 10
7.205305653525812
 20
-2.429294186782845
 11
7.181246633725812
 21
-2.429294186782845
 72
     1
 10
7.181246633725812
 20
-2.429294186782845
 11
7.144061685525811
 21
-2.534285107782844
 72
     1
 10
7.144061685525811
 20
-2.534285107782844
 11
7.167027073525813
 21
-2.534285107782844
 72
     1
 10
7.167027073525813
 20
-2.534285107782844
 11
7.174684598425812
 21
-2.511317941482845
 72
     1
 10
7.174684598425812
 20
-2.511317941482845
 11
7.211213318625812
 21
-2.511317941482845
 72
     1
 10
7.211213318625812
 20
-2.511317941482845
 11
7.219521596025813
 21
-2.534285107782844
 97
        8
330
C520
330
C50B
330
C50C
330
C50D
330
C50E
330
C50F
330
C510
330
C51F
 92
       16
 93
        3
 72
     1
 10
7.193275263625812
 20
-2.451167666282845
 11
7.180152953025811
 21
-2.494916446482845
 72
     1
 10
7.180152953025811
 20
-2.494916446482845
 11
7.206401143125813
 21
-2.494916446482845
 72
     1
 10
7.206401143125813
 20
-2.494916446482845
 11
7.193275263625812
 21
-2.451167666282845
 97
        3
330
C515
330
C513
330
C514
 75
     0
 76
     1
 98
        1
 10
0.0
 20
0.0
450
        0
451
        0
460
0.0
461
0.0
452
        1
462
1.0
453
        2
463
0.0
 63
     5
421
      255
463
1.0
 63
    51
421
 16777113
470
LINEAR
1001
ACAD
1010
0.0
1020
0.0
1030
0.0
  0
LINE
  5
C50B
102
{ACAD_REACTORS
330
C50A
102
}
330
C4DE
100
AcDbEntity
  8
0
  6
Continuous
 62
     7
370
    15
100
AcDbLine
 10
7.242488792925811
 20
-2.534285107782844
 30
0.0
 11
7.205305653525812
 21
-2.429294186782845
 31
0.0
  0
LINE
  5
C50C
102
{ACAD_REACTORS
330
C50A
102
}
330
C4DE
100
AcDbEntity
  8
0
  6
Continuous
 62
     7
370
    15
100
AcDbLine
 10
7.205305653525812
 20
-2.429294186782845
 30
0.0
 11
7.181246633725812
 21
-2.429294186782845
 31
0.0
  0
LINE
  5
C50D
102
{ACAD_REACTORS
330
C50A
102
}
330
C4DE
100
AcDbEntity
  8
0
  6
Continuous
 62
     7
370
    15
100
AcDbLine
 10
7.181246633725812
 20
-2.429294186782845
 30
0.0
 11
7.144061685525811
 21
-2.534285107782844
 31
0.0
  0
LINE
  5
C50E
102
{ACAD_REACTORS
330
C50A
102
}
330
C4DE
100
AcDbEntity
  8
0
  6
Continuous
 62
     7
370
    15
100
AcDbLine
 10
7.144061685525811
 20
-2.534285107782844
 30
0.0
 11
7.167027073525813
 21
-2.534285107782844
 31
0.0
  0
LINE
  5
C50F
102
{ACAD_REACTORS
330
C50A
102
}
330
C4DE
100
AcDbEntity
  8
0
  6
Continuous
 62
     7
370
    15
100
AcDbLine
 10
7.167027073525813
 20
-2.534285107782844
 30
0.0
 11
7.174684598425812
 21
-2.511317941482845
 31
0.0
  0
LINE
  5
C510
102
{ACAD_REACTORS
330
C50A
102
}
330
C4DE
100
AcDbEntity
  8
0
  6
Continuous
 62
     7
370
    15
100
AcDbLine
 10
7.174684598425812
 20
-2.511317941482845
 30
0.0
 11
7.211213318625812
 21
-2.511317941482845
 31
0.0
  0
LINE
  5
C511
102
{ACAD_REACTORS
330
C4F1
102
}
330
C4DE
100
AcDbEntity
  8
0
  6
Continuous
 62
     7
370
    15
100
AcDbLine
 10
6.973973432327157
 20
-2.516788129382845
 30
0.0
 11
6.973973432327157
 21
-2.486165240882845
 31
0.0
  0
LINE
  5
C512
102
{ACAD_REACTORS
330
C4F1
102
}
330
C4DE
100
AcDbEntity
  8
0
  6
Continuous
 62
     7
370
    15
100
AcDbLine
 10
6.973973432327157
 20
-2.486165240882845
 30
0.0
 11
7.023188770527157
 21
-2.486165240882845
 31
0.0
  0
LINE
  5
C513
102
{ACAD_REACTORS
330
C50A
102
}
330
C4DE
100
AcDbEntity
  8
0
  6
Continuous
 62
     7
370
    15
100
AcDbLine
 10
7.180152953025811
 20
-2.494916446482845
 30
0.0
 11
7.206401143125813
 21
-2.494916446482845
 31
0.0
  0
LINE
  5
C514
102
{ACAD_REACTORS
330
C50A
102
}
330
C4DE
100
AcDbEntity
  8
0
  6
Continuous
 62
     7
370
    15
100
AcDbLine
 10
7.206401143125813
 20
-2.494916446482845
 30
0.0
 11
7.193275263625812
 21
-2.451167666282845
 31
0.0
  0
LINE
  5
C515
102
{ACAD_REACTORS
330
C50A
102
}
330
C4DE
100
AcDbEntity
  8
0
  6
Continuous
 62
     7
370
    15
100
AcDbLine
 10
7.193275263625812
 20
-2.451167666282845
 30
0.0
 11
7.180152953025811
 21
-2.494916446482845
 31
0.0
  0
LINE
  5
C516
102
{ACAD_REACTORS
330
C4E3
102
}
330
C4DE
100
AcDbEntity
  8
0
  6
Continuous
 62
     7
370
    15
100
AcDbLine
 10
6.876636387927156
 20
-2.470859895482845
 30
0.0
 11
6.899094999627157
 21
-2.470859895482845
 31
0.0
  0
SPLINE
  5
C517
102
{ACAD_REACTORS
330
C4E0
102
}
330
C4DE
100
AcDbEntity
  8
0
  6
Continuous
 62
     7
370
    15
100
AcDbSpline
210
0.0
220
0.0
230
1.0
 70
     8
 71
     3
 72
     8
 73
     4
 74
     0
 42
0.000000001
 43
0.0000000001
 40
0.0
 40
0.0
 40
0.0
 40
0.0
 40
11.8016654154607
 40
11.8016654154607
 40
11.8016654154607
 40
11.8016654154607
 10
7.035577472388887
 20
-2.481201227998744
 30
0.0
 10
7.03544731696475
 20
-2.515837259605794
 30
0.0
 10
7.057892042171959
 20
-2.536879190038558
 30
0.0
 10
7.085416479737973
 20
-2.536946076400318
 30
0.0
  0
SPLINE
  5
C518
102
{ACAD_REACTORS
330
C4E3
102
}
330
C4DE
100
AcDbEntity
  8
0
  6
Continuous
 62
     7
370
    15
100
AcDbSpline
210
0.0
220
0.0
230
1.0
 70
     8
 71
     3
 72
    10
 73
     6
 74
     0
 42
0.000000001
 43
0.0000000001
 40
0.0
 40
0.0
 40
0.0
 40
0.0
 40
0.5
 40
0.5
 40
1.0
 40
1.0
 40
1.0
 40
1.0
 10
6.917623430238558
 20
-2.500303536250148
 30
0.0
 10
6.917405671676237
 20
-2.49813656654854
 30
0.0
 10
6.916659848823567
 20
-2.49602188163258
 30
0.0
 10
6.914280738359588
 20
-2.492370764145272
 30
0.0
 10
6.912647447353577
 20
-2.490834326364914
 30
0.0
 10
6.910753031288428
 20
-2.489759943258022
 30
0.0
  0
ARC
  5
C519
102
{ACAD_REACTORS
330
C4E3
102
}
330
C4DE
100
AcDbEntity
  8
0
  6
Continuous
 62
     7
370
    15
100
AcDbCircle
 10
6.900262396127157
 20
-2.510424799282845
 30
0.0
 40
0.023175195852144
100
AcDbArc
 50
63.08510597700003
 51
89.99999999290002
  0
LINE
  5
C51A
102
{ACAD_REACTORS
330
C4E3
102
}
330
C4DE
100
AcDbEntity
  8
0
  6
Continuous
 62
     7
370
    15
100
AcDbLine
 10
6.900262355027152
 20
-2.487249608382845
 30
0.0
 11
6.876636387927156
 21
-2.487249608382845
 31
0.0
  0
LINE
  5
C51B
102
{ACAD_REACTORS
330
C4E3
102
}
330
C4DE
100
AcDbEntity
  8
0
  6
Continuous
 62
     7
370
    15
100
AcDbLine
 10
6.876636387927156
 20
-2.487249608382845
 30
0.0
 11
6.876636387927156
 21
-2.516801268082845
 31
0.0
  0
LINE
  5
C51C
102
{ACAD_REACTORS
330
C4E3
102
}
330
C4DE
100
AcDbEntity
  8
0
  6
Continuous
 62
     7
370
    15
100
AcDbLine
 10
6.876636387927156
 20
-2.516801268082845
 30
0.0
 11
6.900384184727156
 21
-2.516801268082845
 31
0.0
  0
ARC
  5
C51D
102
{ACAD_REACTORS
330
C4E3
102
}
330
C4DE
100
AcDbEntity
  8
0
  6
Continuous
 62
     7
370
    15
100
AcDbCircle
 10
6.899095014227156
 20
-2.449481463082845
 30
0.0
 40
0.021378434297707
100
AcDbArc
 50
270.0000000507
 51
302.7538327093
  0
ARC
  5
C51E
102
{ACAD_REACTORS
330
C4E3
102
}
330
C4DE
100
AcDbEntity
  8
0
  6
Continuous
 62
     7
370
    15
100
AcDbCircle
 10
6.905897067027157
 20
-2.459258813382845
 30
0.0
 40
0.0094853188547192
100
AcDbArc
 50
300.1513158430999
 51
0.8238440749000069
  0
LINE
  5
C51F
102
{ACAD_REACTORS
330
C50A
102
}
330
C4DE
100
AcDbEntity
  8
0
  6
Continuous
 62
     7
370
    15
100
AcDbLine
 10
7.211213318625812
 20
-2.511317941482845
 30
0.0
 11
7.219521596025813
 21
-2.534285107782844
 31
0.0
  0
LINE
  5
C520
102
{ACAD_REACTORS
330
C50A
102
}
330
C4DE
100
AcDbEntity
  8
0
  6
Continuous
 62
     7
370
    15
100
AcDbLine
 10
7.219521596025813
 20
-2.534285107782844
 30
0.0
 11
7.242488792925811
 21
-2.534285107782844
 31
0.0
  0
ARC
  5
C521
102
{ACAD_REACTORS
330
C4E3
102
}
330
C4DE
100
AcDbEntity
  8
0
  6
Continuous
 62
     7
370
    15
100
AcDbCircle
 10
6.901452276727156
 20
-2.464087284082844
 30
0.0
 40
0.0173041711593509
100
AcDbArc
 50
55.19321811040001
 51
89.99999999280001
  0
LINE
  5
C522
102
{ACAD_REACTORS
330
C4E3
102
}
330
C4DE
100
AcDbEntity
  8
0
  6
Continuous
 62
     7
370
    15
100
AcDbLine
 10
6.901452296827157
 20
-2.446783116982845
 30
0.0
 11
6.876636387927156
 21
-2.446783116982845
 31
0.0
  0
LINE
  5
C523
102
{ACAD_REACTORS
330
C4E3
102
}
330
C4DE
100
AcDbEntity
  8
0
  6
Continuous
 62
     7
370
    15
100
AcDbLine
 10
6.876636387927156
 20
-2.446783116982845
 30
0.0
 11
6.876636387927156
 21
-2.470859895482845
 31
0.0
  0
ENDBLK
  5
C524
330
C4DE
100
AcDbEntity
  8
0
100
AcDbBlockEnd
  0
BLOCK
  5
C542
330
C53E
100
AcDbEntity
  8
0
100
AcDbBlockBegin
  2
bega logo
 70
     0
 10
0.0
 20
0.0
 30
0.0
  3
bega logo
  1

  0
INSERT
  5
C53F
330
C53E
100
AcDbEntity
  8
0
100
AcDbBlockReference
  2
bega
 10
-138.8202300585621
 20
53.61275461362001
 30
0.0
 41
20.43278469033529
 42
20.43278469033529
 43
20.43278469033529
  0
ENDBLK
  5
C543
330
C53E
100
AcDbEntity
  8
0
100
AcDbBlockEnd
  0
BLOCK
  5
7E3B5
330
7E3B4
100
AcDbEntity
  8
0
100
AcDbBlockBegin
  2
*D3
 70
     1
 10
0.0
 20
0.0
 30
0.0
  3
*D3
  1

  0
LINE
  5
7E492
330
7E3B4
100
AcDbEntity
  8
DIM
440
 16777216
100
AcDbLine
 10
8.148743149842298
 20
8.875991480746691
 30
0.0
 11
4.308354999675218
 21
8.875991480746691
 31
0.0
  0
LINE
  5
7E493
330
7E3B4
100
AcDbEntity
  8
DIM
440
 16777216
100
AcDbLine
 10
5.573425406592215
 20
12.76541730487669
 30
0.0
 11
4.308354999675218
 21
12.76541730487669
 31
0.0
  0
LINE
  5
7E494
330
7E3B4
100
AcDbEntity
  8
DIM
440
 16777216
100
AcDbLine
 10
4.508354999675217
 20
9.07599148074669
 30
0.0
 11
4.508354999675217
 21
10.42070439281169
 31
0.0
  0
LINE
  5
7E495
330
7E3B4
100
AcDbEntity
  8
DIM
440
 16777216
100
AcDbLine
 10
4.508354999675217
 20
12.56541730487669
 30
0.0
 11
4.508354999675217
 21
11.22070439281169
 31
0.0
  0
SOLID
  5
7E496
330
7E3B4
100
AcDbEntity
  8
DIM
440
 16777216
100
AcDbTrace
 10
4.475021666341883
 20
9.07599148074669
 30
0.0
 11
4.541688333008552
 21
9.07599148074669
 31
0.0
 12
4.508354999675217
 22
8.875991480746691
 32
0.0
 13
4.508354999675217
 23
8.875991480746691
 33
0.0
  0
SOLID
  5
7E497
330
7E3B4
100
AcDbEntity
  8
DIM
440
 16777216
100
AcDbTrace
 10
4.475021666341886
 20
12.56541730487669
 30
0.0
 11
4.541688333008552
 21
12.56541730487669
 31
0.0
 12
4.508354999675217
 22
12.76541730487669
 32
0.0
 13
4.508354999675217
 23
12.76541730487669
 33
0.0
  0
MTEXT
  5
7E498
330
7E3B4
100
AcDbEntity
  8
DIM
440
 16777216
100
AcDbMText
 10
4.508354999675217
 20
10.82070439281169
 30
0.0
 40
0.2
 41
0.0
 71
     5
 72
     1
  1
\A1;3{\H1.000000x;\S7#8;}"
 73
     1
 44
1.0
  0
POINT
  5
7E499
330
7E3B4
100
AcDbEntity
  8
Defpoints
 62
     0
440
 16777216
100
AcDbPoint
 10
8.388743149842298
 20
8.875991480746691
 30
0.0
  0
POINT
  5
7E49A
330
7E3B4
100
AcDbEntity
  8
Defpoints
 62
     0
440
 16777216
100
AcDbPoint
 10
5.813425406592215
 20
12.76541730487669
 30
0.0
  0
POINT
  5
7E49B
330
7E3B4
100
AcDbEntity
  8
Defpoints
 62
     0
440
 16777216
100
AcDbPoint
 10
4.508354999675217
 20
12.76541730487669
 30
0.0
  0
ENDBLK
  5
7E3B6
330
7E3B4
100
AcDbEntity
  8
0
100
AcDbBlockEnd
  0
BLOCK
  5
7E3C3
330
7E3C2
100
AcDbEntity
  8
0
100
AcDbBlockBegin
  2
*D4
 70
     1
 10
0.0
 20
0.0
 30
0.0
  3
*D4
  1

  0
LINE
  5
7E49C
330
7E3C2
100
AcDbEntity
  8
DIM
440
 16777216
100
AcDbLine
 10
5.813425406592299
 20
4.326712226251663
 30
0.0
 11
5.813425406592299
 21
8.215120466364696
 31
0.0
  0
LINE
  5
7E49D
330
7E3C2
100
AcDbEntity
  8
DIM
440
 16777216
100
AcDbLine
 10
14.50686286961721
 20
4.326712226251663
 30
0.0
 11
14.50686286961721
 21
8.215120466364696
 31
0.0
  0
LINE
  5
7E49E
330
7E3C2
100
AcDbEntity
  8
DIM
440
 16777216
100
AcDbLine
 10
6.0134254065923
 20
8.015120466364699
 30
0.0
 11
9.62681080477142
 21
8.015120466364699
 31
0.0
  0
LINE
  5
7E49F
330
7E3C2
100
AcDbEntity
  8
DIM
440
 16777216
100
AcDbLine
 10
14.30686286961721
 20
8.015120466364699
 30
0.0
 11
10.69347747143809
 21
8.015120466364699
 31
0.0
  0
SOLID
  5
7E4A0
330
7E3C2
100
AcDbEntity
  8
DIM
440
 16777216
100
AcDbTrace
 10
6.0134254065923
 20
8.048453799698032
 30
0.0
 11
6.0134254065923
 21
7.981787133031366
 31
0.0
 12
5.813425406592299
 22
8.015120466364699
 32
0.0
 13
5.813425406592299
 23
8.015120466364699
 33
0.0
  0
SOLID
  5
7E4A1
330
7E3C2
100
AcDbEntity
  8
DIM
440
 16777216
100
AcDbTrace
 10
14.30686286961721
 20
8.048453799698032
 30
0.0
 11
14.30686286961721
 21
7.981787133031366
 31
0.0
 12
14.50686286961721
 22
8.015120466364699
 32
0.0
 13
14.50686286961721
 23
8.015120466364699
 33
0.0
  0
MTEXT
  5
7E4A2
330
7E3C2
100
AcDbEntity
  8
DIM
440
 16777216
100
AcDbMText
 10
10.16014413810475
 20
8.015120466364699
 30
0.0
 40
0.2
 41
0.0
 71
     5
 72
     1
  1
\A1;8{\H1.000000x;\S3#4;}"
 73
     1
 44
1.0
  0
POINT
  5
7E4A3
330
7E3C2
100
AcDbEntity
  8
Defpoints
 62
     0
440
 16777216
100
AcDbPoint
 10
5.813425406592299
 20
4.086712226251663
 30
0.0
  0
POINT
  5
7E4A4
330
7E3C2
100
AcDbEntity
  8
Defpoints
 62
     0
440
 16777216
100
AcDbPoint
 10
14.50686286961721
 20
4.086712226251663
 30
0.0
  0
POINT
  5
7E4A5
330
7E3C2
100
AcDbEntity
  8
Defpoints
 62
     0
440
 16777216
100
AcDbPoint
 10
14.50686286961721
 20
8.015120466364699
 30
0.0
  0
ENDBLK
  5
7E3C4
330
7E3C2
100
AcDbEntity
  8
0
100
AcDbBlockEnd
  0
BLOCK
  5
7E3D1
330
7E3D0
100
AcDbEntity
  8
0
100
AcDbBlockBegin
  2
*D5
 70
     1
 10
0.0
 20
0.0
 30
0.0
  3
*D5
  1

  0
LINE
  5
7E4A6
330
7E3D0
100
AcDbEntity
  8
DIM
440
 16777216
100
AcDbLine
 10
12.1715451263673
 20
6.662029969501659
 30
0.0
 11
16.39485921592651
 21
6.662029969501658
 31
0.0
  0
LINE
  5
7E4A7
330
7E3D0
100
AcDbEntity
  8
DIM
440
 16777216
100
AcDbLine
 10
12.1715451263673
 20
1.511394483001662
 30
0.0
 11
16.39485921592651
 21
1.511394483001661
 31
0.0
  0
LINE
  5
7E4A8
330
7E3D0
100
AcDbEntity
  8
DIM
440
 16777216
100
AcDbLine
 10
16.19485921592651
 20
6.462029969501658
 30
0.0
 11
16.19485921592651
 21
4.486712226251662
 31
0.0
  0
LINE
  5
7E4A9
330
7E3D0
100
AcDbEntity
  8
DIM
440
 16777216
100
AcDbLine
 10
16.19485921592651
 20
1.711394483001663
 30
0.0
 11
16.19485921592651
 21
3.686712226251662
 31
0.0
  0
SOLID
  5
7E4AA
330
7E3D0
100
AcDbEntity
  8
DIM
440
 16777216
100
AcDbTrace
 10
16.16152588259318
 20
6.462029969501658
 30
0.0
 11
16.22819254925985
 21
6.462029969501658
 31
0.0
 12
16.19485921592651
 22
6.662029969501658
 32
0.0
 13
16.19485921592651
 23
6.662029969501658
 33
0.0
  0
SOLID
  5
7E4AB
330
7E3D0
100
AcDbEntity
  8
DIM
440
 16777216
100
AcDbTrace
 10
16.16152588259318
 20
1.711394483001663
 30
0.0
 11
16.22819254925985
 21
1.711394483001663
 31
0.0
 12
16.19485921592651
 22
1.511394483001661
 32
0.0
 13
16.19485921592651
 23
1.511394483001661
 33
0.0
  0
MTEXT
  5
7E4AC
330
7E3D0
100
AcDbEntity
  8
DIM
440
 16777216
100
AcDbMText
 10
16.19485921592651
 20
4.086712226251663
 30
0.0
 40
0.2
 41
0.0
 71
     5
 72
     1
  1
\A1;5{\H1.000000x;\S1#8;}"
 73
     1
 44
1.0
  0
POINT
  5
7E4AD
330
7E3D0
100
AcDbEntity
  8
Defpoints
 62
     0
440
 16777216
100
AcDbPoint
 10
11.9315451263673
 20
6.662029969501659
 30
0.0
  0
POINT
  5
7E4AE
330
7E3D0
100
AcDbEntity
  8
Defpoints
 62
     0
440
 16777216
100
AcDbPoint
 10
11.9315451263673
 20
1.511394483001662
 30
0.0
  0
POINT
  5
7E4AF
330
7E3D0
100
AcDbEntity
  8
Defpoints
 62
     0
440
 16777216
100
AcDbPoint
 10
16.19485921592651
 20
1.511394483001661
 30
0.0
  0
ENDBLK
  5
7E3D2
330
7E3D0
100
AcDbEntity
  8
0
100
AcDbBlockEnd
  0
ENDSEC
  0
SECTION
  2
ENTITIES
  0
TEXT
  5
E210
330
1E
100
AcDbEntity
  8
TEXT
  6
Continuous
100
AcDbText
 10
1.341939293638729
 20
14.99819464903222
 30
0.0
 40
0.375
  1
NOTES:
100
AcDbText
  0
TEXT
  5
E211
330
1E
100
AcDbEntity
  8
TEXT
100
AcDbText
 10
1.382488802728331
 20
14.5433407649968
 30
0.0
 40
0.2
  1
1. LUMINAIRE # 33 428 - SEE SPECIFICATIONS
100
AcDbText
  0
LINE
  5
7E2C8
330
1E
100
AcDbEntity
  8
PART
  6
Continuous
100
AcDbLine
 10
5.828738106687295
 20
11.75060290767169
 30
0.0
 11
5.837090488557293
 21
11.31627905043169
 31
0.0
  0
LINE
  5
7E2C9
330
1E
100
AcDbEntity
  8
PART
  6
Continuous
100
AcDbLine
 10
5.837090488557293
 20
11.31627905043169
 30
0.0
 11
5.842658743137293
 21
11.30235841398169
 31
0.0
  0
LINE
  5
7E2CA
330
1E
100
AcDbEntity
  8
PART
  6
Continuous
100
AcDbLine
 10
5.842658743137293
 20
11.30235841398169
 30
0.0
 11
5.856579379587302
 21
11.29679015940169
 31
0.0
  0
LINE
  5
7E2CB
330
1E
100
AcDbEntity
  8
PART
  6
Continuous
100
AcDbLine
 10
5.856579379587302
 20
11.29679015940169
 30
0.0
 11
5.947063516512301
 21
11.29679015940169
 31
0.0
  0
LINE
  5
7E2CC
330
1E
100
AcDbEntity
  8
PART
  6
Continuous
100
AcDbLine
 10
5.947063516512301
 20
11.29679015940169
 30
0.0
 11
5.960984152962296
 21
11.29261396846669
 31
0.0
  0
LINE
  5
7E2CD
330
1E
100
AcDbEntity
  8
PART
  6
Continuous
100
AcDbLine
 10
5.960984152962296
 20
11.29261396846669
 30
0.0
 11
5.966552407542295
 21
11.27869333201669
 31
0.0
  0
LINE
  5
7E2CE
330
1E
100
AcDbEntity
  8
PART
  6
Continuous
100
AcDbLine
 10
5.966552407542295
 20
11.27869333201669
 30
0.0
 11
5.966552407542295
 21
11.27034095014669
 31
0.0
  0
LINE
  5
7E2CF
330
1E
100
AcDbEntity
  8
PART
  6
Continuous
100
AcDbLine
 10
5.966552407542295
 20
11.27034095014669
 30
0.0
 11
5.974904789412306
 21
11.10746950368169
 31
0.0
  0
LINE
  5
7E2D0
330
1E
100
AcDbEntity
  8
PART
  6
Continuous
100
AcDbLine
 10
5.974904789412306
 20
11.10746950368169
 30
0.0
 11
5.993001616797286
 21
10.94320599357169
 31
0.0
  0
LINE
  5
7E2D1
330
1E
100
AcDbEntity
  8
PART
  6
Continuous
100
AcDbLine
 10
5.993001616797286
 20
10.94320599357169
 30
0.0
 11
6.022234953342206
 21
10.78172661075169
 31
0.0
  0
LINE
  5
7E2D2
330
1E
100
AcDbEntity
  8
PART
  6
Continuous
100
AcDbLine
 10
6.022234953342206
 20
10.78172661075169
 30
0.0
 11
6.062604799047292
 21
10.62303135522169
 31
0.0
  0
LINE
  5
7E2D3
330
1E
100
AcDbEntity
  8
PART
  6
Continuous
100
AcDbLine
 10
6.062604799047292
 20
10.62303135522169
 30
0.0
 11
6.11411115391229
 21
10.46712022698169
 31
0.0
  0
LINE
  5
7E2D4
330
1E
100
AcDbEntity
  8
PART
  6
Continuous
100
AcDbLine
 10
6.11411115391229
 20
10.46712022698169
 30
0.0
 11
6.175361954292297
 21
10.31538528967669
 31
0.0
  0
LINE
  5
7E2D5
330
1E
100
AcDbEntity
  8
PART
  6
Continuous
100
AcDbLine
 10
6.175361954292297
 20
10.31538528967669
 30
0.0
 11
6.246357200187302
 21
10.16643447966169
 31
0.0
  0
LINE
  5
7E2D6
330
1E
100
AcDbEntity
  8
PART
  6
Continuous
100
AcDbLine
 10
6.246357200187302
 20
10.16643447966169
 30
0.0
 11
6.328488955242307
 21
10.02444398787169
 31
0.0
  0
LINE
  5
7E2D7
330
1E
100
AcDbEntity
  8
PART
  6
Continuous
100
AcDbLine
 10
6.328488955242307
 20
10.02444398787169
 30
0.0
 11
6.41897309216729
 21
9.888021750661687
 31
0.0
  0
LINE
  5
7E2D8
330
1E
100
AcDbEntity
  8
PART
  6
Continuous
100
AcDbLine
 10
6.41897309216729
 20
9.888021750661687
 30
0.0
 11
6.519201674607288
 21
9.757167768031694
 31
0.0
  0
LINE
  5
7E2D9
330
1E
100
AcDbEntity
  8
PART
  6
Continuous
100
AcDbLine
 10
6.519201674607288
 20
9.757167768031694
 30
0.0
 11
6.627782638917309
 21
9.634666167271687
 31
0.0
  0
LINE
  5
7E2DA
330
1E
100
AcDbEntity
  8
PART
  6
Continuous
100
AcDbLine
 10
6.627782638917309
 20
9.634666167271687
 30
0.0
 11
6.744715985097286
 21
9.519124884736687
 31
0.0
  0
LINE
  5
7E2DB
330
1E
100
AcDbEntity
  8
PART
  6
Continuous
100
AcDbLine
 10
6.744715985097286
 20
9.519124884736687
 30
0.0
 11
6.868609649502289
 21
9.411935984071687
 31
0.0
  0
LINE
  5
7E2DC
330
1E
100
AcDbEntity
  8
PART
  6
Continuous
100
AcDbLine
 10
6.868609649502289
 20
9.411935984071687
 30
0.0
 11
7.000855695777204
 21
9.313099465276692
 31
0.0
  0
LINE
  5
7E2DD
330
1E
100
AcDbEntity
  8
PART
  6
Continuous
100
AcDbLine
 10
7.000855695777204
 20
9.313099465276692
 30
0.0
 11
7.137277932987302
 21
9.224007391996687
 31
0.0
  0
LINE
  5
7E2DE
330
1E
100
AcDbEntity
  8
PART
  6
Continuous
100
AcDbLine
 10
7.137277932987302
 20
9.224007391996687
 30
0.0
 11
7.280660488422298
 21
9.143267700586687
 31
0.0
  0
LINE
  5
7E2DF
330
1E
100
AcDbEntity
  8
PART
  6
Continuous
100
AcDbLine
 10
7.280660488422298
 20
9.143267700586687
 30
0.0
 11
7.429611298437308
 21
9.073664518336693
 31
0.0
  0
LINE
  5
7E2E0
330
1E
100
AcDbEntity
  8
PART
  6
Continuous
100
AcDbLine
 10
7.429611298437308
 20
9.073664518336693
 30
0.0
 11
7.582738299387301
 21
9.013805781601687
 31
0.0
  0
LINE
  5
7E2E1
330
1E
100
AcDbEntity
  8
PART
  6
Continuous
100
AcDbLine
 10
7.582738299387301
 20
9.013805781601687
 30
0.0
 11
7.738649427627294
 21
8.965083554026691
 31
0.0
  0
LINE
  5
7E2E2
330
1E
100
AcDbEntity
  8
PART
  6
Continuous
100
AcDbLine
 10
7.738649427627294
 20
8.965083554026691
 30
0.0
 11
7.898736746802311
 21
8.926105771966689
 31
0.0
  0
LINE
  5
7E2E3
330
1E
100
AcDbEntity
  8
PART
  6
Continuous
100
AcDbLine
 10
7.898736746802311
 20
8.926105771966689
 30
0.0
 11
8.060216129622302
 21
8.898264499066691
 31
0.0
  0
LINE
  5
7E2E4
330
1E
100
AcDbEntity
  8
PART
  6
Continuous
100
AcDbLine
 10
8.060216129622302
 20
8.898264499066691
 30
0.0
 11
8.224479639732294
 21
8.881559735326689
 31
0.0
  0
LINE
  5
7E2E5
330
1E
100
AcDbEntity
  8
PART
  6
Continuous
100
AcDbLine
 10
8.224479639732294
 20
8.881559735326689
 30
0.0
 11
8.388743149842298
 21
8.875991480746691
 31
0.0
  0
LINE
  5
7E2E6
330
1E
100
AcDbEntity
  8
PART
  6
Continuous
100
AcDbLine
 10
8.388743149842298
 20
8.875991480746691
 30
0.0
 11
11.93850544459229
 21
8.875991480746691
 31
0.0
  0
LINE
  5
7E2E7
330
1E
100
AcDbEntity
  8
PART
  6
Continuous
100
AcDbLine
 10
11.93850544459229
 20
8.875991480746691
 30
0.0
 11
12.1027689547023
 21
8.881559735326689
 31
0.0
  0
LINE
  5
7E2E8
330
1E
100
AcDbEntity
  8
PART
  6
Continuous
100
AcDbLine
 10
12.1027689547023
 20
8.881559735326689
 30
0.0
 11
12.26564040116729
 21
8.899656562711689
 31
0.0
  0
LINE
  5
7E2E9
330
1E
100
AcDbEntity
  8
PART
  6
Continuous
100
AcDbLine
 10
12.26564040116729
 20
8.899656562711689
 30
0.0
 11
12.42711978398731
 21
8.927497835611687
 31
0.0
  0
LINE
  5
7E2EA
330
1E
100
AcDbEntity
  8
PART
  6
Continuous
100
AcDbLine
 10
12.42711978398731
 20
8.927497835611687
 30
0.0
 11
12.5872071031623
 21
8.96647561767169
 31
0.0
  0
LINE
  5
7E2EB
330
1E
100
AcDbEntity
  8
PART
  6
Continuous
100
AcDbLine
 10
12.5872071031623
 20
8.96647561767169
 30
0.0
 11
12.74311823140221
 21
9.016589908891694
 31
0.0
  0
LINE
  5
7E2EC
330
1E
100
AcDbEntity
  8
PART
  6
Continuous
100
AcDbLine
 10
12.74311823140221
 20
9.016589908891694
 30
0.0
 11
12.89624523235228
 21
9.076448645626687
 31
0.0
  0
LINE
  5
7E2ED
330
1E
100
AcDbEntity
  8
PART
  6
Continuous
100
AcDbLine
 10
12.89624523235228
 20
9.076448645626687
 30
0.0
 11
13.04380397872231
 21
9.147443891521687
 31
0.0
  0
LINE
  5
7E2EE
330
1E
100
AcDbEntity
  8
PART
  6
Continuous
100
AcDbLine
 10
13.04380397872231
 20
9.147443891521687
 30
0.0
 11
13.18718653415729
 21
9.226791519286694
 31
0.0
  0
LINE
  5
7E2EF
330
1E
100
AcDbEntity
  8
PART
  6
Continuous
100
AcDbLine
 10
13.18718653415729
 20
9.226791519286694
 30
0.0
 11
13.3250008350123
 21
9.317275656211693
 31
0.0
  0
LINE
  5
7E2F0
330
1E
100
AcDbEntity
  8
PART
  6
Continuous
100
AcDbLine
 10
13.3250008350123
 20
9.317275656211693
 30
0.0
 11
13.4558548176422
 21
9.416112175006693
 31
0.0
  0
LINE
  5
7E2F1
330
1E
100
AcDbEntity
  8
PART
  6
Continuous
100
AcDbLine
 10
13.4558548176422
 20
9.416112175006693
 30
0.0
 11
13.57974848204731
 21
9.523301075671687
 31
0.0
  0
LINE
  5
7E2F2
330
1E
100
AcDbEntity
  8
PART
  6
Continuous
100
AcDbLine
 10
13.57974848204731
 20
9.523301075671687
 30
0.0
 11
13.69668182822731
 21
9.640234421851687
 31
0.0
  0
LINE
  5
7E2F3
330
1E
100
AcDbEntity
  8
PART
  6
Continuous
100
AcDbLine
 10
13.69668182822731
 20
9.640234421851687
 30
0.0
 11
13.8052627925373
 21
9.762736022611687
 31
0.0
  0
LINE
  5
7E2F4
330
1E
100
AcDbEntity
  8
PART
  6
Continuous
100
AcDbLine
 10
13.8052627925373
 20
9.762736022611687
 30
0.0
 11
13.9040993113323
 21
9.893590005241692
 31
0.0
  0
LINE
  5
7E2F5
330
1E
100
AcDbEntity
  8
PART
  6
Continuous
100
AcDbLine
 10
13.9040993113323
 20
9.893590005241692
 30
0.0
 11
13.99458344825729
 21
10.03001224245169
 31
0.0
  0
LINE
  5
7E2F6
330
1E
100
AcDbEntity
  8
PART
  6
Continuous
100
AcDbLine
 10
13.99458344825729
 20
10.03001224245169
 30
0.0
 11
14.0767152033123
 21
10.17339479788669
 31
0.0
  0
LINE
  5
7E2F7
330
1E
100
AcDbEntity
  8
PART
  6
Continuous
100
AcDbLine
 10
14.0767152033123
 20
10.17339479788669
 30
0.0
 11
14.14771044920731
 21
10.32095354425669
 31
0.0
  0
LINE
  5
7E2F8
330
1E
100
AcDbEntity
  8
PART
  6
Continuous
100
AcDbLine
 10
14.14771044920731
 20
10.32095354425669
 30
0.0
 11
14.2089612495873
 21
10.47408054520669
 31
0.0
  0
LINE
  5
7E2F9
330
1E
100
AcDbEntity
  8
PART
  6
Continuous
100
AcDbLine
 10
14.2089612495873
 20
10.47408054520669
 30
0.0
 11
14.2590755408073
 21
10.62999167344669
 31
0.0
  0
LINE
  5
7E2FA
330
1E
100
AcDbEntity
  8
PART
  6
Continuous
100
AcDbLine
 10
14.2590755408073
 20
10.62999167344669
 30
0.0
 11
14.29944538651229
 21
10.78868692897668
 31
0.0
  0
LINE
  5
7E2FB
330
1E
100
AcDbEntity
  8
PART
  6
Continuous
100
AcDbLine
 10
14.29944538651229
 20
10.78868692897668
 30
0.0
 11
14.32728665941231
 21
10.95016631179669
 31
0.0
  0
LINE
  5
7E2FC
330
1E
100
AcDbEntity
  8
PART
  6
Continuous
100
AcDbLine
 10
14.32728665941231
 20
10.95016631179669
 30
0.0
 11
14.34538348679729
 21
11.11303775826169
 31
0.0
  0
LINE
  5
7E2FD
330
1E
100
AcDbEntity
  8
PART
  6
Continuous
100
AcDbLine
 10
14.34538348679729
 20
11.11303775826169
 30
0.0
 11
14.3523438050223
 21
11.27730126837169
 31
0.0
  0
LINE
  5
7E2FE
330
1E
100
AcDbEntity
  8
PART
  6
Continuous
100
AcDbLine
 10
14.3523438050223
 20
11.27730126837169
 30
0.0
 11
14.3579120596023
 21
11.29122190482169
 31
0.0
  0
LINE
  5
7E2FF
330
1E
100
AcDbEntity
  8
PART
  6
Continuous
100
AcDbLine
 10
14.3579120596023
 20
11.29122190482169
 30
0.0
 11
14.37183269605229
 21
11.29679015940169
 31
0.0
  0
LINE
  5
7E300
330
1E
100
AcDbEntity
  8
PART
  6
Continuous
100
AcDbLine
 10
14.37183269605229
 20
11.29679015940169
 30
0.0
 11
14.46370889662229
 21
11.29679015940169
 31
0.0
  0
LINE
  5
7E301
330
1E
100
AcDbEntity
  8
PART
  6
Continuous
100
AcDbLine
 10
14.46370889662229
 20
11.29679015940169
 30
0.0
 11
14.4776295330723
 21
11.30375047762669
 31
0.0
  0
LINE
  5
7E302
330
1E
100
AcDbEntity
  8
PART
  6
Continuous
100
AcDbLine
 10
14.4776295330723
 20
11.30375047762669
 30
0.0
 11
14.4831977876523
 21
11.31627905043169
 31
0.0
  0
LINE
  5
7E303
330
1E
100
AcDbEntity
  8
PART
  6
Continuous
100
AcDbLine
 10
14.4831977876523
 20
11.31627905043169
 30
0.0
 11
14.4901581058773
 21
11.75060290767169
 31
0.0
  0
LINE
  5
7E304
330
1E
100
AcDbEntity
  8
PART
  6
Continuous
100
AcDbLine
 10
14.4901581058773
 20
11.75060290767169
 30
0.0
 11
14.3939488621306
 21
11.75060290767169
 31
0.0
  0
LINE
  5
7E305
330
1E
100
AcDbEntity
  8
PART
  6
Continuous
100
AcDbLine
 10
14.3939488621306
 20
11.75060290767169
 30
0.0
 11
14.3954977780173
 21
11.86057593562669
 31
0.0
  0
LINE
  5
7E306
330
1E
100
AcDbEntity
  8
PART
  6
Continuous
100
AcDbLine
 10
14.3954977780173
 20
11.86057593562669
 30
0.0
 11
14.4901581058773
 21
11.86057593562669
 31
0.0
  0
LINE
  5
7E307
330
1E
100
AcDbEntity
  8
PART
  6
Continuous
100
AcDbLine
 10
14.4901581058773
 20
11.86057593562669
 30
0.0
 11
14.50686286961731
 21
12.76541730487669
 31
0.0
  0
LINE
  5
7E308
330
1E
100
AcDbEntity
  8
PART
  6
Continuous
100
AcDbLine
 10
14.50686286961731
 20
12.76541730487669
 30
0.0
 11
5.813425406592215
 21
12.76541730487669
 31
0.0
  0
LINE
  5
7E309
330
1E
100
AcDbEntity
  8
PART
  6
Continuous
100
AcDbLine
 10
5.813425406592215
 20
12.76541730487669
 30
0.0
 11
5.828738106687295
 21
11.86057593562669
 31
0.0
  0
LINE
  5
7E30A
330
1E
100
AcDbEntity
  8
PART
  6
Continuous
100
AcDbLine
 10
5.828738106687295
 20
11.86057593562669
 30
0.0
 11
5.923398434547307
 21
11.86057593562669
 31
0.0
  0
LINE
  5
7E30B
330
1E
100
AcDbEntity
  8
PART
  6
Continuous
100
AcDbLine
 10
5.923398434547307
 20
11.86057593562669
 30
0.0
 11
5.925721808377304
 21
11.75060290767169
 31
0.0
  0
LINE
  5
7E30C
330
1E
100
AcDbEntity
  8
PART
  6
Continuous
100
AcDbLine
 10
5.925721808377304
 20
11.75060290767169
 30
0.0
 11
5.828738106687295
 21
11.75060290767169
 31
0.0
  0
LINE
  5
7E30D
330
1E
100
AcDbEntity
  8
PART
  6
Continuous
100
AcDbLine
 10
5.947063516512301
 20
11.29679015940169
 30
0.0
 11
14.37183269605229
 21
11.29679015940169
 31
0.0
  0
LINE
  5
7E30E
330
1E
100
AcDbEntity
  8
PART
  6
Continuous
100
AcDbLine
 10
14.3939488621306
 20
11.75060290767169
 30
0.0
 11
5.925721808377304
 21
11.75060290767169
 31
0.0
  0
LINE
  5
7E30F
330
1E
100
AcDbEntity
  8
PART
  6
Continuous
100
AcDbLine
 10
5.923398434547307
 20
11.86057593562669
 30
0.0
 11
14.3954977780173
 21
11.86057593562669
 31
0.0
  0
LINE
  5
7E310
330
1E
100
AcDbEntity
  8
PART
  6
Continuous
100
AcDbLine
 10
6.3020397459873
 20
11.29679015940169
 30
0.0
 11
6.303611430747793
 21
11.21914893223316
 31
0.0
  0
LINE
  5
7E311
330
1E
100
AcDbEntity
  8
PART
  6
Continuous
100
AcDbLine
 10
6.303611430747793
 20
11.21914893223316
 30
0.0
 11
6.309000064212298
 21
11.14505522209669
 31
0.0
  0
LINE
  5
7E312
330
1E
100
AcDbEntity
  8
PART
  6
Continuous
100
AcDbLine
 10
6.309000064212298
 20
11.14505522209669
 30
0.0
 11
6.321528637017307
 21
11.02255362133669
 31
0.0
  0
LINE
  5
7E313
330
1E
100
AcDbEntity
  8
PART
  6
Continuous
100
AcDbLine
 10
6.321528637017307
 20
11.02255362133669
 30
0.0
 11
6.347637923754204
 21
10.86792124923632
 31
0.0
  0
LINE
  5
7E314
330
1E
100
AcDbEntity
  8
PART
  6
Continuous
100
AcDbLine
 10
6.347637923754204
 20
10.86792124923632
 30
0.0
 11
6.371327505961202
 21
10.76566530845487
 31
0.0
  0
LINE
  5
7E315
330
1E
100
AcDbEntity
  8
PART
  6
Continuous
100
AcDbLine
 10
6.371327505961202
 20
10.76566530845487
 30
0.0
 11
6.430109601327302
 21
10.57987738222669
 31
0.0
  0
LINE
  5
7E316
330
1E
100
AcDbEntity
  8
PART
  6
Continuous
100
AcDbLine
 10
6.430109601327302
 20
10.57987738222669
 30
0.0
 11
6.487184210772297
 21
10.43927895408169
 31
0.0
  0
LINE
  5
7E317
330
1E
100
AcDbEntity
  8
PART
  6
Continuous
100
AcDbLine
 10
6.487184210772297
 20
10.43927895408169
 30
0.0
 11
6.533122311057297
 21
10.34322656257669
 31
0.0
  0
LINE
  5
7E318
330
1E
100
AcDbEntity
  8
PART
  6
Continuous
100
AcDbLine
 10
6.533122311057297
 20
10.34322656257669
 30
0.0
 11
6.633350893497192
 21
10.17061067059669
 31
0.0
  0
LINE
  5
7E319
330
1E
100
AcDbEntity
  8
PART
  6
Continuous
100
AcDbLine
 10
6.633350893497192
 20
10.17061067059669
 30
0.0
 11
6.719658839487292
 21
10.04532494254669
 31
0.0
  0
LINE
  5
7E31A
330
1E
100
AcDbEntity
  8
PART
  6
Continuous
100
AcDbLine
 10
6.719658839487292
 20
10.04532494254669
 30
0.0
 11
6.785085830802302
 21
9.96319318749169
 31
0.0
  0
LINE
  5
7E31B
330
1E
100
AcDbEntity
  8
PART
  6
Continuous
100
AcDbLine
 10
6.785085830802302
 20
9.96319318749169
 30
0.0
 11
6.893296326561907
 21
9.841365165914416
 31
0.0
  0
LINE
  5
7E31C
330
1E
100
AcDbEntity
  8
PART
  6
Continuous
100
AcDbLine
 10
6.893296326561907
 20
9.841365165914416
 30
0.0
 11
6.995287441197206
 21
9.743247131581687
 31
0.0
  0
LINE
  5
7E31D
330
1E
100
AcDbEntity
  8
PART
  6
Continuous
100
AcDbLine
 10
6.995287441197206
 20
9.743247131581687
 30
0.0
 11
7.112220787377295
 21
9.647194740076693
 31
0.0
  0
LINE
  5
7E31E
330
1E
100
AcDbEntity
  8
PART
  6
Continuous
100
AcDbLine
 10
7.112220787377295
 20
9.647194740076693
 30
0.0
 11
7.237506515427297
 21
9.558102666796687
 31
0.0
  0
LINE
  5
7E31F
330
1E
100
AcDbEntity
  8
PART
  6
Continuous
100
AcDbLine
 10
7.237506515427297
 20
9.558102666796687
 30
0.0
 11
7.408730343762298
 21
9.455089957066688
 31
0.0
  0
LINE
  5
7E320
330
1E
100
AcDbEntity
  8
PART
  6
Continuous
100
AcDbLine
 10
7.408730343762298
 20
9.455089957066688
 30
0.0
 11
7.502712305582221
 21
9.407455941681117
 31
0.0
  0
LINE
  5
7E321
330
1E
100
AcDbEntity
  8
PART
  6
Continuous
100
AcDbLine
 10
7.502712305582221
 20
9.407455941681117
 30
0.0
 11
7.642597036122294
 21
9.347901056401687
 31
0.0
  0
LINE
  5
7E322
330
1E
100
AcDbEntity
  8
PART
  6
Continuous
100
AcDbLine
 10
7.642597036122294
 20
9.347901056401687
 30
0.0
 11
7.833309755487306
 21
9.288042319666693
 31
0.0
  0
LINE
  5
7E323
330
1E
100
AcDbEntity
  8
PART
  6
Continuous
100
AcDbLine
 10
7.833309755487306
 20
9.288042319666693
 30
0.0
 11
7.980868501857299
 21
9.251848664896693
 31
0.0
  0
LINE
  5
7E324
330
1E
100
AcDbEntity
  8
PART
  6
Continuous
100
AcDbLine
 10
7.980868501857299
 20
9.251848664896693
 30
0.0
 11
8.152092330192289
 21
9.224007391996687
 31
0.0
  0
LINE
  5
7E325
330
1E
100
AcDbEntity
  8
PART
  6
Continuous
100
AcDbLine
 10
8.309395522077309
 20
9.212972123829054
 30
0.0
 11
8.388743149842298
 21
9.210086755546686
 31
0.0
  0
LINE
  5
7E326
330
1E
100
AcDbEntity
  8
PART
  6
Continuous
100
AcDbLine
 10
8.388743149842298
 20
9.210086755546686
 30
0.0
 11
10.08149254216221
 21
9.210751883009287
 31
0.0
  0
LINE
  5
7E327
330
1E
100
AcDbEntity
  8
PART
  6
Continuous
100
AcDbLine
 10
10.2387957340473
 20
9.210813691729084
 30
0.0
 11
11.9315451263673
 21
9.21147881919169
 31
0.0
  0
LINE
  5
7E328
330
1E
100
AcDbEntity
  8
PART
  6
Continuous
100
AcDbLine
 10
11.9315451263673
 20
9.21147881919169
 30
0.0
 11
12.0095006904873
 21
9.212870882836687
 31
0.0
  0
LINE
  5
7E329
330
1E
100
AcDbEntity
  8
PART
  6
Continuous
100
AcDbLine
 10
12.0095006904873
 20
9.212870882836687
 30
0.0
 11
12.0108927541323
 21
9.212961109184053
 31
0.0
  0
LINE
  5
7E32A
330
1E
100
AcDbEntity
  8
PART
  6
Continuous
100
AcDbLine
 10
12.1681959460173
 20
9.223872676160075
 30
0.0
 11
12.28930548313229
 21
9.242104219381694
 31
0.0
  0
LINE
  5
7E32B
330
1E
100
AcDbEntity
  8
PART
  6
Continuous
100
AcDbLine
 10
12.28930548313229
 20
9.242104219381694
 30
0.0
 11
12.43964835679229
 21
9.274121683216693
 31
0.0
  0
LINE
  5
7E32C
330
1E
100
AcDbEntity
  8
PART
  6
Continuous
100
AcDbLine
 10
12.43964835679229
 20
9.274121683216693
 30
0.0
 11
12.5858150395173
 21
9.317275656211693
 31
0.0
  0
LINE
  5
7E32D
330
1E
100
AcDbEntity
  8
PART
  6
Continuous
100
AcDbLine
 10
12.5858150395173
 20
9.317275656211693
 30
0.0
 11
12.7394060616823
 21
9.374118255049213
 31
0.0
  0
LINE
  5
7E32E
330
1E
100
AcDbEntity
  8
PART
  6
Continuous
100
AcDbLine
 10
12.7394060616823
 20
9.374118255049213
 30
0.0
 11
12.8843556395812
 21
9.442211466624247
 31
0.0
  0
LINE
  5
7E32F
330
1E
100
AcDbEntity
  8
PART
  6
Continuous
100
AcDbLine
 10
12.8843556395812
 20
9.442211466624247
 30
0.0
 11
13.00065000572731
 21
9.506596311931692
 31
0.0
  0
LINE
  5
7E330
330
1E
100
AcDbEntity
  8
PART
  6
Continuous
100
AcDbLine
 10
13.00065000572731
 20
9.506596311931692
 30
0.0
 11
13.12871986106729
 21
9.590120130631692
 31
0.0
  0
LINE
  5
7E331
330
1E
100
AcDbEntity
  8
PART
  6
Continuous
100
AcDbLine
 10
13.12871986106729
 20
9.590120130631692
 30
0.0
 11
13.2498293981823
 21
9.680604267556693
 31
0.0
  0
LINE
  5
7E332
330
1E
100
AcDbEntity
  8
PART
  6
Continuous
100
AcDbLine
 10
13.2498293981823
 20
9.680604267556693
 30
0.0
 11
13.36397861707229
 21
9.782224913641693
 31
0.0
  0
LINE
  5
7E333
330
1E
100
AcDbEntity
  8
PART
  6
Continuous
100
AcDbLine
 10
13.36397861707229
 20
9.782224913641693
 30
0.0
 11
13.47255958138228
 21
9.889413814306692
 31
0.0
  0
LINE
  5
7E334
330
1E
100
AcDbEntity
  8
PART
  6
Continuous
100
AcDbLine
 10
13.47255958138228
 20
9.889413814306692
 30
0.0
 11
13.57000403653231
 21
10.00634716048669
 31
0.0
  0
LINE
  5
7E335
330
1E
100
AcDbEntity
  8
PART
  6
Continuous
100
AcDbLine
 10
13.57000403653231
 20
10.00634716048669
 30
0.0
 11
13.65909610981229
 21
10.13024082489169
 31
0.0
  0
LINE
  5
7E336
330
1E
100
AcDbEntity
  8
PART
  6
Continuous
100
AcDbLine
 10
13.65909610981229
 20
10.13024082489169
 30
0.0
 11
13.74958024673731
 21
10.27640750761669
 31
0.0
  0
LINE
  5
7E337
330
1E
100
AcDbEntity
  8
PART
  6
Continuous
100
AcDbLine
 10
13.74958024673731
 20
10.27640750761669
 30
0.0
 11
13.8177913653423
 21
10.41143768118168
 31
0.0
  0
LINE
  5
7E338
330
1E
100
AcDbEntity
  8
PART
  6
Continuous
100
AcDbLine
 10
13.8177913653423
 20
10.41143768118168
 30
0.0
 11
13.87549442218299
 21
10.5451327239937
 31
0.0
  0
LINE
  5
7E339
330
1E
100
AcDbEntity
  8
PART
  6
Continuous
100
AcDbLine
 10
13.87549442218299
 20
10.5451327239937
 30
0.0
 11
13.92358820236231
 21
10.67732183737669
 31
0.0
  0
LINE
  5
7E33A
330
1E
100
AcDbEntity
  8
PART
  6
Continuous
100
AcDbLine
 10
13.92358820236231
 20
10.67732183737669
 30
0.0
 11
13.9643768990754
 21
10.83668005209611
 31
0.0
  0
LINE
  5
7E33B
330
1E
100
AcDbEntity
  8
PART
  6
Continuous
100
AcDbLine
 10
13.9643768990754
 20
10.83668005209611
 30
0.0
 11
13.9932918428135
 21
10.98634561539513
 31
0.0
  0
LINE
  5
7E33C
330
1E
100
AcDbEntity
  8
PART
  6
Continuous
100
AcDbLine
 10
13.9932918428135
 20
10.98634561539513
 30
0.0
 11
14.0118264279543
 21
11.13729943893128
 31
0.0
  0
LINE
  5
7E33D
330
1E
100
AcDbEntity
  8
PART
  6
Continuous
100
AcDbLine
 10
14.0118264279543
 20
11.13729943893128
 30
0.0
 11
14.01824853022229
 21
11.29679015940169
 31
0.0
  0
LINE
  5
7E33E
330
1E
100
AcDbEntity
  8
PART
  6
Continuous
100
AcDbLine
 10
13.93728766982191
 20
11.29679015940169
 30
0.0
 11
13.93333264787731
 21
11.19099332238169
 31
0.0
  0
LINE
  5
7E33F
330
1E
100
AcDbEntity
  8
PART
  6
Continuous
100
AcDbLine
 10
13.93333264787731
 20
11.19099332238169
 30
0.0
 11
13.9166278841373
 21
11.04204251236669
 31
0.0
  0
LINE
  5
7E340
330
1E
100
AcDbEntity
  8
PART
  6
Continuous
100
AcDbLine
 10
13.9166278841373
 20
11.04204251236669
 30
0.0
 11
13.89017867488228
 21
10.89587582964169
 31
0.0
  0
LINE
  5
7E341
330
1E
100
AcDbEntity
  8
PART
  6
Continuous
100
AcDbLine
 10
13.89017867488228
 20
10.89587582964169
 30
0.0
 11
13.8512008928223
 21
10.75110121056169
 31
0.0
  0
LINE
  5
7E342
330
1E
100
AcDbEntity
  8
PART
  6
Continuous
100
AcDbLine
 10
13.8512008928223
 20
10.75110121056169
 30
0.0
 11
13.80247866524731
 21
10.61050278241669
 31
0.0
  0
LINE
  5
7E343
330
1E
100
AcDbEntity
  8
PART
  6
Continuous
100
AcDbLine
 10
13.80247866524731
 20
10.61050278241669
 30
0.0
 11
13.7426199285123
 21
10.47268848156169
 31
0.0
  0
LINE
  5
7E344
330
1E
100
AcDbEntity
  8
PART
  6
Continuous
100
AcDbLine
 10
13.7426199285123
 20
10.47268848156169
 30
0.0
 11
13.6730167462623
 21
10.34044243528669
 31
0.0
  0
LINE
  5
7E345
330
1E
100
AcDbEntity
  8
PART
  6
Continuous
100
AcDbLine
 10
13.6730167462623
 20
10.34044243528669
 30
0.0
 11
13.59366911849729
 21
10.21376464359169
 31
0.0
  0
LINE
  5
7E346
330
1E
100
AcDbEntity
  8
PART
  6
Continuous
100
AcDbLine
 10
13.59366911849729
 20
10.21376464359169
 30
0.0
 11
13.5044837795033
 21
10.09252832339678
 31
0.0
  0
LINE
  5
7E347
330
1E
100
AcDbEntity
  8
PART
  6
Continuous
100
AcDbLine
 10
13.5044837795033
 20
10.09252832339678
 30
0.0
 11
13.4085246537123
 21
9.979897951231693
 31
0.0
  0
LINE
  5
7E348
330
1E
100
AcDbEntity
  8
PART
  6
Continuous
100
AcDbLine
 10
13.4085246537123
 20
9.979897951231693
 30
0.0
 11
13.30272781669229
 21
9.874101114211688
 31
0.0
  0
LINE
  5
7E349
330
1E
100
AcDbEntity
  8
PART
  6
Continuous
100
AcDbLine
 10
13.30272781669229
 20
9.874101114211688
 30
0.0
 11
13.18997066144729
 21
9.775264595416693
 31
0.0
  0
LINE
  5
7E34A
330
1E
100
AcDbEntity
  8
PART
  6
Continuous
100
AcDbLine
 10
13.18997066144729
 20
9.775264595416693
 30
0.0
 11
13.07025318797728
 21
9.686172522136686
 31
0.0
  0
LINE
  5
7E34B
330
1E
100
AcDbEntity
  8
PART
  6
Continuous
100
AcDbLine
 10
13.07025318797728
 20
9.686172522136686
 30
0.0
 11
12.94357539628231
 21
9.606824894371687
 31
0.0
  0
LINE
  5
7E34C
330
1E
100
AcDbEntity
  8
PART
  6
Continuous
100
AcDbLine
 10
12.94357539628231
 20
9.606824894371687
 30
0.0
 11
12.81132935000721
 21
9.535829648476694
 31
0.0
  0
LINE
  5
7E34D
330
1E
100
AcDbEntity
  8
PART
  6
Continuous
100
AcDbLine
 10
12.81132935000721
 20
9.535829648476694
 30
0.0
 11
12.6749071127973
 21
9.474578848096687
 31
0.0
  0
LINE
  5
7E34E
330
1E
100
AcDbEntity
  8
PART
  6
Continuous
100
AcDbLine
 10
12.6749071127973
 20
9.474578848096687
 30
0.0
 11
12.5343086846523
 21
9.424464556876692
 31
0.0
  0
LINE
  5
7E34F
330
1E
100
AcDbEntity
  8
PART
  6
Continuous
100
AcDbLine
 10
12.5343086846523
 20
9.424464556876692
 30
0.0
 11
12.3895340655722
 21
9.385486774816692
 31
0.0
  0
LINE
  5
7E350
330
1E
100
AcDbEntity
  8
PART
  6
Continuous
100
AcDbLine
 10
12.3895340655722
 20
9.385486774816692
 30
0.0
 11
12.24336738284731
 21
9.357645501916692
 31
0.0
  0
LINE
  5
7E351
330
1E
100
AcDbEntity
  8
PART
  6
Continuous
100
AcDbLine
 10
12.24336738284731
 20
9.357645501916692
 30
0.0
 11
12.1681959460173
 21
9.348512523610246
 31
0.0
  0
LINE
  5
7E352
330
1E
100
AcDbEntity
  8
PART
  6
Continuous
100
AcDbLine
 10
12.0108927541321
 20
9.335645692349443
 30
0.0
 11
11.9454657628173
 21
9.332588356306693
 31
0.0
  0
LINE
  5
7E353
330
1E
100
AcDbEntity
  8
PART
  6
Continuous
100
AcDbLine
 10
11.9454657628173
 20
9.332588356306693
 30
0.0
 11
10.2387957340473
 21
9.33258835630669
 31
0.0
  0
LINE
  5
7E354
330
1E
100
AcDbEntity
  8
PART
  6
Continuous
100
AcDbLine
 10
10.08149254216221
 20
9.33258835630669
 30
0.0
 11
8.388743149842298
 21
9.332588356306693
 31
0.0
  0
LINE
  5
7E355
330
1E
100
AcDbEntity
  8
PART
  6
Continuous
100
AcDbLine
 10
8.388743149842298
 20
9.332588356306693
 30
0.0
 11
8.309395522077309
 21
9.335527157335024
 31
0.0
  0
LINE
  5
7E356
330
1E
100
AcDbEntity
  8
PART
  6
Continuous
100
AcDbLine
 10
8.152092330192202
 20
9.34783600669866
 30
0.0
 11
8.089449466167295
 21
9.354861374626688
 31
0.0
  0
LINE
  5
7E357
330
1E
100
AcDbEntity
  8
PART
  6
Continuous
100
AcDbLine
 10
8.089449466167295
 20
9.354861374626688
 30
0.0
 11
7.943282783442299
 21
9.382702647526693
 31
0.0
  0
LINE
  5
7E358
330
1E
100
AcDbEntity
  8
PART
  6
Continuous
100
AcDbLine
 10
7.943282783442299
 20
9.382702647526693
 30
0.0
 11
7.798508164362289
 21
9.42168042958669
 31
0.0
  0
LINE
  5
7E359
330
1E
100
AcDbEntity
  8
PART
  6
Continuous
100
AcDbLine
 10
7.798508164362289
 20
9.42168042958669
 30
0.0
 11
7.657909736217303
 21
9.470402657161693
 31
0.0
  0
LINE
  5
7E35A
330
1E
100
AcDbEntity
  8
PART
  6
Continuous
100
AcDbLine
 10
7.657909736217303
 20
9.470402657161693
 30
0.0
 11
7.520095435362292
 21
9.530261393896687
 31
0.0
  0
LINE
  5
7E35B
330
1E
100
AcDbEntity
  8
PART
  6
Continuous
100
AcDbLine
 10
7.520095435362292
 20
9.530261393896687
 30
0.0
 11
7.387849389087293
 21
9.599864576146687
 31
0.0
  0
LINE
  5
7E35C
330
1E
100
AcDbEntity
  8
PART
  6
Continuous
100
AcDbLine
 10
7.387849389087293
 20
9.599864576146687
 30
0.0
 11
7.261171597392205
 21
9.679212203911687
 31
0.0
  0
LINE
  5
7E35D
330
1E
100
AcDbEntity
  8
PART
  6
Continuous
100
AcDbLine
 10
7.261171597392205
 20
9.679212203911687
 30
0.0
 11
7.140062060277299
 21
9.766912213546687
 31
0.0
  0
LINE
  5
7E35E
330
1E
100
AcDbEntity
  8
PART
  6
Continuous
100
AcDbLine
 10
7.140062060277299
 20
9.766912213546687
 30
0.0
 11
7.027304905032307
 21
9.864356668696686
 31
0.0
  0
LINE
  5
7E35F
330
1E
100
AcDbEntity
  8
PART
  6
Continuous
100
AcDbLine
 10
7.027304905032307
 20
9.864356668696686
 30
0.0
 11
6.921508068012286
 21
9.970153505716693
 31
0.0
  0
LINE
  5
7E360
330
1E
100
AcDbEntity
  8
PART
  6
Continuous
100
AcDbLine
 10
6.921508068012286
 20
9.970153505716693
 30
0.0
 11
6.822671549217304
 21
10.08291066096169
 31
0.0
  0
LINE
  5
7E361
330
1E
100
AcDbEntity
  8
PART
  6
Continuous
100
AcDbLine
 10
6.822671549217304
 20
10.08291066096169
 30
0.0
 11
6.733579475937303
 21
10.20262813443169
 31
0.0
  0
LINE
  5
7E362
330
1E
100
AcDbEntity
  8
PART
  6
Continuous
100
AcDbLine
 10
6.733579475937303
 20
10.20262813443169
 30
0.0
 11
6.654231848172299
 21
10.32930592612669
 31
0.0
  0
LINE
  5
7E363
330
1E
100
AcDbEntity
  8
PART
  6
Continuous
100
AcDbLine
 10
6.654231848172299
 20
10.32930592612669
 30
0.0
 11
6.583236602277294
 21
10.46015990875669
 31
0.0
  0
LINE
  5
7E364
330
1E
100
AcDbEntity
  8
PART
  6
Continuous
100
AcDbLine
 10
6.583236602277294
 20
10.46015990875669
 30
0.0
 11
6.5233778655423
 21
10.59797420961169
 31
0.0
  0
LINE
  5
7E365
330
1E
100
AcDbEntity
  8
PART
  6
Continuous
100
AcDbLine
 10
6.5233778655423
 20
10.59797420961169
 30
0.0
 11
6.471871510677202
 21
10.73857263775669
 31
0.0
  0
LINE
  5
7E366
330
1E
100
AcDbEntity
  8
PART
  6
Continuous
100
AcDbLine
 10
6.471871510677202
 20
10.73857263775669
 30
0.0
 11
6.432893728617299
 21
10.88195519319169
 31
0.0
  0
LINE
  5
7E367
330
1E
100
AcDbEntity
  8
PART
  6
Continuous
100
AcDbLine
 10
6.432893728617299
 20
10.88195519319169
 30
0.0
 11
6.404853250978007
 21
11.03056972467981
 31
0.0
  0
LINE
  5
7E368
330
1E
100
AcDbEntity
  8
PART
  6
Continuous
100
AcDbLine
 10
6.404853250978007
 20
11.03056972467981
 30
0.0
 11
6.386955628332303
 21
11.17707268593169
 31
0.0
  0
LINE
  5
7E369
330
1E
100
AcDbEntity
  8
PART
  6
Continuous
100
AcDbLine
 10
6.386955628332303
 20
11.17707268593169
 30
0.0
 11
6.381413152708601
 21
11.29679015940169
 31
0.0
  0
LINE
  5
7E36A
330
1E
100
AcDbEntity
  8
PART
  6
Continuous
100
AcDbLine
 10
8.152092330192289
 20
9.226791519286694
 30
0.0
 11
8.152092330192289
 21
8.888921156635845
 31
0.0
  0
LINE
  5
7E36B
330
1E
100
AcDbEntity
  8
PART
  6
Continuous
100
AcDbLine
 10
8.309395522077309
 20
9.214262946481692
 30
0.0
 11
8.30939552207721
 21
8.87877560803669
 31
0.0
  0
LINE
  5
7E36C
330
1E
100
AcDbEntity
  8
PART
  6
Continuous
100
AcDbLine
 10
8.152092330192289
 20
9.226791519286694
 30
0.0
 11
8.152092330192289
 21
11.29679015940169
 31
0.0
  0
LINE
  5
7E36D
330
1E
100
AcDbEntity
  8
PART
  6
Continuous
100
AcDbLine
 10
8.309395522077309
 20
9.214262946481692
 30
0.0
 11
8.309395522077309
 21
11.29679015940169
 31
0.0
  0
LINE
  5
7E36E
330
1E
100
AcDbEntity
  8
PART
  6
Continuous
100
AcDbLine
 10
10.08149254216221
 20
9.212870882836687
 30
0.0
 11
10.08149254216221
 21
8.875991480746687
 31
0.0
  0
LINE
  5
7E36F
330
1E
100
AcDbEntity
  8
PART
  6
Continuous
100
AcDbLine
 10
10.2387957340473
 20
9.212870882836687
 30
0.0
 11
10.2387957340473
 21
8.875991480746687
 31
0.0
  0
LINE
  5
7E370
330
1E
100
AcDbEntity
  8
PART
  6
Continuous
100
AcDbLine
 10
10.08149254216221
 20
9.212870882836687
 30
0.0
 11
10.08149254216221
 21
11.29679015940169
 31
0.0
  0
LINE
  5
7E371
330
1E
100
AcDbEntity
  8
PART
  6
Continuous
100
AcDbLine
 10
10.2387957340473
 20
9.212870882836687
 30
0.0
 11
10.2387957340473
 21
11.29679015940169
 31
0.0
  0
LINE
  5
7E372
330
1E
100
AcDbEntity
  8
PART
  6
Continuous
100
AcDbLine
 10
12.0108927541323
 20
9.214262946481692
 30
0.0
 11
12.0108927541323
 21
8.878445287849737
 31
0.0
  0
LINE
  5
7E373
330
1E
100
AcDbEntity
  8
PART
  6
Continuous
100
AcDbLine
 10
12.1681959460173
 20
9.226791519286694
 30
0.0
 11
12.1681959460173
 21
8.888829401028358
 31
0.0
  0
LINE
  5
7E374
330
1E
100
AcDbEntity
  8
PART
  6
Continuous
100
AcDbLine
 10
12.0108927541323
 20
9.214262946481692
 30
0.0
 11
12.0108927541323
 21
11.29679015940169
 31
0.0
  0
LINE
  5
7E375
330
1E
100
AcDbEntity
  8
PART
  6
Continuous
100
AcDbLine
 10
12.1681959460173
 20
9.226791519286694
 30
0.0
 11
12.1681959460173
 21
11.29679015940169
 31
0.0
  0
ARC
  5
7E377
330
1E
100
AcDbEntity
  8
PART
  6
Continuous
100
AcDbCircle
 10
8.388743149842298
 20
4.086712226251663
 30
0.0
 40
2.575317743249998
100
AcDbArc
 50
90.0
 51
270.0
  0
ARC
  5
7E378
330
1E
100
AcDbEntity
  8
PART
  6
Continuous
100
AcDbCircle
 10
11.9315451263673
 20
4.086712226251663
 30
0.0
 40
2.575317743249998
100
AcDbArc
 50
270.0
 51
90.0
  0
LINE
  5
7E37A
330
1E
100
AcDbEntity
  8
PART
  6
Continuous
100
AcDbLine
 10
11.9315451263673
 20
6.662029969501659
 30
0.0
 11
8.388743149842298
 21
6.662029969501659
 31
0.0
  0
LINE
  5
7E37B
330
1E
100
AcDbEntity
  8
PART
  6
Continuous
100
AcDbLine
 10
8.388743149842298
 20
1.511394483001662
 30
0.0
 11
11.9315451263673
 21
1.511394483001662
 31
0.0
  0
ARC
  5
7E37C
330
1E
100
AcDbEntity
  8
PART
  6
Continuous
100
AcDbCircle
 10
8.388743149842298
 20
4.086712226251663
 30
0.0
 40
2.462560588004999
100
AcDbArc
 50
90.0
 51
270.0
  0
ARC
  5
7E37E
330
1E
100
AcDbEntity
  8
PART
  6
Continuous
100
AcDbCircle
 10
8.388743149842298
 20
4.086712226251663
 30
0.0
 40
1.948889102999998
100
AcDbArc
 50
182.3129220911996
 51
263.025443337114
  0
ARC
  5
7E37F
330
1E
100
AcDbEntity
  8
PART
  6
Continuous
100
AcDbCircle
 10
11.9315451263673
 20
4.086712226251663
 30
0.0
 40
2.462560588004999
100
AcDbArc
 50
270.0
 51
90.0
  0
LINE
  5
7E380
330
1E
100
AcDbEntity
  8
PART
  6
Continuous
100
AcDbLine
 10
11.9315451263673
 20
6.549272814256662
 30
0.0
 11
8.388743149842298
 21
6.549272814256662
 31
0.0
  0
LINE
  5
7E381
330
1E
100
AcDbEntity
  8
PART
  6
Continuous
100
AcDbLine
 10
8.388743149842197
 20
1.624151638246663
 30
0.0
 11
11.9315451263673
 21
1.62415163824666
 31
0.0
  0
ARC
  5
7E382
330
1E
100
AcDbEntity
  8
PART
  6
Continuous
100
AcDbCircle
 10
11.9315451263673
 20
4.086712226251663
 30
0.0
 40
1.948889102999998
100
AcDbArc
 50
276.9745566628861
 51
357.6870779088002
  0
LINE
  5
7E385
330
1E
100
AcDbEntity
  8
PART
  6
Continuous
100
AcDbLine
 10
9.894078964138712
 20
2.137823123251663
 30
0.0
 11
10.08149254216221
 21
2.137823123251663
 31
0.0
  0
LINE
  5
7E387
330
1E
100
AcDbEntity
  8
PART
  6
Continuous
100
AcDbLine
 10
8.152092330192289
 20
4.008060630309143
 30
0.0
 11
8.152092330192289
 21
1.642117155616871
 31
0.0
  0
LINE
  5
7E389
330
1E
100
AcDbEntity
  8
PART
  6
Continuous
100
AcDbLine
 10
8.309395522077309
 20
4.008060630309143
 30
0.0
 11
8.309395522077309
 21
1.642117155616871
 31
0.0
  0
LINE
  5
7E38B
330
1E
100
AcDbEntity
  8
PART
  6
Continuous
100
AcDbLine
 10
10.08149254216221
 20
4.008060630309143
 30
0.0
 11
10.08149254216221
 21
1.642117155616874
 31
0.0
  0
LINE
  5
7E38D
330
1E
100
AcDbEntity
  8
PART
  6
Continuous
100
AcDbLine
 10
10.2387957340472
 20
4.008060630309143
 30
0.0
 11
10.23879573404764
 21
1.642117155616874
 31
0.0
  0
LINE
  5
7E390
330
1E
100
AcDbEntity
  8
PART
  6
Continuous
100
AcDbLine
 10
12.01089275413221
 20
4.008060630309143
 30
0.0
 11
12.01089275413221
 21
1.642117155616871
 31
0.0
  0
LINE
  5
7E392
330
1E
100
AcDbEntity
  8
PART
  6
Continuous
100
AcDbLine
 10
12.1681959460173
 20
4.008060630309143
 30
0.0
 11
12.1681959460173
 21
1.642117155616871
 31
0.0
  0
LINE
  5
7E393
330
1E
100
AcDbEntity
  8
PART
  6
Continuous
100
AcDbLine
 10
8.309395522077309
 20
6.531307296886454
 30
0.0
 11
8.152092330192289
 21
6.531307296886454
 31
0.0
  0
LINE
  5
7E394
330
1E
100
AcDbEntity
  8
PART
  6
Continuous
100
AcDbLine
 10
8.309395522077309
 20
1.642117155616871
 30
0.0
 11
8.152092330192289
 21
1.642117155616871
 31
0.0
  0
LINE
  5
7E395
330
1E
100
AcDbEntity
  8
PART
  6
Continuous
100
AcDbLine
 10
10.2387957340473
 20
6.531307296886454
 30
0.0
 11
10.08149254216221
 21
6.531307296886454
 31
0.0
  0
LINE
  5
7E396
330
1E
100
AcDbEntity
  8
PART
  6
Continuous
100
AcDbLine
 10
12.01089275413221
 20
6.531307296886452
 30
0.0
 11
12.1681959460173
 21
6.531307296886457
 31
0.0
  0
LINE
  5
7E397
330
1E
100
AcDbEntity
  8
PART
  6
Continuous
100
AcDbLine
 10
10.08149254216221
 20
1.642117155616874
 30
0.0
 11
10.2387957340473
 21
1.642117155616874
 31
0.0
  0
LINE
  5
7E398
330
1E
100
AcDbEntity
  8
PART
  6
Continuous
100
AcDbLine
 10
12.01089275413221
 20
1.642117155616871
 30
0.0
 11
12.1681959460173
 21
1.642117155616871
 31
0.0
  0
LINE
  5
7E399
330
1E
100
AcDbEntity
  8
PART
  6
Continuous
100
AcDbLine
 10
8.388743149842298
 20
2.137823123251664
 30
0.0
 11
9.894078964138712
 21
2.137823123251672
 31
0.0
  0
LINE
  5
7E39B
330
1E
100
AcDbEntity
  8
PART
  6
Continuous
100
AcDbLine
 10
5.942925406592307
 20
4.165363822194181
 30
0.0
 11
5.942925406592307
 21
4.008060630309143
 31
0.0
  0
LINE
  5
7E3A0
330
1E
100
AcDbEntity
  8
PART
  6
Continuous
100
AcDbLine
 10
5.942925406592307
 20
4.008060630309143
 30
0.0
 11
8.152092330192289
 21
4.008060630309143
 31
0.0
  0
LINE
  5
7E3A1
330
1E
100
AcDbEntity
  8
PART
  6
Continuous
100
AcDbLine
 10
8.309395522077309
 20
4.008060630309143
 30
0.0
 11
10.08149254216221
 21
4.008060630309143
 31
0.0
  0
LINE
  5
7E3A2
330
1E
100
AcDbEntity
  8
PART
  6
Continuous
100
AcDbLine
 10
10.2387957340472
 20
4.008060630309143
 30
0.0
 11
12.0108927541323
 21
4.008060630309143
 31
0.0
  0
LINE
  5
7E3A3
330
1E
100
AcDbEntity
  8
PART
  6
Continuous
100
AcDbLine
 10
12.16819594601721
 20
4.008060630309143
 30
0.0
 11
14.3761615583015
 21
4.008060630309143
 31
0.0
  0
LINE
  5
7E3A4
330
1E
100
AcDbEntity
  8
PART
  6
Continuous
100
AcDbLine
 10
14.3761615583015
 20
4.008060630309143
 30
0.0
 11
14.3761615583015
 21
4.165363822194181
 31
0.0
  0
CIRCLE
  5
7E3AF
330
1E
100
AcDbEntity
  8
PRECISION_PART
  6
Continuous
100
AcDbCircle
 10
7.2154263493844
 20
6.109393146546857
 30
0.0
 40
0.0819377658619924
  0
CIRCLE
  5
7E3B0
330
1E
100
AcDbEntity
  8
PRECISION_PART
  6
Continuous
100
AcDbCircle
 10
7.2154263493844
 20
2.086329212496857
 30
0.0
 40
0.0835530758133612
  0
CIRCLE
  5
7E3B1
330
1E
100
AcDbEntity
  8
PRECISION_PART
  6
Continuous
100
AcDbCircle
 10
13.08076368844681
 20
2.086329212496857
 30
0.0
 40
0.0832707162190865
  0
CIRCLE
  5
7E3B2
330
1E
100
AcDbEntity
  8
PRECISION_PART
  6
Continuous
100
AcDbCircle
 10
13.08076368844681
 20
6.109393146546855
 30
0.0
 40
0.0819419281943148
  0
DIMENSION
  5
7E3B3
330
1E
100
AcDbEntity
  8
DIM
100
AcDbDimension
  2
*D3
 10
4.508354999675217
 20
12.76541730487669
 30
0.0
 11
4.508354999675217
 21
10.82070439281169
 31
0.0
 70
    32
 71
     5
 42
3.88942582413
  3
Standard
100
AcDbAlignedDimension
 13
8.388743149842298
 23
8.875991480746691
 33
0.0
 14
5.813425406592215
 24
12.76541730487669
 34
0.0
 50
270.0
100
AcDbRotatedDimension
  0
DIMENSION
  5
7E3C1
330
1E
100
AcDbEntity
  8
DIM
100
AcDbDimension
  2
*D4
 10
14.50686286961721
 20
8.015120466364699
 30
0.0
 11
10.16014413810475
 21
8.015120466364699
 31
0.0
 70
    32
 71
     5
 42
8.693437463024906
  3
Standard
100
AcDbAlignedDimension
 13
5.813425406592299
 23
4.086712226251663
 33
0.0
 14
14.50686286961721
 24
4.086712226251663
 34
0.0
100
AcDbRotatedDimension
  0
DIMENSION
  5
7E3CF
330
1E
100
AcDbEntity
  8
DIM
100
AcDbDimension
  2
*D5
 10
16.19485921592651
 20
1.511394483001661
 30
0.0
 11
16.19485921592651
 21
4.086712226251663
 31
0.0
 70
    32
 71
     5
 42
5.150635486499997
  3
Standard
100
AcDbAlignedDimension
 13
11.9315451263673
 23
6.662029969501659
 33
0.0
 14
11.9315451263673
 24
1.511394483001662
 34
0.0
 50
90.0
100
AcDbRotatedDimension
  0
LWPOLYLINE
  5
7E457
330
1E
100
AcDbEntity
  8
PART
 62
     8
100
AcDbPolyline
 90
        6
 70
     1
 43
0.0
 10
7.26266798034517
 20
6.109393146546857
 10
7.239047164864786
 20
6.150305599075092
 10
7.191805533904014
 20
6.150305599075092
 10
7.16818471842363
 20
6.109393146546857
 10
7.191805533904014
 20
6.068480694018621
 10
7.239047164864786
 20
6.068480694018621
  0
LWPOLYLINE
  5
7E458
330
1E
100
AcDbEntity
  8
PART
 62
     8
100
AcDbPolyline
 90
        6
 70
     1
 43
0.0
 10
13.12800531940758
 20
6.109393146546855
 10
13.10438450392719
 20
6.150305599075091
 10
13.05714287296642
 20
6.150305599075091
 10
13.03352205748604
 20
6.109393146546855
 10
13.05714287296642
 20
6.068480694018616
 10
13.10438450392719
 20
6.068480694018616
  0
LWPOLYLINE
  5
7E459
330
1E
100
AcDbEntity
  8
PART
 62
     8
100
AcDbPolyline
 90
        6
 70
     1
 43
0.0
 10
13.12800531940758
 20
2.086329212496857
 10
13.10438450392719
 20
2.127241665025091
 10
13.05714287296642
 20
2.127241665025091
 10
13.03352205748604
 20
2.086329212496857
 10
13.05714287296642
 20
2.04541675996862
 10
13.10438450392719
 20
2.04541675996862
  0
LWPOLYLINE
  5
7E45A
330
1E
100
AcDbEntity
  8
PART
 62
     8
100
AcDbPolyline
 90
        6
 70
     1
 43
0.0
 10
7.26266798034517
 20
2.086329212496857
 10
7.239047164864786
 20
2.127241665025091
 10
7.191805533904014
 20
2.127241665025091
 10
7.16818471842363
 20
2.086329212496857
 10
7.191805533904014
 20
2.04541675996862
 10
7.239047164864786
 20
2.04541675996862
  0
ARC
  5
7E4C1
330
1E
100
AcDbEntity
  8
PART
  6
Continuous
100
AcDbCircle
 10
8.388743149842298
 20
4.086712226251663
 30
0.0
 40
1.948889102999998
100
AcDbArc
 50
267.6665982979008
 51
270.0
  0
LINE
  5
7E4C2
330
1E
100
AcDbEntity
  8
PART
100
AcDbLine
 10
10.2387957340473
 20
2.137823123251663
 30
0.0
 11
12.01089275413221
 21
2.137823123251663
 31
0.0
  0
VIEWPORT
  5
BB2E
102
{ACAD_XDICTIONARY
360
BB2F
102
}
330
1A
100
AcDbEntity
 67
     1
  8
0
100
AcDbViewport
 10
5.107456939204757
 20
3.675566564782376
 30
0.0
 40
17.48090554936513
 41
7.624553384480778
 68
     1
 69
     1
 12
5.107456939204757
 22
3.675566564782376
 13
0.0
 23
0.0
 14
0.5
 24
0.5
 15
0.5
 25
0.5
 16
0.0
 26
0.0
 36
1.0
 17
0.0
 27
0.0
 37
0.0
 42
50.0
 43
0.0
 44
0.0
 45
7.624553384480778
 50
0.0
 51
0.0
 72
   100
 90
   557088
  1

281
     0
 71
     1
 74
     0
110
0.0
120
0.0
130
0.0
111
1.0
121
0.0
131
0.0
112
0.0
122
1.0
132
0.0
 79
     0
146
0.0
170
     0
  0
VIEWPORT
  5
BB32
102
{ACAD_XDICTIONARY
360
BB33
102
}
330
1A
100
AcDbEntity
 67
     1
  8
TITLE
100
AcDbViewport
 10
4.793735519594132
 20
3.977959012607298
 30
0.0
 40
9.060615036231881
 41
6.356583031400967
 68
     2
 69
     2
 12
9.915247040423272
 22
8.080183331677194
 13
0.0
 23
0.0
 14
0.1
 24
0.1
 15
1.0
 25
1.0
 16
0.0
 26
0.0
 36
1.0
 17
0.0
 27
0.0
 37
0.0
 42
50.0
 43
0.0
 44
0.0
 45
16.27704801110424
 50
0.0
 51
0.0
 72
   100
 90
   819232
  1

281
     0
 71
     1
 74
     0
110
0.0
120
0.0
130
0.0
111
1.0
121
0.0
131
0.0
112
0.0
122
1.0
132
0.0
 79
     0
146
0.0
170
     0
  0
INSERT
  5
C0C7
330
1A
100
AcDbEntity
 67
     1
  8
TITLE
100
AcDbBlockReference
  2
Tabloid Submittal (11 x 17)
 10
0.1369587985796413
 20
0.6491089220275894
 30
0.0
 41
0.6022342995169089
 42
0.6022342995169089
 43
0.6022342995169089
  0
TEXT
  5
C0C8
330
1A
100
AcDbEntity
 67
     1
  8
TITLE
100
AcDbText
 10
9.441776041112687
 20
3.82559768458562
 30
0.0
 40
0.0602234299516909
  1
33 428
 50
90.0
 41
1.05
  7
Title
100
AcDbText
  0
TEXT
  5
C0C9
330
1A
100
AcDbEntity
 67
     1
  8
TITLE
100
AcDbText
 10
9.590376703775319
 20
3.879073813941866
 30
0.0
 40
0.0602234299516909
  1
-
 50
90.0
 41
1.05
  7
Title
100
AcDbText
  0
TEXT
  5
C0CA
330
1A
100
AcDbEntity
 67
     1
  8
TITLE
100
AcDbText
 10
9.739423686872164
 20
3.879073813941866
 30
0.0
 40
0.0602234299516909
  1
-
 50
90.0
 41
1.05
  7
Title
100
AcDbText
  0
TEXT
  5
C0CB
330
1A
100
AcDbEntity
 67
     1
  8
TITLE
100
AcDbText
 10
9.907911546615626
 20
3.827272800431471
 30
0.0
 40
0.0602234299516909
  1
RA
 50
90.0
100
AcDbText
  0
TEXT
  5
C0CC
330
1A
100
AcDbEntity
 67
     1
  8
TITLE
100
AcDbText
 10
9.914867118439895
 20
4.620664162620643
 30
0.0
 40
0.0542010869565218
  1
8/6/2018
 50
90.0
100
AcDbText
  0
TEXT
  5
C0CD
330
1A
100
AcDbEntity
 67
     1
  8
TITLE
100
AcDbText
 10
9.901510916694775
 20
5.539829750457879
 30
0.0
 40
0.0602234299516909
  1
33428.dxf
 50
90.0
100
AcDbText
  0
ENDSEC
  0
SECTION
  2
OBJECTS
  0
DICTIONARY
  5
C
330
0
100
AcDbDictionary
281
     1
  3
ACAD_2007HEADERVARS_RT
350
7E5E2
  3
ACAD_CIP_PREVIOUS_PRODUCT_INFO
350
BB23
  3
ACAD_COLOR
350
7810
  3
ACAD_DETAILVIEWSTYLE
350
BB1D
  3
ACAD_GROUP
350
D
  3
ACAD_LAYOUT
350
19
  3
ACAD_MATERIAL
350
77E6
  3
ACAD_MLEADERSTYLE
350
7835
  3
ACAD_MLINESTYLE
350
16
  3
ACAD_PLOTSETTINGS
350
18
  3
ACAD_PLOTSTYLENAME
350
E
  3
ACAD_SCALELIST
350
7813
  3
ACAD_SECTIONVIEWSTYLE
350
BB1A
  3
ACAD_TABLESTYLE
350
7811
  3
ACAD_VISUALSTYLE
350
77FF
  3
AcadDim
350
27B1
  3
ACDB_RECOMPOSE_DATA
350
7E5E1
  3
AcDbVariableDictionary
350
857
  3
AcDsDecomposeData
350
7E5EC
  3
AEC_PROPERTY_SET_DEFS
350
C0C5
  0
DICTIONARY
  5
345A
330
2
100
AcDbDictionary
280
     1
281
     1
  3
ACAD_LAYERFILTERS
360
F2F7
  3
ACAD_LAYERSTATES
360
345B
  3
ACLYDICTIONARY
360
F2F6
  0
DICTIONARY
  5
7838
330
10
100
AcDbDictionary
280
     1
281
     1
  3
ADSK_XREC_LAYER_RECONCILED
360
C0E1
  0
DICTIONARY
  5
783A
330
22
100
AcDbDictionary
280
     1
281
     1
  3
ADSK_XREC_LAYER_RECONCILED
360
C0E2
  0
DICTIONARY
  5
783C
330
246
100
AcDbDictionary
280
     1
281
     1
  3
ADSK_XREC_LAYER_RECONCILED
360
C0E3
  0
DICTIONARY
  5
783E
330
2135
100
AcDbDictionary
280
     1
281
     1
  3
ADSK_XREC_LAYER_RECONCILED
360
C0E4
  0
DICTIONARY
  5
7F75
330
1E
100
AcDbDictionary
280
     1
281
     1
  3
ACAD_SORTENTS
360
7F76
  0
DICTIONARY
  5
C17D
330
785B
100
AcDbDictionary
280
     1
281
     1
  0
DICTIONARY
  5
C540
330
C53E
100
AcDbDictionary
280
     1
281
     1
  3
ACAD_SORTENTS
360
C541
  0
DICTIONARY
  5
BB2F
330
BB2E
100
AcDbDictionary
280
     1
281
     1
  3
ASDK_XREC_ANNOTATION_SCALE_INFO
360
BB30
  0
DICTIONARY
  5
BB33
330
BB32
100
AcDbDictionary
280
     1
281
     1
  3
ASDK_XREC_ANNOTATION_SCALE_INFO
360
BB34
  0
DICTIONARY
  5
7E5E2
102
{ACAD_REACTORS
330
C
102
}
330
C
100
AcDbDictionary
281
     1
  3
DIMLTEX1
350
7E5E4
  3
DIMLTEX2
350
7E5E5
  3
DIMLTYPE
350
7E5E3
  3
INTERFEREVPVS
350
7E5E6
  0
XRECORD
  5
BB23
102
{ACAD_REACTORS
330
C
102
}
330
C
100
AcDbXrecord
280
     1
300
ACDLT
300
2015
300
ACDLT_F_S
  0
DICTIONARY
  5
7810
102
{ACAD_REACTORS
330
C
102
}
330
C
100
AcDbDictionary
281
     1
  0
DICTIONARY
  5
BB1D
102
{ACAD_REACTORS
330
C
102
}
330
C
100
AcDbDictionary
281
     1
  3
Imperial24
350
BB1E
  0
DICTIONARY
  5
D
102
{ACAD_REACTORS
330
C
102
}
330
C
100
AcDbDictionary
281
     1
  0
DICTIONARY
  5
19
102
{ACAD_REACTORS
330
C
102
}
330
C
100
AcDbDictionary
281
     1
  3
Layout1
350
1D
  3
Model
350
21
  0
DICTIONARY
  5
77E6
102
{ACAD_REACTORS
330
C
102
}
330
C
100
AcDbDictionary
281
     1
  3
ByBlock
350
77EF
  3
ByLayer
350
77E7
  3
Global
350
77F7
  0
DICTIONARY
  5
7835
102
{ACAD_REACTORS
330
C
102
}
330
C
100
AcDbDictionary
281
     1
  3
Standard
350
7836
  0
DICTIONARY
  5
16
102
{ACAD_REACTORS
330
C
102
}
330
C
100
AcDbDictionary
281
     1
  3
Standard
350
17
  0
DICTIONARY
  5
18
102
{ACAD_REACTORS
330
C
102
}
330
C
100
AcDbDictionary
281
     1
  0
ACDBDICTIONARYWDFLT
  5
E
102
{ACAD_REACTORS
330
C
102
}
330
C
100
AcDbDictionary
281
     1
  3
Normal
350
F
100
AcDbDictionaryWithDefault
340
F
  0
DICTIONARY
  5
7813
102
{ACAD_REACTORS
330
C
102
}
330
C
100
AcDbDictionary
281
     1
  3
A0
350
7814
  3
A1
350
7815
  3
A2
350
7816
  3
A3
350
7817
  3
A4
350
7818
  3
A5
350
7819
  3
A6
350
781A
  3
A7
350
781B
  3
A8
350
781C
  3
A9
350
781D
  3
B0
350
781E
  3
B1
350
781F
  3
B2
350
7820
  3
B3
350
7821
  3
B4
350
7822
  3
B5
350
7823
  3
B6
350
7824
  3
B7
350
7825
  3
B8
350
7826
  3
B9
350
7827
  3
C0
350
7828
  3
C1
350
7829
  3
C2
350
782A
  3
C3
350
782B
  3
C4
350
782C
  3
C5
350
782D
  3
C6
350
782E
  3
C7
350
782F
  3
C8
350
7830
  3
C9
350
7831
  3
D0
350
7832
  3
D1
350
7833
  3
D2
350
7834
  0
DICTIONARY
  5
BB1A
102
{ACAD_REACTORS
330
C
102
}
330
C
100
AcDbDictionary
281
     1
  3
Imperial24
350
BB1C
  0
DICTIONARY
  5
7811
102
{ACAD_REACTORS
330
C
102
}
330
C
100
AcDbDictionary
281
     1
  3
Standard
350
7812
  0
DICTIONARY
  5
77FF
102
{ACAD_REACTORS
330
C
102
}
330
C
100
AcDbDictionary
281
     1
  3
2dWireframe
350
7805
  3
3D Hidden
350
7807
  3
3dWireframe
350
7806
  3
Basic
350
7804
  3
Brighten
350
780B
  3
ColorChange
350
780F
  3
Conceptual
350
7808
  3
Dim
350
780A
  3
EdgeColorOff
350
BB19
  3
Facepattern
350
780E
  3
Flat
350
7800
  3
FlatWithEdges
350
7801
  3
Gouraud
350
7802
  3
GouraudWithEdges
350
7803
  3
Hidden
350
BB11
  3
JitterOff
350
BB17
  3
Linepattern
350
780D
  3
OverhangOff
350
BB18
  3
Realistic
350
7809
  3
Shaded
350
BB16
  3
Shaded with edges
350
BB15
  3
Shades of Gray
350
BB12
  3
Sketchy
350
BB13
  3
Thicken
350
780C
  3
Wireframe
350
BB10
  3
X-Ray
350
BB14
  0
XRECORD
  5
27B1
102
{ACAD_REACTORS
330
C
102
}
330
C
100
AcDbXrecord
280
     1
 90
   990106
  3

 60
     4
 61
     0
 62
     1
 63
     3
 64
     0
 65
     0
 66
     0
 67
     3
 68
     1
 69
     0
 70
     0
 71
     0
 72
     0
 40
0.0
170
     0
  0
XRECORD
  5
7E5E1
102
{ACAD_REACTORS
330
C
102
}
330
C
100
AcDbXrecord
280
     1
 90
        1
330
7812
  0
DICTIONARY
  5
857
102
{ACAD_REACTORS
330
C
102
}
330
C
100
AcDbDictionary
281
     1
  3
CANNOSCALE
350
7842
  3
CMLEADERSTYLE
350
7841
  3
CTABLESTYLE
350
7840
  3
CVIEWDETAILSTYLE
350
C0E7
  3
CVIEWSECTIONSTYLE
350
C0E8
  3
DIMASSOC
350
7844
  3
INDEXCTL
350
7843
  3
LAYEREVAL
350
C0E9
  3
LAYERNOTIFY
350
C0EA
  3
LIGHTINGUNITS
350
85B9
  3
LOFTANG1
350
7E52B
  3
LOFTANG2
350
7E52C
  3
LONGITUDE
350
7E52D
  3
MSLTSCALE
350
85B8
  3
SOLIDHIST
350
7DAA3
  3
SORTENTS
350
858
  0
DICTIONARY
  5
7E5EC
102
{ACAD_REACTORS
330
C
102
}
330
C
100
AcDbDictionary
281
     1
  3
AcDsRecords
350
7E5EE
  3
AcDsSchemas
350
7E5ED
1001
ACAD
1070
     2
  0
DICTIONARY
  5
C0C5
102
{ACAD_REACTORS
330
C
102
}
330
C
100
AcDbDictionary
281
     1
  0
DICTIONARY
  5
F2F7
102
{ACAD_REACTORS
330
345A
102
}
330
345A
100
AcDbDictionary
281
     1
  0
DICTIONARY
  5
345B
102
{ACAD_REACTORS
330
345A
102
}
330
345A
100
AcDbDictionary
281
     1
  0
DICTIONARY
  5
F2F6
102
{ACAD_REACTORS
330
345A
102
}
330
345A
100
AcDbDictionary
281
     1
1001
ACAD
1000
<All
  0
XRECORD
  5
C0E1
102
{ACAD_REACTORS
330
7838
102
}
330
7838
100
AcDbXrecord
280
     1
290
     1
  0
XRECORD
  5
C0E2
102
{ACAD_REACTORS
330
783A
102
}
330
783A
100
AcDbXrecord
280
     1
290
     1
  0
XRECORD
  5
C0E3
102
{ACAD_REACTORS
330
783C
102
}
330
783C
100
AcDbXrecord
280
     1
290
     1
  0
XRECORD
  5
C0E4
102
{ACAD_REACTORS
330
783E
102
}
330
783E
100
AcDbXrecord
280
     1
290
     1
  0
SORTENTSTABLE
  5
7F76
102
{ACAD_REACTORS
330
7F75
102
}
330
7F75
100
AcDbSortentsTable
330
1E
331
7E459
  5
7E4C0
331
7E3B2
  5
7E457
331
7E38B
  5
7E38F
331
7E2D6
  5
7E2D6
331
7E315
  5
7E315
331
7E34C
  5
7E34C
331
7E348
  5
7E348
331
7E387
  5
7E38B
331
7E2D2
  5
7E2D2
331
7E311
  5
7E311
331
7E30D
  5
7E30D
331
7E344
  5
7E344
331
7E2CE
  5
7E2CE
331
7E309
  5
7E309
331
7E340
  5
7E340
331
7E2CA
  5
7E2CA
331
7E37F
  5
7E381
331
7E37B
  5
7E37B
331
7E305
  5
7E305
331
7E377
  5
7E377
331
7E301
  5
7E301
331
7E33C
  5
7E33C
331
7E373
  5
7E373
331
7E2FD
  5
7E2FD
331
7E2F9
  5
7E2F9
331
7E338
  5
7E338
331
7E36F
  5
7E36F
331
7E36B
  5
7E36B
331
7E2F5
  5
7E2F5
331
7E334
  5
7E334
331
7E367
  5
7E367
331
7E2F1
  5
7E2F1
331
7E330
  5
7E330
331
7E32C
  5
7E32C
331
7E363
  5
7E363
331
7E3A2
  5
7E3B0
331
7E2ED
  5
7E2ED
331
7E2E9
  5
7E2E9
331
7E328
  5
7E328
331
7E35F
  5
7E35F
331
7E2E5
  5
7E2E5
331
7E324
  5
7E324
331
7E35B
  5
7E35B
331
7E357
  5
7E357
331
7E396
  5
7E39A
331
7E2E1
  5
7E2E1
331
7E320
  5
7E320
331
7E31C
  5
7E31C
331
7E353
  5
7E353
331
7E392
  5
7E396
331
7E2DD
  5
7E2DD
331
7E2D9
  5
7E2D9
331
7E318
  5
7E318
331
7E458
  5
7E4BF
331
7E3C1
  5
7E459
331
7E3B1
  5
7E3CF
331
7E34F
  5
7E34F
331
7E2D5
  5
7E2D5
331
7E314
  5
7E314
331
7E34B
  5
7E34B
331
7E347
  5
7E347
331
7E2D1
  5
7E2D1
331
7E310
  5
7E310
331
7E30C
  5
7E30C
331
7E343
  5
7E343
331
7E382
  5
7E384
331
7E2CD
  5
7E2CD
331
7E2C9
  5
7E2C9
331
7E308
  5
7E308
331
7E37E
  5
7E37F
331
7E37A
  5
7E37A
331
7E304
  5
7E304
331
7E33F
  5
7E33F
331
7E300
  5
7E300
331
7E2FC
  5
7E2FC
331
7E33B
  5
7E33B
331
7E372
  5
7E372
331
7E2F8
  5
7E2F8
331
7E337
  5
7E337
331
7E36E
  5
7E36E
331
7E36A
  5
7E36A
331
7E2F4
  5
7E2F4
331
7E333
  5
7E333
331
7E32F
  5
7E32F
331
7E366
  5
7E366
331
7E2F0
  5
7E2F0
331
7E32B
  5
7E32B
331
7E362
  5
7E362
331
7E3A1
  5
7E3AF
331
7E2EC
  5
7E2EC
331
7E2E8
  5
7E2E8
331
7E327
  5
7E327
331
7E35E
  5
7E35E
331
7E35A
  5
7E35A
331
7E399
  5
7E39D
331
7E2E4
  5
7E2E4
331
7E323
  5
7E323
331
7E356
  5
7E356
331
7E395
  5
7E399
331
7E2E0
  5
7E2E0
331
7E31F
  5
7E31F
331
7E31B
  5
7E31B
331
7E352
  5
7E352
331
7E2DC
  5
7E2DC
331
7E2D8
  5
7E2D8
331
E211
  5
E211
331
7E3B0
  5
7E3C1
331
7E38D
  5
7E391
331
7E317
  5
7E317
331
7E34E
  5
7E34E
331
7E389
  5
7E38D
331
7E2D4
  5
7E2D4
331
7E313
  5
7E313
331
7E34A
  5
7E34A
331
7E346
  5
7E346
331
7E385
  5
7E389
331
7E2D0
  5
7E2D0
331
7E30F
  5
7E30F
331
7E30B
  5
7E30B
331
7E342
  5
7E342
331
7E381
  5
7E383
331
7E2CC
  5
7E2CC
331
7E2C8
  5
7E2C8
331
7E307
  5
7E307
331
7E303
  5
7E303
331
7E33E
  5
7E33E
331
7E375
  5
7E375
331
7E2FF
  5
7E2FF
331
7E2FB
  5
7E2FB
331
7E33A
  5
7E33A
331
7E371
  5
7E371
331
7E2F7
  5
7E2F7
331
7E336
  5
7E336
331
7E36D
  5
7E36D
331
7E369
  5
7E369
331
7E2F3
  5
7E2F3
331
7E332
  5
7E332
331
7E32E
  5
7E32E
331
7E365
  5
7E365
331
7E3A4
  5
7E3B2
331
7E2EF
  5
7E2EF
331
7E2EB
  5
7E2EB
331
7E32A
  5
7E32A
331
7E361
  5
7E361
331
7E3A0
  5
7E3A4
331
7E3CF
  5
7E45A
331
7E2E7
  5
7E2E7
331
7E326
  5
7E326
331
7E35D
  5
7E35D
331
7E359
  5
7E359
331
7E398
  5
7E39C
331
7E2E3
  5
7E2E3
331
7E322
  5
7E322
331
7E31E
  5
7E31E
331
7E355
  5
7E355
331
7E394
  5
7E398
331
7E2DF
  5
7E2DF
331
7E31A
  5
7E31A
331
7E351
  5
7E351
331
7E390
  5
7E394
331
7E2DB
  5
7E2DB
331
7E45A
  5
7E4C1
331
E210
  5
E210
331
7E3B3
  5
7E458
331
7E2D7
  5
7E2D7
331
7E316
  5
7E316
331
7E34D
  5
7E34D
331
7E349
  5
7E349
331
7E2D3
  5
7E2D3
331
7E312
  5
7E312
331
7E345
  5
7E345
331
7E2CF
  5
7E2CF
331
7E30E
  5
7E30E
331
7E30A
  5
7E30A
331
7E341
  5
7E341
331
7E380
  5
7E382
331
7E2CB
  5
7E2CB
331
7E37C
  5
7E37C
331
7E306
  5
7E306
331
7E378
  5
7E378
331
7E457
  5
7E4BE
331
7E302
  5
7E302
331
7E33D
  5
7E33D
331
7E374
  5
7E374
331
7E2FE
  5
7E2FE
331
7E2FA
  5
7E2FA
331
7E339
  5
7E339
331
7E370
  5
7E370
331
7E3AF
  5
7E3B3
331
7E2F6
  5
7E2F6
331
7E335
  5
7E335
331
7E36C
  5
7E36C
331
7E368
  5
7E368
331
7E2F2
  5
7E2F2
331
7E331
  5
7E331
331
7E32D
  5
7E32D
331
7E364
  5
7E364
331
7E3A3
  5
7E3B1
331
7E2EE
  5
7E2EE
331
7E2EA
  5
7E2EA
331
7E329
  5
7E329
331
7E360
  5
7E360
331
7E4C1
  5
7E380
331
7E39B
  5
7E39F
331
7E2E6
  5
7E2E6
331
7E325
  5
7E325
331
7E35C
  5
7E35C
331
7E358
  5
7E358
331
7E397
  5
7E39B
331
7E2E2
  5
7E2E2
331
7E321
  5
7E321
331
7E31D
  5
7E31D
331
7E354
  5
7E354
331
7E393
  5
7E397
331
7E2DE
  5
7E2DE
331
7E2DA
  5
7E2DA
331
7E319
  5
7E319
331
7E350
  5
7E350
  0
SORTENTSTABLE
  5
C541
102
{ACAD_REACTORS
330
C540
102
}
330
C540
100
AcDbSortentsTable
330
C53E
  0
XRECORD
  5
BB30
102
{ACAD_REACTORS
330
BB2F
102
}
330
BB2F
100
AcDbXrecord
280
     1
 90
        1
340
7814
  0
XRECORD
  5
BB34
102
{ACAD_REACTORS
330
BB33
102
}
330
BB33
100
AcDbXrecord
280
     1
 90
        1
340
7814
  0
XRECORD
  5
7E5E4
102
{ACAD_REACTORS
330
7E5E2
102
}
330
7E5E2
100
AcDbXrecord
280
     1
340
14
  0
XRECORD
  5
7E5E5
102
{ACAD_REACTORS
330
7E5E2
102
}
330
7E5E2
100
AcDbXrecord
280
     1
340
14
  0
XRECORD
  5
7E5E3
102
{ACAD_REACTORS
330
7E5E2
102
}
330
7E5E2
100
AcDbXrecord
280
     1
340
14
  0
XRECORD
  5
7E5E6
102
{ACAD_REACTORS
330
7E5E2
102
}
330
7E5E2
100
AcDbXrecord
280
     1
340
7806
  0
ACDBDETAILVIEWSTYLE
  5
BB1E
102
{ACAD_XDICTIONARY
360
7E519
102
}
102
{ACAD_REACTORS
330
BB1D
102
}
330
BB1D
100
AcDbModelDocViewStyle
 70
     0
  3
Imperial24
290
     0
100
AcDbDetailViewStyle
 70
     0
 71
     0
 90
        3
 71
     1
340
11
 62
   256
 40
0.24
340
0
 62
   256
 40
0.24
300

 40
0.36
280
     3
 71
     2
340
15
 90
       25
 62
   256
 71
     3
340
11
 62
   256
 40
0.24
 90
        1
 40
0.75
 90
        1
300
%<\AcVar ViewType \f "%tc1">% %<\AcVar ViewDetailId>%\PSCALE %<\AcVar ViewScale \f "%sn">%
 71
     4
340
15
 90
       25
 62
   256
340
15
 90
       25
 62
   256
280
     0
  0
LAYOUT
  5
1D
102
{ACAD_XDICTIONARY
360
C13A
102
}
102
{ACAD_REACTORS
330
19
102
}
330
19
100
AcDbPlotSettings
  1

  2
Adobe PDF
  4
Tabloid
  6

 40
3.174999952316281
 41
3.174999952316281
 42
3.17498779296875
 43
3.17498779296875
 44
279.3999938964844
 45
431.7999877929685
 46
0.8673879146931279
 47
0.0
 48
0.0
 49
0.0
140
0.0
141
0.0
142
1.0
143
0.5954229360737358
 70
   692
 72
     0
 73
     1
 74
     1
  7
monochrome.ctb
 75
     0
147
1.679478467178434
 76
     0
 77
     2
 78
   300
148
-6.683504753545043
149
-20.30913354519513
100
AcDbLayout
  1
Layout1
 70
     0
 71
     1
 10
0.1887025275534379
 20
0.7048111453807693
 11
10.31089215465157
 21
7.254463299114172
 12
0.0
 22
0.0
 32
0.0
 14
0.2633030393348008
 24
0.7995540538336066
 34
-0.0015258207003583
 15
10.23706395178807
 25
7.15972042116053
 35
0.0000000349246037
146
0.0
 13
0.0
 23
0.0
 33
0.0
 16
1.0
 26
0.0
 36
0.0
 17
0.0
 27
1.0
 37
0.0
 76
     0
330
1A
331
BB2E
1001
ACAD_PSEXT
1000
Adobe PDF
1000
Adobe PDF Converter
1000
Documents\*.pdf
1000

1070
     0
  0
LAYOUT
  5
21
102
{ACAD_XDICTIONARY
360
7DB50
102
}
102
{ACAD_REACTORS
330
19
102
}
330
19
100
AcDbPlotSettings
  1

  2
\\bega-apps\Down Doc Center BW
  4
Legal
  6

 40
7.143749713897705
 41
5.365769386291503
 42
7.14373779296875
 43
5.027069091796875
 44
215.8999938964842
 45
355.6000061035156
 46
0.0
 47
3.047999999999998
 48
0.0
 49
0.0
140
0.0
141
0.0
142
1.0
143
3.046471206232983
 70
 11956
 72
     0
 73
     1
 74
     1
  7

 75
     0
147
0.3282486300720754
 76
     0
 77
     2
 78
   300
148
-5.262937024793346
149
-6.327134664551186
100
AcDbLayout
  1
Model
 70
     1
 71
     0
 10
0.0
 20
0.0
 11
12.0
 21
9.0
 12
0.0
 22
0.0
 32
0.0
 14
0.0
 24
0.0
 34
0.0
 15
0.0
 25
0.0
 35
0.0
146
0.0
 13
0.0
 23
0.0
 33
0.0
 16
1.0
 26
0.0
 36
0.0
 17
0.0
 27
1.0
 37
0.0
 76
     0
330
1E
331
77E0
  0
MATERIAL
  5
77EF
102
{ACAD_XDICTIONARY
360
77F0
102
}
102
{ACAD_REACTORS
330
77E6
102
}
330
77E6
100
AcDbMaterial
  1
ByBlock
 72
     0
 43
0.0208333333333333
 43
0.0
 43
0.0
 43
0.0
 43
0.0
 43
0.0208333333333333
 43
0.0
 43
0.0
 43
0.0
 43
0.0
 43
1.0
 43
0.0
 43
0.0
 43
0.0
 43
0.0
 43
1.0
 77
     0
 47
0.0208333333333333
 47
0.0
 47
0.0
 47
0.0
 47
0.0
 47
0.0208333333333333
 47
0.0
 47
0.0
 47
0.0
 47
0.0
 47
1.0
 47
0.0
 47
0.0
 47
0.0
 47
0.0
 47
1.0
171
     0
 49
0.0208333333333333
 49
0.0
 49
0.0
 49
0.0
 49
0.0
 49
0.0208333333333333
 49
0.0
 49
0.0
 49
0.0
 49
0.0
 49
1.0
 49
0.0
 49
0.0
 49
0.0
 49
0.0
 49
1.0
175
     0
142
0.0208333333333333
142
0.0
142
0.0
142
0.0
142
0.0
142
0.0208333333333333
142
0.0
142
0.0
142
0.0
142
0.0
142
1.0
142
0.0
142
0.0
142
0.0
142
0.0
142
1.0
179
     0
144
0.0208333333333333
144
0.0
144
0.0
144
0.0
144
0.0
144
0.0208333333333333
144
0.0
144
0.0
144
0.0
144
0.0
144
1.0
144
0.0
144
0.0
144
0.0
144
0.0
144
1.0
147
0.0208333333333333
147
0.0
147
0.0
147
0.0
147
0.0
147
0.0208333333333333
147
0.0
147
0.0
147
0.0
147
0.0
147
1.0
147
0.0
147
0.0
147
0.0
147
0.0
147
1.0
  0
MATERIAL
  5
77E7
102
{ACAD_XDICTIONARY
360
77E8
102
}
102
{ACAD_REACTORS
330
77E6
102
}
330
77E6
100
AcDbMaterial
  1
ByLayer
 72
     0
 43
0.0208333333333333
 43
0.0
 43
0.0
 43
0.0
 43
0.0
 43
0.0208333333333333
 43
0.0
 43
0.0
 43
0.0
 43
0.0
 43
1.0
 43
0.0
 43
0.0
 43
0.0
 43
0.0
 43
1.0
 77
     0
 47
0.0208333333333333
 47
0.0
 47
0.0
 47
0.0
 47
0.0
 47
0.0208333333333333
 47
0.0
 47
0.0
 47
0.0
 47
0.0
 47
1.0
 47
0.0
 47
0.0
 47
0.0
 47
0.0
 47
1.0
171
     0
 49
0.0208333333333333
 49
0.0
 49
0.0
 49
0.0
 49
0.0
 49
0.0208333333333333
 49
0.0
 49
0.0
 49
0.0
 49
0.0
 49
1.0
 49
0.0
 49
0.0
 49
0.0
 49
0.0
 49
1.0
175
     0
142
0.0208333333333333
142
0.0
142
0.0
142
0.0
142
0.0
142
0.0208333333333333
142
0.0
142
0.0
142
0.0
142
0.0
142
1.0
142
0.0
142
0.0
142
0.0
142
0.0
142
1.0
179
     0
144
0.0208333333333333
144
0.0
144
0.0
144
0.0
144
0.0
144
0.0208333333333333
144
0.0
144
0.0
144
0.0
144
0.0
144
1.0
144
0.0
144
0.0
144
0.0
144
0.0
144
1.0
147
0.0208333333333333
147
0.0
147
0.0
147
0.0
147
0.0
147
0.0208333333333333
147
0.0
147
0.0
147
0.0
147
0.0
147
1.0
147
0.0
147
0.0
147
0.0
147
0.0
147
1.0
  0
MATERIAL
  5
77F7
102
{ACAD_XDICTIONARY
360
77F8
102
}
102
{ACAD_REACTORS
330
77E6
102
}
330
77E6
100
AcDbMaterial
  1
Global
 72
     0
 43
0.0208333333333333
 43
0.0
 43
0.0
 43
0.0
 43
0.0
 43
0.0208333333333333
 43
0.0
 43
0.0
 43
0.0
 43
0.0
 43
1.0
 43
0.0
 43
0.0
 43
0.0
 43
0.0
 43
1.0
 77
     0
 47
0.0208333333333333
 47
0.0
 47
0.0
 47
0.0
 47
0.0
 47
0.0208333333333333
 47
0.0
 47
0.0
 47
0.0
 47
0.0
 47
1.0
 47
0.0
 47
0.0
 47
0.0
 47
0.0
 47
1.0
171
     0
 49
0.0208333333333333
 49
0.0
 49
0.0
 49
0.0
 49
0.0
 49
0.0208333333333333
 49
0.0
 49
0.0
 49
0.0
 49
0.0
 49
1.0
 49
0.0
 49
0.0
 49
0.0
 49
0.0
 49
1.0
175
     0
142
0.0208333333333333
142
0.0
142
0.0
142
0.0
142
0.0
142
0.0208333333333333
142
0.0
142
0.0
142
0.0
142
0.0
142
1.0
142
0.0
142
0.0
142
0.0
142
0.0
142
1.0
179
     0
144
0.0208333333333333
144
0.0
144
0.0
144
0.0
144
0.0
144
0.0208333333333333
144
0.0
144
0.0
144
0.0
144
0.0
144
1.0
144
0.0
144
0.0
144
0.0
144
0.0
144
1.0
147
0.0208333333333333
147
0.0
147
0.0
147
0.0
147
0.0
147
0.0208333333333333
147
0.0
147
0.0
147
0.0
147
0.0
147
1.0
147
0.0
147
0.0
147
0.0
147
0.0
147
1.0
  0
MLEADERSTYLE
  5
7836
102
{ACAD_REACTORS
330
7835
102
}
330
7835
100
AcDbMLeaderStyle
170
     2
171
     1
172
     0
 90
        2
 40
0.0
 41
0.0
173
     1
 91
-1056964608
340
13
 92
       -2
290
     1
 42
0.09
291
     1
 43
0.36
  3
Standard
 44
0.18
300

342
11
174
     1
178
     6
175
     1
176
     0
 93
-1056964608
 45
0.18
292
     0
297
     0
 46
0.18
 94
-1056964608
 47
1.0
 49
1.0
140
1.0
293
     1
141
0.0
294
     1
177
     0
142
1.0
295
     0
296
     0
143
0.125
1001
ACAD_MLEADERVER
1070
     2
  0
MLINESTYLE
  5
17
102
{ACAD_REACTORS
330
16
102
}
330
16
100
AcDbMlineStyle
  2
STANDARD
 70
     0
  3

 62
   256
 51
90.0
 52
90.0
 71
     2
 49
0.5
 62
   256
  6
BYLAYER
 49
-0.5
 62
   256
  6
BYLAYER
  0
ACDBPLACEHOLDER
  5
F
102
{ACAD_REACTORS
330
E
102
}
330
E
  0
SCALE
  5
7814
102
{ACAD_REACTORS
330
7813
102
}
330
7813
100
AcDbScale
 70
     0
300
1:1
140
1.0
141
1.0
290
     1
  0
SCALE
  5
7815
102
{ACAD_REACTORS
330
7813
102
}
330
7813
100
AcDbScale
 70
     0
300
1:2
140
1.0
141
2.0
290
     0
  0
SCALE
  5
7816
102
{ACAD_REACTORS
330
7813
102
}
330
7813
100
AcDbScale
 70
     0
300
1:4
140
1.0
141
4.0
290
     0
  0
SCALE
  5
7817
102
{ACAD_REACTORS
330
7813
102
}
330
7813
100
AcDbScale
 70
     0
300
1:5
140
1.0
141
5.0
290
     0
  0
SCALE
  5
7818
102
{ACAD_REACTORS
330
7813
102
}
330
7813
100
AcDbScale
 70
     0
300
1:8
140
1.0
141
8.0
290
     0
  0
SCALE
  5
7819
102
{ACAD_REACTORS
330
7813
102
}
330
7813
100
AcDbScale
 70
     0
300
1:10
140
1.0
141
10.0
290
     0
  0
SCALE
  5
781A
102
{ACAD_REACTORS
330
7813
102
}
330
7813
100
AcDbScale
 70
     0
300
1:16
140
1.0
141
16.0
290
     0
  0
SCALE
  5
781B
102
{ACAD_REACTORS
330
7813
102
}
330
7813
100
AcDbScale
 70
     0
300
1:20
140
1.0
141
20.0
290
     0
  0
SCALE
  5
781C
102
{ACAD_REACTORS
330
7813
102
}
330
7813
100
AcDbScale
 70
     0
300
1:30
140
1.0
141
30.0
290
     0
  0
SCALE
  5
781D
102
{ACAD_REACTORS
330
7813
102
}
330
7813
100
AcDbScale
 70
     0
300
1:40
140
1.0
141
40.0
290
     0
  0
SCALE
  5
781E
102
{ACAD_REACTORS
330
7813
102
}
330
7813
100
AcDbScale
 70
     0
300
1:50
140
1.0
141
50.0
290
     0
  0
SCALE
  5
781F
102
{ACAD_REACTORS
330
7813
102
}
330
7813
100
AcDbScale
 70
     0
300
1:100
140
1.0
141
100.0
290
     0
  0
SCALE
  5
7820
102
{ACAD_REACTORS
330
7813
102
}
330
7813
100
AcDbScale
 70
     0
300
2:1
140
2.0
141
1.0
290
     0
  0
SCALE
  5
7821
102
{ACAD_REACTORS
330
7813
102
}
330
7813
100
AcDbScale
 70
     0
300
4:1
140
4.0
141
1.0
290
     0
  0
SCALE
  5
7822
102
{ACAD_REACTORS
330
7813
102
}
330
7813
100
AcDbScale
 70
     0
300
8:1
140
8.0
141
1.0
290
     0
  0
SCALE
  5
7823
102
{ACAD_REACTORS
330
7813
102
}
330
7813
100
AcDbScale
 70
     0
300
10:1
140
10.0
141
1.0
290
     0
  0
SCALE
  5
7824
102
{ACAD_REACTORS
330
7813
102
}
330
7813
100
AcDbScale
 70
     0
300
100:1
140
100.0
141
1.0
290
     0
  0
SCALE
  5
7825
102
{ACAD_REACTORS
330
7813
102
}
330
7813
100
AcDbScale
 70
     0
300
1/128" = 1'-0"
140
0.0078125
141
12.0
290
     0
  0
SCALE
  5
7826
102
{ACAD_REACTORS
330
7813
102
}
330
7813
100
AcDbScale
 70
     0
300
1/64" = 1'-0"
140
0.015625
141
12.0
290
     0
  0
SCALE
  5
7827
102
{ACAD_REACTORS
330
7813
102
}
330
7813
100
AcDbScale
 70
     0
300
1/32" = 1'-0"
140
0.03125
141
12.0
290
     0
  0
SCALE
  5
7828
102
{ACAD_REACTORS
330
7813
102
}
330
7813
100
AcDbScale
 70
     0
300
1/16" = 1'-0"
140
0.0625
141
12.0
290
     0
  0
SCALE
  5
7829
102
{ACAD_REACTORS
330
7813
102
}
330
7813
100
AcDbScale
 70
     0
300
3/32" = 1'-0"
140
0.09375
141
12.0
290
     0
  0
SCALE
  5
782A
102
{ACAD_REACTORS
330
7813
102
}
330
7813
100
AcDbScale
 70
     0
300
1/8" = 1'-0"
140
0.125
141
12.0
290
     0
  0
SCALE
  5
782B
102
{ACAD_REACTORS
330
7813
102
}
330
7813
100
AcDbScale
 70
     0
300
3/16" = 1'-0"
140
0.1875
141
12.0
290
     0
  0
SCALE
  5
782C
102
{ACAD_REACTORS
330
7813
102
}
330
7813
100
AcDbScale
 70
     0
300
1/4" = 1'-0"
140
0.25
141
12.0
290
     0
  0
SCALE
  5
782D
102
{ACAD_REACTORS
330
7813
102
}
330
7813
100
AcDbScale
 70
     0
300
3/8" = 1'-0"
140
0.375
141
12.0
290
     0
  0
SCALE
  5
782E
102
{ACAD_REACTORS
330
7813
102
}
330
7813
100
AcDbScale
 70
     0
300
1/2" = 1'-0"
140
0.5
141
12.0
290
     0
  0
SCALE
  5
782F
102
{ACAD_REACTORS
330
7813
102
}
330
7813
100
AcDbScale
 70
     0
300
3/4" = 1'-0"
140
0.75
141
12.0
290
     0
  0
SCALE
  5
7830
102
{ACAD_REACTORS
330
7813
102
}
330
7813
100
AcDbScale
 70
     0
300
1" = 1'-0"
140
1.0
141
12.0
290
     0
  0
SCALE
  5
7831
102
{ACAD_REACTORS
330
7813
102
}
330
7813
100
AcDbScale
 70
     0
300
1-1/2" = 1'-0"
140
1.5
141
12.0
290
     0
  0
SCALE
  5
7832
102
{ACAD_REACTORS
330
7813
102
}
330
7813
100
AcDbScale
 70
     0
300
3" = 1'-0"
140
3.0
141
12.0
290
     0
  0
SCALE
  5
7833
102
{ACAD_REACTORS
330
7813
102
}
330
7813
100
AcDbScale
 70
     0
300
6" = 1'-0"
140
6.0
141
12.0
290
     0
  0
SCALE
  5
7834
102
{ACAD_REACTORS
330
7813
102
}
330
7813
100
AcDbScale
 70
     0
300
1'-0" = 1'-0"
140
12.0
141
12.0
290
     0
  0
ACDBSECTIONVIEWSTYLE
  5
BB1C
102
{ACAD_XDICTIONARY
360
7E517
102
}
102
{ACAD_REACTORS
330
BB1A
102
}
330
BB1A
100
AcDbModelDocViewStyle
 70
     0
  3
Imperial24
290
     0
100
AcDbSectionViewStyle
 70
     0
 71
     0
 90
       78
 71
     1
340
11
 62
   256
 40
0.24
340
0
340
0
 62
   256
 40
0.24
300
I, O, Q, S, X, Z
 40
0.48
 90
        3
 40
0.18
 90
        1
 71
     2
340
BB1B
 90
       25
 62
   256
340
15
 90
       50
 62
   256
 40
0.24
 40
0.0
 40
0.24
 71
     3
340
11
 62
   256
 40
0.24
 90
        1
 40
0.75
 90
        1
300
%<\AcVar ViewType \f "%tc1">% %<\AcVar ViewSectionStartId>%-%<\AcVar ViewSectionEndId>%\PSCALE %<\AcVar ViewScale \f "%sn">%
 71
     4
 62
   256
 62
   257
300
ANSI31
 40
1.0
 90
        0
290
     0
290
     0
 90
        6
 40
0.0
 40
1.570796326794896
 40
0.2617993877991494
 40
1.308996938995747
 40
-0.2617993877991494
 40
1.832595714594044
  0
TABLESTYLE
  5
7812
102
{ACAD_XDICTIONARY
360
81C5
102
}
102
{ACAD_REACTORS
330
7811
102
}
330
7811
100
AcDbTableStyle
  3
Standard
 70
     0
 71
     0
 40
0.06
 41
0.06
280
     0
281
     0
  7
STANDARD
140
0.18
170
     2
 62
     0
 63
     7
283
     0
274
    -2
284
     1
 64
     0
275
    -2
285
     1
 65
     0
276
    -2
286
     1
 66
     0
277
    -2
287
     1
 67
     0
278
    -2
288
     1
 68
     0
279
    -2
289
     1
 69
     0
  7
STANDARD
140
0.25
170
     5
 62
     0
 63
     7
283
     0
274
    -2
284
     1
 64
     0
275
    -2
285
     1
 65
     0
276
    -2
286
     1
 66
     0
277
    -2
287
     1
 67
     0
278
    -2
288
     1
 68
     0
279
    -2
289
     1
 69
     0
  7
STANDARD
140
0.18
170
     5
 62
     0
 63
     7
283
     0
274
    -2
284
     1
 64
     0
275
    -2
285
     1
 65
     0
276
    -2
286
     1
 66
     0
277
    -2
287
     1
 67
     0
278
    -2
288
     1
 68
     0
279
    -2
289
     1
 69
     0
  0
VISUALSTYLE
  5
7805
102
{ACAD_XDICTIONARY
360
7E5FC
102
}
102
{ACAD_REACTORS
330
77FF
102
}
330
77FF
100
AcDbVisualStyle
  2

 70
     4
 71
     0
 72
     2
 73
     0
 90
        0
 40
-0.6
 41
-30.0
 62
     5
 63
     7
 74
     1
 91
        4
 64
     7
 65
   257
 75
     1
175
     1
 42
1.0
 92
        0
 66
   257
 43
1.0
 76
     1
 77
     6
 78
     2
 67
     7
 79
     5
170
     0
171
     0
290
     0
174
     0
 93
        1
 44
0.0
173
     0
291
     0
 45
0.0
1001
ACAD
1000
AcDbSavedByObjectVersion
1070
     0
  0
VISUALSTYLE
  5
7807
102
{ACAD_XDICTIONARY
360
7E600
102
}
102
{ACAD_REACTORS
330
77FF
102
}
330
77FF
100
AcDbVisualStyle
  2

 70
     6
 71
     1
 72
     2
 73
     2
 90
        0
 40
-0.6
 41
-30.0
 62
     5
 63
     7
 74
     2
 91
        2
 64
     7
 65
   257
 75
     2
175
     1
 42
40.0
 92
        0
 66
   257
 43
1.0
 76
     1
 77
     6
 78
     2
 67
     7
 79
     3
170
     0
171
     0
290
     0
174
     0
 93
        1
 44
0.0
173
     0
291
     0
 45
0.0
1001
ACAD
1000
AcDbSavedByObjectVersion
1070
     0
  0
VISUALSTYLE
  5
7806
102
{ACAD_XDICTIONARY
360
7E5FE
102
}
102
{ACAD_REACTORS
330
77FF
102
}
330
77FF
100
AcDbVisualStyle
  2

 70
     5
 71
     0
 72
     2
 73
     0
 90
        0
 40
-0.6
 41
-30.0
 62
     5
 63
     7
 74
     1
 91
        4
 64
     7
 65
   257
 75
     1
175
     1
 42
1.0
 92
        0
 66
   257
 43
1.0
 76
     1
 77
     6
 78
     2
 67
     7
 79
     5
170
     0
171
     0
290
     0
174
     0
 93
        1
 44
0.0
173
     0
291
     0
 45
0.0
1001
ACAD
1000
AcDbSavedByObjectVersion
1070
     0
  0
VISUALSTYLE
  5
7804
102
{ACAD_XDICTIONARY
360
7E5FA
102
}
102
{ACAD_REACTORS
330
77FF
102
}
330
77FF
100
AcDbVisualStyle
  2

 70
     7
 71
     1
 72
     0
 73
     1
 90
        0
 40
-0.6
 41
-30.0
 62
     5
 63
     7
 74
     0
 91
        4
 64
     7
 65
   257
 75
     1
175
     1
 42
1.0
 92
        8
 66
     7
 43
1.0
 76
     1
 77
     6
 78
     2
 67
     7
 79
     5
170
     0
171
     0
290
     0
174
     0
 93
        1
 44
0.0
173
     0
291
     1
 45
0.0
1001
ACAD
1000
AcDbSavedByObjectVersion
1070
     0
  0
VISUALSTYLE
  5
780B
102
{ACAD_XDICTIONARY
360
7E608
102
}
102
{ACAD_REACTORS
330
77FF
102
}
330
77FF
100
AcDbVisualStyle
  2

 70
    12
 71
     2
 72
     2
 73
     0
 90
        0
 40
-0.6
 41
-30.0
 62
     5
 63
     7
 74
     1
 91
        4
 64
     7
 65
   257
 75
     1
175
     1
 42
1.0
 92
        8
 66
     7
 43
1.0
 76
     1
 77
     6
 78
     2
 67
     7
 79
     5
170
     0
171
     0
290
     0
174
     0
 93
        1
 44
50.0
173
     0
291
     1
 45
0.0
1001
ACAD
1000
AcDbSavedByObjectVersion
1070
     0
  0
VISUALSTYLE
  5
780F
102
{ACAD_XDICTIONARY
360
7E610
102
}
102
{ACAD_REACTORS
330
77FF
102
}
330
77FF
100
AcDbVisualStyle
  2

 70
    16
 71
     2
 72
     2
 73
     3
 90
        0
 40
-0.6
 41
-30.0
 62
     5
 63
     8
 74
     1
 91
        4
 64
     7
 65
   257
 75
     1
175
     1
 42
1.0
 92
        8
 66
     8
 43
1.0
 76
     1
 77
     6
 78
     2
 67
     7
 79
     5
170
     0
171
     0
290
     0
174
     0
 93
        1
 44
0.0
173
     0
291
     1
 45
0.0
1001
ACAD
1000
AcDbSavedByObjectVersion
1070
     0
  0
VISUALSTYLE
  5
7808
102
{ACAD_XDICTIONARY
360
7E602
102
}
102
{ACAD_REACTORS
330
77FF
102
}
330
77FF
100
AcDbVisualStyle
  2

 70
     9
 71
     3
 72
     2
 73
     0
 90
        0
 40
-0.6
 41
-30.0
 62
     5
 63
     7
 74
     2
 91
        2
 64
     7
 65
   257
 75
     1
175
     1
 42
40.0
 92
        8
 66
     7
 43
1.0
 76
     1
 77
     6
 78
     2
 67
     7
 79
     3
170
     0
171
     0
290
     0
174
     0
 93
        1
 44
0.0
173
     0
291
     0
 45
0.0
1001
ACAD
1000
AcDbSavedByObjectVersion
1070
     0
  0
VISUALSTYLE
  5
780A
102
{ACAD_XDICTIONARY
360
7E606
102
}
102
{ACAD_REACTORS
330
77FF
102
}
330
77FF
100
AcDbVisualStyle
  2

 70
    11
 71
     2
 72
     2
 73
     0
 90
        0
 40
-0.6
 41
-30.0
 62
     5
 63
     7
 74
     1
 91
        4
 64
     7
 65
   257
 75
     1
175
     1
 42
1.0
 92
        8
 66
     7
 43
1.0
 76
     1
 77
     6
 78
     2
 67
     7
 79
     5
170
     0
171
     0
290
     0
174
     0
 93
        1
 44
-50.0
173
     0
291
     1
 45
0.0
1001
ACAD
1000
AcDbSavedByObjectVersion
1070
     0
  0
VISUALSTYLE
  5
BB19
102
{ACAD_XDICTIONARY
360
7E625
102
}
102
{ACAD_REACTORS
330
77FF
102
}
330
77FF
100
AcDbVisualStyle
  2

 70
    22
 71
     2
 72
     2
 73
     0
 90
        0
 40
-0.6
 41
-30.0
 62
     5
 63
     7
421
 16777215
 74
     1
 91
        4
 64
     7
 65
   257
 75
     1
175
     1
 42
1.0
 92
        8
 66
     7
 43
1.0
 76
     1
 77
     6
 78
     2
 67
     7
 79
     5
170
     0
171
     0
290
     0
174
     0
 93
        1
 44
0.0
173
     0
291
     1
 45
0.0
1001
ACAD
1000
AcDbSavedByObjectVersion
1070
     0
  0
VISUALSTYLE
  5
780E
102
{ACAD_XDICTIONARY
360
7E60E
102
}
102
{ACAD_REACTORS
330
77FF
102
}
330
77FF
100
AcDbVisualStyle
  2

 70
    15
 71
     2
 72
     2
 73
     0
 90
        0
 40
-0.6
 41
-30.0
 62
     5
 63
     7
 74
     1
 91
        4
 64
     7
 65
   257
 75
     1
175
     1
 42
1.0
 92
        8
 66
     7
 43
1.0
 76
     1
 77
     6
 78
     2
 67
     7
 79
     5
170
     0
171
     0
290
     0
174
     0
 93
        1
 44
0.0
173
     0
291
     1
 45
0.0
1001
ACAD
1000
AcDbSavedByObjectVersion
1070
     0
  0
VISUALSTYLE
  5
7800
102
{ACAD_XDICTIONARY
360
7E5F2
102
}
102
{ACAD_REACTORS
330
77FF
102
}
330
77FF
100
AcDbVisualStyle
  2

 70
     0
 71
     2
 72
     1
 73
     1
 90
        2
 40
-0.6
 41
30.0
 62
     5
 63
     7
 74
     0
 91
        4
 64
     7
 65
   257
 75
     1
175
     1
 42
1.0
 92
        8
 66
     7
 43
1.0
 76
     1
 77
     6
 78
     2
 67
     7
 79
     5
170
     0
171
     0
290
     0
174
     0
 93
       13
 44
0.0
173
     0
291
     1
 45
0.0
1001
ACAD
1000
AcDbSavedByObjectVersion
1070
     0
  0
VISUALSTYLE
  5
7801
102
{ACAD_XDICTIONARY
360
7E5F4
102
}
102
{ACAD_REACTORS
330
77FF
102
}
330
77FF
100
AcDbVisualStyle
  2

 70
     1
 71
     2
 72
     1
 73
     1
 90
        2
 40
-0.6
 41
30.0
 62
     5
 63
     7
 74
     1
 91
        4
 64
     7
 65
   257
 75
     1
175
     1
 42
1.0
 92
        0
 66
   257
 43
1.0
 76
     1
 77
     6
 78
     2
 67
     7
 79
     5
170
     0
171
     0
290
     0
174
     0
 93
       13
 44
0.0
173
     0
291
     1
 45
0.0
1001
ACAD
1000
AcDbSavedByObjectVersion
1070
     0
  0
VISUALSTYLE
  5
7802
102
{ACAD_XDICTIONARY
360
7E5F6
102
}
102
{ACAD_REACTORS
330
77FF
102
}
330
77FF
100
AcDbVisualStyle
  2

 70
     2
 71
     2
 72
     2
 73
     1
 90
        2
 40
-0.6
 41
30.0
 62
     5
 63
     7
 74
     0
 91
        4
 64
     7
 65
   257
 75
     1
175
     1
 42
1.0
 92
        0
 66
     7
 43
1.0
 76
     1
 77
     6
 78
     2
 67
     7
 79
     5
170
     0
171
     0
290
     0
174
     0
 93
       13
 44
0.0
173
     0
291
     1
 45
0.0
1001
ACAD
1000
AcDbSavedByObjectVersion
1070
     0
  0
VISUALSTYLE
  5
7803
102
{ACAD_XDICTIONARY
360
7E5F8
102
}
102
{ACAD_REACTORS
330
77FF
102
}
330
77FF
100
AcDbVisualStyle
  2

 70
     3
 71
     2
 72
     2
 73
     1
 90
        2
 40
-0.6
 41
30.0
 62
     5
 63
     7
 74
     1
 91
        4
 64
     7
 65
   257
 75
     1
175
     1
 42
1.0
 92
        0
 66
   257
 43
1.0
 76
     1
 77
     6
 78
     2
 67
     7
 79
     5
170
     0
171
     0
290
     0
174
     0
 93
       13
 44
0.0
173
     0
291
     1
 45
0.0
1001
ACAD
1000
AcDbSavedByObjectVersion
1070
     0
  0
VISUALSTYLE
  5
BB11
102
{ACAD_XDICTIONARY
360
7E615
102
}
102
{ACAD_REACTORS
330
77FF
102
}
330
77FF
100
AcDbVisualStyle
  2

 70
     6
 71
     1
 72
     2
 73
     2
 90
        0
 40
-0.6
 41
-30.0
 62
     5
 63
     7
421
 16777215
 74
     2
 91
        2
 64
     7
 65
   257
 75
     2
175
     1
 42
40.0
 92
        0
 66
   257
 43
1.0
 76
     1
 77
     6
 78
     2
 67
     7
 79
     3
170
     0
171
     0
290
     0
174
     0
 93
        1
 44
0.0
173
     0
291
     0
 45
0.0
1001
ACAD
1000
AcDbSavedByObjectVersion
1070
     0
  0
VISUALSTYLE
  5
BB17
102
{ACAD_XDICTIONARY
360
7E621
102
}
102
{ACAD_REACTORS
330
77FF
102
}
330
77FF
100
AcDbVisualStyle
  2

 70
    20
 71
     2
 72
     2
 73
     0
 90
        0
 40
-0.6
 41
-30.0
 62
     5
 63
     7
421
 16777215
 74
     1
 91
        4
 64
     7
 65
   257
 75
     1
175
     1
 42
1.0
 92
       10
 66
     7
 43
1.0
 76
     1
 77
     6
 78
     2
 67
     7
 79
     5
170
     0
171
     0
290
     0
174
     0
 93
        1
 44
0.0
173
     0
291
     1
 45
0.0
1001
ACAD
1000
AcDbSavedByObjectVersion
1070
     0
  0
VISUALSTYLE
  5
780D
102
{ACAD_XDICTIONARY
360
7E60C
102
}
102
{ACAD_REACTORS
330
77FF
102
}
330
77FF
100
AcDbVisualStyle
  2

 70
    14
 71
     2
 72
     2
 73
     0
 90
        0
 40
-0.6
 41
-30.0
 62
     5
 63
     7
 74
     1
 91
        4
 64
     7
 65
   257
 75
     7
175
     7
 42
1.0
 92
        8
 66
     7
 43
1.0
 76
     1
 77
     6
 78
     2
 67
     7
 79
     5
170
     0
171
     0
290
     0
174
     0
 93
        1
 44
0.0
173
     0
291
     1
 45
0.0
1001
ACAD
1000
AcDbSavedByObjectVersion
1070
     0
  0
VISUALSTYLE
  5
BB18
102
{ACAD_XDICTIONARY
360
7E623
102
}
102
{ACAD_REACTORS
330
77FF
102
}
330
77FF
100
AcDbVisualStyle
  2

 70
    21
 71
     2
 72
     2
 73
     0
 90
        0
 40
-0.6
 41
-30.0
 62
     5
 63
     7
421
 16777215
 74
     1
 91
        4
 64
     7
 65
   257
 75
     1
175
     1
 42
1.0
 92
        9
 66
     7
 43
1.0
 76
     1
 77
     6
 78
     2
 67
     7
 79
     5
170
     0
171
     0
290
     0
174
     0
 93
        1
 44
0.0
173
     0
291
     1
 45
0.0
1001
ACAD
1000
AcDbSavedByObjectVersion
1070
     0
  0
VISUALSTYLE
  5
7809
102
{ACAD_XDICTIONARY
360
7E604
102
}
102
{ACAD_REACTORS
330
77FF
102
}
330
77FF
100
AcDbVisualStyle
  2

 70
     8
 71
     2
 72
     2
 73
     0
 90
        0
 40
-0.6
 41
-30.0
 62
     5
 63
     7
 74
     1
 91
        0
 64
     7
 65
   257
 75
     1
175
     1
 42
1.0
 92
        8
 66
     8
 43
1.0
 76
     1
 77
     6
 78
     2
 67
     7
 79
     5
170
     0
171
     0
290
     0
174
     0
 93
       13
 44
0.0
173
     0
291
     0
 45
0.0
1001
ACAD
1000
AcDbSavedByObjectVersion
1070
     0
  0
VISUALSTYLE
  5
BB16
102
{ACAD_XDICTIONARY
360
7E61F
102
}
102
{ACAD_REACTORS
330
77FF
102
}
330
77FF
100
AcDbVisualStyle
  2

 70
    27
 71
     2
 72
     2
 73
     1
 90
        2
 40
-0.6
 41
30.0
 62
     5
 63
     7
421
 16777215
 74
     0
 91
        4
 64
     7
 65
   257
 75
     1
175
     1
 42
1.0
 92
        8
 66
   257
 43
1.0
 76
     1
 77
     6
 78
     2
 67
     8
425
  7895160
 79
     3
170
     0
171
     0
290
     0
174
     0
 93
        5
 44
0.0
173
     0
291
     0
 45
0.0
1001
ACAD
1000
AcDbSavedByObjectVersion
1070
     0
  0
VISUALSTYLE
  5
BB15
102
{ACAD_XDICTIONARY
360
7E61D
102
}
102
{ACAD_REACTORS
330
77FF
102
}
330
77FF
100
AcDbVisualStyle
  2

 70
    26
 71
     2
 72
     2
 73
     1
 90
        2
 40
-0.6
 41
30.0
 62
     5
 63
     7
421
 16777215
 74
     1
 91
       10
 64
     7
 65
   257
 75
     2
175
     1
 42
1.0
 92
        8
 66
   257
 43
1.0
 76
     1
 77
     6
 78
     2
 67
     7
 79
     3
170
     0
171
     0
290
     0
174
     0
 93
        5
 44
0.0
173
     0
291
     0
 45
0.0
1001
ACAD
1000
AcDbSavedByObjectVersion
1070
     0
  0
VISUALSTYLE
  5
BB12
102
{ACAD_XDICTIONARY
360
7E617
102
}
102
{ACAD_REACTORS
330
77FF
102
}
330
77FF
100
AcDbVisualStyle
  2

 70
    23
 71
     2
 72
     2
 73
     3
 90
        0
 40
-0.6
 41
-30.0
 62
     5
 63
     7
421
 16777215
 74
     2
 91
        2
 64
     7
 65
     7
 75
     1
175
     1
 42
40.0
 92
        8
 66
     7
 43
1.0
 76
     1
 77
     6
 78
     2
 67
     7
 79
     3
170
     0
171
     0
290
     0
174
     0
 93
        1
 44
0.0
173
     0
291
     0
 45
0.0
1001
ACAD
1000
AcDbSavedByObjectVersion
1070
     0
  0
VISUALSTYLE
  5
BB13
102
{ACAD_XDICTIONARY
360
7E619
102
}
102
{ACAD_REACTORS
330
77FF
102
}
330
77FF
100
AcDbVisualStyle
  2

 70
    24
 71
     1
 72
     2
 73
     2
 90
        0
 40
-0.6
 41
-30.0
 62
     5
 63
     7
421
 16777215
 74
     2
 91
        2
 64
     7
 65
     7
 75
     1
175
     1
 42
40.0
 92
       11
 66
     7
 43
1.0
 76
     1
 77
     6
 78
     2
 67
     7
 79
     6
170
     0
171
     0
290
     0
174
     0
 93
        1
 44
0.0
173
     0
291
     0
 45
0.0
1001
ACAD
1000
AcDbSavedByObjectVersion
1070
     0
  0
VISUALSTYLE
  5
780C
102
{ACAD_XDICTIONARY
360
7E60A
102
}
102
{ACAD_REACTORS
330
77FF
102
}
330
77FF
100
AcDbVisualStyle
  2

 70
    13
 71
     2
 72
     2
 73
     0
 90
        0
 40
-0.6
 41
-30.0
 62
     5
 63
     7
 74
     1
 91
        4
 64
     7
 65
   257
 75
     1
175
     1
 42
1.0
 92
       12
 66
     7
 43
1.0
 76
     1
 77
     6
 78
     2
 67
     7
 79
     5
170
     0
171
     0
290
     0
174
     0
 93
        1
 44
0.0
173
     0
291
     1
 45
0.0
1001
ACAD
1000
AcDbSavedByObjectVersion
1070
     0
  0
VISUALSTYLE
  5
BB10
102
{ACAD_XDICTIONARY
360
7E613
102
}
102
{ACAD_REACTORS
330
77FF
102
}
330
77FF
100
AcDbVisualStyle
  2

 70
     5
 71
     0
 72
     2
 73
     0
 90
        0
 40
-0.6
 41
-30.0
 62
     5
 63
     7
421
 16777215
 74
     1
 91
        4
 64
     7
 65
   257
 75
     1
175
     1
 42
1.0
 92
        0
 66
   257
 43
1.0
 76
     1
 77
     6
 78
     2
 67
     7
 79
     3
170
     0
171
     0
290
     0
174
     0
 93
        1
 44
0.0
173
     0
291
     0
 45
0.0
1001
ACAD
1000
AcDbSavedByObjectVersion
1070
     0
  0
VISUALSTYLE
  5
BB14
102
{ACAD_XDICTIONARY
360
7E61B
102
}
102
{ACAD_REACTORS
330
77FF
102
}
330
77FF
100
AcDbVisualStyle
  2

 70
    25
 71
     2
 72
     2
 73
     1
 90
        1
 40
0.5
 41
-30.0
 62
     5
 63
     7
421
 16777215
 74
     1
 91
        0
 64
     7
 65
   257
 75
     1
175
     1
 42
1.0
 92
        8
 66
     7
 43
1.0
 76
     1
 77
     6
 78
     2
 67
     7
 79
     3
170
     0
171
     0
290
     0
174
     0
 93
       13
 44
0.0
173
     0
291
     0
 45
0.0
1001
ACAD
1000
AcDbSavedByObjectVersion
1070
     0
  0
DICTIONARYVAR
  5
7842
102
{ACAD_REACTORS
330
857
102
}
330
857
100
DictionaryVariables
280
     0
  1
1:1
  0
DICTIONARYVAR
  5
7841
102
{ACAD_REACTORS
330
857
102
}
330
857
100
DictionaryVariables
280
     0
  1
STANDARD
  0
DICTIONARYVAR
  5
7840
102
{ACAD_REACTORS
330
857
102
}
330
857
100
DictionaryVariables
280
     0
  1
STANDARD
  0
DICTIONARYVAR
  5
C0E7
102
{ACAD_REACTORS
330
857
102
}
330
857
100
DictionaryVariables
280
     0
  1
Imperial24
  0
DICTIONARYVAR
  5
C0E8
102
{ACAD_REACTORS
330
857
102
}
330
857
100
DictionaryVariables
280
     0
  1
Imperial24
  0
DICTIONARYVAR
  5
7844
102
{ACAD_REACTORS
330
857
102
}
330
857
100
DictionaryVariables
280
     0
  1
1
  0
DICTIONARYVAR
  5
7843
102
{ACAD_REACTORS
330
857
102
}
330
857
100
DictionaryVariables
280
     0
  1
0
  0
DICTIONARYVAR
  5
C0E9
102
{ACAD_REACTORS
330
857
102
}
330
857
100
DictionaryVariables
280
     0
  1
1
  0
DICTIONARYVAR
  5
C0EA
102
{ACAD_REACTORS
330
857
102
}
330
857
100
DictionaryVariables
280
     0
  1
15
  0
DICTIONARYVAR
  5
85B9
102
{ACAD_REACTORS
330
857
102
}
330
857
100
DictionaryVariables
280
     0
  1
0
  0
DICTIONARYVAR
  5
7E52B
102
{ACAD_REACTORS
330
857
102
}
330
857
100
DictionaryVariables
280
     0
  1
1.570796
  0
DICTIONARYVAR
  5
7E52C
102
{ACAD_REACTORS
330
857
102
}
330
857
100
DictionaryVariables
280
     0
  1
1.570796
  0
DICTIONARYVAR
  5
7E52D
102
{ACAD_REACTORS
330
857
102
}
330
857
100
DictionaryVariables
280
     0
  1
-122.394000
  0
DICTIONARYVAR
  5
85B8
102
{ACAD_REACTORS
330
857
102
}
330
857
100
DictionaryVariables
280
     0
  1
0
  0
DICTIONARYVAR
  5
7DAA3
102
{ACAD_REACTORS
330
857
102
}
330
857
100
DictionaryVariables
280
     0
  1
1
  0
DICTIONARYVAR
  5
858
102
{ACAD_REACTORS
330
857
102
}
330
857
100
DictionaryVariables
280
     0
  1
96
  0
DICTIONARY
  5
7E5EE
102
{ACAD_REACTORS
330
7E5EC
102
}
330
7E5EC
100
AcDbDictionary
281
     1
  0
DICTIONARY
  5
7E5ED
102
{ACAD_REACTORS
330
7E5EC
102
}
330
7E5EC
100
AcDbDictionary
281
     1
  3
140698618830192
350
7E5E7
  3
140698618830208
350
7E5E8
  3
140698618830224
350
7E5E9
  3
140698618830240
350
7E5EA
  3
140698618830256
350
7E5EB
  0
DICTIONARY
  5
7E519
330
BB1E
100
AcDbDictionary
280
     1
281
     1
  3
ACAD_XREC_ROUNDTRIP
360
7E628
  0
DICTIONARY
  5
C13A
330
1D
100
AcDbDictionary
280
     1
281
     1
  0
DICTIONARY
  5
7DB50
330
21
100
AcDbDictionary
280
     1
281
     1
  0
DICTIONARY
  5
77F0
330
77EF
100
AcDbDictionary
280
     1
281
     1
  3
ACAD_XREC_ROUNDTRIP
360
81D8
  3
BUMPTILE
360
77F2
  3
DIFFUSETILE
360
77F1
  3
OPACITYTILE
360
77F5
  3
REFLECTIONTILE
360
77F4
  3
REFRACTIONTILE
360
77F6
  3
SPECULARTILE
360
77F3
  0
DICTIONARY
  5
77E8
330
77E7
100
AcDbDictionary
280
     1
281
     1
  3
ACAD_XREC_ROUNDTRIP
360
81D7
  3
BUMPTILE
360
77EA
  3
DIFFUSETILE
360
77E9
  3
OPACITYTILE
360
77ED
  3
REFLECTIONTILE
360
77EC
  3
REFRACTIONTILE
360
77EE
  3
SPECULARTILE
360
77EB
  0
DICTIONARY
  5
77F8
330
77F7
100
AcDbDictionary
280
     1
281
     1
  3
ACAD_XREC_ROUNDTRIP
360
81D9
  3
BUMPTILE
360
77FA
  3
DIFFUSETILE
360
77F9
  3
FBXASSET
360
7E438
  3
OPACITYTILE
360
77FD
  3
REFLECTIONTILE
360
77FC
  3
REFRACTIONTILE
360
77FE
  3
SPECULARTILE
360
77FB
  0
DICTIONARY
  5
7E517
330
BB1C
100
AcDbDictionary
280
     1
281
     1
  3
ACAD_XREC_ROUNDTRIP
360
7E627
  0
DICTIONARY
  5
81C5
330
7812
100
AcDbDictionary
280
     1
281
     1
  3
ACAD_ROUNDTRIP_2008_TABLESTYLE_CELLSTYLEMAP
360
7E5E0
  3
ACAD_XREC_ROUNDTRIP
360
7E612
  0
DICTIONARY
  5
7E5FC
330
7805
100
AcDbDictionary
280
     1
281
     1
  3
ACAD_XREC_ROUNDTRIP
360
7E5FD
  0
DICTIONARY
  5
7E600
330
7807
100
AcDbDictionary
280
     1
281
     1
  3
ACAD_XREC_ROUNDTRIP
360
7E601
  0
DICTIONARY
  5
7E5FE
330
7806
100
AcDbDictionary
280
     1
281
     1
  3
ACAD_XREC_ROUNDTRIP
360
7E5FF
  0
DICTIONARY
  5
7E5FA
330
7804
100
AcDbDictionary
280
     1
281
     1
  3
ACAD_XREC_ROUNDTRIP
360
7E5FB
  0
DICTIONARY
  5
7E608
330
780B
100
AcDbDictionary
280
     1
281
     1
  3
ACAD_XREC_ROUNDTRIP
360
7E609
  0
DICTIONARY
  5
7E610
330
780F
100
AcDbDictionary
280
     1
281
     1
  3
ACAD_XREC_ROUNDTRIP
360
7E611
  0
DICTIONARY
  5
7E602
330
7808
100
AcDbDictionary
280
     1
281
     1
  3
ACAD_XREC_ROUNDTRIP
360
7E603
  0
DICTIONARY
  5
7E606
330
780A
100
AcDbDictionary
280
     1
281
     1
  3
ACAD_XREC_ROUNDTRIP
360
7E607
  0
DICTIONARY
  5
7E625
330
BB19
100
AcDbDictionary
280
     1
281
     1
  3
ACAD_XREC_ROUNDTRIP
360
7E626
  0
DICTIONARY
  5
7E60E
330
780E
100
AcDbDictionary
280
     1
281
     1
  3
ACAD_XREC_ROUNDTRIP
360
7E60F
  0
DICTIONARY
  5
7E5F2
330
7800
100
AcDbDictionary
280
     1
281
     1
  3
ACAD_XREC_ROUNDTRIP
360
7E5F3
  0
DICTIONARY
  5
7E5F4
330
7801
100
AcDbDictionary
280
     1
281
     1
  3
ACAD_XREC_ROUNDTRIP
360
7E5F5
  0
DICTIONARY
  5
7E5F6
330
7802
100
AcDbDictionary
280
     1
281
     1
  3
ACAD_XREC_ROUNDTRIP
360
7E5F7
  0
DICTIONARY
  5
7E5F8
330
7803
100
AcDbDictionary
280
     1
281
     1
  3
ACAD_XREC_ROUNDTRIP
360
7E5F9
  0
DICTIONARY
  5
7E615
330
BB11
100
AcDbDictionary
280
     1
281
     1
  3
ACAD_XREC_ROUNDTRIP
360
7E616
  0
DICTIONARY
  5
7E621
330
BB17
100
AcDbDictionary
280
     1
281
     1
  3
ACAD_XREC_ROUNDTRIP
360
7E622
  0
DICTIONARY
  5
7E60C
330
780D
100
AcDbDictionary
280
     1
281
     1
  3
ACAD_XREC_ROUNDTRIP
360
7E60D
  0
DICTIONARY
  5
7E623
330
BB18
100
AcDbDictionary
280
     1
281
     1
  3
ACAD_XREC_ROUNDTRIP
360
7E624
  0
DICTIONARY
  5
7E604
330
7809
100
AcDbDictionary
280
     1
281
     1
  3
ACAD_XREC_ROUNDTRIP
360
7E605
  0
DICTIONARY
  5
7E61F
330
BB16
100
AcDbDictionary
280
     1
281
     1
  3
ACAD_XREC_ROUNDTRIP
360
7E620
  0
DICTIONARY
  5
7E61D
330
BB15
100
AcDbDictionary
280
     1
281
     1
  3
ACAD_XREC_ROUNDTRIP
360
7E61E
  0
DICTIONARY
  5
7E617
330
BB12
100
AcDbDictionary
280
     1
281
     1
  3
ACAD_XREC_ROUNDTRIP
360
7E618
  0
DICTIONARY
  5
7E619
330
BB13
100
AcDbDictionary
280
     1
281
     1
  3
ACAD_XREC_ROUNDTRIP
360
7E61A
  0
DICTIONARY
  5
7E60A
330
780C
100
AcDbDictionary
280
     1
281
     1
  3
ACAD_XREC_ROUNDTRIP
360
7E60B
  0
DICTIONARY
  5
7E613
330
BB10
100
AcDbDictionary
280
     1
281
     1
  3
ACAD_XREC_ROUNDTRIP
360
7E614
  0
DICTIONARY
  5
7E61B
330
BB14
100
AcDbDictionary
280
     1
281
     1
  3
ACAD_XREC_ROUNDTRIP
360
7E61C
  0
XRECORD
  5
7E5E7
102
{ACAD_REACTORS
330
7E5ED
102
}
330
7E5ED
100
AcDbXrecord
280
     1
  1
AcDb_Thumbnail_Schema
102
{ATTRRECORD
341
7E5E8
  2
AcDbDs::TreatedAsObjectData
280
     1
291
     1
102
ATTRRECORD}
102
{ATTRRECORD
341
7E5E9
  2
AcDbDs::Legacy
280
     1
291
     1
102
ATTRRECORD}
  2
AcDbDs::ID
280
    10
 91
        8
102
{ATTRRECORD
341
7E5EA
  2
AcDs:Indexable
280
     1
291
     1
102
ATTRRECORD}
102
{ATTRRECORD
341
7E5EB
  2
AcDbDs::HandleAttribute
280
     7
282
     1
102
ATTRRECORD}
  2
Thumbnail_Data
280
    15
 91
        0
  0
XRECORD
  5
7E5E8
102
{ACAD_REACTORS
330
7E5ED
102
}
330
7E5ED
100
AcDbXrecord
280
     1
  1
AcDbDs::TreatedAsObjectDataSchema
  2
AcDbDs::TreatedAsObjectData
280
     1
 91
        0
  0
XRECORD
  5
7E5E9
102
{ACAD_REACTORS
330
7E5ED
102
}
330
7E5ED
100
AcDbXrecord
280
     1
  1
AcDbDs::LegacySchema
  2
AcDbDs::Legacy
280
     1
 91
        0
  0
XRECORD
  5
7E5EA
102
{ACAD_REACTORS
330
7E5ED
102
}
330
7E5ED
100
AcDbXrecord
280
     1
  1
AcDbDs::IndexedPropertySchema
  2
AcDs:Indexable
280
     1
 91
        0
  0
XRECORD
  5
7E5EB
102
{ACAD_REACTORS
330
7E5ED
102
}
330
7E5ED
100
AcDbXrecord
280
     1
  1
AcDbDs::HandleAttributeSchema
  2
AcDbDs::HandleAttribute
280
     7
 91
        1
284
     1
  0
XRECORD
  5
7E628
102
{ACAD_REACTORS
330
7E519
102
}
330
7E519
100
AcDbXrecord
280
     1
102
DISPLAYNAME
  1
Imperial24
102
FLAGS
 90
        0
  0
XRECORD
  5
81D8
102
{ACAD_REACTORS
330
77F0
102
}
330
77F0
100
AcDbXrecord
280
     1
102
MATERIAL
148
0.0
149
0.0
149
0.0
 93
        0
 94
      127
282
     0
 72
     0
 77
     0
171
     0
175
     0
179
     0
273
     0
  0
XRECORD
  5
77F2
102
{ACAD_REACTORS
330
77F0
102
}
330
77F0
100
AcDbXrecord
280
     1
270
     1
271
     1
  0
XRECORD
  5
77F1
102
{ACAD_REACTORS
330
77F0
102
}
330
77F0
100
AcDbXrecord
280
     1
270
     1
271
     1
  0
XRECORD
  5
77F5
102
{ACAD_REACTORS
330
77F0
102
}
330
77F0
100
AcDbXrecord
280
     1
270
     1
271
     1
  0
XRECORD
  5
77F4
102
{ACAD_REACTORS
330
77F0
102
}
330
77F0
100
AcDbXrecord
280
     1
270
     1
271
     1
  0
XRECORD
  5
77F6
102
{ACAD_REACTORS
330
77F0
102
}
330
77F0
100
AcDbXrecord
280
     1
270
     1
271
     1
  0
XRECORD
  5
77F3
102
{ACAD_REACTORS
330
77F0
102
}
330
77F0
100
AcDbXrecord
280
     1
270
     1
271
     1
  0
XRECORD
  5
81D7
102
{ACAD_REACTORS
330
77E8
102
}
330
77E8
100
AcDbXrecord
280
     1
102
MATERIAL
148
0.0
149
0.0
149
0.0
 93
        0
 94
      127
282
     0
 72
     0
 77
     0
171
     0
175
     0
179
     0
273
     0
  0
XRECORD
  5
77EA
102
{ACAD_REACTORS
330
77E8
102
}
330
77E8
100
AcDbXrecord
280
     1
270
     1
271
     1
  0
XRECORD
  5
77E9
102
{ACAD_REACTORS
330
77E8
102
}
330
77E8
100
AcDbXrecord
280
     1
270
     1
271
     1
  0
XRECORD
  5
77ED
102
{ACAD_REACTORS
330
77E8
102
}
330
77E8
100
AcDbXrecord
280
     1
270
     1
271
     1
  0
XRECORD
  5
77EC
102
{ACAD_REACTORS
330
77E8
102
}
330
77E8
100
AcDbXrecord
280
     1
270
     1
271
     1
  0
XRECORD
  5
77EE
102
{ACAD_REACTORS
330
77E8
102
}
330
77E8
100
AcDbXrecord
280
     1
270
     1
271
     1
  0
XRECORD
  5
77EB
102
{ACAD_REACTORS
330
77E8
102
}
330
77E8
100
AcDbXrecord
280
     1
270
     1
271
     1
  0
XRECORD
  5
81D9
102
{ACAD_REACTORS
330
77F8
102
}
330
77F8
100
AcDbXrecord
280
     1
102
MATERIAL
148
0.0
149
0.0
149
0.0
 93
        0
 94
      127
282
     0
 72
     0
 77
     0
171
     0
175
     0
179
     0
273
     0
  0
XRECORD
  5
77FA
102
{ACAD_REACTORS
330
77F8
102
}
330
77F8
100
AcDbXrecord
280
     1
270
     1
271
     1
  0
XRECORD
  5
77F9
102
{ACAD_REACTORS
330
77F8
102
}
330
77F8
100
AcDbXrecord
280
     1
270
     1
271
     1
  0
XRECORD
  5
7E438
102
{ACAD_REACTORS
330
77F8
102
}
330
77F8
100
AcDbXrecord
280
     1
 70
     1
 90
652598616
 71
     1
  1
0D9EDD82-950D-4AC2-8456-EFF39E6D45FA
311
504B0304140006080800CC439245659D2145D9000000200100004F00000041323435374135322D313838392D344630362D384446382D3037363143464331304346332F4173736574446174612F446566696E6974696F6E4974657261746F7250726F706572746965732E62696E454E3D4FC33010350C200606FE41D5DD7562
311
279115F543554299DA052696EAEA5C4B2427A9E2446264E45FC39D28EA49EFDE7DBEBB6F21C4CFC5281437842FF28FC42FD8625FBB57F7810D883BAEF8EE00FEFEDABBA590D3128F30FA81B7B67570E83DB4D88DE1E93A3A69602039F0335E7A20FC17022B9CFE8EF1FD1D815F6286EA9CAF20041C16EA78F854459696DA6C
311
8C2CCD269649913CCB759159595A93E8759AD9426BD563E8C6DE61505A45FB8BF2FEDC9EEA6A391FEA06272D34B898BA1EE9A76ABAD4519CC858CBD8BE45363751AED3F7B9E2C95F504B0304140006080800CC4392459CE155601F010000300200004500000041323435374135322D313838392D344630362D384446382D30
311
37363143464331304346332F4173736574446174612F496E7374616E636550726F706572746965732E62696E6D51BB4E8450101D1F898D9AFD842DB6588B9BF0B8E052C1C2E5DA69416B4300B39B281A42B2B1A3B4F37B6CFD063FC03F80C67A3D974558C34E3273CE9C393337813722DA76014A47C80AF5027893E559B14E
311
A264953DC533089A7042211606732C4D30BE0C0CB6E096CD42294D27B405B7E4F26C58542BA6CE4568580EB3383719B70D9DF9D2174CBF36B5C00E0267193AB0B5EFD2D5FDFBE7CFFCCB051E43AB907F7D8BE8118DBB73134D3C9AB4525B66DEC00F322CEEA227076D107B437382AE4276ABDF1D9E431A87FA8EC3A43F3232
311
A61FDE48FB278C57D5E9F99EA7714FD1A9BF75898C367199AC985FC4799AA56A9250416B7AA112F599729A524419BA29DD0237C03B3055253D0003B81E91C51EAFEB7AABB2A4575CCA3091F40B504B0304140006080800CC43924528BB58AF800100009E0500003D00000041323435374135322D313838392D344630362D38
311
4446382D3037363143464331304346332F536368656D61732F436F6D6D6F6E536368656D612E786D6CBD544D4FC23018BEFB2B96DE15493C78601010A34B880709DEDFB52FD0D8B54BD70DF6EFED3AC0B12E6442E2716BFB3CEFF3D18E26FB440405EA8C2B1992E1C323095052C5B8DC842437EBFB673219DF8DA659866649
311
B798C078B48AE6410122242F2A4994AC7F93815DF85C049C8564CA0A901499DD886B2EB9B1E02448F358701A9235880C49A0119892A20C89D1B9FD768815CAD268CB5E0355B40B1E47F3E37A2020464BED06AA57CE8FCC20C3C3446D46761A2632A8C1283D07031EFF2AE7CCB1BFEEE916E406DFAC8E36FFD99A9D60A69440
311
90EEDC3B670C7DC13DE86B6B2C5C240D6E503BB85ACD579D513F1B9F9A69DC9CC22AFA80C426D40AF0B21EA168559156B6276F0F726A6BFF04DCD513A87A62CAD41FB24FCB2858B3952E3D852084DA25B9303C15687973CC8E8AAE11DF2836C38C6A9E765E8C1BA1BFB1DC29CDFE518C8B5A7655A4ED7E77291ABEB80DBD82
311
EC866ADE1B8D05AF9E35CF09D7A061F38A986D9EC412B8F0F65E5D81534D9B231D1E5A8FE577A241F3A5FD01504B0304140006080800CC4392452CCEBD668A040000E01200003E00000041323435374135322D313838392D344630362D384446382D3037363143464331304346332F536368656D61732F47656E6572696353
311
6368656D612E786D6CD5586D6FDB380CFE7EBF42F0F7A649B70E1B90744856B4970F450FCD7A5F05459613EDE4174872DADCAF3F522F8ED3B88D2F1D06AC4050DBA2493EE4438AF2F8EB73AEC8466823CB62928C06C384888297A92C5693A4B6D9D9E7E4EBD51FE3A931C22EF85AE4EC6AFC38BF261BA626C9AD288496DC3F
311
4FCEAFC63366845F7A10452AF41DB320C0D44EC26EAB20918735565582695670811A6A49643A49A6E9069FA4604A64B29016DC4B48552F95E4932463CA888468C1D2B250DB4962750DF7CE273069CE8363F1FF4EDB00E0A21999574AE4A2B00C353B93F3BD4777B8A61ED8F604ABFEDD79CE56A2B7BDFBDBC50996E0ADDE16
311
FED26223C5D30956C29BDF4A55EA686E5E58B112DA45CE67F76F4FA27EFA3FB672FD7372FC388FAECDCA5209E693CAD167BADCD272F943701B3812F8A3D852008B1D2E32DB927B2F833C6EA95879925356D254582695095A3CE982924720BE5774A3CB9CDCDB350427D2DF20DA1B5532EBE2D5D6288D75D4F7E4FD9890A0EF
311
8E3D93EBB8F8BA4758158EF6FB90A6F9520281C93DE7AAC6D24607DA296BB96018123F821A7D6A5C5884050C475DA4865442732C8B95684A50165CBB3A32F25F783A4A480ED59AD7F924B968AEA50131F46303223E6A397B0E52976030DC1DCA81D7E7C1EDEEA42C19FF27635C505E2BD5198A599020DF50A2330FCB3AAF28
311
CB0124108429553EF1B228802E2265D8F7CC2401042B155BCC7070F1E5C55F13B4A9577362CCCE46C32174E010C3C378C44841A4BDA00FE3A12006CE11EE6AEC59894D3526DDE1CD59D503ECC324017F8061B7F162162FA62EDD81AE3308617770796DCBDAD2B2625C5AE8A63DE20B2C8AA5E95E76E5730823955956E33E70
311
5425A2187C185D36489A1B44D3DCEC2172F6BA2105C3546287A7194B2331768EBBE64F6E70A9930ABE0ADEA89E9E2C38523B810287AD67A54A039C1606EAFE68F8304610BB9093DBDDABC0B2AE4E290DCDA15376D7E39F72B556F0B32EAB5D3D498B4C41ABADEC3A1434C422D87E8025A84BDCB2B1417ED750FAE4DA897686
311
3974C577C7F902D3F156AD354DEA3540DE6BEAE2BEA52F7A2EB4CA43802ECE5BF2CE2EDC9347179FFB023CE412E60BE16DA0BE29B374988A553F561DC04615DD35F7D2C8979F60E5955CE93DF29DED8AFA1EE6642D53418086C03C47C377910F75F7E8F5EF665F70B60FFB22AEDF897D119E8423C773E819A3C1E55E550599
311
EE6EDCA34D0C86FD72057DF2CD46F16A470682471C164E4346D5306BF12D7D12D82CFF673D41636C347443FEB51B50D72EA171A8E4A58623A4A16E0FA2B8B10A0D23268D87C33896EE8FB73305A74BF224EDBADFA0BD674AB354D63DB7BD5D83426761C077DE767728235446A552754EB93B755891C3C4CC6CADE37CF0E912
311
A7BB38DBA010F9DE1282EDF470CA69A9CDA482E334C4A6EA4107987980B17E72F31730EBF88BBD39E7C629F56797A3C0009C2C5AE7951D9A05A02773440F02EEB4DE396A3B6A570C72CCFBCD823B0B8ED3F1D5CEDDFED772FA70236C83FB7D86C385D570B87107535572A60A96035F8F7C6A7192F13007246BBE0521855E6A
311
C46F3E27689CEE7D186A6FD679D98CDCAD13333E04EBE7ED6F55FF01504B0304140006080800CC4392456180134D5F0100006B0300004500000041323435374135322D313838392D344630362D384446382D3037363143464331304346332F536368656D61732F52656E6465724D6174657269616C536368656D612E786D6C
311
A5934D6FC2300C86EFFB1551EEE343DBA41D1A103009551ADAD40EAE28A4A68D9426284961FCFBE5A340113B2071746D3F765EBF4DC6BFB5407BD0862B49F0B037C0082453059725C18DDD3EBFE3F1E829991803366715D474942CD30FB4A782E00C64017A412D684E454CE3FE28995203B162A6EA5AC94B66997D225E109C
311
D63B0135484BAD1B3C07E9080CA35DB3119C11BCA5C200461A68A1A438126C75E3E230D40FF81FB3F03C91D1E3A3A0AF79FE28E25BC39EC3E17E4C2A2D94A0833A51AF55BCCA7D88572FCBAC529C4140B020FC3AAFA886621DCED7EAD7664CC86024E806DC297DA1BB393E4156543457A4537DB8817349A70F8ACBF09B3EEE
311
2CB2F33E91B65D60786E4E3B39B77E3FEEEF5650424525DA657FB8B46BE6BF064646F0A0F7327C0BC1BC1B4CBBC1C419FA3CCB23500007872A2580CAAE5461865565294E4EDB4617B62FF579DF9A5B2F54E834076A597573A020912FED777F9B3F504B0304140006080800CC4392452A758DE9510000005700000047000000
311
41323435374135322D313838392D344630362D384446382D3037363143464331304346332F4173736574446174612F41737365745461626C654F66436F6E74656E74732E62696E536160603070B1747571B130D2B5343570D135717436D2B5303135D375757333B6743573313175731402AACB4D2C492DCA4CCC492C28484D
311
2C4ACC4B4E050A82012F90744FCD03CA26072767A4E6260200504B0304140006080800CC439245F865834058000000680000004500000041323435374135322D313838392D344630362D384446382D3037363143464331304346332F4173736574446174612F53747265616D56657273696F6E5461626C652E696E66558CBD
311
0A80300C06F73E4B117FB66E451741D041DC5BF98480A492E4FDD18EAEC7DD4555D89EF28DF51A0B1BD8340C4DE7DD848B988C0ACF0649566493F2408C508DDEBB99D5129FF8F1AF8CF5B9503E20FAE5A16B5AF702504B0304140006080800CC439245DCD12E3B340100009A0400003600000041323435374135322D313838
311
392D344630362D384446382D3037363143464331304346332F4173736574446174612F636E782E786D6CCD94314FC3301085FF4AE43D765240AA2AC71582A51348540C6C17E752AC3A76645F10FC7BEC3603A8882943D7F3BBF3F327BF93DBCFC1161F18A2F1AE6135AF58814EFBCEB843C326EACB352BB64A06EFE9878C15
311
0E066C582E33250FC14FE35CEAB087C9E6AA35EE3817EF6344DA436BF1A97FF08ED0516485B61063C3A27EC701384CE43B8C47DE0101AF79C0E8A7A0314D2233E03C490704C28EA95555DF96F5AAACD7FB6ABDB9A936ABBB3729B252C9D67B3BEB4DBA2CF8B1D0E75B99AAA4C8C74A4EC1CC9AFC16A6FEF2C85BE3A4484A25
311
2385C464EEA0AF3175C0385AA381123AE13521954984304871162B2932835F241EB137CEE4965D3206E4C373B287810C5E1D91FFBC2E4F66E72281D378BD3C2E1D2E4FE1E5F4835ECF813C25E6DA7272E9901BD72F9012715A23293479ABA86F504B0304140006080800CC439245F6EF5BC8080100004F0300003400000041
311
323435374135322D313838392D344630362D384446382D3037363143464331304346332F536368656D61732F636E782E786D6CCD93BD4E042114855F85D0CF30336A32D9306C616165A35676087757B2C09DF063F4ED85916237B1D3623B387C21E71C2E7CFFE92CF980100DFA858EFD40097885DAF8E342733A7433257BC1
311
03623AC328F1D2C142AB4C053F06CC6B93341C64B655B5C69F9A788FCEA17F56EFE02425CACA18171AB76D2F73420DF1D46B99643FF60122E6A0A0DC908C8376830A2013682AA661BCEDC6A91BE79761DEDD0CBBE9EE95B34A0AFE86681B6F7C82802B515816BED81938ABC782E7601A53335071EEAD2F6D705608C1630AA5
311
8346A6AFB590725DAD513295AAD806FE3082B31AF522F0037808465D67E20B73FF16F909BC86F0585E291869AF33F96F1EFF5600DB66BF8C40FD0AE21B504B0304140006080800CC439245410A3D5871000000A40000002C00000041323435374135322D313838392D344630362D384446382D303736314346433130434633
311
2F636E782E786D6C55CC4D0E82301086E1AB34B31774E7A22D31F1069E60020334B633A63FC6E34B0909B07DDE2F9FEE7EC1AB2FC5E4840DDC9A2B28E25E06C7938192C7CB1D54677514C9871928C640062A83D55394F2D968A0118BAFEA1DBF377CA444F98919176EAB9FEAAB9F2960DA5BBB1E2ED3FA6FFF504B03041400
311
06080800CC43924594BF0A3D7E000000A300000007000000636E782E786D6C4D8C4D0AC3201805AF22DFDE56D3FC585043B0788FD09820355A6C0C397EB564D1D583E1CDF0FE581DDA4DFCD8E005D00B0164FC334CD62F02D2366306A8973C86B0FDDD00F97135020A06C99718D2FB449399C7E40A75D6BF4E385475D30D4D
311
852963775C6BD262F6D00C93AEA54A2B4A94BE65E35A943CBF5EDE92975F504B0304140006080800CC43924516E99B5DA600000035010000130000005B436F6E74656E745F54797065735D2E786D6C9590410E82301045AFD2740F4517C6180A0BF5065E60AC53688469D30E066F6F91AD9AB89CF9FFFD3F99BA9DC7413C30
311
26E749CB4D59498164FCCD51A7E5C4B6D84BD136F5E5193089ECA5A465CF1C0E4A25D3E308A9F401292BD6C711388FB15301CC1D3A54DBAADA29E38991B8E0254336F5092D4C038BF39CD76B6FC6A538AEBEA54A4B08617006389FA516557DE4AE8E7E70DE30729138228C5F021CD93F02D4FB0DCD0B504B03041400060808
311
00CC4392453DEE336E64000000790000001B0000006175746F6465736B2D64657369676E2D7061636B6167652E786D6C35CBC10E83200C00D05F21DCA56CA76D41FC96062B120735B69A7DBE268BB7777961F8D5AF396893C2ADB70FE7ADA196782C2DF776D7A97B5933C430F15651E5469C55D70F80A4992A3ADC954792C5
311
25AE70A1E4D6AD9816CC044FEFDF01FE3FDE907802504B0304140006080800CC439245E3166826F8000000960100003700000041323435374135322D313838392D344630362D384446382D3037363143464331304346332F4173736574446174612F636F72652E786D6C8550CB6EC32010FC156BEFD8C6AFE00813B94DFEA0
311
A7DE10101725068B47D5CF2F24AED49E7ADAD5ECCCECEED0D3D77A2F3E95F3DA9A09705943A18CB0529B658218AE88407162D4591B7ED1A0307C55136418185D9C8DDB0E096B8232193556AA1DE4DEAB0085B8A766022F3ED4CA4B1E4362F85BB97171E38B2A71F9E4311AA396BB54CBE4A6AF5A396023395FDA96B4A8EB49
311
8F3A7CB8A097110F0837C3D0BF76E33C1F465A6531A341AF3FDB85533C2809ACA97197C80893B79A1CDBFAD8F4EFB4CA4C467D70E9E77D69FE0ED89CAF3EF3C069F59CFE718D9BFCDF356A13DA66777D2A3C309C8E7C0C18AD724AA93C224C3527CABE01504B0304140006080800CC43924503D8469CF60000009401000035
311
00000041323435374135322D313838392D344630362D384446382D3037363143464331304346332F536368656D61732F636F72652E786D6C8550CB6EC32010FC156BEFD8C6AFE00813A56DBEA03DF58680B82831583CAA7E7EC171A5F6D4D3AE66676677879EBE967BF1A99CD7D64C80CB1A0A658495DACC13C47045048A13
311
A3CEDAF08B0685E18B9A20C3C0E8EC6C5C7748581394C9A8B152ED20F75E0528C43D351378F1A1165EF21812C3DFCA958B1B9F5589CB078FD118B5DCA55A26377DD5CA011BC9CBA56D498BBA9EF4A8C3870B7A1AF18070330CFD73379ECF87915659CC68D0CBCF76E1140F4A026B6ADC2532C2E4AD26C7B63E36FD3BAD3293
311
511F5CFA795F9ABF03F6BADDE969F598FDF18CABFCDF336A13DA66F77C283C309C4EDC068C5639A354B60053CD79B26F504B0304140006080800CC439245E5680842FF000000D70100002D00000041323435374135322D313838392D344630362D384446382D3037363143464331304346332F636F72652E786D6C9551CB6E
311
C32010FC15B477DBE047E246982872E52FE8A9376A362E4A0C16E0AA9F5FA85DB5BDB527D03033CBCCF2F3FB7C276FE8BCB6A6039653206846ABB4993A58C3356B819C0577D6861F342046CED8418241F0C9D975D9A1D19A8026A1C62ADC41E93D0620E33D5E3AF0E32BCE32976B880C7FCB1739DEE48439CB379EE041CF5F
311
D2D1A10CA8409494D5192B33D63ED1F654D153D93CF32231055FB50955B90FC3F90515B14B88914034BCD85E236BD56AE76815FFA8AF1A1D884B5937C74B939CDB87AC1EE8216B1F8736A3C703EB879ED17EA8A249140BEE838BCDEC26A983BFCA37E1AF64EBA2FE996C537810EC3B54916A16BCF8DC413CD34AC407504B03
311
04140006080800CC439245F376663E05010000B201000008000000636F72652E786D6C8D50C96EC32010FD1534772F788B1D61A2B4CD1FF4D41B35C445B1C16289DABF2FC4546A6F3D0D7AF336869C3ED705DD85B152AB11705E02126AD25CAA7904EFAE590FE84489D1DAFDA201526C1523441828998DF65B8226AD9C5011
311
559A8B04326B8503342DE131829D3EC4CA72E65D60D85BBEB1E9C66691E37CE751E2E4FA239D8C604E70A055899B0C5719EE5FCBFE5897C7AA7D23456452E2BDE4294AF2902EAF5218A043FF72A9EBBECE9AB66FB3061F2ED9D380BBE0D275ED73339CCF878114514C897526FC3999849E0E59768FB9A4D85794BC6BBD2442
311
28C59156CB17D0921471F1A7B4DFF83F4A4BE5EA2A19EE0A0B1487428F45088E170CE371DE30E3B5E937504B01021400140006080800CC439245659D2145D9000000200100004F000000000000000000000000000000000041323435374135322D313838392D344630362D384446382D3037363143464331304346332F4173
311
736574446174612F446566696E6974696F6E4974657261746F7250726F706572746965732E62696E504B01021400140006080800CC4392459CE155601F0100003002000045000000000000000000000000004601000041323435374135322D313838392D344630362D384446382D3037363143464331304346332F41737365
311
74446174612F496E7374616E636550726F706572746965732E62696E504B01021400140006080800CC43924528BB58AF800100009E0500003D00000000000000000000000000C802000041323435374135322D313838392D344630362D384446382D3037363143464331304346332F536368656D61732F436F6D6D6F6E5363
311
68656D612E786D6C504B01021400140006080800CC4392452CCEBD668A040000E01200003E00000000000000000000000000A304000041323435374135322D313838392D344630362D384446382D3037363143464331304346332F536368656D61732F47656E65726963536368656D612E786D6C504B010214001400060808
311
00CC4392456180134D5F0100006B03000045000000000000000000000000008909000041323435374135322D313838392D344630362D384446382D3037363143464331304346332F536368656D61732F52656E6465724D6174657269616C536368656D612E786D6C504B01021400140006080800CC4392452A758DE9510000
311
005700000047000000000000000000000000004B0B000041323435374135322D313838392D344630362D384446382D3037363143464331304346332F4173736574446174612F41737365745461626C654F66436F6E74656E74732E62696E504B01021400140006080800CC439245F865834058000000680000004500000000
311
000000000000000000010C000041323435374135322D313838392D344630362D384446382D3037363143464331304346332F4173736574446174612F53747265616D56657273696F6E5461626C652E696E66504B01021400140006080800CC439245DCD12E3B340100009A0400003600000000000000000000000000BC0C00
311
0041323435374135322D313838392D344630362D384446382D3037363143464331304346332F4173736574446174612F636E782E786D6C504B01021400140006080800CC439245F6EF5BC8080100004F0300003400000000000000000000000000440E000041323435374135322D313838392D344630362D384446382D3037
311
363143464331304346332F536368656D61732F636E782E786D6C504B01021400140006080800CC439245410A3D5871000000A40000002C000000000000000000000000009E0F000041323435374135322D313838392D344630362D384446382D3037363143464331304346332F636E782E786D6C504B010214001400060808
311
00CC43924594BF0A3D7E000000A3000000070000000000000000000000000059100000636E782E786D6C504B01021400140006080800CC43924516E99B5DA6000000350100001300000000000000000000000000FC1000005B436F6E74656E745F54797065735D2E786D6C504B01021400140006080800CC4392453DEE336E
311
64000000790000001B00000000000000000000000000D31100006175746F6465736B2D64657369676E2D7061636B6167652E786D6C504B01021400140006080800CC439245E3166826F80000009601000037000000000000000000000000007012000041323435374135322D313838392D344630362D384446382D30373631
311
43464331304346332F4173736574446174612F636F72652E786D6C504B01021400140006080800CC43924503D8469CF6000000940100003500000000000000000000000000BD13000041323435374135322D313838392D344630362D384446382D3037363143464331304346332F536368656D61732F636F72652E786D6C50
311
4B01021400140006080800CC439245E5680842FF000000D70100002D000000000000000000000000000615000041323435374135322D313838392D344630362D384446382D3037363143464331304346332F636F72652E786D6C504B01021400140006080800CC439245F376663E05010000B2010000080000000000000000
311
000000000050160000636F72652E786D6C504B050600000000110011005A0600007B1700000000
310
504B0304140006080800CC439245000000000000000000000000370000006662782F46463537343837362D383737362D343341312D383146382D3334444446423539333742372F617474726962757465732E62696E504B0304140006080800CC439245000000000000000000000000350000006662782F4646353734383736
310
2D383737362D343341312D383146382D3334444446423539333742372F76657274696365732E62696E504B0304140006080800CC439245F270F1330600000004000000360000006662782F46463537343837362D383737362D343341312D383146382D3334444446423539333742372F747269616E676C65732E62696E6366
310
60600000504B0304140006080800CC43924551464CB48900000043010000360000006662782F46463537343837362D383737362D343341312D383146382D3334444446423539333742372F6469726563746F72792E786D6C9D8F310EC2300C45AF127987122606C71DD918B841D4B851A43646695A717C52A85029031293A5
310
A76FBF6FACEF7DA7264E43906840EF0FA03836E242F406C6DCEE4EA06AC22492573150D1F66C60C640E8938CB705396EEDD86DE9B5042FE27813D640EA63BB001C722AF6E55CB61E4863F58284D5D3F53DD715CE1C3985E63FD7F1B7EBDD617E9F1E504B0304140006080800CC4392456407C32C38070000201C0000340000
310
006662782F46463537343837362D383737362D343341312D383146382D3334444446423539333742372F6F626A656374732E786D6CDD596D6FDB3610FE2B84F665FBA077DBB50BC78563C78551A42D6A74D837819668878BDE404989B35FBF2345CA922CDB4AD602C512207118EA78F7DCDD73C7D3F4C3210AD11361194DE2
310
1BCD362C0D91D84F021AEF6FB422DFE9630D7D98A1294B92BCB64F43318EC88DC697B5D974CF9222954B01D9E1226CAFAE6EFF42994F62A2213FC45976A365FE0389B0818B3C0948F6680438C7C67E77306CA3DCD814BB67387D681D956246E21C5485F518A4480DECE69F6092399B9A7C43639BD36F9B7B619B290C6F2A4A
310
E32CC7B17FA2554B8ED34F2BD71E2CEF9CE1441F0E06AE3E1839B67EBBBA5DEAF63BD75A8C168BC9FC6EA2A1D9749B2461E58094C40178F1459BD95393FFA7325FA2D0A5B79FC431F1259A5D1B0222E55292B53169006B0BD36A0E296DAD2DB83D8D3FB3AD17280D951A682BE3D4EF7AF426DBBF0184AC4F94B28CF028CF72
310
06BE96D897F9604DCD72B5E1179AA108E784511CA2906E1966E020D85A3AA82186670B17853866C28B4A5E5D5708ECEBB9D4A5E5AE08439EBFDA4C649A07F948F24C6846FF21ECA87DFD34D009AC2D689C8FA5B1F94B0A222653532C96FF731DF9CF1248B40BF11EA205CCE49B5CA785D78273C17AA9CD3EADB6870DE787EE
310
C35396A484E53CF24432CBBC531EAC8516045F0F504A5C9BBE3BA2F20DA0FF0CC857BAA029788ED1C3E03050B6331C67BB8445E01D6421DD821F16E21F4F3E4DCDEAE119420DAE3C8729A4ED0FC2B46146E3EC1AA4B3E913047DC25C69DCC6C721C4F43D8D799E43A0A0308125E0FBDDF6A0CDD640A6B0084FE110AC87EFA9
310
C93F22F855CA01BE6979A88B7E7B384A254C3BCF8EBEFA0831C3A85FB9AA61E3397C873F04DFF972F36953B01DF6C9BD4CEC25D9D198E6504CBB156A80DE48F9EFEBCF22234FEC69ECF2E19C7DC289A3C32F1BE917241C03AAF03A5CBA46ACDC5348F730C431498A4CAE7711959F8409F3B62F5E99C39D67FDA982A03C0CF2
310
9B474027994175F7194D3928DA4C9A5731A171C489F3A00CC07DE9546F8BFD470EAFE70363BD450F885ACCDA428B28F570941431A7EFD3F06E9B66B896F8B2ED89634D9CF164A48CCD8478953D8A1A2AE5F939114ECF1CB268784BB286925CE6D100D8B2CB021F7AA622F79214FB34EF8E859611324301EC8B2A0774B72B32
310
20F54E585A1A1BAE3D4456ED6775C865EDE5211E8DF09E783BCC2B5CE7790D802AE1CA824E64F6619265342699E8504E98AB858A6500119471ABA4760421CDBC88E4F82DF1274A5E2BFC18D9851EF45239EF66AF479F525056CF731279E796C49EB0FFC5CB7094866597760D03DB699DD0892B579A1FF104F1E6E1DCB30222
310
9AEE6BD22B5E50F8F6923E79B3F833F030FCD3E151475068BDA1465EF7AC6D0CED09FF1A03A98C86B6FB4E39E21A56EAA89CF72061015D93FFE23D13BA7FE84768BDCEC948B8F36818169157D6839C44D082E1BC60BDF27534B44E9C2F79A19510B59376348406B937698ADE43751F6095683ECE9166ED18308AC67047EB65
310
C889159D212C7C21EEA3FCDA75DDFBAF97FA9FF9B27E4F79242FCF090B3A356DB611AA03530D03A74B59E1AA38129267D37AF245E2E2721D87811222F9ADBC25C80861E489F2C184B80175DE1FB2679CFB40A41BF15BBF858C084870EC291AE2E498439BC1A14A9AEA53EB371D203B5E3E1A8DD79A136A04D306CC79F69E7F
310
08BF617035747E9929BB1AB35C5FF3C266C060E5A8C705595F3E6E5A5260A5F7D35F3946E4B92541AE2E78237741D4F7F5B15F6D4990167D5F5F783C7F28A26D8C29AF8C3C2C7090BEFF20EE9237265C14CCC568B874DC95AB2FDD95AD0F16833B7DBE188DF5E5D81D38F3E168BC701C93912C29984F32D3312D4FF54E69BC
310
57815142D7E746015385EB573F15CF6D07FF8F6F1461B2C5E762F157BD5054ED1E6FC85AB9D8F742D149D4DBD775FFF609517717B15775CEE5AC4005F8E5B20564A4EA7DFFD64289569D44B7CEB58AF8CAC27BF6B6F2D36B4C83D03BEB43634717E537B918664F1D554ADD6E05AF59CBC9DD723976F4C9D05AEA83F9C2D1C7
310
83E148BF5BADDCC9DD683918AEE615E2B216F6AD2BBF04872A656B6334980667494861284F02B42709DC8060EAD0835F59443271B38106409671F546A0C7D34FE54C35C7DB503DED3F60184C87B222173E0C45E1D671A3C975F41B8C41F924520CA78C47283C32DA3554307AA34108E414EA8BB1857196181E0AE9AD7125B8
310
0DC77B7E672A9FAAFE3E3EC6D1815839DA55EDE9838BB4AC119D301C48C57B02603BD590BCDD74A50EC2397CDC167965CC71E1688D0441BD10288D83A9DFA384F700C473D92EDB107B1A90F49ACC5F8C8352AA9E63B617E3F51ADEF3E557934FC6D75F501A167BEECE4BF5BE2149E77D46589443A82904863433C5FC1EBE78
310
6F7E6509BC628AD08A4210A0DF0FE3D11FE62289A2242E97CCB97C5185360FF0DA2930D5C80F1A17CB1E9AA2EF91637D985B65C4C041F6080BE05A46F96CB484B81100153DD502407984FB021E6BEC5F2F912C02B516B6DEBA7278C44C1F4122F177393C6DEA1B6A0348C805D0AA9CD3561FD4C2D46430049FFD0B504B0304
310
140006080800CC4392451915FE203E01000046050000300000006662782F46463537343837362D383737362D343341312D383146382D3334444446423539333742372F636E782E786D6CCD94C14A033110865F25E4BEC96E5528259B82079FC08378CB66A76B6C36599289D8B737A9DBAA48C543A1BD85C93FF07F333F23D6
310
EFA3256F10A2F1AEA50DAB2901A77D6FDCD0D2849B6A49C95A8AE03D7E9351E2D4082D2D652AC5107C9AE6520F1B956CA95AE3B673512106D325844889B62AC69646FD02A3622AA1EF216E59AF50B18605883E050DB91FCD0873BF0EA0107A2A1775735B358BAA593ED6CBD54DBD5ADC3D0B5E945274DEDB596F1C42F013D1
310
3E3F5C36530B5EBEA548C1CC9A4240E59733D6192778FE972266B76E9875B89B8A6E9AACD10AF398B8D708586511A851F04FB114BCF0FEA07EB87F3A3820BD09A0D187DD8506D09C1AC0D118CB49F81FFF5EF837B6EF5E33EEA5B67D1276B67536D4435A638EEBEFFDE7142937D8EB0BFDD1D8F9339F4F091A7D7DC8075F67
310
22E6FB9397975E2EA0FC00504B0304140006080800CC439245AB9882F87D000000A30000000B0000006662782F636E782E786D6C4D8CD10A832018855F45FE7BDB449B0ED45884EF11CB42661A2E638F3F1D5DECE67CF071CE91DD67F5E8B0E9ED6250409A2B201B9E7172615190F7190B409D9629C6FDAF06288CAB555035
310
68B9A498B7534D761EB3AFD6BBF03AA5312D6782DFB0E025187D102C881198B261307D7BA7BCE76571A99382DF5F61BDD75F504B0304140006080800CC439245A6D797065F0000008200000007000000636E782E786D6C4DCB3B0E80201045D1AD90E9FD7516806B51190811670C8A61F982B1B0BAC9C97B72CA7B1037C6D3
310
332918DA1E04D2CAC69353902EDB8C20262D23F3F59B81A079470595414B17391D1F19B4730A5583A7ED43BBE4025D9592775E5ADFFA01504B0304140006080800CC4392454FEB6A7CA0000000F4000000130000005B436F6E74656E745F54797065735D2E786D6C7D8F4B0EC2300C44AF1279DFA6B0400835ED02B8011730
310
C16D239A8F121795DB93D02D6269CFBC19BBED573B8B17C564BC53B0AB1B10E4B47F18372A5878A88E20FAAEBDBD032591BD2E299898C349CAA427B2986A1FC86565F0D122E7318E32A07EE24872DF3407A9BD63725C71C980AEBDD080CBCCE2BAE6F5D69B7110E7CD57AA146008B3D1C8F92C5954F993BB1BF787F39A89AB
310
C491D09600F9FDA2FB00504B0304140006080800CC4392453DEE336E64000000790000001B0000006175746F6465736B2D64657369676E2D7061636B6167652E786D6C35CBC10E83200C00D05F21DCA56CA76D41FC96062B120735B69A7DBE268BB7777961F8D5AF396893C2ADB70FE7ADA196782C2DF776D7A97B5933C430
310
F15651E5469C55D70F80A4992A3ADC954792C525AE70A1E4D6AD9816CC044FEFDF01FE3FDE907802504B0304140006080800CC439245FFC2326DFA000000960100003B0000006662782F46463537343837362D383737362D343341312D383146382D3334444446423539333742372F7265736F75726365732F636F72652E78
310
6D6C8550CB6E833010FC15B47703064248641CD1347C414FBD596643AD041BF951F5F36B27546A4F3DED6A76667677D8E96BB9679F689D32BA079A9790A19666527AEE21F82BE9203B71668DF1BF689069B1600F0906CE666BC2BA41D2688F3AA1DA4CB881C239F490C97B6C7A70F20317918BE023C3DDF255C89B9831A7F9
310
93C759086ADAA46A8A6EEAAAD0021FDA66D7EEEB0B69EA174A9AF6D290C37818C9FEF55C0EDD3036E7B666451273E6D5F2B35D5A141E27E055491B422B42BBB7B23BD6E5B1DABDB322313973DEC69FB7A5E93BE0169D0956A263C573FAC735ACD3FFAE41695F579BEB53E180D378E463C05991528AE51161AC2951FE0D504B
310
0304140006080800CC4392457226CCB8F1000000B1010000310000006662782F46463537343837362D383737362D343341312D383146382D3334444446423539333742372F636F72652E786D6C8D504B6EC32014BC8AF5F6D8C69F9A4698A851E41374D51D02E2A2C460F18972FC42EC4AED2E1B1E1A669879438F8FE556DC
310
95F3DA9A11705943A18CB0529B7984182E88407164D4591BFED0A0307C51236418189D9D8DEB0E096B8232193556AA1DE4DEAB0085B8A5CB085E7CAB85973C86C4F0D772E5E2CA6755E272E3311AF4F22B154EF1A024B0A6C61DC20DC2E4B32687B63E34FD17AD3293D118B5DCADB44CEEFAA29503364DFDD091E10D91211D
310
5DFB8111C113416D773E4FA7FEBD1D4E03ADB298511F5CDA79FF246FF7AA7C13FECB1C57F942666D42DBEC869BC203C329CFF381D12A1798C6B3DD3473D9EC07504B0304140006080800CC4392459A34E27F54010000DD0200000C0000006662782F636F72652E786D6C8D52CB6E833010FC15E4BB798790C8384AD3E40B7A
310
EACD31865A011B191BE5F36BF310E5D0B44232D6ECEECCCEC8E8F46C1B6F60AAE7521420F243E0314165C9455D00A32B9803EF84919252FF68039E202D2B80830146B592A69B212A8566C2A142966C0649DF330D3CDAD84B017AFAC55AE213A36D47FFF03B421FA4667EE44F7D1819C3CB799497968D579C2980CF59BACBF6
310
C915A6C95B04D3EC9AC2C3ED7083FBF74B78CECFB7F492252870C31869DE2EEA5431A25909701C46298C6218E51F617E4CC263BCFB4481EBC4A8D7CA7A9E459D3B80ABFB130513BEE1335DF9379FE14227F1CC374DF4004776BDB18051E0F2B1BF31BC6D8656D8E6A7C9BD592C3C2C3430AAA54A6DA594662D0DA431CC5287
310
DEF8A160AA5AE691E0379EF805CF6B0E1B1411B55D8D687BBD1BEDD4B73B754CC1413F3D21554B9A75B969C5F55C85369696712A1BA9FE33BD585DC20CDCC3C4DF504B0304140006080800CC439245E4FDAD9A08010000B201000008000000636F72652E786D6C8D50C172832014FC15E6DD5151624C06C9D8347E414FBD51
310
21868982239869FFBE10ED4C7BEBE931BBFBDE2ECB4E9FE3801E6A76DA9A1A48920152A6B3529BBE86C55F7105E8C4D96CADFF250364C4A86A883070D6CF769936A8B3C62B135163A5DA40E19CF280BA213C6A70DD4D8D22118B0F0A774F26D1DD45AF1292AC3ACEBC1E7F56BB5909AF24F03C2314931C93EA2DAB8E4576CC
310
77EF2C8D4ACE9645CBCD4ACBE0AEAF5ACDC09B92EECA7D71C1B478219896178A0FEDA1C5FBD773D6544D4BCF65C1D2B8CC99F373F8F37624E4F4C88947F465E94A71F661EDB009422889AC19BE80672C8DC49FD0CB24FF115A1B5FE4DBC175C3012721D09308C6B1C1309EF58619DBE6DF504B01021400140006080800CC43
310
92450000000000000000000000003700000000000000000000000000000000006662782F46463537343837362D383737362D343341312D383146382D3334444446423539333742372F617474726962757465732E62696E504B01021400140006080800CC439245000000000000000000000000350000000000000000000000
310
0000550000006662782F46463537343837362D383737362D343341312D383146382D3334444446423539333742372F76657274696365732E62696E504B01021400140006080800CC439245F270F13306000000040000003600000000000000000000000000A80000006662782F46463537343837362D383737362D34334131
310
2D383146382D3334444446423539333742372F747269616E676C65732E62696E504B01021400140006080800CC43924551464CB489000000430100003600000000000000000000000000020100006662782F46463537343837362D383737362D343341312D383146382D3334444446423539333742372F6469726563746F72
310
792E786D6C504B01021400140006080800CC4392456407C32C38070000201C00003400000000000000000000000000DF0100006662782F46463537343837362D383737362D343341312D383146382D3334444446423539333742372F6F626A656374732E786D6C504B01021400140006080800CC4392451915FE203E010000
310
460500003000000000000000000000000000690900006662782F46463537343837362D383737362D343341312D383146382D3334444446423539333742372F636E782E786D6C504B01021400140006080800CC439245AB9882F87D000000A30000000B00000000000000000000000000F50A00006662782F636E782E786D6C
310
504B01021400140006080800CC439245A6D797065F0000008200000007000000000000000000000000009B0B0000636E782E786D6C504B01021400140006080800CC4392454FEB6A7CA0000000F400000013000000000000000000000000001F0C00005B436F6E74656E745F54797065735D2E786D6C504B01021400140006
310
080800CC4392453DEE336E64000000790000001B00000000000000000000000000F00C00006175746F6465736B2D64657369676E2D7061636B6167652E786D6C504B01021400140006080800CC439245FFC2326DFA000000960100003B000000000000000000000000008D0D00006662782F46463537343837362D38373736
310
2D343341312D383146382D3334444446423539333742372F7265736F75726365732F636F72652E786D6C504B01021400140006080800CC4392457226CCB8F1000000B10100003100000000000000000000000000E00E00006662782F46463537343837362D383737362D343341312D383146382D3334444446423539333742
310
372F636F72652E786D6C504B01021400140006080800CC4392459A34E27F54010000DD0200000C00000000000000000000000000201000006662782F636F72652E786D6C504B01021400140006080800CC439245E4FDAD9A08010000B201000008000000000000000000000000009E110000636F72652E786D6C504B050600
310
0000000E000E0080040000CC1200000000
  0
XRECORD
  5
77FD
102
{ACAD_REACTORS
330
77F8
102
}
330
77F8
100
AcDbXrecord
280
     1
270
     1
271
     1
  0
XRECORD
  5
77FC
102
{ACAD_REACTORS
330
77F8
102
}
330
77F8
100
AcDbXrecord
280
     1
270
     1
271
     1
  0
XRECORD
  5
77FE
102
{ACAD_REACTORS
330
77F8
102
}
330
77F8
100
AcDbXrecord
280
     1
270
     1
271
     1
  0
XRECORD
  5
77FB
102
{ACAD_REACTORS
330
77F8
102
}
330
77F8
100
AcDbXrecord
280
     1
270
     1
271
     1
  0
XRECORD
  5
7E627
102
{ACAD_REACTORS
330
7E517
102
}
330
7E517
100
AcDbXrecord
280
     1
102
DISPLAYNAME
  1
Imperial24
102
FLAGS
 90
        0
  0
CELLSTYLEMAP
  5
7E5E0
102
{ACAD_REACTORS
330
81C5
102
}
330
81C5
100
AcDbCellStyleMap
 90
        3
300
CELLSTYLE
  1
TABLEFORMAT_BEGIN
 90
        5
170
     1
 91
        0
 92
    32768
 62
   257
 93
        1
300
CONTENTFORMAT
  1
CONTENTFORMAT_BEGIN
 90
        0
 91
        0
 92
      512
 93
        0
300

 40
0.0
140
1.0
 94
        5
 62
     0
340
11
144
0.25
309
CONTENTFORMAT_END
171
     1
301
MARGIN
  1
CELLMARGIN_BEGIN
 40
0.06
 40
0.06
 40
0.06
 40
0.06
 40
0.18
 40
0.18
309
CELLMARGIN_END
 94
        6
 95
        1
302
GRIDFORMAT
  1
GRIDFORMAT_BEGIN
 90
        0
 91
        1
 62
     0
 92
       -2
340
0
 93
        0
 40
0.045
309
GRIDFORMAT_END
 95
        2
302
GRIDFORMAT
  1
GRIDFORMAT_BEGIN
 90
        0
 91
        1
 62
     0
 92
       -2
340
0
 93
        0
 40
0.045
309
GRIDFORMAT_END
 95
        4
302
GRIDFORMAT
  1
GRIDFORMAT_BEGIN
 90
        0
 91
        1
 62
     0
 92
       -2
340
0
 93
        0
 40
0.045
309
GRIDFORMAT_END
 95
        8
302
GRIDFORMAT
  1
GRIDFORMAT_BEGIN
 90
        0
 91
        1
 62
     0
 92
       -2
340
0
 93
        0
 40
0.045
309
GRIDFORMAT_END
 95
       16
302
GRIDFORMAT
  1
GRIDFORMAT_BEGIN
 90
        0
 91
        1
 62
     0
 92
       -2
340
0
 93
        0
 40
0.045
309
GRIDFORMAT_END
 95
       32
302
GRIDFORMAT
  1
GRIDFORMAT_BEGIN
 90
        0
 91
        1
 62
     0
 92
       -2
340
0
 93
        0
 40
0.045
309
GRIDFORMAT_END
309
TABLEFORMAT_END
  1
CELLSTYLE_BEGIN
 90
        1
 91
        1
300
_TITLE
309
CELLSTYLE_END
300
CELLSTYLE
  1
TABLEFORMAT_BEGIN
 90
        5
170
     1
 91
        0
 92
        0
 62
   257
 93
        1
300
CONTENTFORMAT
  1
CONTENTFORMAT_BEGIN
 90
        0
 91
        0
 92
      512
 93
        0
300

 40
0.0
140
1.0
 94
        5
 62
     0
340
11
144
0.18
309
CONTENTFORMAT_END
171
     1
301
MARGIN
  1
CELLMARGIN_BEGIN
 40
0.06
 40
0.06
 40
0.06
 40
0.06
 40
0.18
 40
0.18
309
CELLMARGIN_END
 94
        6
 95
        1
302
GRIDFORMAT
  1
GRIDFORMAT_BEGIN
 90
        0
 91
        1
 62
     0
 92
       -2
340
0
 93
        0
 40
0.045
309
GRIDFORMAT_END
 95
        2
302
GRIDFORMAT
  1
GRIDFORMAT_BEGIN
 90
        0
 91
        1
 62
     0
 92
       -2
340
0
 93
        0
 40
0.045
309
GRIDFORMAT_END
 95
        4
302
GRIDFORMAT
  1
GRIDFORMAT_BEGIN
 90
        0
 91
        1
 62
     0
 92
       -2
340
0
 93
        0
 40
0.045
309
GRIDFORMAT_END
 95
        8
302
GRIDFORMAT
  1
GRIDFORMAT_BEGIN
 90
        0
 91
        1
 62
     0
 92
       -2
340
0
 93
        0
 40
0.045
309
GRIDFORMAT_END
 95
       16
302
GRIDFORMAT
  1
GRIDFORMAT_BEGIN
 90
        0
 91
        1
 62
     0
 92
       -2
340
0
 93
        0
 40
0.045
309
GRIDFORMAT_END
 95
       32
302
GRIDFORMAT
  1
GRIDFORMAT_BEGIN
 90
        0
 91
        1
 62
     0
 92
       -2
340
0
 93
        0
 40
0.045
309
GRIDFORMAT_END
309
TABLEFORMAT_END
  1
CELLSTYLE_BEGIN
 90
        2
 91
        1
300
_HEADER
309
CELLSTYLE_END
300
CELLSTYLE
  1
TABLEFORMAT_BEGIN
 90
        5
170
     1
 91
        0
 92
        0
 62
   257
 93
        1
300
CONTENTFORMAT
  1
CONTENTFORMAT_BEGIN
 90
        0
 91
        0
 92
      512
 93
        0
300

 40
0.0
140
1.0
 94
        2
 62
     0
340
11
144
0.18
309
CONTENTFORMAT_END
171
     1
301
MARGIN
  1
CELLMARGIN_BEGIN
 40
0.06
 40
0.06
 40
0.06
 40
0.06
 40
0.18
 40
0.18
309
CELLMARGIN_END
 94
        6
 95
        1
302
GRIDFORMAT
  1
GRIDFORMAT_BEGIN
 90
        0
 91
        1
 62
     0
 92
       -2
340
0
 93
        0
 40
0.045
309
GRIDFORMAT_END
 95
        2
302
GRIDFORMAT
  1
GRIDFORMAT_BEGIN
 90
        0
 91
        1
 62
     0
 92
       -2
340
0
 93
        0
 40
0.045
309
GRIDFORMAT_END
 95
        4
302
GRIDFORMAT
  1
GRIDFORMAT_BEGIN
 90
        0
 91
        1
 62
     0
 92
       -2
340
0
 93
        0
 40
0.045
309
GRIDFORMAT_END
 95
        8
302
GRIDFORMAT
  1
GRIDFORMAT_BEGIN
 90
        0
 91
        1
 62
     0
 92
       -2
340
0
 93
        0
 40
0.045
309
GRIDFORMAT_END
 95
       16
302
GRIDFORMAT
  1
GRIDFORMAT_BEGIN
 90
        0
 91
        1
 62
     0
 92
       -2
340
0
 93
        0
 40
0.045
309
GRIDFORMAT_END
 95
       32
302
GRIDFORMAT
  1
GRIDFORMAT_BEGIN
 90
        0
 91
        1
 62
     0
 92
       -2
340
0
 93
        0
 40
0.045
309
GRIDFORMAT_END
309
TABLEFORMAT_END
  1
CELLSTYLE_BEGIN
 90
        3
 91
        2
300
_DATA
309
CELLSTYLE_END
  0
XRECORD
  5
7E612
102
{ACAD_REACTORS
330
81C5
102
}
330
81C5
100
AcDbXrecord
280
     1
102
ACAD_ROUNDTRIP_PRE2007_TABLESTYLE
 90
      512
 91
        0
  1

 92
      512
 93
        0
  2

 94
      512
 95
        0
  3

  0
XRECORD
  5
7E5FD
102
{ACAD_REACTORS
330
7E5FC
102
}
330
7E5FC
100
AcDbXrecord
280
     1
102
RTVSPost2010Prop28
280
     1
102
RTVSPost2010PropOp28
 70
     1
102
RTVSPost2010Prop29
280
     1
102
RTVSPost2010PropOp29
 70
     1
102
RTVSPost2010Prop30
280
     0
102
RTVSPost2010PropOp30
 70
     1
102
RTVSPost2010Prop31
280
     0
102
RTVSPost2010PropOp31
 70
     1
102
RTVSPost2010Prop32
280
     0
102
RTVSPost2010PropOp32
 70
     1
102
RTVSPost2010Prop33
280
     0
102
RTVSPost2010PropOp33
 70
     1
102
RTVSPost2010Prop34
280
     0
102
RTVSPost2010PropOp34
 70
     1
102
RTVSPost2010Prop35
280
     0
102
RTVSPost2010PropOp35
 70
     1
102
RTVSPost2010Prop36
280
     0
102
RTVSPost2010PropOp36
 70
     1
102
RTVSPost2010Prop37
 90
       50
102
RTVSPost2010PropOp37
 70
     1
102
RTVSPost2010Prop38
140
0.0
102
RTVSPost2010PropOp38
 70
     1
102
RTVSPost2010Prop39
140
1.0
102
RTVSPost2010PropOp39
 70
     1
102
RTVSPost2010Prop40
 90
        0
102
RTVSPost2010PropOp40
 70
     1
102
RTVSPost2010Prop41ColorIndex
 90
       18
102
RTVSPost2010Prop41ColorRGB
 90
-16777216
102
RTVSPost2010PropOp41
 70
     1
102
RTVSPost2010Prop42
 90
       50
102
RTVSPost2010PropOp42
 70
     1
102
RTVSPost2010Prop43
 90
        3
102
RTVSPost2010PropOp43
 70
     1
102
RTVSPost2010Prop44ColorIndex
 90
        5
102
RTVSPost2010Prop44ColorRGB
 90
      255
102
RTVSPost2010PropOp44
 70
     1
102
RTVSPost2010Prop45
280
     0
102
RTVSPost2010PropOp45
 70
     1
102
RTVSPost2010Prop46
 90
       50
102
RTVSPost2010PropOp46
 70
     1
102
RTVSPost2010Prop47
 90
       50
102
RTVSPost2010PropOp47
 70
     1
102
RTVSPost2010Prop48
 90
       50
102
RTVSPost2010PropOp48
 70
     1
102
RTVSPost2010Prop49
280
     0
102
RTVSPost2010PropOp49
 70
     1
102
RTVSPost2010Prop50
 90
       50
102
RTVSPost2010PropOp50
 70
     1
102
RTVSPost2010Prop51ColorIndex
 90
      256
102
RTVSPost2010Prop51ColorRGB
 90
-16777216
102
RTVSPost2010PropOp51
 70
     0
102
RTVSPost2010Prop52
140
1.0
102
RTVSPost2010PropOp52
 70
     0
102
RTVSPost2010Prop53
 90
        2
102
RTVSPost2010PropOp53
 70
     1
102
RTVSPost2010Prop54
  1
strokes_ogs.tif
102
RTVSPost2010PropOp54
 70
     1
102
RTVSPost2010Prop55
280
     0
102
RTVSPost2010PropOp55
 70
     1
102
RTVSPost2010Prop56
140
1.0
102
RTVSPost2010PropOp56
 70
     1
102
RTVSPost2010Prop57
140
1.0
102
RTVSPost2010PropOp57
 70
     1
102
RTVSPropertyOp0
 70
     1
102
RTVSPropertyOp1
 70
     1
102
RTVSPropertyOp2
 70
     1
102
RTVSPropertyOp3
 70
     1
102
RTVSPropertyOp4
 70
     1
102
RTVSPropertyOp5
 70
     1
102
RTVSPropertyOp6
 70
     1
102
RTVSPropertyOp7
 70
     1
102
RTVSPropertyOp8
 70
     1
102
RTVSPropertyOp9
 70
     1
102
RTVSPropertyOp10
 70
     1
102
RTVSPropertyOp11
 70
     1
102
RTVSPropertyOp12
 70
     1
102
RTVSPropertyOp13
 70
     1
102
RTVSPropertyOp14
 70
     1
102
RTVSPropertyOp15
 70
     1
102
RTVSPropertyOp16
 70
     1
102
RTVSPropertyOp17
 70
     1
102
RTVSPropertyOp18
 70
     1
102
RTVSPropertyOp19
 70
     1
102
RTVSPropertyOp20
 70
     1
102
RTVSPropertyOp21
 70
     1
102
RTVSPropertyOp22
 70
     1
102
RTVSPropertyOp23
 70
     1
102
RTVSPropertyOp24
 70
     1
102
RTVSPropertyOp25
 70
     1
102
RTVSPropertyOp26
 70
     1
102
RTVSPropertyOp27
 70
     1
102
RTVSPropertyOp28
 70
     1
102
RTVSPropertyOp29
 70
     1
102
RTVSPropertyOp30
 70
     1
102
RTVSPropertyOp31
 70
     1
102
RTVSPropertyOp32
 70
     1
102
RTVSPropertyOp33
 70
     1
102
RTVSPropertyOp34
 70
     1
102
RTVSPropertyOp35
 70
     1
102
RTVSPropertyOp36
 70
     1
102
RTVSPropertyOp37
 70
     1
102
RTVSPropertyOp38
 70
     1
102
RTVSPropertyOp39
 70
     1
102
RTVSPropertyOp40
 70
     1
102
RTVSPropertyOp41
 70
     1
102
RTVSPropertyOp42
 70
     1
102
RTVSPropertyOp43
 70
     1
102
RTVSPropertyOp44
 70
     1
102
RTVSPropertyOp45
 70
     1
102
RTVSPropertyOp46
 70
     1
102
RTVSPropertyOp47
 70
     1
102
RTVSPropertyOp48
 70
     1
102
RTVSPropertyOp49
 70
     1
102
RTVSPropertyOp50
 70
     1
102
RTVSPropertyOp51
 70
     0
102
RTVSPropertyOp52
 70
     0
102
RTVSPropertyOp53
 70
     1
102
RTVSPropertyOp54
 70
     1
102
RTVSPropertyOp55
 70
     1
102
RTVSPropertyOp56
 70
     1
102
RTVSPropertyOp57
 70
     1
102
RTVSPropertyOp58
 70
     1
102
RTVSPropertyOp59
 70
     1
102
RTVSPropertyOp60
 70
     1
102
RTVSPropertyOp61
 70
     1
102
RTVSPropertyOp62
 70
     1
  0
XRECORD
  5
7E601
102
{ACAD_REACTORS
330
7E600
102
}
330
7E600
100
AcDbXrecord
280
     1
102
RTVSPost2010Prop28
280
     0
102
RTVSPost2010PropOp28
 70
     1
102
RTVSPost2010Prop29
280
     1
102
RTVSPost2010PropOp29
 70
     1
102
RTVSPost2010Prop30
280
     1
102
RTVSPost2010PropOp30
 70
     1
102
RTVSPost2010Prop31
280
     0
102
RTVSPost2010PropOp31
 70
     1
102
RTVSPost2010Prop32
280
     0
102
RTVSPost2010PropOp32
 70
     1
102
RTVSPost2010Prop33
280
     0
102
RTVSPost2010PropOp33
 70
     1
102
RTVSPost2010Prop34
280
     0
102
RTVSPost2010PropOp34
 70
     1
102
RTVSPost2010Prop35
280
     0
102
RTVSPost2010PropOp35
 70
     1
102
RTVSPost2010Prop36
280
     0
102
RTVSPost2010PropOp36
 70
     1
102
RTVSPost2010Prop37
 90
       50
102
RTVSPost2010PropOp37
 70
     1
102
RTVSPost2010Prop38
140
0.0
102
RTVSPost2010PropOp38
 70
     1
102
RTVSPost2010Prop39
140
1.0
102
RTVSPost2010PropOp39
 70
     1
102
RTVSPost2010Prop40
 90
        0
102
RTVSPost2010PropOp40
 70
     1
102
RTVSPost2010Prop41ColorIndex
 90
       18
102
RTVSPost2010Prop41ColorRGB
 90
-16777216
102
RTVSPost2010PropOp41
 70
     1
102
RTVSPost2010Prop42
 90
       50
102
RTVSPost2010PropOp42
 70
     1
102
RTVSPost2010Prop43
 90
        3
102
RTVSPost2010PropOp43
 70
     1
102
RTVSPost2010Prop44ColorIndex
 90
        5
102
RTVSPost2010Prop44ColorRGB
 90
      255
102
RTVSPost2010PropOp44
 70
     1
102
RTVSPost2010Prop45
280
     0
102
RTVSPost2010PropOp45
 70
     1
102
RTVSPost2010Prop46
 90
       50
102
RTVSPost2010PropOp46
 70
     1
102
RTVSPost2010Prop47
 90
       50
102
RTVSPost2010PropOp47
 70
     1
102
RTVSPost2010Prop48
 90
       50
102
RTVSPost2010PropOp48
 70
     1
102
RTVSPost2010Prop49
280
     0
102
RTVSPost2010PropOp49
 70
     1
102
RTVSPost2010Prop50
 90
       50
102
RTVSPost2010PropOp50
 70
     1
102
RTVSPost2010Prop51ColorIndex
 90
      256
102
RTVSPost2010Prop51ColorRGB
 90
-16777216
102
RTVSPost2010PropOp51
 70
     0
102
RTVSPost2010Prop52
140
1.0
102
RTVSPost2010PropOp52
 70
     0
102
RTVSPost2010Prop53
 90
        2
102
RTVSPost2010PropOp53
 70
     1
102
RTVSPost2010Prop54
  1
strokes_ogs.tif
102
RTVSPost2010PropOp54
 70
     1
102
RTVSPost2010Prop55
280
     0
102
RTVSPost2010PropOp55
 70
     1
102
RTVSPost2010Prop56
140
1.0
102
RTVSPost2010PropOp56
 70
     1
102
RTVSPost2010Prop57
140
1.0
102
RTVSPost2010PropOp57
 70
     1
102
RTVSPropertyOp0
 70
     1
102
RTVSPropertyOp1
 70
     1
102
RTVSPropertyOp2
 70
     1
102
RTVSPropertyOp3
 70
     1
102
RTVSPropertyOp4
 70
     1
102
RTVSPropertyOp5
 70
     1
102
RTVSPropertyOp6
 70
     1
102
RTVSPropertyOp7
 70
     1
102
RTVSPropertyOp8
 70
     1
102
RTVSPropertyOp9
 70
     1
102
RTVSPropertyOp10
 70
     1
102
RTVSPropertyOp11
 70
     1
102
RTVSPropertyOp12
 70
     1
102
RTVSPropertyOp13
 70
     1
102
RTVSPropertyOp14
 70
     1
102
RTVSPropertyOp15
 70
     1
102
RTVSPropertyOp16
 70
     1
102
RTVSPropertyOp17
 70
     1
102
RTVSPropertyOp18
 70
     1
102
RTVSPropertyOp19
 70
     1
102
RTVSPropertyOp20
 70
     1
102
RTVSPropertyOp21
 70
     1
102
RTVSPropertyOp22
 70
     1
102
RTVSPropertyOp23
 70
     1
102
RTVSPropertyOp24
 70
     1
102
RTVSPropertyOp25
 70
     1
102
RTVSPropertyOp26
 70
     1
102
RTVSPropertyOp27
 70
     1
102
RTVSPropertyOp28
 70
     1
102
RTVSPropertyOp29
 70
     1
102
RTVSPropertyOp30
 70
     1
102
RTVSPropertyOp31
 70
     1
102
RTVSPropertyOp32
 70
     1
102
RTVSPropertyOp33
 70
     1
102
RTVSPropertyOp34
 70
     1
102
RTVSPropertyOp35
 70
     1
102
RTVSPropertyOp36
 70
     1
102
RTVSPropertyOp37
 70
     1
102
RTVSPropertyOp38
 70
     1
102
RTVSPropertyOp39
 70
     1
102
RTVSPropertyOp40
 70
     1
102
RTVSPropertyOp41
 70
     1
102
RTVSPropertyOp42
 70
     1
102
RTVSPropertyOp43
 70
     1
102
RTVSPropertyOp44
 70
     1
102
RTVSPropertyOp45
 70
     1
102
RTVSPropertyOp46
 70
     1
102
RTVSPropertyOp47
 70
     1
102
RTVSPropertyOp48
 70
     1
102
RTVSPropertyOp49
 70
     1
102
RTVSPropertyOp50
 70
     1
102
RTVSPropertyOp51
 70
     0
102
RTVSPropertyOp52
 70
     0
102
RTVSPropertyOp53
 70
     1
102
RTVSPropertyOp54
 70
     1
102
RTVSPropertyOp55
 70
     1
102
RTVSPropertyOp56
 70
     1
102
RTVSPropertyOp57
 70
     1
102
RTVSPropertyOp58
 70
     1
102
RTVSPropertyOp59
 70
     1
102
RTVSPropertyOp60
 70
     1
102
RTVSPropertyOp61
 70
     1
102
RTVSPropertyOp62
 70
     1
  0
XRECORD
  5
7E5FF
102
{ACAD_REACTORS
330
7E5FE
102
}
330
7E5FE
100
AcDbXrecord
280
     1
102
RTVSPost2010Prop28
280
     0
102
RTVSPost2010PropOp28
 70
     1
102
RTVSPost2010Prop29
280
     1
102
RTVSPost2010PropOp29
 70
     1
102
RTVSPost2010Prop30
280
     1
102
RTVSPost2010PropOp30
 70
     1
102
RTVSPost2010Prop31
280
     0
102
RTVSPost2010PropOp31
 70
     1
102
RTVSPost2010Prop32
280
     0
102
RTVSPost2010PropOp32
 70
     1
102
RTVSPost2010Prop33
280
     0
102
RTVSPost2010PropOp33
 70
     1
102
RTVSPost2010Prop34
280
     0
102
RTVSPost2010PropOp34
 70
     1
102
RTVSPost2010Prop35
280
     0
102
RTVSPost2010PropOp35
 70
     1
102
RTVSPost2010Prop36
280
     0
102
RTVSPost2010PropOp36
 70
     1
102
RTVSPost2010Prop37
 90
       50
102
RTVSPost2010PropOp37
 70
     1
102
RTVSPost2010Prop38
140
0.0
102
RTVSPost2010PropOp38
 70
     1
102
RTVSPost2010Prop39
140
1.0
102
RTVSPost2010PropOp39
 70
     1
102
RTVSPost2010Prop40
 90
        0
102
RTVSPost2010PropOp40
 70
     1
102
RTVSPost2010Prop41ColorIndex
 90
       18
102
RTVSPost2010Prop41ColorRGB
 90
-16777216
102
RTVSPost2010PropOp41
 70
     1
102
RTVSPost2010Prop42
 90
       50
102
RTVSPost2010PropOp42
 70
     1
102
RTVSPost2010Prop43
 90
        3
102
RTVSPost2010PropOp43
 70
     1
102
RTVSPost2010Prop44ColorIndex
 90
        5
102
RTVSPost2010Prop44ColorRGB
 90
      255
102
RTVSPost2010PropOp44
 70
     1
102
RTVSPost2010Prop45
280
     0
102
RTVSPost2010PropOp45
 70
     1
102
RTVSPost2010Prop46
 90
       50
102
RTVSPost2010PropOp46
 70
     1
102
RTVSPost2010Prop47
 90
       50
102
RTVSPost2010PropOp47
 70
     1
102
RTVSPost2010Prop48
 90
       50
102
RTVSPost2010PropOp48
 70
     1
102
RTVSPost2010Prop49
280
     0
102
RTVSPost2010PropOp49
 70
     1
102
RTVSPost2010Prop50
 90
       50
102
RTVSPost2010PropOp50
 70
     1
102
RTVSPost2010Prop51ColorIndex
 90
      256
102
RTVSPost2010Prop51ColorRGB
 90
-16777216
102
RTVSPost2010PropOp51
 70
     0
102
RTVSPost2010Prop52
140
1.0
102
RTVSPost2010PropOp52
 70
     0
102
RTVSPost2010Prop53
 90
        2
102
RTVSPost2010PropOp53
 70
     1
102
RTVSPost2010Prop54
  1
strokes_ogs.tif
102
RTVSPost2010PropOp54
 70
     1
102
RTVSPost2010Prop55
280
     0
102
RTVSPost2010PropOp55
 70
     1
102
RTVSPost2010Prop56
140
1.0
102
RTVSPost2010PropOp56
 70
     1
102
RTVSPost2010Prop57
140
1.0
102
RTVSPost2010PropOp57
 70
     1
102
RTVSPropertyOp0
 70
     1
102
RTVSPropertyOp1
 70
     1
102
RTVSPropertyOp2
 70
     1
102
RTVSPropertyOp3
 70
     1
102
RTVSPropertyOp4
 70
     1
102
RTVSPropertyOp5
 70
     1
102
RTVSPropertyOp6
 70
     1
102
RTVSPropertyOp7
 70
     1
102
RTVSPropertyOp8
 70
     1
102
RTVSPropertyOp9
 70
     1
102
RTVSPropertyOp10
 70
     1
102
RTVSPropertyOp11
 70
     1
102
RTVSPropertyOp12
 70
     1
102
RTVSPropertyOp13
 70
     1
102
RTVSPropertyOp14
 70
     1
102
RTVSPropertyOp15
 70
     1
102
RTVSPropertyOp16
 70
     1
102
RTVSPropertyOp17
 70
     1
102
RTVSPropertyOp18
 70
     1
102
RTVSPropertyOp19
 70
     1
102
RTVSPropertyOp20
 70
     1
102
RTVSPropertyOp21
 70
     1
102
RTVSPropertyOp22
 70
     1
102
RTVSPropertyOp23
 70
     1
102
RTVSPropertyOp24
 70
     1
102
RTVSPropertyOp25
 70
     1
102
RTVSPropertyOp26
 70
     1
102
RTVSPropertyOp27
 70
     1
102
RTVSPropertyOp28
 70
     1
102
RTVSPropertyOp29
 70
     1
102
RTVSPropertyOp30
 70
     1
102
RTVSPropertyOp31
 70
     1
102
RTVSPropertyOp32
 70
     1
102
RTVSPropertyOp33
 70
     1
102
RTVSPropertyOp34
 70
     1
102
RTVSPropertyOp35
 70
     1
102
RTVSPropertyOp36
 70
     1
102
RTVSPropertyOp37
 70
     1
102
RTVSPropertyOp38
 70
     1
102
RTVSPropertyOp39
 70
     1
102
RTVSPropertyOp40
 70
     1
102
RTVSPropertyOp41
 70
     1
102
RTVSPropertyOp42
 70
     1
102
RTVSPropertyOp43
 70
     1
102
RTVSPropertyOp44
 70
     1
102
RTVSPropertyOp45
 70
     1
102
RTVSPropertyOp46
 70
     1
102
RTVSPropertyOp47
 70
     1
102
RTVSPropertyOp48
 70
     1
102
RTVSPropertyOp49
 70
     1
102
RTVSPropertyOp50
 70
     1
102
RTVSPropertyOp51
 70
     0
102
RTVSPropertyOp52
 70
     0
102
RTVSPropertyOp53
 70
     1
102
RTVSPropertyOp54
 70
     1
102
RTVSPropertyOp55
 70
     1
102
RTVSPropertyOp56
 70
     1
102
RTVSPropertyOp57
 70
     1
102
RTVSPropertyOp58
 70
     1
102
RTVSPropertyOp59
 70
     1
102
RTVSPropertyOp60
 70
     1
102
RTVSPropertyOp61
 70
     1
102
RTVSPropertyOp62
 70
     1
  0
XRECORD
  5
7E5FB
102
{ACAD_REACTORS
330
7E5FA
102
}
330
7E5FA
100
AcDbXrecord
280
     1
102
RTVSPost2010Prop28
280
     0
102
RTVSPost2010PropOp28
 70
     1
102
RTVSPost2010Prop29
280
     1
102
RTVSPost2010PropOp29
 70
     1
102
RTVSPost2010Prop30
280
     1
102
RTVSPost2010PropOp30
 70
     1
102
RTVSPost2010Prop31
280
     0
102
RTVSPost2010PropOp31
 70
     1
102
RTVSPost2010Prop32
280
     0
102
RTVSPost2010PropOp32
 70
     1
102
RTVSPost2010Prop33
280
     0
102
RTVSPost2010PropOp33
 70
     1
102
RTVSPost2010Prop34
280
     0
102
RTVSPost2010PropOp34
 70
     1
102
RTVSPost2010Prop35
280
     0
102
RTVSPost2010PropOp35
 70
     1
102
RTVSPost2010Prop36
280
     0
102
RTVSPost2010PropOp36
 70
     1
102
RTVSPost2010Prop37
 90
       50
102
RTVSPost2010PropOp37
 70
     1
102
RTVSPost2010Prop38
140
0.0
102
RTVSPost2010PropOp38
 70
     1
102
RTVSPost2010Prop39
140
1.0
102
RTVSPost2010PropOp39
 70
     1
102
RTVSPost2010Prop40
 90
        0
102
RTVSPost2010PropOp40
 70
     1
102
RTVSPost2010Prop41ColorIndex
 90
       18
102
RTVSPost2010Prop41ColorRGB
 90
-16777216
102
RTVSPost2010PropOp41
 70
     1
102
RTVSPost2010Prop42
 90
       50
102
RTVSPost2010PropOp42
 70
     1
102
RTVSPost2010Prop43
 90
        3
102
RTVSPost2010PropOp43
 70
     1
102
RTVSPost2010Prop44ColorIndex
 90
        5
102
RTVSPost2010Prop44ColorRGB
 90
      255
102
RTVSPost2010PropOp44
 70
     1
102
RTVSPost2010Prop45
280
     0
102
RTVSPost2010PropOp45
 70
     1
102
RTVSPost2010Prop46
 90
       50
102
RTVSPost2010PropOp46
 70
     1
102
RTVSPost2010Prop47
 90
       50
102
RTVSPost2010PropOp47
 70
     1
102
RTVSPost2010Prop48
 90
       50
102
RTVSPost2010PropOp48
 70
     1
102
RTVSPost2010Prop49
280
     0
102
RTVSPost2010PropOp49
 70
     1
102
RTVSPost2010Prop50
 90
       50
102
RTVSPost2010PropOp50
 70
     1
102
RTVSPost2010Prop51ColorIndex
 90
      256
102
RTVSPost2010Prop51ColorRGB
 90
-16777216
102
RTVSPost2010PropOp51
 70
     0
102
RTVSPost2010Prop52
140
1.0
102
RTVSPost2010PropOp52
 70
     0
102
RTVSPost2010Prop53
 90
        2
102
RTVSPost2010PropOp53
 70
     1
102
RTVSPost2010Prop54
  1
strokes_ogs.tif
102
RTVSPost2010PropOp54
 70
     1
102
RTVSPost2010Prop55
280
     0
102
RTVSPost2010PropOp55
 70
     1
102
RTVSPost2010Prop56
140
1.0
102
RTVSPost2010PropOp56
 70
     1
102
RTVSPost2010Prop57
140
1.0
102
RTVSPost2010PropOp57
 70
     1
102
RTVSPropertyOp0
 70
     1
102
RTVSPropertyOp1
 70
     1
102
RTVSPropertyOp2
 70
     1
102
RTVSPropertyOp3
 70
     1
102
RTVSPropertyOp4
 70
     1
102
RTVSPropertyOp5
 70
     1
102
RTVSPropertyOp6
 70
     1
102
RTVSPropertyOp7
 70
     1
102
RTVSPropertyOp8
 70
     1
102
RTVSPropertyOp9
 70
     1
102
RTVSPropertyOp10
 70
     1
102
RTVSPropertyOp11
 70
     1
102
RTVSPropertyOp12
 70
     1
102
RTVSPropertyOp13
 70
     1
102
RTVSPropertyOp14
 70
     1
102
RTVSPropertyOp15
 70
     1
102
RTVSPropertyOp16
 70
     1
102
RTVSPropertyOp17
 70
     1
102
RTVSPropertyOp18
 70
     1
102
RTVSPropertyOp19
 70
     1
102
RTVSPropertyOp20
 70
     1
102
RTVSPropertyOp21
 70
     1
102
RTVSPropertyOp22
 70
     1
102
RTVSPropertyOp23
 70
     1
102
RTVSPropertyOp24
 70
     1
102
RTVSPropertyOp25
 70
     1
102
RTVSPropertyOp26
 70
     1
102
RTVSPropertyOp27
 70
     1
102
RTVSPropertyOp28
 70
     1
102
RTVSPropertyOp29
 70
     1
102
RTVSPropertyOp30
 70
     1
102
RTVSPropertyOp31
 70
     1
102
RTVSPropertyOp32
 70
     1
102
RTVSPropertyOp33
 70
     1
102
RTVSPropertyOp34
 70
     1
102
RTVSPropertyOp35
 70
     1
102
RTVSPropertyOp36
 70
     1
102
RTVSPropertyOp37
 70
     1
102
RTVSPropertyOp38
 70
     1
102
RTVSPropertyOp39
 70
     1
102
RTVSPropertyOp40
 70
     1
102
RTVSPropertyOp41
 70
     1
102
RTVSPropertyOp42
 70
     1
102
RTVSPropertyOp43
 70
     1
102
RTVSPropertyOp44
 70
     1
102
RTVSPropertyOp45
 70
     1
102
RTVSPropertyOp46
 70
     1
102
RTVSPropertyOp47
 70
     1
102
RTVSPropertyOp48
 70
     1
102
RTVSPropertyOp49
 70
     1
102
RTVSPropertyOp50
 70
     1
102
RTVSPropertyOp51
 70
     0
102
RTVSPropertyOp52
 70
     0
102
RTVSPropertyOp53
 70
     1
102
RTVSPropertyOp54
 70
     1
102
RTVSPropertyOp55
 70
     1
102
RTVSPropertyOp56
 70
     1
102
RTVSPropertyOp57
 70
     1
102
RTVSPropertyOp58
 70
     1
102
RTVSPropertyOp59
 70
     1
102
RTVSPropertyOp60
 70
     1
102
RTVSPropertyOp61
 70
     1
102
RTVSPropertyOp62
 70
     1
  0
XRECORD
  5
7E609
102
{ACAD_REACTORS
330
7E608
102
}
330
7E608
100
AcDbXrecord
280
     1
102
RTVSPost2010Prop28
280
     0
102
RTVSPost2010PropOp28
 70
     1
102
RTVSPost2010Prop29
280
     1
102
RTVSPost2010PropOp29
 70
     1
102
RTVSPost2010Prop30
280
     1
102
RTVSPost2010PropOp30
 70
     1
102
RTVSPost2010Prop31
280
     0
102
RTVSPost2010PropOp31
 70
     1
102
RTVSPost2010Prop32
280
     0
102
RTVSPost2010PropOp32
 70
     1
102
RTVSPost2010Prop33
280
     0
102
RTVSPost2010PropOp33
 70
     1
102
RTVSPost2010Prop34
280
     0
102
RTVSPost2010PropOp34
 70
     1
102
RTVSPost2010Prop35
280
     0
102
RTVSPost2010PropOp35
 70
     1
102
RTVSPost2010Prop36
280
     0
102
RTVSPost2010PropOp36
 70
     1
102
RTVSPost2010Prop37
 90
       50
102
RTVSPost2010PropOp37
 70
     1
102
RTVSPost2010Prop38
140
0.0
102
RTVSPost2010PropOp38
 70
     1
102
RTVSPost2010Prop39
140
1.0
102
RTVSPost2010PropOp39
 70
     1
102
RTVSPost2010Prop40
 90
        0
102
RTVSPost2010PropOp40
 70
     1
102
RTVSPost2010Prop41ColorIndex
 90
       18
102
RTVSPost2010Prop41ColorRGB
 90
-16777216
102
RTVSPost2010PropOp41
 70
     1
102
RTVSPost2010Prop42
 90
       50
102
RTVSPost2010PropOp42
 70
     1
102
RTVSPost2010Prop43
 90
        3
102
RTVSPost2010PropOp43
 70
     1
102
RTVSPost2010Prop44ColorIndex
 90
        5
102
RTVSPost2010Prop44ColorRGB
 90
      255
102
RTVSPost2010PropOp44
 70
     1
102
RTVSPost2010Prop45
280
     0
102
RTVSPost2010PropOp45
 70
     1
102
RTVSPost2010Prop46
 90
       50
102
RTVSPost2010PropOp46
 70
     1
102
RTVSPost2010Prop47
 90
       50
102
RTVSPost2010PropOp47
 70
     1
102
RTVSPost2010Prop48
 90
       50
102
RTVSPost2010PropOp48
 70
     1
102
RTVSPost2010Prop49
280
     0
102
RTVSPost2010PropOp49
 70
     1
102
RTVSPost2010Prop50
 90
       50
102
RTVSPost2010PropOp50
 70
     1
102
RTVSPost2010Prop51ColorIndex
 90
      256
102
RTVSPost2010Prop51ColorRGB
 90
-16777216
102
RTVSPost2010PropOp51
 70
     0
102
RTVSPost2010Prop52
140
1.0
102
RTVSPost2010PropOp52
 70
     0
102
RTVSPost2010Prop53
 90
        2
102
RTVSPost2010PropOp53
 70
     1
102
RTVSPost2010Prop54
  1
strokes_ogs.tif
102
RTVSPost2010PropOp54
 70
     1
102
RTVSPost2010Prop55
280
     0
102
RTVSPost2010PropOp55
 70
     1
102
RTVSPost2010Prop56
140
1.0
102
RTVSPost2010PropOp56
 70
     1
102
RTVSPost2010Prop57
140
1.0
102
RTVSPost2010PropOp57
 70
     1
102
RTVSPropertyOp0
 70
     1
102
RTVSPropertyOp1
 70
     1
102
RTVSPropertyOp2
 70
     1
102
RTVSPropertyOp3
 70
     1
102
RTVSPropertyOp4
 70
     1
102
RTVSPropertyOp5
 70
     1
102
RTVSPropertyOp6
 70
     1
102
RTVSPropertyOp7
 70
     1
102
RTVSPropertyOp8
 70
     1
102
RTVSPropertyOp9
 70
     1
102
RTVSPropertyOp10
 70
     1
102
RTVSPropertyOp11
 70
     1
102
RTVSPropertyOp12
 70
     1
102
RTVSPropertyOp13
 70
     1
102
RTVSPropertyOp14
 70
     1
102
RTVSPropertyOp15
 70
     1
102
RTVSPropertyOp16
 70
     1
102
RTVSPropertyOp17
 70
     1
102
RTVSPropertyOp18
 70
     1
102
RTVSPropertyOp19
 70
     1
102
RTVSPropertyOp20
 70
     1
102
RTVSPropertyOp21
 70
     1
102
RTVSPropertyOp22
 70
     1
102
RTVSPropertyOp23
 70
     1
102
RTVSPropertyOp24
 70
     1
102
RTVSPropertyOp25
 70
     1
102
RTVSPropertyOp26
 70
     1
102
RTVSPropertyOp27
 70
     1
102
RTVSPropertyOp28
 70
     1
102
RTVSPropertyOp29
 70
     1
102
RTVSPropertyOp30
 70
     1
102
RTVSPropertyOp31
 70
     1
102
RTVSPropertyOp32
 70
     1
102
RTVSPropertyOp33
 70
     1
102
RTVSPropertyOp34
 70
     1
102
RTVSPropertyOp35
 70
     1
102
RTVSPropertyOp36
 70
     1
102
RTVSPropertyOp37
 70
     1
102
RTVSPropertyOp38
 70
     1
102
RTVSPropertyOp39
 70
     1
102
RTVSPropertyOp40
 70
     1
102
RTVSPropertyOp41
 70
     1
102
RTVSPropertyOp42
 70
     1
102
RTVSPropertyOp43
 70
     1
102
RTVSPropertyOp44
 70
     1
102
RTVSPropertyOp45
 70
     1
102
RTVSPropertyOp46
 70
     1
102
RTVSPropertyOp47
 70
     1
102
RTVSPropertyOp48
 70
     1
102
RTVSPropertyOp49
 70
     1
102
RTVSPropertyOp50
 70
     1
102
RTVSPropertyOp51
 70
     0
102
RTVSPropertyOp52
 70
     0
102
RTVSPropertyOp53
 70
     1
102
RTVSPropertyOp54
 70
     1
102
RTVSPropertyOp55
 70
     1
102
RTVSPropertyOp56
 70
     1
102
RTVSPropertyOp57
 70
     1
102
RTVSPropertyOp58
 70
     1
102
RTVSPropertyOp59
 70
     1
102
RTVSPropertyOp60
 70
     1
102
RTVSPropertyOp61
 70
     1
102
RTVSPropertyOp62
 70
     1
  0
XRECORD
  5
7E611
102
{ACAD_REACTORS
330
7E610
102
}
330
7E610
100
AcDbXrecord
280
     1
102
RTVSPost2010Prop28
280
     0
102
RTVSPost2010PropOp28
 70
     1
102
RTVSPost2010Prop29
280
     1
102
RTVSPost2010PropOp29
 70
     1
102
RTVSPost2010Prop30
280
     1
102
RTVSPost2010PropOp30
 70
     1
102
RTVSPost2010Prop31
280
     0
102
RTVSPost2010PropOp31
 70
     1
102
RTVSPost2010Prop32
280
     0
102
RTVSPost2010PropOp32
 70
     1
102
RTVSPost2010Prop33
280
     0
102
RTVSPost2010PropOp33
 70
     1
102
RTVSPost2010Prop34
280
     0
102
RTVSPost2010PropOp34
 70
     1
102
RTVSPost2010Prop35
280
     0
102
RTVSPost2010PropOp35
 70
     1
102
RTVSPost2010Prop36
280
     0
102
RTVSPost2010PropOp36
 70
     1
102
RTVSPost2010Prop37
 90
       50
102
RTVSPost2010PropOp37
 70
     1
102
RTVSPost2010Prop38
140
0.0
102
RTVSPost2010PropOp38
 70
     1
102
RTVSPost2010Prop39
140
1.0
102
RTVSPost2010PropOp39
 70
     1
102
RTVSPost2010Prop40
 90
        0
102
RTVSPost2010PropOp40
 70
     1
102
RTVSPost2010Prop41ColorIndex
 90
       18
102
RTVSPost2010Prop41ColorRGB
 90
-16777216
102
RTVSPost2010PropOp41
 70
     1
102
RTVSPost2010Prop42
 90
       50
102
RTVSPost2010PropOp42
 70
     1
102
RTVSPost2010Prop43
 90
        3
102
RTVSPost2010PropOp43
 70
     1
102
RTVSPost2010Prop44ColorIndex
 90
        5
102
RTVSPost2010Prop44ColorRGB
 90
      255
102
RTVSPost2010PropOp44
 70
     1
102
RTVSPost2010Prop45
280
     0
102
RTVSPost2010PropOp45
 70
     1
102
RTVSPost2010Prop46
 90
       50
102
RTVSPost2010PropOp46
 70
     1
102
RTVSPost2010Prop47
 90
       50
102
RTVSPost2010PropOp47
 70
     1
102
RTVSPost2010Prop48
 90
       50
102
RTVSPost2010PropOp48
 70
     1
102
RTVSPost2010Prop49
280
     0
102
RTVSPost2010PropOp49
 70
     1
102
RTVSPost2010Prop50
 90
       50
102
RTVSPost2010PropOp50
 70
     1
102
RTVSPost2010Prop51ColorIndex
 90
      256
102
RTVSPost2010Prop51ColorRGB
 90
-16777216
102
RTVSPost2010PropOp51
 70
     0
102
RTVSPost2010Prop52
140
1.0
102
RTVSPost2010PropOp52
 70
     0
102
RTVSPost2010Prop53
 90
        2
102
RTVSPost2010PropOp53
 70
     1
102
RTVSPost2010Prop54
  1
strokes_ogs.tif
102
RTVSPost2010PropOp54
 70
     1
102
RTVSPost2010Prop55
280
     0
102
RTVSPost2010PropOp55
 70
     1
102
RTVSPost2010Prop56
140
1.0
102
RTVSPost2010PropOp56
 70
     1
102
RTVSPost2010Prop57
140
1.0
102
RTVSPost2010PropOp57
 70
     1
102
RTVSPropertyOp0
 70
     1
102
RTVSPropertyOp1
 70
     1
102
RTVSPropertyOp2
 70
     1
102
RTVSPropertyOp3
 70
     1
102
RTVSPropertyOp4
 70
     1
102
RTVSPropertyOp5
 70
     1
102
RTVSPropertyOp6
 70
     1
102
RTVSPropertyOp7
 70
     1
102
RTVSPropertyOp8
 70
     1
102
RTVSPropertyOp9
 70
     1
102
RTVSPropertyOp10
 70
     1
102
RTVSPropertyOp11
 70
     1
102
RTVSPropertyOp12
 70
     1
102
RTVSPropertyOp13
 70
     1
102
RTVSPropertyOp14
 70
     1
102
RTVSPropertyOp15
 70
     1
102
RTVSPropertyOp16
 70
     1
102
RTVSPropertyOp17
 70
     1
102
RTVSPropertyOp18
 70
     1
102
RTVSPropertyOp19
 70
     1
102
RTVSPropertyOp20
 70
     1
102
RTVSPropertyOp21
 70
     1
102
RTVSPropertyOp22
 70
     1
102
RTVSPropertyOp23
 70
     1
102
RTVSPropertyOp24
 70
     1
102
RTVSPropertyOp25
 70
     1
102
RTVSPropertyOp26
 70
     1
102
RTVSPropertyOp27
 70
     1
102
RTVSPropertyOp28
 70
     1
102
RTVSPropertyOp29
 70
     1
102
RTVSPropertyOp30
 70
     1
102
RTVSPropertyOp31
 70
     1
102
RTVSPropertyOp32
 70
     1
102
RTVSPropertyOp33
 70
     1
102
RTVSPropertyOp34
 70
     1
102
RTVSPropertyOp35
 70
     1
102
RTVSPropertyOp36
 70
     1
102
RTVSPropertyOp37
 70
     1
102
RTVSPropertyOp38
 70
     1
102
RTVSPropertyOp39
 70
     1
102
RTVSPropertyOp40
 70
     1
102
RTVSPropertyOp41
 70
     1
102
RTVSPropertyOp42
 70
     1
102
RTVSPropertyOp43
 70
     1
102
RTVSPropertyOp44
 70
     1
102
RTVSPropertyOp45
 70
     1
102
RTVSPropertyOp46
 70
     1
102
RTVSPropertyOp47
 70
     1
102
RTVSPropertyOp48
 70
     1
102
RTVSPropertyOp49
 70
     1
102
RTVSPropertyOp50
 70
     1
102
RTVSPropertyOp51
 70
     0
102
RTVSPropertyOp52
 70
     0
102
RTVSPropertyOp53
 70
     1
102
RTVSPropertyOp54
 70
     1
102
RTVSPropertyOp55
 70
     1
102
RTVSPropertyOp56
 70
     1
102
RTVSPropertyOp57
 70
     1
102
RTVSPropertyOp58
 70
     1
102
RTVSPropertyOp59
 70
     1
102
RTVSPropertyOp60
 70
     1
102
RTVSPropertyOp61
 70
     1
102
RTVSPropertyOp62
 70
     1
  0
XRECORD
  5
7E603
102
{ACAD_REACTORS
330
7E602
102
}
330
7E602
100
AcDbXrecord
280
     1
102
RTVSPost2010Prop28
280
     0
102
RTVSPost2010PropOp28
 70
     1
102
RTVSPost2010Prop29
280
     1
102
RTVSPost2010PropOp29
 70
     1
102
RTVSPost2010Prop30
280
     1
102
RTVSPost2010PropOp30
 70
     1
102
RTVSPost2010Prop31
280
     0
102
RTVSPost2010PropOp31
 70
     1
102
RTVSPost2010Prop32
280
     0
102
RTVSPost2010PropOp32
 70
     1
102
RTVSPost2010Prop33
280
     0
102
RTVSPost2010PropOp33
 70
     1
102
RTVSPost2010Prop34
280
     0
102
RTVSPost2010PropOp34
 70
     1
102
RTVSPost2010Prop35
280
     0
102
RTVSPost2010PropOp35
 70
     1
102
RTVSPost2010Prop36
280
     0
102
RTVSPost2010PropOp36
 70
     1
102
RTVSPost2010Prop37
 90
       50
102
RTVSPost2010PropOp37
 70
     1
102
RTVSPost2010Prop38
140
0.0
102
RTVSPost2010PropOp38
 70
     1
102
RTVSPost2010Prop39
140
1.0
102
RTVSPost2010PropOp39
 70
     1
102
RTVSPost2010Prop40
 90
        0
102
RTVSPost2010PropOp40
 70
     1
102
RTVSPost2010Prop41ColorIndex
 90
       18
102
RTVSPost2010Prop41ColorRGB
 90
-16777216
102
RTVSPost2010PropOp41
 70
     1
102
RTVSPost2010Prop42
 90
       50
102
RTVSPost2010PropOp42
 70
     1
102
RTVSPost2010Prop43
 90
        3
102
RTVSPost2010PropOp43
 70
     1
102
RTVSPost2010Prop44ColorIndex
 90
        5
102
RTVSPost2010Prop44ColorRGB
 90
      255
102
RTVSPost2010PropOp44
 70
     1
102
RTVSPost2010Prop45
280
     0
102
RTVSPost2010PropOp45
 70
     1
102
RTVSPost2010Prop46
 90
       50
102
RTVSPost2010PropOp46
 70
     1
102
RTVSPost2010Prop47
 90
       50
102
RTVSPost2010PropOp47
 70
     1
102
RTVSPost2010Prop48
 90
       50
102
RTVSPost2010PropOp48
 70
     1
102
RTVSPost2010Prop49
280
     0
102
RTVSPost2010PropOp49
 70
     1
102
RTVSPost2010Prop50
 90
       50
102
RTVSPost2010PropOp50
 70
     1
102
RTVSPost2010Prop51ColorIndex
 90
      256
102
RTVSPost2010Prop51ColorRGB
 90
-16777216
102
RTVSPost2010PropOp51
 70
     0
102
RTVSPost2010Prop52
140
1.0
102
RTVSPost2010PropOp52
 70
     0
102
RTVSPost2010Prop53
 90
        2
102
RTVSPost2010PropOp53
 70
     1
102
RTVSPost2010Prop54
  1
strokes_ogs.tif
102
RTVSPost2010PropOp54
 70
     1
102
RTVSPost2010Prop55
280
     0
102
RTVSPost2010PropOp55
 70
     1
102
RTVSPost2010Prop56
140
1.0
102
RTVSPost2010PropOp56
 70
     1
102
RTVSPost2010Prop57
140
1.0
102
RTVSPost2010PropOp57
 70
     1
102
RTVSPropertyOp0
 70
     1
102
RTVSPropertyOp1
 70
     1
102
RTVSPropertyOp2
 70
     1
102
RTVSPropertyOp3
 70
     1
102
RTVSPropertyOp4
 70
     1
102
RTVSPropertyOp5
 70
     1
102
RTVSPropertyOp6
 70
     1
102
RTVSPropertyOp7
 70
     1
102
RTVSPropertyOp8
 70
     1
102
RTVSPropertyOp9
 70
     1
102
RTVSPropertyOp10
 70
     1
102
RTVSPropertyOp11
 70
     1
102
RTVSPropertyOp12
 70
     1
102
RTVSPropertyOp13
 70
     1
102
RTVSPropertyOp14
 70
     1
102
RTVSPropertyOp15
 70
     1
102
RTVSPropertyOp16
 70
     1
102
RTVSPropertyOp17
 70
     1
102
RTVSPropertyOp18
 70
     1
102
RTVSPropertyOp19
 70
     1
102
RTVSPropertyOp20
 70
     1
102
RTVSPropertyOp21
 70
     1
102
RTVSPropertyOp22
 70
     1
102
RTVSPropertyOp23
 70
     1
102
RTVSPropertyOp24
 70
     1
102
RTVSPropertyOp25
 70
     1
102
RTVSPropertyOp26
 70
     1
102
RTVSPropertyOp27
 70
     1
102
RTVSPropertyOp28
 70
     1
102
RTVSPropertyOp29
 70
     1
102
RTVSPropertyOp30
 70
     1
102
RTVSPropertyOp31
 70
     1
102
RTVSPropertyOp32
 70
     1
102
RTVSPropertyOp33
 70
     1
102
RTVSPropertyOp34
 70
     1
102
RTVSPropertyOp35
 70
     1
102
RTVSPropertyOp36
 70
     1
102
RTVSPropertyOp37
 70
     1
102
RTVSPropertyOp38
 70
     1
102
RTVSPropertyOp39
 70
     1
102
RTVSPropertyOp40
 70
     1
102
RTVSPropertyOp41
 70
     1
102
RTVSPropertyOp42
 70
     1
102
RTVSPropertyOp43
 70
     1
102
RTVSPropertyOp44
 70
     1
102
RTVSPropertyOp45
 70
     1
102
RTVSPropertyOp46
 70
     1
102
RTVSPropertyOp47
 70
     1
102
RTVSPropertyOp48
 70
     1
102
RTVSPropertyOp49
 70
     1
102
RTVSPropertyOp50
 70
     1
102
RTVSPropertyOp51
 70
     0
102
RTVSPropertyOp52
 70
     0
102
RTVSPropertyOp53
 70
     1
102
RTVSPropertyOp54
 70
     1
102
RTVSPropertyOp55
 70
     1
102
RTVSPropertyOp56
 70
     1
102
RTVSPropertyOp57
 70
     1
102
RTVSPropertyOp58
 70
     1
102
RTVSPropertyOp59
 70
     1
102
RTVSPropertyOp60
 70
     1
102
RTVSPropertyOp61
 70
     1
102
RTVSPropertyOp62
 70
     1
  0
XRECORD
  5
7E607
102
{ACAD_REACTORS
330
7E606
102
}
330
7E606
100
AcDbXrecord
280
     1
102
RTVSPost2010Prop28
280
     0
102
RTVSPost2010PropOp28
 70
     1
102
RTVSPost2010Prop29
280
     1
102
RTVSPost2010PropOp29
 70
     1
102
RTVSPost2010Prop30
280
     1
102
RTVSPost2010PropOp30
 70
     1
102
RTVSPost2010Prop31
280
     0
102
RTVSPost2010PropOp31
 70
     1
102
RTVSPost2010Prop32
280
     0
102
RTVSPost2010PropOp32
 70
     1
102
RTVSPost2010Prop33
280
     0
102
RTVSPost2010PropOp33
 70
     1
102
RTVSPost2010Prop34
280
     0
102
RTVSPost2010PropOp34
 70
     1
102
RTVSPost2010Prop35
280
     0
102
RTVSPost2010PropOp35
 70
     1
102
RTVSPost2010Prop36
280
     0
102
RTVSPost2010PropOp36
 70
     1
102
RTVSPost2010Prop37
 90
       50
102
RTVSPost2010PropOp37
 70
     1
102
RTVSPost2010Prop38
140
0.0
102
RTVSPost2010PropOp38
 70
     1
102
RTVSPost2010Prop39
140
1.0
102
RTVSPost2010PropOp39
 70
     1
102
RTVSPost2010Prop40
 90
        0
102
RTVSPost2010PropOp40
 70
     1
102
RTVSPost2010Prop41ColorIndex
 90
       18
102
RTVSPost2010Prop41ColorRGB
 90
-16777216
102
RTVSPost2010PropOp41
 70
     1
102
RTVSPost2010Prop42
 90
       50
102
RTVSPost2010PropOp42
 70
     1
102
RTVSPost2010Prop43
 90
        3
102
RTVSPost2010PropOp43
 70
     1
102
RTVSPost2010Prop44ColorIndex
 90
        5
102
RTVSPost2010Prop44ColorRGB
 90
      255
102
RTVSPost2010PropOp44
 70
     1
102
RTVSPost2010Prop45
280
     0
102
RTVSPost2010PropOp45
 70
     1
102
RTVSPost2010Prop46
 90
       50
102
RTVSPost2010PropOp46
 70
     1
102
RTVSPost2010Prop47
 90
       50
102
RTVSPost2010PropOp47
 70
     1
102
RTVSPost2010Prop48
 90
       50
102
RTVSPost2010PropOp48
 70
     1
102
RTVSPost2010Prop49
280
     0
102
RTVSPost2010PropOp49
 70
     1
102
RTVSPost2010Prop50
 90
       50
102
RTVSPost2010PropOp50
 70
     1
102
RTVSPost2010Prop51ColorIndex
 90
      256
102
RTVSPost2010Prop51ColorRGB
 90
-16777216
102
RTVSPost2010PropOp51
 70
     0
102
RTVSPost2010Prop52
140
1.0
102
RTVSPost2010PropOp52
 70
     0
102
RTVSPost2010Prop53
 90
        2
102
RTVSPost2010PropOp53
 70
     1
102
RTVSPost2010Prop54
  1
strokes_ogs.tif
102
RTVSPost2010PropOp54
 70
     1
102
RTVSPost2010Prop55
280
     0
102
RTVSPost2010PropOp55
 70
     1
102
RTVSPost2010Prop56
140
1.0
102
RTVSPost2010PropOp56
 70
     1
102
RTVSPost2010Prop57
140
1.0
102
RTVSPost2010PropOp57
 70
     1
102
RTVSPropertyOp0
 70
     1
102
RTVSPropertyOp1
 70
     1
102
RTVSPropertyOp2
 70
     1
102
RTVSPropertyOp3
 70
     1
102
RTVSPropertyOp4
 70
     1
102
RTVSPropertyOp5
 70
     1
102
RTVSPropertyOp6
 70
     1
102
RTVSPropertyOp7
 70
     1
102
RTVSPropertyOp8
 70
     1
102
RTVSPropertyOp9
 70
     1
102
RTVSPropertyOp10
 70
     1
102
RTVSPropertyOp11
 70
     1
102
RTVSPropertyOp12
 70
     1
102
RTVSPropertyOp13
 70
     1
102
RTVSPropertyOp14
 70
     1
102
RTVSPropertyOp15
 70
     1
102
RTVSPropertyOp16
 70
     1
102
RTVSPropertyOp17
 70
     1
102
RTVSPropertyOp18
 70
     1
102
RTVSPropertyOp19
 70
     1
102
RTVSPropertyOp20
 70
     1
102
RTVSPropertyOp21
 70
     1
102
RTVSPropertyOp22
 70
     1
102
RTVSPropertyOp23
 70
     1
102
RTVSPropertyOp24
 70
     1
102
RTVSPropertyOp25
 70
     1
102
RTVSPropertyOp26
 70
     1
102
RTVSPropertyOp27
 70
     1
102
RTVSPropertyOp28
 70
     1
102
RTVSPropertyOp29
 70
     1
102
RTVSPropertyOp30
 70
     1
102
RTVSPropertyOp31
 70
     1
102
RTVSPropertyOp32
 70
     1
102
RTVSPropertyOp33
 70
     1
102
RTVSPropertyOp34
 70
     1
102
RTVSPropertyOp35
 70
     1
102
RTVSPropertyOp36
 70
     1
102
RTVSPropertyOp37
 70
     1
102
RTVSPropertyOp38
 70
     1
102
RTVSPropertyOp39
 70
     1
102
RTVSPropertyOp40
 70
     1
102
RTVSPropertyOp41
 70
     1
102
RTVSPropertyOp42
 70
     1
102
RTVSPropertyOp43
 70
     1
102
RTVSPropertyOp44
 70
     1
102
RTVSPropertyOp45
 70
     1
102
RTVSPropertyOp46
 70
     1
102
RTVSPropertyOp47
 70
     1
102
RTVSPropertyOp48
 70
     1
102
RTVSPropertyOp49
 70
     1
102
RTVSPropertyOp50
 70
     1
102
RTVSPropertyOp51
 70
     0
102
RTVSPropertyOp52
 70
     0
102
RTVSPropertyOp53
 70
     1
102
RTVSPropertyOp54
 70
     1
102
RTVSPropertyOp55
 70
     1
102
RTVSPropertyOp56
 70
     1
102
RTVSPropertyOp57
 70
     1
102
RTVSPropertyOp58
 70
     1
102
RTVSPropertyOp59
 70
     1
102
RTVSPropertyOp60
 70
     1
102
RTVSPropertyOp61
 70
     1
102
RTVSPropertyOp62
 70
     1
  0
XRECORD
  5
7E626
102
{ACAD_REACTORS
330
7E625
102
}
330
7E625
100
AcDbXrecord
280
     1
102
RTVSPost2010Prop28
280
     0
102
RTVSPost2010PropOp28
 70
     0
102
RTVSPost2010Prop29
280
     1
102
RTVSPost2010PropOp29
 70
     0
102
RTVSPost2010Prop30
280
     1
102
RTVSPost2010PropOp30
 70
     0
102
RTVSPost2010Prop31
280
     0
102
RTVSPost2010PropOp31
 70
     0
102
RTVSPost2010Prop32
280
     0
102
RTVSPost2010PropOp32
 70
     0
102
RTVSPost2010Prop33
280
     0
102
RTVSPost2010PropOp33
 70
     0
102
RTVSPost2010Prop34
280
     0
102
RTVSPost2010PropOp34
 70
     0
102
RTVSPost2010Prop35
280
     0
102
RTVSPost2010PropOp35
 70
     0
102
RTVSPost2010Prop36
280
     0
102
RTVSPost2010PropOp36
 70
     0
102
RTVSPost2010Prop37
 90
       50
102
RTVSPost2010PropOp37
 70
     0
102
RTVSPost2010Prop38
140
0.0
102
RTVSPost2010PropOp38
 70
     0
102
RTVSPost2010Prop39
140
1.0
102
RTVSPost2010PropOp39
 70
     0
102
RTVSPost2010Prop40
 90
        0
102
RTVSPost2010PropOp40
 70
     0
102
RTVSPost2010Prop41ColorIndex
 90
       18
102
RTVSPost2010Prop41ColorRGB
 90
-16777216
102
RTVSPost2010PropOp41
 70
     0
102
RTVSPost2010Prop42
 90
       50
102
RTVSPost2010PropOp42
 70
     0
102
RTVSPost2010Prop43
 90
        3
102
RTVSPost2010PropOp43
 70
     0
102
RTVSPost2010Prop44ColorIndex
 90
        5
102
RTVSPost2010Prop44ColorRGB
 90
      255
102
RTVSPost2010PropOp44
 70
     0
102
RTVSPost2010Prop45
280
     0
102
RTVSPost2010PropOp45
 70
     0
102
RTVSPost2010Prop46
 90
       50
102
RTVSPost2010PropOp46
 70
     0
102
RTVSPost2010Prop47
 90
       50
102
RTVSPost2010PropOp47
 70
     0
102
RTVSPost2010Prop48
 90
       50
102
RTVSPost2010PropOp48
 70
     0
102
RTVSPost2010Prop49
280
     0
102
RTVSPost2010PropOp49
 70
     0
102
RTVSPost2010Prop50
 90
       50
102
RTVSPost2010PropOp50
 70
     0
102
RTVSPost2010Prop51ColorIndex
 90
      256
102
RTVSPost2010Prop51ColorRGB
 90
-16777216
102
RTVSPost2010PropOp51
 70
     0
102
RTVSPost2010Prop52
140
1.0
102
RTVSPost2010PropOp52
 70
     0
102
RTVSPost2010Prop53
 90
        2
102
RTVSPost2010PropOp53
 70
     0
102
RTVSPost2010Prop54
  1
strokes_ogs.tif
102
RTVSPost2010PropOp54
 70
     0
102
RTVSPost2010Prop55
280
     0
102
RTVSPost2010PropOp55
 70
     0
102
RTVSPost2010Prop56
140
1.0
102
RTVSPost2010PropOp56
 70
     0
102
RTVSPost2010Prop57
140
1.0
102
RTVSPost2010PropOp57
 70
     0
102
RTVSPropertyOp0
 70
     0
102
RTVSPropertyOp1
 70
     0
102
RTVSPropertyOp2
 70
     0
102
RTVSPropertyOp3
 70
     0
102
RTVSPropertyOp4
 70
     0
102
RTVSPropertyOp5
 70
     0
102
RTVSPropertyOp6
 70
     0
102
RTVSPropertyOp7
 70
     0
102
RTVSPropertyOp8
 70
     0
102
RTVSPropertyOp9
 70
     0
102
RTVSPropertyOp10
 70
     0
102
RTVSPropertyOp11
 70
     0
102
RTVSPropertyOp12
 70
     0
102
RTVSPropertyOp13
 70
     0
102
RTVSPropertyOp14
 70
     2
102
RTVSPropertyOp15
 70
     0
102
RTVSPropertyOp16
 70
     0
102
RTVSPropertyOp17
 70
     0
102
RTVSPropertyOp18
 70
     0
102
RTVSPropertyOp19
 70
     0
102
RTVSPropertyOp20
 70
     0
102
RTVSPropertyOp21
 70
     0
102
RTVSPropertyOp22
 70
     0
102
RTVSPropertyOp23
 70
     0
102
RTVSPropertyOp24
 70
     0
102
RTVSPropertyOp25
 70
     0
102
RTVSPropertyOp26
 70
     0
102
RTVSPropertyOp27
 70
     0
102
RTVSPropertyOp28
 70
     0
102
RTVSPropertyOp29
 70
     0
102
RTVSPropertyOp30
 70
     0
102
RTVSPropertyOp31
 70
     0
102
RTVSPropertyOp32
 70
     0
102
RTVSPropertyOp33
 70
     0
102
RTVSPropertyOp34
 70
     0
102
RTVSPropertyOp35
 70
     0
102
RTVSPropertyOp36
 70
     0
102
RTVSPropertyOp37
 70
     0
102
RTVSPropertyOp38
 70
     0
102
RTVSPropertyOp39
 70
     0
102
RTVSPropertyOp40
 70
     0
102
RTVSPropertyOp41
 70
     0
102
RTVSPropertyOp42
 70
     0
102
RTVSPropertyOp43
 70
     0
102
RTVSPropertyOp44
 70
     0
102
RTVSPropertyOp45
 70
     0
102
RTVSPropertyOp46
 70
     0
102
RTVSPropertyOp47
 70
     0
102
RTVSPropertyOp48
 70
     0
102
RTVSPropertyOp49
 70
     0
102
RTVSPropertyOp50
 70
     0
102
RTVSPropertyOp51
 70
     0
102
RTVSPropertyOp52
 70
     0
102
RTVSPropertyOp53
 70
     0
102
RTVSPropertyOp54
 70
     0
102
RTVSPropertyOp55
 70
     0
102
RTVSPropertyOp56
 70
     0
102
RTVSPropertyOp57
 70
     0
102
RTVSPropertyOp58
 70
     1
102
RTVSPropertyOp59
 70
     1
102
RTVSPropertyOp60
 70
     1
102
RTVSPropertyOp61
 70
     1
102
RTVSPropertyOp62
 70
     1
  0
XRECORD
  5
7E60F
102
{ACAD_REACTORS
330
7E60E
102
}
330
7E60E
100
AcDbXrecord
280
     1
102
RTVSPost2010Prop28
280
     0
102
RTVSPost2010PropOp28
 70
     1
102
RTVSPost2010Prop29
280
     1
102
RTVSPost2010PropOp29
 70
     1
102
RTVSPost2010Prop30
280
     1
102
RTVSPost2010PropOp30
 70
     1
102
RTVSPost2010Prop31
280
     0
102
RTVSPost2010PropOp31
 70
     1
102
RTVSPost2010Prop32
280
     0
102
RTVSPost2010PropOp32
 70
     1
102
RTVSPost2010Prop33
280
     0
102
RTVSPost2010PropOp33
 70
     1
102
RTVSPost2010Prop34
280
     0
102
RTVSPost2010PropOp34
 70
     1
102
RTVSPost2010Prop35
280
     0
102
RTVSPost2010PropOp35
 70
     1
102
RTVSPost2010Prop36
280
     0
102
RTVSPost2010PropOp36
 70
     1
102
RTVSPost2010Prop37
 90
       50
102
RTVSPost2010PropOp37
 70
     1
102
RTVSPost2010Prop38
140
0.0
102
RTVSPost2010PropOp38
 70
     1
102
RTVSPost2010Prop39
140
1.0
102
RTVSPost2010PropOp39
 70
     1
102
RTVSPost2010Prop40
 90
        0
102
RTVSPost2010PropOp40
 70
     1
102
RTVSPost2010Prop41ColorIndex
 90
       18
102
RTVSPost2010Prop41ColorRGB
 90
-16777216
102
RTVSPost2010PropOp41
 70
     1
102
RTVSPost2010Prop42
 90
       50
102
RTVSPost2010PropOp42
 70
     1
102
RTVSPost2010Prop43
 90
        3
102
RTVSPost2010PropOp43
 70
     1
102
RTVSPost2010Prop44ColorIndex
 90
        5
102
RTVSPost2010Prop44ColorRGB
 90
      255
102
RTVSPost2010PropOp44
 70
     1
102
RTVSPost2010Prop45
280
     0
102
RTVSPost2010PropOp45
 70
     1
102
RTVSPost2010Prop46
 90
       50
102
RTVSPost2010PropOp46
 70
     1
102
RTVSPost2010Prop47
 90
       50
102
RTVSPost2010PropOp47
 70
     1
102
RTVSPost2010Prop48
 90
       50
102
RTVSPost2010PropOp48
 70
     1
102
RTVSPost2010Prop49
280
     0
102
RTVSPost2010PropOp49
 70
     1
102
RTVSPost2010Prop50
 90
       50
102
RTVSPost2010PropOp50
 70
     1
102
RTVSPost2010Prop51ColorIndex
 90
      256
102
RTVSPost2010Prop51ColorRGB
 90
-16777216
102
RTVSPost2010PropOp51
 70
     0
102
RTVSPost2010Prop52
140
1.0
102
RTVSPost2010PropOp52
 70
     0
102
RTVSPost2010Prop53
 90
        2
102
RTVSPost2010PropOp53
 70
     1
102
RTVSPost2010Prop54
  1
strokes_ogs.tif
102
RTVSPost2010PropOp54
 70
     1
102
RTVSPost2010Prop55
280
     0
102
RTVSPost2010PropOp55
 70
     1
102
RTVSPost2010Prop56
140
1.0
102
RTVSPost2010PropOp56
 70
     1
102
RTVSPost2010Prop57
140
1.0
102
RTVSPost2010PropOp57
 70
     1
102
RTVSPropertyOp0
 70
     1
102
RTVSPropertyOp1
 70
     1
102
RTVSPropertyOp2
 70
     1
102
RTVSPropertyOp3
 70
     1
102
RTVSPropertyOp4
 70
     1
102
RTVSPropertyOp5
 70
     1
102
RTVSPropertyOp6
 70
     1
102
RTVSPropertyOp7
 70
     1
102
RTVSPropertyOp8
 70
     1
102
RTVSPropertyOp9
 70
     1
102
RTVSPropertyOp10
 70
     1
102
RTVSPropertyOp11
 70
     1
102
RTVSPropertyOp12
 70
     1
102
RTVSPropertyOp13
 70
     1
102
RTVSPropertyOp14
 70
     1
102
RTVSPropertyOp15
 70
     1
102
RTVSPropertyOp16
 70
     1
102
RTVSPropertyOp17
 70
     1
102
RTVSPropertyOp18
 70
     1
102
RTVSPropertyOp19
 70
     1
102
RTVSPropertyOp20
 70
     1
102
RTVSPropertyOp21
 70
     1
102
RTVSPropertyOp22
 70
     1
102
RTVSPropertyOp23
 70
     1
102
RTVSPropertyOp24
 70
     1
102
RTVSPropertyOp25
 70
     1
102
RTVSPropertyOp26
 70
     1
102
RTVSPropertyOp27
 70
     1
102
RTVSPropertyOp28
 70
     1
102
RTVSPropertyOp29
 70
     1
102
RTVSPropertyOp30
 70
     1
102
RTVSPropertyOp31
 70
     1
102
RTVSPropertyOp32
 70
     1
102
RTVSPropertyOp33
 70
     1
102
RTVSPropertyOp34
 70
     1
102
RTVSPropertyOp35
 70
     1
102
RTVSPropertyOp36
 70
     1
102
RTVSPropertyOp37
 70
     1
102
RTVSPropertyOp38
 70
     1
102
RTVSPropertyOp39
 70
     1
102
RTVSPropertyOp40
 70
     1
102
RTVSPropertyOp41
 70
     1
102
RTVSPropertyOp42
 70
     1
102
RTVSPropertyOp43
 70
     1
102
RTVSPropertyOp44
 70
     1
102
RTVSPropertyOp45
 70
     1
102
RTVSPropertyOp46
 70
     1
102
RTVSPropertyOp47
 70
     1
102
RTVSPropertyOp48
 70
     1
102
RTVSPropertyOp49
 70
     1
102
RTVSPropertyOp50
 70
     1
102
RTVSPropertyOp51
 70
     0
102
RTVSPropertyOp52
 70
     0
102
RTVSPropertyOp53
 70
     1
102
RTVSPropertyOp54
 70
     1
102
RTVSPropertyOp55
 70
     1
102
RTVSPropertyOp56
 70
     1
102
RTVSPropertyOp57
 70
     1
102
RTVSPropertyOp58
 70
     1
102
RTVSPropertyOp59
 70
     1
102
RTVSPropertyOp60
 70
     1
102
RTVSPropertyOp61
 70
     1
102
RTVSPropertyOp62
 70
     1
  0
XRECORD
  5
7E5F3
102
{ACAD_REACTORS
330
7E5F2
102
}
330
7E5F2
100
AcDbXrecord
280
     1
102
RTVSPost2010Prop28
280
     0
102
RTVSPost2010PropOp28
 70
     1
102
RTVSPost2010Prop29
280
     1
102
RTVSPost2010PropOp29
 70
     1
102
RTVSPost2010Prop30
280
     1
102
RTVSPost2010PropOp30
 70
     1
102
RTVSPost2010Prop31
280
     0
102
RTVSPost2010PropOp31
 70
     1
102
RTVSPost2010Prop32
280
     0
102
RTVSPost2010PropOp32
 70
     1
102
RTVSPost2010Prop33
280
     0
102
RTVSPost2010PropOp33
 70
     1
102
RTVSPost2010Prop34
280
     0
102
RTVSPost2010PropOp34
 70
     1
102
RTVSPost2010Prop35
280
     0
102
RTVSPost2010PropOp35
 70
     1
102
RTVSPost2010Prop36
280
     0
102
RTVSPost2010PropOp36
 70
     1
102
RTVSPost2010Prop37
 90
       50
102
RTVSPost2010PropOp37
 70
     1
102
RTVSPost2010Prop38
140
0.0
102
RTVSPost2010PropOp38
 70
     1
102
RTVSPost2010Prop39
140
1.0
102
RTVSPost2010PropOp39
 70
     1
102
RTVSPost2010Prop40
 90
        0
102
RTVSPost2010PropOp40
 70
     1
102
RTVSPost2010Prop41ColorIndex
 90
       18
102
RTVSPost2010Prop41ColorRGB
 90
-16777216
102
RTVSPost2010PropOp41
 70
     1
102
RTVSPost2010Prop42
 90
       50
102
RTVSPost2010PropOp42
 70
     1
102
RTVSPost2010Prop43
 90
        3
102
RTVSPost2010PropOp43
 70
     1
102
RTVSPost2010Prop44ColorIndex
 90
        5
102
RTVSPost2010Prop44ColorRGB
 90
      255
102
RTVSPost2010PropOp44
 70
     1
102
RTVSPost2010Prop45
280
     0
102
RTVSPost2010PropOp45
 70
     1
102
RTVSPost2010Prop46
 90
       50
102
RTVSPost2010PropOp46
 70
     1
102
RTVSPost2010Prop47
 90
       50
102
RTVSPost2010PropOp47
 70
     1
102
RTVSPost2010Prop48
 90
       50
102
RTVSPost2010PropOp48
 70
     1
102
RTVSPost2010Prop49
280
     0
102
RTVSPost2010PropOp49
 70
     1
102
RTVSPost2010Prop50
 90
       50
102
RTVSPost2010PropOp50
 70
     1
102
RTVSPost2010Prop51ColorIndex
 90
      256
102
RTVSPost2010Prop51ColorRGB
 90
-16777216
102
RTVSPost2010PropOp51
 70
     0
102
RTVSPost2010Prop52
140
1.0
102
RTVSPost2010PropOp52
 70
     0
102
RTVSPost2010Prop53
 90
        2
102
RTVSPost2010PropOp53
 70
     1
102
RTVSPost2010Prop54
  1
strokes_ogs.tif
102
RTVSPost2010PropOp54
 70
     1
102
RTVSPost2010Prop55
280
     0
102
RTVSPost2010PropOp55
 70
     1
102
RTVSPost2010Prop56
140
1.0
102
RTVSPost2010PropOp56
 70
     1
102
RTVSPost2010Prop57
140
1.0
102
RTVSPost2010PropOp57
 70
     1
102
RTVSPropertyOp0
 70
     1
102
RTVSPropertyOp1
 70
     1
102
RTVSPropertyOp2
 70
     1
102
RTVSPropertyOp3
 70
     1
102
RTVSPropertyOp4
 70
     1
102
RTVSPropertyOp5
 70
     1
102
RTVSPropertyOp6
 70
     1
102
RTVSPropertyOp7
 70
     1
102
RTVSPropertyOp8
 70
     1
102
RTVSPropertyOp9
 70
     1
102
RTVSPropertyOp10
 70
     1
102
RTVSPropertyOp11
 70
     1
102
RTVSPropertyOp12
 70
     1
102
RTVSPropertyOp13
 70
     1
102
RTVSPropertyOp14
 70
     1
102
RTVSPropertyOp15
 70
     1
102
RTVSPropertyOp16
 70
     1
102
RTVSPropertyOp17
 70
     1
102
RTVSPropertyOp18
 70
     1
102
RTVSPropertyOp19
 70
     1
102
RTVSPropertyOp20
 70
     1
102
RTVSPropertyOp21
 70
     1
102
RTVSPropertyOp22
 70
     1
102
RTVSPropertyOp23
 70
     1
102
RTVSPropertyOp24
 70
     1
102
RTVSPropertyOp25
 70
     1
102
RTVSPropertyOp26
 70
     1
102
RTVSPropertyOp27
 70
     1
102
RTVSPropertyOp28
 70
     1
102
RTVSPropertyOp29
 70
     1
102
RTVSPropertyOp30
 70
     1
102
RTVSPropertyOp31
 70
     1
102
RTVSPropertyOp32
 70
     1
102
RTVSPropertyOp33
 70
     1
102
RTVSPropertyOp34
 70
     1
102
RTVSPropertyOp35
 70
     1
102
RTVSPropertyOp36
 70
     1
102
RTVSPropertyOp37
 70
     1
102
RTVSPropertyOp38
 70
     1
102
RTVSPropertyOp39
 70
     1
102
RTVSPropertyOp40
 70
     1
102
RTVSPropertyOp41
 70
     1
102
RTVSPropertyOp42
 70
     1
102
RTVSPropertyOp43
 70
     1
102
RTVSPropertyOp44
 70
     1
102
RTVSPropertyOp45
 70
     1
102
RTVSPropertyOp46
 70
     1
102
RTVSPropertyOp47
 70
     1
102
RTVSPropertyOp48
 70
     1
102
RTVSPropertyOp49
 70
     1
102
RTVSPropertyOp50
 70
     1
102
RTVSPropertyOp51
 70
     0
102
RTVSPropertyOp52
 70
     0
102
RTVSPropertyOp53
 70
     1
102
RTVSPropertyOp54
 70
     1
102
RTVSPropertyOp55
 70
     1
102
RTVSPropertyOp56
 70
     1
102
RTVSPropertyOp57
 70
     1
102
RTVSPropertyOp58
 70
     1
102
RTVSPropertyOp59
 70
     1
102
RTVSPropertyOp60
 70
     1
102
RTVSPropertyOp61
 70
     1
102
RTVSPropertyOp62
 70
     1
  0
XRECORD
  5
7E5F5
102
{ACAD_REACTORS
330
7E5F4
102
}
330
7E5F4
100
AcDbXrecord
280
     1
102
RTVSPost2010Prop28
280
     0
102
RTVSPost2010PropOp28
 70
     1
102
RTVSPost2010Prop29
280
     1
102
RTVSPost2010PropOp29
 70
     1
102
RTVSPost2010Prop30
280
     1
102
RTVSPost2010PropOp30
 70
     1
102
RTVSPost2010Prop31
280
     0
102
RTVSPost2010PropOp31
 70
     1
102
RTVSPost2010Prop32
280
     0
102
RTVSPost2010PropOp32
 70
     1
102
RTVSPost2010Prop33
280
     0
102
RTVSPost2010PropOp33
 70
     1
102
RTVSPost2010Prop34
280
     0
102
RTVSPost2010PropOp34
 70
     1
102
RTVSPost2010Prop35
280
     0
102
RTVSPost2010PropOp35
 70
     1
102
RTVSPost2010Prop36
280
     0
102
RTVSPost2010PropOp36
 70
     1
102
RTVSPost2010Prop37
 90
       50
102
RTVSPost2010PropOp37
 70
     1
102
RTVSPost2010Prop38
140
0.0
102
RTVSPost2010PropOp38
 70
     1
102
RTVSPost2010Prop39
140
1.0
102
RTVSPost2010PropOp39
 70
     1
102
RTVSPost2010Prop40
 90
        0
102
RTVSPost2010PropOp40
 70
     1
102
RTVSPost2010Prop41ColorIndex
 90
       18
102
RTVSPost2010Prop41ColorRGB
 90
-16777216
102
RTVSPost2010PropOp41
 70
     1
102
RTVSPost2010Prop42
 90
       50
102
RTVSPost2010PropOp42
 70
     1
102
RTVSPost2010Prop43
 90
        3
102
RTVSPost2010PropOp43
 70
     1
102
RTVSPost2010Prop44ColorIndex
 90
        5
102
RTVSPost2010Prop44ColorRGB
 90
      255
102
RTVSPost2010PropOp44
 70
     1
102
RTVSPost2010Prop45
280
     0
102
RTVSPost2010PropOp45
 70
     1
102
RTVSPost2010Prop46
 90
       50
102
RTVSPost2010PropOp46
 70
     1
102
RTVSPost2010Prop47
 90
       50
102
RTVSPost2010PropOp47
 70
     1
102
RTVSPost2010Prop48
 90
       50
102
RTVSPost2010PropOp48
 70
     1
102
RTVSPost2010Prop49
280
     0
102
RTVSPost2010PropOp49
 70
     1
102
RTVSPost2010Prop50
 90
       50
102
RTVSPost2010PropOp50
 70
     1
102
RTVSPost2010Prop51ColorIndex
 90
      256
102
RTVSPost2010Prop51ColorRGB
 90
-16777216
102
RTVSPost2010PropOp51
 70
     0
102
RTVSPost2010Prop52
140
1.0
102
RTVSPost2010PropOp52
 70
     0
102
RTVSPost2010Prop53
 90
        2
102
RTVSPost2010PropOp53
 70
     1
102
RTVSPost2010Prop54
  1
strokes_ogs.tif
102
RTVSPost2010PropOp54
 70
     1
102
RTVSPost2010Prop55
280
     0
102
RTVSPost2010PropOp55
 70
     1
102
RTVSPost2010Prop56
140
1.0
102
RTVSPost2010PropOp56
 70
     1
102
RTVSPost2010Prop57
140
1.0
102
RTVSPost2010PropOp57
 70
     1
102
RTVSPropertyOp0
 70
     1
102
RTVSPropertyOp1
 70
     1
102
RTVSPropertyOp2
 70
     1
102
RTVSPropertyOp3
 70
     1
102
RTVSPropertyOp4
 70
     1
102
RTVSPropertyOp5
 70
     1
102
RTVSPropertyOp6
 70
     1
102
RTVSPropertyOp7
 70
     1
102
RTVSPropertyOp8
 70
     1
102
RTVSPropertyOp9
 70
     1
102
RTVSPropertyOp10
 70
     1
102
RTVSPropertyOp11
 70
     1
102
RTVSPropertyOp12
 70
     1
102
RTVSPropertyOp13
 70
     1
102
RTVSPropertyOp14
 70
     1
102
RTVSPropertyOp15
 70
     1
102
RTVSPropertyOp16
 70
     1
102
RTVSPropertyOp17
 70
     1
102
RTVSPropertyOp18
 70
     1
102
RTVSPropertyOp19
 70
     1
102
RTVSPropertyOp20
 70
     1
102
RTVSPropertyOp21
 70
     1
102
RTVSPropertyOp22
 70
     1
102
RTVSPropertyOp23
 70
     1
102
RTVSPropertyOp24
 70
     1
102
RTVSPropertyOp25
 70
     1
102
RTVSPropertyOp26
 70
     1
102
RTVSPropertyOp27
 70
     1
102
RTVSPropertyOp28
 70
     1
102
RTVSPropertyOp29
 70
     1
102
RTVSPropertyOp30
 70
     1
102
RTVSPropertyOp31
 70
     1
102
RTVSPropertyOp32
 70
     1
102
RTVSPropertyOp33
 70
     1
102
RTVSPropertyOp34
 70
     1
102
RTVSPropertyOp35
 70
     1
102
RTVSPropertyOp36
 70
     1
102
RTVSPropertyOp37
 70
     1
102
RTVSPropertyOp38
 70
     1
102
RTVSPropertyOp39
 70
     1
102
RTVSPropertyOp40
 70
     1
102
RTVSPropertyOp41
 70
     1
102
RTVSPropertyOp42
 70
     1
102
RTVSPropertyOp43
 70
     1
102
RTVSPropertyOp44
 70
     1
102
RTVSPropertyOp45
 70
     1
102
RTVSPropertyOp46
 70
     1
102
RTVSPropertyOp47
 70
     1
102
RTVSPropertyOp48
 70
     1
102
RTVSPropertyOp49
 70
     1
102
RTVSPropertyOp50
 70
     1
102
RTVSPropertyOp51
 70
     0
102
RTVSPropertyOp52
 70
     0
102
RTVSPropertyOp53
 70
     1
102
RTVSPropertyOp54
 70
     1
102
RTVSPropertyOp55
 70
     1
102
RTVSPropertyOp56
 70
     1
102
RTVSPropertyOp57
 70
     1
102
RTVSPropertyOp58
 70
     1
102
RTVSPropertyOp59
 70
     1
102
RTVSPropertyOp60
 70
     1
102
RTVSPropertyOp61
 70
     1
102
RTVSPropertyOp62
 70
     1
  0
XRECORD
  5
7E5F7
102
{ACAD_REACTORS
330
7E5F6
102
}
330
7E5F6
100
AcDbXrecord
280
     1
102
RTVSPost2010Prop28
280
     0
102
RTVSPost2010PropOp28
 70
     1
102
RTVSPost2010Prop29
280
     1
102
RTVSPost2010PropOp29
 70
     1
102
RTVSPost2010Prop30
280
     1
102
RTVSPost2010PropOp30
 70
     1
102
RTVSPost2010Prop31
280
     0
102
RTVSPost2010PropOp31
 70
     1
102
RTVSPost2010Prop32
280
     0
102
RTVSPost2010PropOp32
 70
     1
102
RTVSPost2010Prop33
280
     0
102
RTVSPost2010PropOp33
 70
     1
102
RTVSPost2010Prop34
280
     0
102
RTVSPost2010PropOp34
 70
     1
102
RTVSPost2010Prop35
280
     0
102
RTVSPost2010PropOp35
 70
     1
102
RTVSPost2010Prop36
280
     0
102
RTVSPost2010PropOp36
 70
     1
102
RTVSPost2010Prop37
 90
       50
102
RTVSPost2010PropOp37
 70
     1
102
RTVSPost2010Prop38
140
0.0
102
RTVSPost2010PropOp38
 70
     1
102
RTVSPost2010Prop39
140
1.0
102
RTVSPost2010PropOp39
 70
     1
102
RTVSPost2010Prop40
 90
        0
102
RTVSPost2010PropOp40
 70
     1
102
RTVSPost2010Prop41ColorIndex
 90
       18
102
RTVSPost2010Prop41ColorRGB
 90
-16777216
102
RTVSPost2010PropOp41
 70
     1
102
RTVSPost2010Prop42
 90
       50
102
RTVSPost2010PropOp42
 70
     1
102
RTVSPost2010Prop43
 90
        3
102
RTVSPost2010PropOp43
 70
     1
102
RTVSPost2010Prop44ColorIndex
 90
        5
102
RTVSPost2010Prop44ColorRGB
 90
      255
102
RTVSPost2010PropOp44
 70
     1
102
RTVSPost2010Prop45
280
     0
102
RTVSPost2010PropOp45
 70
     1
102
RTVSPost2010Prop46
 90
       50
102
RTVSPost2010PropOp46
 70
     1
102
RTVSPost2010Prop47
 90
       50
102
RTVSPost2010PropOp47
 70
     1
102
RTVSPost2010Prop48
 90
       50
102
RTVSPost2010PropOp48
 70
     1
102
RTVSPost2010Prop49
280
     0
102
RTVSPost2010PropOp49
 70
     1
102
RTVSPost2010Prop50
 90
       50
102
RTVSPost2010PropOp50
 70
     1
102
RTVSPost2010Prop51ColorIndex
 90
      256
102
RTVSPost2010Prop51ColorRGB
 90
-16777216
102
RTVSPost2010PropOp51
 70
     0
102
RTVSPost2010Prop52
140
1.0
102
RTVSPost2010PropOp52
 70
     0
102
RTVSPost2010Prop53
 90
        2
102
RTVSPost2010PropOp53
 70
     1
102
RTVSPost2010Prop54
  1
strokes_ogs.tif
102
RTVSPost2010PropOp54
 70
     1
102
RTVSPost2010Prop55
280
     0
102
RTVSPost2010PropOp55
 70
     1
102
RTVSPost2010Prop56
140
1.0
102
RTVSPost2010PropOp56
 70
     1
102
RTVSPost2010Prop57
140
1.0
102
RTVSPost2010PropOp57
 70
     1
102
RTVSPropertyOp0
 70
     1
102
RTVSPropertyOp1
 70
     1
102
RTVSPropertyOp2
 70
     1
102
RTVSPropertyOp3
 70
     1
102
RTVSPropertyOp4
 70
     1
102
RTVSPropertyOp5
 70
     1
102
RTVSPropertyOp6
 70
     1
102
RTVSPropertyOp7
 70
     1
102
RTVSPropertyOp8
 70
     1
102
RTVSPropertyOp9
 70
     1
102
RTVSPropertyOp10
 70
     1
102
RTVSPropertyOp11
 70
     1
102
RTVSPropertyOp12
 70
     1
102
RTVSPropertyOp13
 70
     1
102
RTVSPropertyOp14
 70
     1
102
RTVSPropertyOp15
 70
     1
102
RTVSPropertyOp16
 70
     1
102
RTVSPropertyOp17
 70
     1
102
RTVSPropertyOp18
 70
     1
102
RTVSPropertyOp19
 70
     1
102
RTVSPropertyOp20
 70
     1
102
RTVSPropertyOp21
 70
     1
102
RTVSPropertyOp22
 70
     1
102
RTVSPropertyOp23
 70
     1
102
RTVSPropertyOp24
 70
     1
102
RTVSPropertyOp25
 70
     1
102
RTVSPropertyOp26
 70
     1
102
RTVSPropertyOp27
 70
     1
102
RTVSPropertyOp28
 70
     1
102
RTVSPropertyOp29
 70
     1
102
RTVSPropertyOp30
 70
     1
102
RTVSPropertyOp31
 70
     1
102
RTVSPropertyOp32
 70
     1
102
RTVSPropertyOp33
 70
     1
102
RTVSPropertyOp34
 70
     1
102
RTVSPropertyOp35
 70
     1
102
RTVSPropertyOp36
 70
     1
102
RTVSPropertyOp37
 70
     1
102
RTVSPropertyOp38
 70
     1
102
RTVSPropertyOp39
 70
     1
102
RTVSPropertyOp40
 70
     1
102
RTVSPropertyOp41
 70
     1
102
RTVSPropertyOp42
 70
     1
102
RTVSPropertyOp43
 70
     1
102
RTVSPropertyOp44
 70
     1
102
RTVSPropertyOp45
 70
     1
102
RTVSPropertyOp46
 70
     1
102
RTVSPropertyOp47
 70
     1
102
RTVSPropertyOp48
 70
     1
102
RTVSPropertyOp49
 70
     1
102
RTVSPropertyOp50
 70
     1
102
RTVSPropertyOp51
 70
     0
102
RTVSPropertyOp52
 70
     0
102
RTVSPropertyOp53
 70
     1
102
RTVSPropertyOp54
 70
     1
102
RTVSPropertyOp55
 70
     1
102
RTVSPropertyOp56
 70
     1
102
RTVSPropertyOp57
 70
     1
102
RTVSPropertyOp58
 70
     1
102
RTVSPropertyOp59
 70
     1
102
RTVSPropertyOp60
 70
     1
102
RTVSPropertyOp61
 70
     1
102
RTVSPropertyOp62
 70
     1
  0
XRECORD
  5
7E5F9
102
{ACAD_REACTORS
330
7E5F8
102
}
330
7E5F8
100
AcDbXrecord
280
     1
102
RTVSPost2010Prop28
280
     0
102
RTVSPost2010PropOp28
 70
     1
102
RTVSPost2010Prop29
280
     1
102
RTVSPost2010PropOp29
 70
     1
102
RTVSPost2010Prop30
280
     1
102
RTVSPost2010PropOp30
 70
     1
102
RTVSPost2010Prop31
280
     0
102
RTVSPost2010PropOp31
 70
     1
102
RTVSPost2010Prop32
280
     0
102
RTVSPost2010PropOp32
 70
     1
102
RTVSPost2010Prop33
280
     0
102
RTVSPost2010PropOp33
 70
     1
102
RTVSPost2010Prop34
280
     0
102
RTVSPost2010PropOp34
 70
     1
102
RTVSPost2010Prop35
280
     0
102
RTVSPost2010PropOp35
 70
     1
102
RTVSPost2010Prop36
280
     0
102
RTVSPost2010PropOp36
 70
     1
102
RTVSPost2010Prop37
 90
       50
102
RTVSPost2010PropOp37
 70
     1
102
RTVSPost2010Prop38
140
0.0
102
RTVSPost2010PropOp38
 70
     1
102
RTVSPost2010Prop39
140
1.0
102
RTVSPost2010PropOp39
 70
     1
102
RTVSPost2010Prop40
 90
        0
102
RTVSPost2010PropOp40
 70
     1
102
RTVSPost2010Prop41ColorIndex
 90
       18
102
RTVSPost2010Prop41ColorRGB
 90
-16777216
102
RTVSPost2010PropOp41
 70
     1
102
RTVSPost2010Prop42
 90
       50
102
RTVSPost2010PropOp42
 70
     1
102
RTVSPost2010Prop43
 90
        3
102
RTVSPost2010PropOp43
 70
     1
102
RTVSPost2010Prop44ColorIndex
 90
        5
102
RTVSPost2010Prop44ColorRGB
 90
      255
102
RTVSPost2010PropOp44
 70
     1
102
RTVSPost2010Prop45
280
     0
102
RTVSPost2010PropOp45
 70
     1
102
RTVSPost2010Prop46
 90
       50
102
RTVSPost2010PropOp46
 70
     1
102
RTVSPost2010Prop47
 90
       50
102
RTVSPost2010PropOp47
 70
     1
102
RTVSPost2010Prop48
 90
       50
102
RTVSPost2010PropOp48
 70
     1
102
RTVSPost2010Prop49
280
     0
102
RTVSPost2010PropOp49
 70
     1
102
RTVSPost2010Prop50
 90
       50
102
RTVSPost2010PropOp50
 70
     1
102
RTVSPost2010Prop51ColorIndex
 90
      256
102
RTVSPost2010Prop51ColorRGB
 90
-16777216
102
RTVSPost2010PropOp51
 70
     0
102
RTVSPost2010Prop52
140
1.0
102
RTVSPost2010PropOp52
 70
     0
102
RTVSPost2010Prop53
 90
        2
102
RTVSPost2010PropOp53
 70
     1
102
RTVSPost2010Prop54
  1
strokes_ogs.tif
102
RTVSPost2010PropOp54
 70
     1
102
RTVSPost2010Prop55
280
     0
102
RTVSPost2010PropOp55
 70
     1
102
RTVSPost2010Prop56
140
1.0
102
RTVSPost2010PropOp56
 70
     1
102
RTVSPost2010Prop57
140
1.0
102
RTVSPost2010PropOp57
 70
     1
102
RTVSPropertyOp0
 70
     1
102
RTVSPropertyOp1
 70
     1
102
RTVSPropertyOp2
 70
     1
102
RTVSPropertyOp3
 70
     1
102
RTVSPropertyOp4
 70
     1
102
RTVSPropertyOp5
 70
     1
102
RTVSPropertyOp6
 70
     1
102
RTVSPropertyOp7
 70
     1
102
RTVSPropertyOp8
 70
     1
102
RTVSPropertyOp9
 70
     1
102
RTVSPropertyOp10
 70
     1
102
RTVSPropertyOp11
 70
     1
102
RTVSPropertyOp12
 70
     1
102
RTVSPropertyOp13
 70
     1
102
RTVSPropertyOp14
 70
     1
102
RTVSPropertyOp15
 70
     1
102
RTVSPropertyOp16
 70
     1
102
RTVSPropertyOp17
 70
     1
102
RTVSPropertyOp18
 70
     1
102
RTVSPropertyOp19
 70
     1
102
RTVSPropertyOp20
 70
     1
102
RTVSPropertyOp21
 70
     1
102
RTVSPropertyOp22
 70
     1
102
RTVSPropertyOp23
 70
     1
102
RTVSPropertyOp24
 70
     1
102
RTVSPropertyOp25
 70
     1
102
RTVSPropertyOp26
 70
     1
102
RTVSPropertyOp27
 70
     1
102
RTVSPropertyOp28
 70
     1
102
RTVSPropertyOp29
 70
     1
102
RTVSPropertyOp30
 70
     1
102
RTVSPropertyOp31
 70
     1
102
RTVSPropertyOp32
 70
     1
102
RTVSPropertyOp33
 70
     1
102
RTVSPropertyOp34
 70
     1
102
RTVSPropertyOp35
 70
     1
102
RTVSPropertyOp36
 70
     1
102
RTVSPropertyOp37
 70
     1
102
RTVSPropertyOp38
 70
     1
102
RTVSPropertyOp39
 70
     1
102
RTVSPropertyOp40
 70
     1
102
RTVSPropertyOp41
 70
     1
102
RTVSPropertyOp42
 70
     1
102
RTVSPropertyOp43
 70
     1
102
RTVSPropertyOp44
 70
     1
102
RTVSPropertyOp45
 70
     1
102
RTVSPropertyOp46
 70
     1
102
RTVSPropertyOp47
 70
     1
102
RTVSPropertyOp48
 70
     1
102
RTVSPropertyOp49
 70
     1
102
RTVSPropertyOp50
 70
     1
102
RTVSPropertyOp51
 70
     0
102
RTVSPropertyOp52
 70
     0
102
RTVSPropertyOp53
 70
     1
102
RTVSPropertyOp54
 70
     1
102
RTVSPropertyOp55
 70
     1
102
RTVSPropertyOp56
 70
     1
102
RTVSPropertyOp57
 70
     1
102
RTVSPropertyOp58
 70
     1
102
RTVSPropertyOp59
 70
     1
102
RTVSPropertyOp60
 70
     1
102
RTVSPropertyOp61
 70
     1
102
RTVSPropertyOp62
 70
     1
  0
XRECORD
  5
7E616
102
{ACAD_REACTORS
330
7E615
102
}
330
7E615
100
AcDbXrecord
280
     1
102
RTVSPost2010Prop28
280
     0
102
RTVSPost2010PropOp28
 70
     1
102
RTVSPost2010Prop29
280
     1
102
RTVSPost2010PropOp29
 70
     1
102
RTVSPost2010Prop30
280
     1
102
RTVSPost2010PropOp30
 70
     1
102
RTVSPost2010Prop31
280
     0
102
RTVSPost2010PropOp31
 70
     1
102
RTVSPost2010Prop32
280
     0
102
RTVSPost2010PropOp32
 70
     1
102
RTVSPost2010Prop33
280
     0
102
RTVSPost2010PropOp33
 70
     1
102
RTVSPost2010Prop34
280
     0
102
RTVSPost2010PropOp34
 70
     1
102
RTVSPost2010Prop35
280
     0
102
RTVSPost2010PropOp35
 70
     1
102
RTVSPost2010Prop36
280
     0
102
RTVSPost2010PropOp36
 70
     1
102
RTVSPost2010Prop37
 90
       50
102
RTVSPost2010PropOp37
 70
     1
102
RTVSPost2010Prop38
140
0.0
102
RTVSPost2010PropOp38
 70
     1
102
RTVSPost2010Prop39
140
1.0
102
RTVSPost2010PropOp39
 70
     1
102
RTVSPost2010Prop40
 90
        0
102
RTVSPost2010PropOp40
 70
     1
102
RTVSPost2010Prop41ColorIndex
 90
       18
102
RTVSPost2010Prop41ColorRGB
 90
-16777216
102
RTVSPost2010PropOp41
 70
     1
102
RTVSPost2010Prop42
 90
       50
102
RTVSPost2010PropOp42
 70
     1
102
RTVSPost2010Prop43
 90
        3
102
RTVSPost2010PropOp43
 70
     1
102
RTVSPost2010Prop44ColorIndex
 90
        5
102
RTVSPost2010Prop44ColorRGB
 90
      255
102
RTVSPost2010PropOp44
 70
     1
102
RTVSPost2010Prop45
280
     0
102
RTVSPost2010PropOp45
 70
     1
102
RTVSPost2010Prop46
 90
       50
102
RTVSPost2010PropOp46
 70
     1
102
RTVSPost2010Prop47
 90
       50
102
RTVSPost2010PropOp47
 70
     1
102
RTVSPost2010Prop48
 90
       50
102
RTVSPost2010PropOp48
 70
     1
102
RTVSPost2010Prop49
280
     0
102
RTVSPost2010PropOp49
 70
     1
102
RTVSPost2010Prop50
 90
       50
102
RTVSPost2010PropOp50
 70
     1
102
RTVSPost2010Prop51ColorIndex
 90
      256
102
RTVSPost2010Prop51ColorRGB
 90
-16777216
102
RTVSPost2010PropOp51
 70
     0
102
RTVSPost2010Prop52
140
1.0
102
RTVSPost2010PropOp52
 70
     0
102
RTVSPost2010Prop53
 90
        2
102
RTVSPost2010PropOp53
 70
     1
102
RTVSPost2010Prop54
  1
strokes_ogs.tif
102
RTVSPost2010PropOp54
 70
     1
102
RTVSPost2010Prop55
280
     0
102
RTVSPost2010PropOp55
 70
     1
102
RTVSPost2010Prop56
140
1.0
102
RTVSPost2010PropOp56
 70
     1
102
RTVSPost2010Prop57
140
1.0
102
RTVSPost2010PropOp57
 70
     1
102
RTVSPropertyOp0
 70
     1
102
RTVSPropertyOp1
 70
     1
102
RTVSPropertyOp2
 70
     1
102
RTVSPropertyOp3
 70
     1
102
RTVSPropertyOp4
 70
     1
102
RTVSPropertyOp5
 70
     1
102
RTVSPropertyOp6
 70
     1
102
RTVSPropertyOp7
 70
     1
102
RTVSPropertyOp8
 70
     1
102
RTVSPropertyOp9
 70
     1
102
RTVSPropertyOp10
 70
     1
102
RTVSPropertyOp11
 70
     1
102
RTVSPropertyOp12
 70
     1
102
RTVSPropertyOp13
 70
     1
102
RTVSPropertyOp14
 70
     1
102
RTVSPropertyOp15
 70
     1
102
RTVSPropertyOp16
 70
     1
102
RTVSPropertyOp17
 70
     1
102
RTVSPropertyOp18
 70
     1
102
RTVSPropertyOp19
 70
     1
102
RTVSPropertyOp20
 70
     1
102
RTVSPropertyOp21
 70
     1
102
RTVSPropertyOp22
 70
     1
102
RTVSPropertyOp23
 70
     1
102
RTVSPropertyOp24
 70
     1
102
RTVSPropertyOp25
 70
     1
102
RTVSPropertyOp26
 70
     1
102
RTVSPropertyOp27
 70
     1
102
RTVSPropertyOp28
 70
     1
102
RTVSPropertyOp29
 70
     1
102
RTVSPropertyOp30
 70
     1
102
RTVSPropertyOp31
 70
     1
102
RTVSPropertyOp32
 70
     1
102
RTVSPropertyOp33
 70
     1
102
RTVSPropertyOp34
 70
     1
102
RTVSPropertyOp35
 70
     1
102
RTVSPropertyOp36
 70
     1
102
RTVSPropertyOp37
 70
     1
102
RTVSPropertyOp38
 70
     1
102
RTVSPropertyOp39
 70
     1
102
RTVSPropertyOp40
 70
     1
102
RTVSPropertyOp41
 70
     1
102
RTVSPropertyOp42
 70
     1
102
RTVSPropertyOp43
 70
     1
102
RTVSPropertyOp44
 70
     1
102
RTVSPropertyOp45
 70
     1
102
RTVSPropertyOp46
 70
     1
102
RTVSPropertyOp47
 70
     1
102
RTVSPropertyOp48
 70
     1
102
RTVSPropertyOp49
 70
     1
102
RTVSPropertyOp50
 70
     1
102
RTVSPropertyOp51
 70
     0
102
RTVSPropertyOp52
 70
     0
102
RTVSPropertyOp53
 70
     1
102
RTVSPropertyOp54
 70
     1
102
RTVSPropertyOp55
 70
     1
102
RTVSPropertyOp56
 70
     1
102
RTVSPropertyOp57
 70
     1
102
RTVSPropertyOp58
 70
     1
102
RTVSPropertyOp59
 70
     1
102
RTVSPropertyOp60
 70
     1
102
RTVSPropertyOp61
 70
     1
102
RTVSPropertyOp62
 70
     1
  0
XRECORD
  5
7E622
102
{ACAD_REACTORS
330
7E621
102
}
330
7E621
100
AcDbXrecord
280
     1
102
RTVSPost2010Prop28
280
     0
102
RTVSPost2010PropOp28
 70
     0
102
RTVSPost2010Prop29
280
     1
102
RTVSPost2010PropOp29
 70
     0
102
RTVSPost2010Prop30
280
     1
102
RTVSPost2010PropOp30
 70
     0
102
RTVSPost2010Prop31
280
     0
102
RTVSPost2010PropOp31
 70
     0
102
RTVSPost2010Prop32
280
     0
102
RTVSPost2010PropOp32
 70
     0
102
RTVSPost2010Prop33
280
     0
102
RTVSPost2010PropOp33
 70
     0
102
RTVSPost2010Prop34
280
     0
102
RTVSPost2010PropOp34
 70
     0
102
RTVSPost2010Prop35
280
     0
102
RTVSPost2010PropOp35
 70
     0
102
RTVSPost2010Prop36
280
     0
102
RTVSPost2010PropOp36
 70
     0
102
RTVSPost2010Prop37
 90
       50
102
RTVSPost2010PropOp37
 70
     0
102
RTVSPost2010Prop38
140
0.0
102
RTVSPost2010PropOp38
 70
     0
102
RTVSPost2010Prop39
140
1.0
102
RTVSPost2010PropOp39
 70
     0
102
RTVSPost2010Prop40
 90
        0
102
RTVSPost2010PropOp40
 70
     0
102
RTVSPost2010Prop41ColorIndex
 90
       18
102
RTVSPost2010Prop41ColorRGB
 90
-16777216
102
RTVSPost2010PropOp41
 70
     0
102
RTVSPost2010Prop42
 90
       50
102
RTVSPost2010PropOp42
 70
     0
102
RTVSPost2010Prop43
 90
        3
102
RTVSPost2010PropOp43
 70
     0
102
RTVSPost2010Prop44ColorIndex
 90
        5
102
RTVSPost2010Prop44ColorRGB
 90
      255
102
RTVSPost2010PropOp44
 70
     0
102
RTVSPost2010Prop45
280
     0
102
RTVSPost2010PropOp45
 70
     0
102
RTVSPost2010Prop46
 90
       50
102
RTVSPost2010PropOp46
 70
     0
102
RTVSPost2010Prop47
 90
       50
102
RTVSPost2010PropOp47
 70
     0
102
RTVSPost2010Prop48
 90
       50
102
RTVSPost2010PropOp48
 70
     0
102
RTVSPost2010Prop49
280
     0
102
RTVSPost2010PropOp49
 70
     0
102
RTVSPost2010Prop50
 90
       50
102
RTVSPost2010PropOp50
 70
     0
102
RTVSPost2010Prop51ColorIndex
 90
      256
102
RTVSPost2010Prop51ColorRGB
 90
-16777216
102
RTVSPost2010PropOp51
 70
     0
102
RTVSPost2010Prop52
140
1.0
102
RTVSPost2010PropOp52
 70
     0
102
RTVSPost2010Prop53
 90
        2
102
RTVSPost2010PropOp53
 70
     0
102
RTVSPost2010Prop54
  1
strokes_ogs.tif
102
RTVSPost2010PropOp54
 70
     0
102
RTVSPost2010Prop55
280
     0
102
RTVSPost2010PropOp55
 70
     0
102
RTVSPost2010Prop56
140
1.0
102
RTVSPost2010PropOp56
 70
     0
102
RTVSPost2010Prop57
140
1.0
102
RTVSPost2010PropOp57
 70
     0
102
RTVSPropertyOp0
 70
     0
102
RTVSPropertyOp1
 70
     0
102
RTVSPropertyOp2
 70
     0
102
RTVSPropertyOp3
 70
     0
102
RTVSPropertyOp4
 70
     0
102
RTVSPropertyOp5
 70
     0
102
RTVSPropertyOp6
 70
     0
102
RTVSPropertyOp7
 70
     0
102
RTVSPropertyOp8
 70
     0
102
RTVSPropertyOp9
 70
     0
102
RTVSPropertyOp10
 70
     0
102
RTVSPropertyOp11
 70
     0
102
RTVSPropertyOp12
 70
     0
102
RTVSPropertyOp13
 70
     0
102
RTVSPropertyOp14
 70
     2
102
RTVSPropertyOp15
 70
     0
102
RTVSPropertyOp16
 70
     0
102
RTVSPropertyOp17
 70
     0
102
RTVSPropertyOp18
 70
     0
102
RTVSPropertyOp19
 70
     0
102
RTVSPropertyOp20
 70
     0
102
RTVSPropertyOp21
 70
     0
102
RTVSPropertyOp22
 70
     0
102
RTVSPropertyOp23
 70
     0
102
RTVSPropertyOp24
 70
     0
102
RTVSPropertyOp25
 70
     0
102
RTVSPropertyOp26
 70
     0
102
RTVSPropertyOp27
 70
     0
102
RTVSPropertyOp28
 70
     0
102
RTVSPropertyOp29
 70
     0
102
RTVSPropertyOp30
 70
     0
102
RTVSPropertyOp31
 70
     0
102
RTVSPropertyOp32
 70
     0
102
RTVSPropertyOp33
 70
     0
102
RTVSPropertyOp34
 70
     0
102
RTVSPropertyOp35
 70
     0
102
RTVSPropertyOp36
 70
     0
102
RTVSPropertyOp37
 70
     0
102
RTVSPropertyOp38
 70
     0
102
RTVSPropertyOp39
 70
     0
102
RTVSPropertyOp40
 70
     0
102
RTVSPropertyOp41
 70
     0
102
RTVSPropertyOp42
 70
     0
102
RTVSPropertyOp43
 70
     0
102
RTVSPropertyOp44
 70
     0
102
RTVSPropertyOp45
 70
     0
102
RTVSPropertyOp46
 70
     0
102
RTVSPropertyOp47
 70
     0
102
RTVSPropertyOp48
 70
     0
102
RTVSPropertyOp49
 70
     0
102
RTVSPropertyOp50
 70
     0
102
RTVSPropertyOp51
 70
     0
102
RTVSPropertyOp52
 70
     0
102
RTVSPropertyOp53
 70
     0
102
RTVSPropertyOp54
 70
     0
102
RTVSPropertyOp55
 70
     0
102
RTVSPropertyOp56
 70
     0
102
RTVSPropertyOp57
 70
     0
102
RTVSPropertyOp58
 70
     1
102
RTVSPropertyOp59
 70
     1
102
RTVSPropertyOp60
 70
     1
102
RTVSPropertyOp61
 70
     1
102
RTVSPropertyOp62
 70
     1
  0
XRECORD
  5
7E60D
102
{ACAD_REACTORS
330
7E60C
102
}
330
7E60C
100
AcDbXrecord
280
     1
102
RTVSPost2010Prop28
280
     0
102
RTVSPost2010PropOp28
 70
     1
102
RTVSPost2010Prop29
280
     1
102
RTVSPost2010PropOp29
 70
     1
102
RTVSPost2010Prop30
280
     1
102
RTVSPost2010PropOp30
 70
     1
102
RTVSPost2010Prop31
280
     0
102
RTVSPost2010PropOp31
 70
     1
102
RTVSPost2010Prop32
280
     0
102
RTVSPost2010PropOp32
 70
     1
102
RTVSPost2010Prop33
280
     0
102
RTVSPost2010PropOp33
 70
     1
102
RTVSPost2010Prop34
280
     0
102
RTVSPost2010PropOp34
 70
     1
102
RTVSPost2010Prop35
280
     0
102
RTVSPost2010PropOp35
 70
     1
102
RTVSPost2010Prop36
280
     0
102
RTVSPost2010PropOp36
 70
     1
102
RTVSPost2010Prop37
 90
       50
102
RTVSPost2010PropOp37
 70
     1
102
RTVSPost2010Prop38
140
0.0
102
RTVSPost2010PropOp38
 70
     1
102
RTVSPost2010Prop39
140
1.0
102
RTVSPost2010PropOp39
 70
     1
102
RTVSPost2010Prop40
 90
        0
102
RTVSPost2010PropOp40
 70
     1
102
RTVSPost2010Prop41ColorIndex
 90
       18
102
RTVSPost2010Prop41ColorRGB
 90
-16777216
102
RTVSPost2010PropOp41
 70
     1
102
RTVSPost2010Prop42
 90
       50
102
RTVSPost2010PropOp42
 70
     1
102
RTVSPost2010Prop43
 90
        3
102
RTVSPost2010PropOp43
 70
     1
102
RTVSPost2010Prop44ColorIndex
 90
        5
102
RTVSPost2010Prop44ColorRGB
 90
      255
102
RTVSPost2010PropOp44
 70
     1
102
RTVSPost2010Prop45
280
     0
102
RTVSPost2010PropOp45
 70
     1
102
RTVSPost2010Prop46
 90
       50
102
RTVSPost2010PropOp46
 70
     1
102
RTVSPost2010Prop47
 90
       50
102
RTVSPost2010PropOp47
 70
     1
102
RTVSPost2010Prop48
 90
       50
102
RTVSPost2010PropOp48
 70
     1
102
RTVSPost2010Prop49
280
     0
102
RTVSPost2010PropOp49
 70
     1
102
RTVSPost2010Prop50
 90
       50
102
RTVSPost2010PropOp50
 70
     1
102
RTVSPost2010Prop51ColorIndex
 90
      256
102
RTVSPost2010Prop51ColorRGB
 90
-16777216
102
RTVSPost2010PropOp51
 70
     0
102
RTVSPost2010Prop52
140
1.0
102
RTVSPost2010PropOp52
 70
     0
102
RTVSPost2010Prop53
 90
        2
102
RTVSPost2010PropOp53
 70
     1
102
RTVSPost2010Prop54
  1
strokes_ogs.tif
102
RTVSPost2010PropOp54
 70
     1
102
RTVSPost2010Prop55
280
     0
102
RTVSPost2010PropOp55
 70
     1
102
RTVSPost2010Prop56
140
1.0
102
RTVSPost2010PropOp56
 70
     1
102
RTVSPost2010Prop57
140
1.0
102
RTVSPost2010PropOp57
 70
     1
102
RTVSPropertyOp0
 70
     1
102
RTVSPropertyOp1
 70
     1
102
RTVSPropertyOp2
 70
     1
102
RTVSPropertyOp3
 70
     1
102
RTVSPropertyOp4
 70
     1
102
RTVSPropertyOp5
 70
     1
102
RTVSPropertyOp6
 70
     1
102
RTVSPropertyOp7
 70
     1
102
RTVSPropertyOp8
 70
     1
102
RTVSPropertyOp9
 70
     1
102
RTVSPropertyOp10
 70
     1
102
RTVSPropertyOp11
 70
     1
102
RTVSPropertyOp12
 70
     1
102
RTVSPropertyOp13
 70
     1
102
RTVSPropertyOp14
 70
     1
102
RTVSPropertyOp15
 70
     1
102
RTVSPropertyOp16
 70
     1
102
RTVSPropertyOp17
 70
     1
102
RTVSPropertyOp18
 70
     1
102
RTVSPropertyOp19
 70
     1
102
RTVSPropertyOp20
 70
     1
102
RTVSPropertyOp21
 70
     1
102
RTVSPropertyOp22
 70
     1
102
RTVSPropertyOp23
 70
     1
102
RTVSPropertyOp24
 70
     1
102
RTVSPropertyOp25
 70
     1
102
RTVSPropertyOp26
 70
     1
102
RTVSPropertyOp27
 70
     1
102
RTVSPropertyOp28
 70
     1
102
RTVSPropertyOp29
 70
     1
102
RTVSPropertyOp30
 70
     1
102
RTVSPropertyOp31
 70
     1
102
RTVSPropertyOp32
 70
     1
102
RTVSPropertyOp33
 70
     1
102
RTVSPropertyOp34
 70
     1
102
RTVSPropertyOp35
 70
     1
102
RTVSPropertyOp36
 70
     1
102
RTVSPropertyOp37
 70
     1
102
RTVSPropertyOp38
 70
     1
102
RTVSPropertyOp39
 70
     1
102
RTVSPropertyOp40
 70
     1
102
RTVSPropertyOp41
 70
     1
102
RTVSPropertyOp42
 70
     1
102
RTVSPropertyOp43
 70
     1
102
RTVSPropertyOp44
 70
     1
102
RTVSPropertyOp45
 70
     1
102
RTVSPropertyOp46
 70
     1
102
RTVSPropertyOp47
 70
     1
102
RTVSPropertyOp48
 70
     1
102
RTVSPropertyOp49
 70
     1
102
RTVSPropertyOp50
 70
     1
102
RTVSPropertyOp51
 70
     0
102
RTVSPropertyOp52
 70
     0
102
RTVSPropertyOp53
 70
     1
102
RTVSPropertyOp54
 70
     1
102
RTVSPropertyOp55
 70
     1
102
RTVSPropertyOp56
 70
     1
102
RTVSPropertyOp57
 70
     1
102
RTVSPropertyOp58
 70
     1
102
RTVSPropertyOp59
 70
     1
102
RTVSPropertyOp60
 70
     1
102
RTVSPropertyOp61
 70
     1
102
RTVSPropertyOp62
 70
     1
  0
XRECORD
  5
7E624
102
{ACAD_REACTORS
330
7E623
102
}
330
7E623
100
AcDbXrecord
280
     1
102
RTVSPost2010Prop28
280
     0
102
RTVSPost2010PropOp28
 70
     0
102
RTVSPost2010Prop29
280
     1
102
RTVSPost2010PropOp29
 70
     0
102
RTVSPost2010Prop30
280
     1
102
RTVSPost2010PropOp30
 70
     0
102
RTVSPost2010Prop31
280
     0
102
RTVSPost2010PropOp31
 70
     0
102
RTVSPost2010Prop32
280
     0
102
RTVSPost2010PropOp32
 70
     0
102
RTVSPost2010Prop33
280
     0
102
RTVSPost2010PropOp33
 70
     0
102
RTVSPost2010Prop34
280
     0
102
RTVSPost2010PropOp34
 70
     0
102
RTVSPost2010Prop35
280
     0
102
RTVSPost2010PropOp35
 70
     0
102
RTVSPost2010Prop36
280
     0
102
RTVSPost2010PropOp36
 70
     0
102
RTVSPost2010Prop37
 90
       50
102
RTVSPost2010PropOp37
 70
     0
102
RTVSPost2010Prop38
140
0.0
102
RTVSPost2010PropOp38
 70
     0
102
RTVSPost2010Prop39
140
1.0
102
RTVSPost2010PropOp39
 70
     0
102
RTVSPost2010Prop40
 90
        0
102
RTVSPost2010PropOp40
 70
     0
102
RTVSPost2010Prop41ColorIndex
 90
       18
102
RTVSPost2010Prop41ColorRGB
 90
-16777216
102
RTVSPost2010PropOp41
 70
     0
102
RTVSPost2010Prop42
 90
       50
102
RTVSPost2010PropOp42
 70
     0
102
RTVSPost2010Prop43
 90
        3
102
RTVSPost2010PropOp43
 70
     0
102
RTVSPost2010Prop44ColorIndex
 90
        5
102
RTVSPost2010Prop44ColorRGB
 90
      255
102
RTVSPost2010PropOp44
 70
     0
102
RTVSPost2010Prop45
280
     0
102
RTVSPost2010PropOp45
 70
     0
102
RTVSPost2010Prop46
 90
       50
102
RTVSPost2010PropOp46
 70
     0
102
RTVSPost2010Prop47
 90
       50
102
RTVSPost2010PropOp47
 70
     0
102
RTVSPost2010Prop48
 90
       50
102
RTVSPost2010PropOp48
 70
     0
102
RTVSPost2010Prop49
280
     0
102
RTVSPost2010PropOp49
 70
     0
102
RTVSPost2010Prop50
 90
       50
102
RTVSPost2010PropOp50
 70
     0
102
RTVSPost2010Prop51ColorIndex
 90
      256
102
RTVSPost2010Prop51ColorRGB
 90
-16777216
102
RTVSPost2010PropOp51
 70
     0
102
RTVSPost2010Prop52
140
1.0
102
RTVSPost2010PropOp52
 70
     0
102
RTVSPost2010Prop53
 90
        2
102
RTVSPost2010PropOp53
 70
     0
102
RTVSPost2010Prop54
  1
strokes_ogs.tif
102
RTVSPost2010PropOp54
 70
     0
102
RTVSPost2010Prop55
280
     0
102
RTVSPost2010PropOp55
 70
     0
102
RTVSPost2010Prop56
140
1.0
102
RTVSPost2010PropOp56
 70
     0
102
RTVSPost2010Prop57
140
1.0
102
RTVSPost2010PropOp57
 70
     0
102
RTVSPropertyOp0
 70
     0
102
RTVSPropertyOp1
 70
     0
102
RTVSPropertyOp2
 70
     0
102
RTVSPropertyOp3
 70
     0
102
RTVSPropertyOp4
 70
     0
102
RTVSPropertyOp5
 70
     0
102
RTVSPropertyOp6
 70
     0
102
RTVSPropertyOp7
 70
     0
102
RTVSPropertyOp8
 70
     0
102
RTVSPropertyOp9
 70
     0
102
RTVSPropertyOp10
 70
     0
102
RTVSPropertyOp11
 70
     0
102
RTVSPropertyOp12
 70
     0
102
RTVSPropertyOp13
 70
     0
102
RTVSPropertyOp14
 70
     2
102
RTVSPropertyOp15
 70
     0
102
RTVSPropertyOp16
 70
     0
102
RTVSPropertyOp17
 70
     0
102
RTVSPropertyOp18
 70
     0
102
RTVSPropertyOp19
 70
     0
102
RTVSPropertyOp20
 70
     0
102
RTVSPropertyOp21
 70
     0
102
RTVSPropertyOp22
 70
     0
102
RTVSPropertyOp23
 70
     0
102
RTVSPropertyOp24
 70
     0
102
RTVSPropertyOp25
 70
     0
102
RTVSPropertyOp26
 70
     0
102
RTVSPropertyOp27
 70
     0
102
RTVSPropertyOp28
 70
     0
102
RTVSPropertyOp29
 70
     0
102
RTVSPropertyOp30
 70
     0
102
RTVSPropertyOp31
 70
     0
102
RTVSPropertyOp32
 70
     0
102
RTVSPropertyOp33
 70
     0
102
RTVSPropertyOp34
 70
     0
102
RTVSPropertyOp35
 70
     0
102
RTVSPropertyOp36
 70
     0
102
RTVSPropertyOp37
 70
     0
102
RTVSPropertyOp38
 70
     0
102
RTVSPropertyOp39
 70
     0
102
RTVSPropertyOp40
 70
     0
102
RTVSPropertyOp41
 70
     0
102
RTVSPropertyOp42
 70
     0
102
RTVSPropertyOp43
 70
     0
102
RTVSPropertyOp44
 70
     0
102
RTVSPropertyOp45
 70
     0
102
RTVSPropertyOp46
 70
     0
102
RTVSPropertyOp47
 70
     0
102
RTVSPropertyOp48
 70
     0
102
RTVSPropertyOp49
 70
     0
102
RTVSPropertyOp50
 70
     0
102
RTVSPropertyOp51
 70
     0
102
RTVSPropertyOp52
 70
     0
102
RTVSPropertyOp53
 70
     0
102
RTVSPropertyOp54
 70
     0
102
RTVSPropertyOp55
 70
     0
102
RTVSPropertyOp56
 70
     0
102
RTVSPropertyOp57
 70
     0
102
RTVSPropertyOp58
 70
     1
102
RTVSPropertyOp59
 70
     1
102
RTVSPropertyOp60
 70
     1
102
RTVSPropertyOp61
 70
     1
102
RTVSPropertyOp62
 70
     1
  0
XRECORD
  5
7E605
102
{ACAD_REACTORS
330
7E604
102
}
330
7E604
100
AcDbXrecord
280
     1
102
RTVSPost2010Prop28
280
     0
102
RTVSPost2010PropOp28
 70
     1
102
RTVSPost2010Prop29
280
     1
102
RTVSPost2010PropOp29
 70
     1
102
RTVSPost2010Prop30
280
     1
102
RTVSPost2010PropOp30
 70
     1
102
RTVSPost2010Prop31
280
     0
102
RTVSPost2010PropOp31
 70
     1
102
RTVSPost2010Prop32
280
     0
102
RTVSPost2010PropOp32
 70
     1
102
RTVSPost2010Prop33
280
     0
102
RTVSPost2010PropOp33
 70
     1
102
RTVSPost2010Prop34
280
     0
102
RTVSPost2010PropOp34
 70
     1
102
RTVSPost2010Prop35
280
     0
102
RTVSPost2010PropOp35
 70
     1
102
RTVSPost2010Prop36
280
     0
102
RTVSPost2010PropOp36
 70
     1
102
RTVSPost2010Prop37
 90
       50
102
RTVSPost2010PropOp37
 70
     1
102
RTVSPost2010Prop38
140
0.0
102
RTVSPost2010PropOp38
 70
     1
102
RTVSPost2010Prop39
140
1.0
102
RTVSPost2010PropOp39
 70
     1
102
RTVSPost2010Prop40
 90
        0
102
RTVSPost2010PropOp40
 70
     1
102
RTVSPost2010Prop41ColorIndex
 90
       18
102
RTVSPost2010Prop41ColorRGB
 90
-16777216
102
RTVSPost2010PropOp41
 70
     1
102
RTVSPost2010Prop42
 90
       50
102
RTVSPost2010PropOp42
 70
     1
102
RTVSPost2010Prop43
 90
        3
102
RTVSPost2010PropOp43
 70
     1
102
RTVSPost2010Prop44ColorIndex
 90
        5
102
RTVSPost2010Prop44ColorRGB
 90
      255
102
RTVSPost2010PropOp44
 70
     1
102
RTVSPost2010Prop45
280
     0
102
RTVSPost2010PropOp45
 70
     1
102
RTVSPost2010Prop46
 90
       50
102
RTVSPost2010PropOp46
 70
     1
102
RTVSPost2010Prop47
 90
       50
102
RTVSPost2010PropOp47
 70
     1
102
RTVSPost2010Prop48
 90
       50
102
RTVSPost2010PropOp48
 70
     1
102
RTVSPost2010Prop49
280
     0
102
RTVSPost2010PropOp49
 70
     1
102
RTVSPost2010Prop50
 90
       50
102
RTVSPost2010PropOp50
 70
     1
102
RTVSPost2010Prop51ColorIndex
 90
      256
102
RTVSPost2010Prop51ColorRGB
 90
-16777216
102
RTVSPost2010PropOp51
 70
     0
102
RTVSPost2010Prop52
140
1.0
102
RTVSPost2010PropOp52
 70
     0
102
RTVSPost2010Prop53
 90
        2
102
RTVSPost2010PropOp53
 70
     1
102
RTVSPost2010Prop54
  1
strokes_ogs.tif
102
RTVSPost2010PropOp54
 70
     1
102
RTVSPost2010Prop55
280
     0
102
RTVSPost2010PropOp55
 70
     1
102
RTVSPost2010Prop56
140
1.0
102
RTVSPost2010PropOp56
 70
     1
102
RTVSPost2010Prop57
140
1.0
102
RTVSPost2010PropOp57
 70
     1
102
RTVSPropertyOp0
 70
     1
102
RTVSPropertyOp1
 70
     1
102
RTVSPropertyOp2
 70
     1
102
RTVSPropertyOp3
 70
     1
102
RTVSPropertyOp4
 70
     1
102
RTVSPropertyOp5
 70
     1
102
RTVSPropertyOp6
 70
     1
102
RTVSPropertyOp7
 70
     1
102
RTVSPropertyOp8
 70
     1
102
RTVSPropertyOp9
 70
     1
102
RTVSPropertyOp10
 70
     1
102
RTVSPropertyOp11
 70
     1
102
RTVSPropertyOp12
 70
     1
102
RTVSPropertyOp13
 70
     1
102
RTVSPropertyOp14
 70
     1
102
RTVSPropertyOp15
 70
     1
102
RTVSPropertyOp16
 70
     1
102
RTVSPropertyOp17
 70
     1
102
RTVSPropertyOp18
 70
     1
102
RTVSPropertyOp19
 70
     1
102
RTVSPropertyOp20
 70
     1
102
RTVSPropertyOp21
 70
     1
102
RTVSPropertyOp22
 70
     1
102
RTVSPropertyOp23
 70
     1
102
RTVSPropertyOp24
 70
     1
102
RTVSPropertyOp25
 70
     1
102
RTVSPropertyOp26
 70
     1
102
RTVSPropertyOp27
 70
     1
102
RTVSPropertyOp28
 70
     1
102
RTVSPropertyOp29
 70
     1
102
RTVSPropertyOp30
 70
     1
102
RTVSPropertyOp31
 70
     1
102
RTVSPropertyOp32
 70
     1
102
RTVSPropertyOp33
 70
     1
102
RTVSPropertyOp34
 70
     1
102
RTVSPropertyOp35
 70
     1
102
RTVSPropertyOp36
 70
     1
102
RTVSPropertyOp37
 70
     1
102
RTVSPropertyOp38
 70
     1
102
RTVSPropertyOp39
 70
     1
102
RTVSPropertyOp40
 70
     1
102
RTVSPropertyOp41
 70
     1
102
RTVSPropertyOp42
 70
     1
102
RTVSPropertyOp43
 70
     1
102
RTVSPropertyOp44
 70
     1
102
RTVSPropertyOp45
 70
     1
102
RTVSPropertyOp46
 70
     1
102
RTVSPropertyOp47
 70
     1
102
RTVSPropertyOp48
 70
     1
102
RTVSPropertyOp49
 70
     1
102
RTVSPropertyOp50
 70
     1
102
RTVSPropertyOp51
 70
     0
102
RTVSPropertyOp52
 70
     0
102
RTVSPropertyOp53
 70
     1
102
RTVSPropertyOp54
 70
     1
102
RTVSPropertyOp55
 70
     1
102
RTVSPropertyOp56
 70
     1
102
RTVSPropertyOp57
 70
     1
102
RTVSPropertyOp58
 70
     1
102
RTVSPropertyOp59
 70
     1
102
RTVSPropertyOp60
 70
     1
102
RTVSPropertyOp61
 70
     1
102
RTVSPropertyOp62
 70
     1
  0
XRECORD
  5
7E620
102
{ACAD_REACTORS
330
7E61F
102
}
330
7E61F
100
AcDbXrecord
280
     1
102
RTVSPost2010Prop28
280
     0
102
RTVSPost2010PropOp28
 70
     1
102
RTVSPost2010Prop29
280
     1
102
RTVSPost2010PropOp29
 70
     1
102
RTVSPost2010Prop30
280
     1
102
RTVSPost2010PropOp30
 70
     1
102
RTVSPost2010Prop31
280
     0
102
RTVSPost2010PropOp31
 70
     1
102
RTVSPost2010Prop32
280
     0
102
RTVSPost2010PropOp32
 70
     1
102
RTVSPost2010Prop33
280
     0
102
RTVSPost2010PropOp33
 70
     1
102
RTVSPost2010Prop34
280
     0
102
RTVSPost2010PropOp34
 70
     1
102
RTVSPost2010Prop35
280
     0
102
RTVSPost2010PropOp35
 70
     1
102
RTVSPost2010Prop36
280
     0
102
RTVSPost2010PropOp36
 70
     1
102
RTVSPost2010Prop37
 90
       50
102
RTVSPost2010PropOp37
 70
     1
102
RTVSPost2010Prop38
140
0.0
102
RTVSPost2010PropOp38
 70
     1
102
RTVSPost2010Prop39
140
1.0
102
RTVSPost2010PropOp39
 70
     1
102
RTVSPost2010Prop40
 90
        0
102
RTVSPost2010PropOp40
 70
     1
102
RTVSPost2010Prop41ColorIndex
 90
       18
102
RTVSPost2010Prop41ColorRGB
 90
-16777216
102
RTVSPost2010PropOp41
 70
     1
102
RTVSPost2010Prop42
 90
       50
102
RTVSPost2010PropOp42
 70
     1
102
RTVSPost2010Prop43
 90
        3
102
RTVSPost2010PropOp43
 70
     1
102
RTVSPost2010Prop44ColorIndex
 90
        5
102
RTVSPost2010Prop44ColorRGB
 90
      255
102
RTVSPost2010PropOp44
 70
     1
102
RTVSPost2010Prop45
280
     0
102
RTVSPost2010PropOp45
 70
     1
102
RTVSPost2010Prop46
 90
       50
102
RTVSPost2010PropOp46
 70
     1
102
RTVSPost2010Prop47
 90
       50
102
RTVSPost2010PropOp47
 70
     1
102
RTVSPost2010Prop48
 90
       50
102
RTVSPost2010PropOp48
 70
     1
102
RTVSPost2010Prop49
280
     0
102
RTVSPost2010PropOp49
 70
     1
102
RTVSPost2010Prop50
 90
       50
102
RTVSPost2010PropOp50
 70
     1
102
RTVSPost2010Prop51ColorIndex
 90
      256
102
RTVSPost2010Prop51ColorRGB
 90
-16777216
102
RTVSPost2010PropOp51
 70
     0
102
RTVSPost2010Prop52
140
1.0
102
RTVSPost2010PropOp52
 70
     0
102
RTVSPost2010Prop53
 90
        2
102
RTVSPost2010PropOp53
 70
     1
102
RTVSPost2010Prop54
  1
strokes_ogs.tif
102
RTVSPost2010PropOp54
 70
     1
102
RTVSPost2010Prop55
280
     0
102
RTVSPost2010PropOp55
 70
     1
102
RTVSPost2010Prop56
140
1.0
102
RTVSPost2010PropOp56
 70
     1
102
RTVSPost2010Prop57
140
1.0
102
RTVSPost2010PropOp57
 70
     1
102
RTVSPropertyOp0
 70
     1
102
RTVSPropertyOp1
 70
     1
102
RTVSPropertyOp2
 70
     1
102
RTVSPropertyOp3
 70
     1
102
RTVSPropertyOp4
 70
     1
102
RTVSPropertyOp5
 70
     1
102
RTVSPropertyOp6
 70
     1
102
RTVSPropertyOp7
 70
     1
102
RTVSPropertyOp8
 70
     1
102
RTVSPropertyOp9
 70
     1
102
RTVSPropertyOp10
 70
     1
102
RTVSPropertyOp11
 70
     1
102
RTVSPropertyOp12
 70
     1
102
RTVSPropertyOp13
 70
     1
102
RTVSPropertyOp14
 70
     1
102
RTVSPropertyOp15
 70
     1
102
RTVSPropertyOp16
 70
     1
102
RTVSPropertyOp17
 70
     1
102
RTVSPropertyOp18
 70
     1
102
RTVSPropertyOp19
 70
     1
102
RTVSPropertyOp20
 70
     1
102
RTVSPropertyOp21
 70
     1
102
RTVSPropertyOp22
 70
     1
102
RTVSPropertyOp23
 70
     1
102
RTVSPropertyOp24
 70
     1
102
RTVSPropertyOp25
 70
     1
102
RTVSPropertyOp26
 70
     1
102
RTVSPropertyOp27
 70
     1
102
RTVSPropertyOp28
 70
     1
102
RTVSPropertyOp29
 70
     1
102
RTVSPropertyOp30
 70
     1
102
RTVSPropertyOp31
 70
     1
102
RTVSPropertyOp32
 70
     1
102
RTVSPropertyOp33
 70
     1
102
RTVSPropertyOp34
 70
     1
102
RTVSPropertyOp35
 70
     1
102
RTVSPropertyOp36
 70
     1
102
RTVSPropertyOp37
 70
     1
102
RTVSPropertyOp38
 70
     1
102
RTVSPropertyOp39
 70
     1
102
RTVSPropertyOp40
 70
     1
102
RTVSPropertyOp41
 70
     1
102
RTVSPropertyOp42
 70
     1
102
RTVSPropertyOp43
 70
     1
102
RTVSPropertyOp44
 70
     1
102
RTVSPropertyOp45
 70
     1
102
RTVSPropertyOp46
 70
     1
102
RTVSPropertyOp47
 70
     1
102
RTVSPropertyOp48
 70
     1
102
RTVSPropertyOp49
 70
     1
102
RTVSPropertyOp50
 70
     1
102
RTVSPropertyOp51
 70
     0
102
RTVSPropertyOp52
 70
     0
102
RTVSPropertyOp53
 70
     1
102
RTVSPropertyOp54
 70
     1
102
RTVSPropertyOp55
 70
     1
102
RTVSPropertyOp56
 70
     1
102
RTVSPropertyOp57
 70
     1
102
RTVSPropertyOp58
 70
     1
102
RTVSPropertyOp59
 70
     1
102
RTVSPropertyOp60
 70
     1
102
RTVSPropertyOp61
 70
     1
102
RTVSPropertyOp62
 70
     1
  0
XRECORD
  5
7E61E
102
{ACAD_REACTORS
330
7E61D
102
}
330
7E61D
100
AcDbXrecord
280
     1
102
RTVSPost2010Prop28
280
     0
102
RTVSPost2010PropOp28
 70
     1
102
RTVSPost2010Prop29
280
     1
102
RTVSPost2010PropOp29
 70
     1
102
RTVSPost2010Prop30
280
     1
102
RTVSPost2010PropOp30
 70
     1
102
RTVSPost2010Prop31
280
     0
102
RTVSPost2010PropOp31
 70
     1
102
RTVSPost2010Prop32
280
     0
102
RTVSPost2010PropOp32
 70
     1
102
RTVSPost2010Prop33
280
     0
102
RTVSPost2010PropOp33
 70
     1
102
RTVSPost2010Prop34
280
     0
102
RTVSPost2010PropOp34
 70
     1
102
RTVSPost2010Prop35
280
     0
102
RTVSPost2010PropOp35
 70
     1
102
RTVSPost2010Prop36
280
     0
102
RTVSPost2010PropOp36
 70
     1
102
RTVSPost2010Prop37
 90
       50
102
RTVSPost2010PropOp37
 70
     1
102
RTVSPost2010Prop38
140
0.0
102
RTVSPost2010PropOp38
 70
     1
102
RTVSPost2010Prop39
140
1.0
102
RTVSPost2010PropOp39
 70
     1
102
RTVSPost2010Prop40
 90
        0
102
RTVSPost2010PropOp40
 70
     1
102
RTVSPost2010Prop41ColorIndex
 90
       18
102
RTVSPost2010Prop41ColorRGB
 90
-16777216
102
RTVSPost2010PropOp41
 70
     1
102
RTVSPost2010Prop42
 90
       50
102
RTVSPost2010PropOp42
 70
     1
102
RTVSPost2010Prop43
 90
        3
102
RTVSPost2010PropOp43
 70
     1
102
RTVSPost2010Prop44ColorIndex
 90
        5
102
RTVSPost2010Prop44ColorRGB
 90
      255
102
RTVSPost2010PropOp44
 70
     1
102
RTVSPost2010Prop45
280
     0
102
RTVSPost2010PropOp45
 70
     1
102
RTVSPost2010Prop46
 90
       50
102
RTVSPost2010PropOp46
 70
     1
102
RTVSPost2010Prop47
 90
       50
102
RTVSPost2010PropOp47
 70
     1
102
RTVSPost2010Prop48
 90
       50
102
RTVSPost2010PropOp48
 70
     1
102
RTVSPost2010Prop49
280
     0
102
RTVSPost2010PropOp49
 70
     1
102
RTVSPost2010Prop50
 90
       50
102
RTVSPost2010PropOp50
 70
     1
102
RTVSPost2010Prop51ColorIndex
 90
      256
102
RTVSPost2010Prop51ColorRGB
 90
-16777216
102
RTVSPost2010PropOp51
 70
     0
102
RTVSPost2010Prop52
140
1.0
102
RTVSPost2010PropOp52
 70
     0
102
RTVSPost2010Prop53
 90
        2
102
RTVSPost2010PropOp53
 70
     1
102
RTVSPost2010Prop54
  1
strokes_ogs.tif
102
RTVSPost2010PropOp54
 70
     1
102
RTVSPost2010Prop55
280
     0
102
RTVSPost2010PropOp55
 70
     1
102
RTVSPost2010Prop56
140
1.0
102
RTVSPost2010PropOp56
 70
     1
102
RTVSPost2010Prop57
140
1.0
102
RTVSPost2010PropOp57
 70
     1
102
RTVSPropertyOp0
 70
     1
102
RTVSPropertyOp1
 70
     1
102
RTVSPropertyOp2
 70
     1
102
RTVSPropertyOp3
 70
     1
102
RTVSPropertyOp4
 70
     1
102
RTVSPropertyOp5
 70
     1
102
RTVSPropertyOp6
 70
     1
102
RTVSPropertyOp7
 70
     1
102
RTVSPropertyOp8
 70
     1
102
RTVSPropertyOp9
 70
     1
102
RTVSPropertyOp10
 70
     1
102
RTVSPropertyOp11
 70
     1
102
RTVSPropertyOp12
 70
     1
102
RTVSPropertyOp13
 70
     1
102
RTVSPropertyOp14
 70
     1
102
RTVSPropertyOp15
 70
     1
102
RTVSPropertyOp16
 70
     1
102
RTVSPropertyOp17
 70
     1
102
RTVSPropertyOp18
 70
     1
102
RTVSPropertyOp19
 70
     1
102
RTVSPropertyOp20
 70
     1
102
RTVSPropertyOp21
 70
     1
102
RTVSPropertyOp22
 70
     1
102
RTVSPropertyOp23
 70
     1
102
RTVSPropertyOp24
 70
     1
102
RTVSPropertyOp25
 70
     1
102
RTVSPropertyOp26
 70
     1
102
RTVSPropertyOp27
 70
     1
102
RTVSPropertyOp28
 70
     1
102
RTVSPropertyOp29
 70
     1
102
RTVSPropertyOp30
 70
     1
102
RTVSPropertyOp31
 70
     1
102
RTVSPropertyOp32
 70
     1
102
RTVSPropertyOp33
 70
     1
102
RTVSPropertyOp34
 70
     1
102
RTVSPropertyOp35
 70
     1
102
RTVSPropertyOp36
 70
     1
102
RTVSPropertyOp37
 70
     1
102
RTVSPropertyOp38
 70
     1
102
RTVSPropertyOp39
 70
     1
102
RTVSPropertyOp40
 70
     1
102
RTVSPropertyOp41
 70
     1
102
RTVSPropertyOp42
 70
     1
102
RTVSPropertyOp43
 70
     1
102
RTVSPropertyOp44
 70
     1
102
RTVSPropertyOp45
 70
     1
102
RTVSPropertyOp46
 70
     1
102
RTVSPropertyOp47
 70
     1
102
RTVSPropertyOp48
 70
     1
102
RTVSPropertyOp49
 70
     1
102
RTVSPropertyOp50
 70
     1
102
RTVSPropertyOp51
 70
     0
102
RTVSPropertyOp52
 70
     0
102
RTVSPropertyOp53
 70
     1
102
RTVSPropertyOp54
 70
     1
102
RTVSPropertyOp55
 70
     1
102
RTVSPropertyOp56
 70
     1
102
RTVSPropertyOp57
 70
     1
102
RTVSPropertyOp58
 70
     1
102
RTVSPropertyOp59
 70
     1
102
RTVSPropertyOp60
 70
     1
102
RTVSPropertyOp61
 70
     1
102
RTVSPropertyOp62
 70
     1
  0
XRECORD
  5
7E618
102
{ACAD_REACTORS
330
7E617
102
}
330
7E617
100
AcDbXrecord
280
     1
102
RTVSPost2010Prop28
280
     0
102
RTVSPost2010PropOp28
 70
     1
102
RTVSPost2010Prop29
280
     1
102
RTVSPost2010PropOp29
 70
     1
102
RTVSPost2010Prop30
280
     1
102
RTVSPost2010PropOp30
 70
     1
102
RTVSPost2010Prop31
280
     0
102
RTVSPost2010PropOp31
 70
     1
102
RTVSPost2010Prop32
280
     0
102
RTVSPost2010PropOp32
 70
     1
102
RTVSPost2010Prop33
280
     0
102
RTVSPost2010PropOp33
 70
     1
102
RTVSPost2010Prop34
280
     0
102
RTVSPost2010PropOp34
 70
     1
102
RTVSPost2010Prop35
280
     0
102
RTVSPost2010PropOp35
 70
     1
102
RTVSPost2010Prop36
280
     0
102
RTVSPost2010PropOp36
 70
     1
102
RTVSPost2010Prop37
 90
       50
102
RTVSPost2010PropOp37
 70
     1
102
RTVSPost2010Prop38
140
0.0
102
RTVSPost2010PropOp38
 70
     1
102
RTVSPost2010Prop39
140
1.0
102
RTVSPost2010PropOp39
 70
     1
102
RTVSPost2010Prop40
 90
        0
102
RTVSPost2010PropOp40
 70
     1
102
RTVSPost2010Prop41ColorIndex
 90
       18
102
RTVSPost2010Prop41ColorRGB
 90
-16777216
102
RTVSPost2010PropOp41
 70
     1
102
RTVSPost2010Prop42
 90
       50
102
RTVSPost2010PropOp42
 70
     1
102
RTVSPost2010Prop43
 90
        3
102
RTVSPost2010PropOp43
 70
     1
102
RTVSPost2010Prop44ColorIndex
 90
        5
102
RTVSPost2010Prop44ColorRGB
 90
      255
102
RTVSPost2010PropOp44
 70
     1
102
RTVSPost2010Prop45
280
     0
102
RTVSPost2010PropOp45
 70
     1
102
RTVSPost2010Prop46
 90
       50
102
RTVSPost2010PropOp46
 70
     1
102
RTVSPost2010Prop47
 90
       50
102
RTVSPost2010PropOp47
 70
     1
102
RTVSPost2010Prop48
 90
       50
102
RTVSPost2010PropOp48
 70
     1
102
RTVSPost2010Prop49
280
     0
102
RTVSPost2010PropOp49
 70
     1
102
RTVSPost2010Prop50
 90
       50
102
RTVSPost2010PropOp50
 70
     1
102
RTVSPost2010Prop51ColorIndex
 90
      256
102
RTVSPost2010Prop51ColorRGB
 90
-16777216
102
RTVSPost2010PropOp51
 70
     0
102
RTVSPost2010Prop52
140
1.0
102
RTVSPost2010PropOp52
 70
     0
102
RTVSPost2010Prop53
 90
        2
102
RTVSPost2010PropOp53
 70
     1
102
RTVSPost2010Prop54
  1
strokes_ogs.tif
102
RTVSPost2010PropOp54
 70
     1
102
RTVSPost2010Prop55
280
     0
102
RTVSPost2010PropOp55
 70
     1
102
RTVSPost2010Prop56
140
1.0
102
RTVSPost2010PropOp56
 70
     1
102
RTVSPost2010Prop57
140
1.0
102
RTVSPost2010PropOp57
 70
     1
102
RTVSPropertyOp0
 70
     1
102
RTVSPropertyOp1
 70
     1
102
RTVSPropertyOp2
 70
     1
102
RTVSPropertyOp3
 70
     1
102
RTVSPropertyOp4
 70
     1
102
RTVSPropertyOp5
 70
     1
102
RTVSPropertyOp6
 70
     1
102
RTVSPropertyOp7
 70
     1
102
RTVSPropertyOp8
 70
     1
102
RTVSPropertyOp9
 70
     1
102
RTVSPropertyOp10
 70
     1
102
RTVSPropertyOp11
 70
     1
102
RTVSPropertyOp12
 70
     1
102
RTVSPropertyOp13
 70
     1
102
RTVSPropertyOp14
 70
     1
102
RTVSPropertyOp15
 70
     1
102
RTVSPropertyOp16
 70
     1
102
RTVSPropertyOp17
 70
     1
102
RTVSPropertyOp18
 70
     1
102
RTVSPropertyOp19
 70
     1
102
RTVSPropertyOp20
 70
     1
102
RTVSPropertyOp21
 70
     1
102
RTVSPropertyOp22
 70
     1
102
RTVSPropertyOp23
 70
     1
102
RTVSPropertyOp24
 70
     1
102
RTVSPropertyOp25
 70
     1
102
RTVSPropertyOp26
 70
     1
102
RTVSPropertyOp27
 70
     1
102
RTVSPropertyOp28
 70
     1
102
RTVSPropertyOp29
 70
     1
102
RTVSPropertyOp30
 70
     1
102
RTVSPropertyOp31
 70
     1
102
RTVSPropertyOp32
 70
     1
102
RTVSPropertyOp33
 70
     1
102
RTVSPropertyOp34
 70
     1
102
RTVSPropertyOp35
 70
     1
102
RTVSPropertyOp36
 70
     1
102
RTVSPropertyOp37
 70
     1
102
RTVSPropertyOp38
 70
     1
102
RTVSPropertyOp39
 70
     1
102
RTVSPropertyOp40
 70
     1
102
RTVSPropertyOp41
 70
     1
102
RTVSPropertyOp42
 70
     1
102
RTVSPropertyOp43
 70
     1
102
RTVSPropertyOp44
 70
     1
102
RTVSPropertyOp45
 70
     1
102
RTVSPropertyOp46
 70
     1
102
RTVSPropertyOp47
 70
     1
102
RTVSPropertyOp48
 70
     1
102
RTVSPropertyOp49
 70
     1
102
RTVSPropertyOp50
 70
     1
102
RTVSPropertyOp51
 70
     0
102
RTVSPropertyOp52
 70
     0
102
RTVSPropertyOp53
 70
     1
102
RTVSPropertyOp54
 70
     1
102
RTVSPropertyOp55
 70
     1
102
RTVSPropertyOp56
 70
     1
102
RTVSPropertyOp57
 70
     1
102
RTVSPropertyOp58
 70
     1
102
RTVSPropertyOp59
 70
     1
102
RTVSPropertyOp60
 70
     1
102
RTVSPropertyOp61
 70
     1
102
RTVSPropertyOp62
 70
     1
  0
XRECORD
  5
7E61A
102
{ACAD_REACTORS
330
7E619
102
}
330
7E619
100
AcDbXrecord
280
     1
102
RTVSPost2010Prop28
280
     0
102
RTVSPost2010PropOp28
 70
     1
102
RTVSPost2010Prop29
280
     1
102
RTVSPost2010PropOp29
 70
     1
102
RTVSPost2010Prop30
280
     1
102
RTVSPost2010PropOp30
 70
     1
102
RTVSPost2010Prop31
280
     0
102
RTVSPost2010PropOp31
 70
     1
102
RTVSPost2010Prop32
280
     0
102
RTVSPost2010PropOp32
 70
     1
102
RTVSPost2010Prop33
280
     0
102
RTVSPost2010PropOp33
 70
     1
102
RTVSPost2010Prop34
280
     0
102
RTVSPost2010PropOp34
 70
     1
102
RTVSPost2010Prop35
280
     0
102
RTVSPost2010PropOp35
 70
     1
102
RTVSPost2010Prop36
280
     0
102
RTVSPost2010PropOp36
 70
     1
102
RTVSPost2010Prop37
 90
       50
102
RTVSPost2010PropOp37
 70
     1
102
RTVSPost2010Prop38
140
0.0
102
RTVSPost2010PropOp38
 70
     1
102
RTVSPost2010Prop39
140
1.0
102
RTVSPost2010PropOp39
 70
     1
102
RTVSPost2010Prop40
 90
        0
102
RTVSPost2010PropOp40
 70
     1
102
RTVSPost2010Prop41ColorIndex
 90
       18
102
RTVSPost2010Prop41ColorRGB
 90
-16777216
102
RTVSPost2010PropOp41
 70
     1
102
RTVSPost2010Prop42
 90
       50
102
RTVSPost2010PropOp42
 70
     1
102
RTVSPost2010Prop43
 90
        3
102
RTVSPost2010PropOp43
 70
     1
102
RTVSPost2010Prop44ColorIndex
 90
        5
102
RTVSPost2010Prop44ColorRGB
 90
      255
102
RTVSPost2010PropOp44
 70
     1
102
RTVSPost2010Prop45
280
     0
102
RTVSPost2010PropOp45
 70
     1
102
RTVSPost2010Prop46
 90
       50
102
RTVSPost2010PropOp46
 70
     1
102
RTVSPost2010Prop47
 90
       50
102
RTVSPost2010PropOp47
 70
     1
102
RTVSPost2010Prop48
 90
       50
102
RTVSPost2010PropOp48
 70
     1
102
RTVSPost2010Prop49
280
     0
102
RTVSPost2010PropOp49
 70
     1
102
RTVSPost2010Prop50
 90
       50
102
RTVSPost2010PropOp50
 70
     1
102
RTVSPost2010Prop51ColorIndex
 90
      256
102
RTVSPost2010Prop51ColorRGB
 90
-16777216
102
RTVSPost2010PropOp51
 70
     0
102
RTVSPost2010Prop52
140
1.0
102
RTVSPost2010PropOp52
 70
     0
102
RTVSPost2010Prop53
 90
        2
102
RTVSPost2010PropOp53
 70
     1
102
RTVSPost2010Prop54
  1
strokes_ogs.tif
102
RTVSPost2010PropOp54
 70
     1
102
RTVSPost2010Prop55
280
     0
102
RTVSPost2010PropOp55
 70
     1
102
RTVSPost2010Prop56
140
1.0
102
RTVSPost2010PropOp56
 70
     1
102
RTVSPost2010Prop57
140
1.0
102
RTVSPost2010PropOp57
 70
     1
102
RTVSPropertyOp0
 70
     1
102
RTVSPropertyOp1
 70
     1
102
RTVSPropertyOp2
 70
     1
102
RTVSPropertyOp3
 70
     1
102
RTVSPropertyOp4
 70
     1
102
RTVSPropertyOp5
 70
     1
102
RTVSPropertyOp6
 70
     1
102
RTVSPropertyOp7
 70
     1
102
RTVSPropertyOp8
 70
     1
102
RTVSPropertyOp9
 70
     1
102
RTVSPropertyOp10
 70
     1
102
RTVSPropertyOp11
 70
     1
102
RTVSPropertyOp12
 70
     1
102
RTVSPropertyOp13
 70
     1
102
RTVSPropertyOp14
 70
     1
102
RTVSPropertyOp15
 70
     1
102
RTVSPropertyOp16
 70
     1
102
RTVSPropertyOp17
 70
     1
102
RTVSPropertyOp18
 70
     1
102
RTVSPropertyOp19
 70
     1
102
RTVSPropertyOp20
 70
     1
102
RTVSPropertyOp21
 70
     1
102
RTVSPropertyOp22
 70
     1
102
RTVSPropertyOp23
 70
     1
102
RTVSPropertyOp24
 70
     1
102
RTVSPropertyOp25
 70
     1
102
RTVSPropertyOp26
 70
     1
102
RTVSPropertyOp27
 70
     1
102
RTVSPropertyOp28
 70
     1
102
RTVSPropertyOp29
 70
     1
102
RTVSPropertyOp30
 70
     1
102
RTVSPropertyOp31
 70
     1
102
RTVSPropertyOp32
 70
     1
102
RTVSPropertyOp33
 70
     1
102
RTVSPropertyOp34
 70
     1
102
RTVSPropertyOp35
 70
     1
102
RTVSPropertyOp36
 70
     1
102
RTVSPropertyOp37
 70
     1
102
RTVSPropertyOp38
 70
     1
102
RTVSPropertyOp39
 70
     1
102
RTVSPropertyOp40
 70
     1
102
RTVSPropertyOp41
 70
     1
102
RTVSPropertyOp42
 70
     1
102
RTVSPropertyOp43
 70
     1
102
RTVSPropertyOp44
 70
     1
102
RTVSPropertyOp45
 70
     1
102
RTVSPropertyOp46
 70
     1
102
RTVSPropertyOp47
 70
     1
102
RTVSPropertyOp48
 70
     1
102
RTVSPropertyOp49
 70
     1
102
RTVSPropertyOp50
 70
     1
102
RTVSPropertyOp51
 70
     0
102
RTVSPropertyOp52
 70
     0
102
RTVSPropertyOp53
 70
     1
102
RTVSPropertyOp54
 70
     1
102
RTVSPropertyOp55
 70
     1
102
RTVSPropertyOp56
 70
     1
102
RTVSPropertyOp57
 70
     1
102
RTVSPropertyOp58
 70
     1
102
RTVSPropertyOp59
 70
     1
102
RTVSPropertyOp60
 70
     1
102
RTVSPropertyOp61
 70
     1
102
RTVSPropertyOp62
 70
     1
  0
XRECORD
  5
7E60B
102
{ACAD_REACTORS
330
7E60A
102
}
330
7E60A
100
AcDbXrecord
280
     1
102
RTVSPost2010Prop28
280
     0
102
RTVSPost2010PropOp28
 70
     1
102
RTVSPost2010Prop29
280
     1
102
RTVSPost2010PropOp29
 70
     1
102
RTVSPost2010Prop30
280
     1
102
RTVSPost2010PropOp30
 70
     1
102
RTVSPost2010Prop31
280
     0
102
RTVSPost2010PropOp31
 70
     1
102
RTVSPost2010Prop32
280
     0
102
RTVSPost2010PropOp32
 70
     1
102
RTVSPost2010Prop33
280
     0
102
RTVSPost2010PropOp33
 70
     1
102
RTVSPost2010Prop34
280
     0
102
RTVSPost2010PropOp34
 70
     1
102
RTVSPost2010Prop35
280
     0
102
RTVSPost2010PropOp35
 70
     1
102
RTVSPost2010Prop36
280
     0
102
RTVSPost2010PropOp36
 70
     1
102
RTVSPost2010Prop37
 90
       50
102
RTVSPost2010PropOp37
 70
     1
102
RTVSPost2010Prop38
140
0.0
102
RTVSPost2010PropOp38
 70
     1
102
RTVSPost2010Prop39
140
1.0
102
RTVSPost2010PropOp39
 70
     1
102
RTVSPost2010Prop40
 90
        0
102
RTVSPost2010PropOp40
 70
     1
102
RTVSPost2010Prop41ColorIndex
 90
       18
102
RTVSPost2010Prop41ColorRGB
 90
-16777216
102
RTVSPost2010PropOp41
 70
     1
102
RTVSPost2010Prop42
 90
       50
102
RTVSPost2010PropOp42
 70
     1
102
RTVSPost2010Prop43
 90
        3
102
RTVSPost2010PropOp43
 70
     1
102
RTVSPost2010Prop44ColorIndex
 90
        5
102
RTVSPost2010Prop44ColorRGB
 90
      255
102
RTVSPost2010PropOp44
 70
     1
102
RTVSPost2010Prop45
280
     0
102
RTVSPost2010PropOp45
 70
     1
102
RTVSPost2010Prop46
 90
       50
102
RTVSPost2010PropOp46
 70
     1
102
RTVSPost2010Prop47
 90
       50
102
RTVSPost2010PropOp47
 70
     1
102
RTVSPost2010Prop48
 90
       50
102
RTVSPost2010PropOp48
 70
     1
102
RTVSPost2010Prop49
280
     0
102
RTVSPost2010PropOp49
 70
     1
102
RTVSPost2010Prop50
 90
       50
102
RTVSPost2010PropOp50
 70
     1
102
RTVSPost2010Prop51ColorIndex
 90
      256
102
RTVSPost2010Prop51ColorRGB
 90
-16777216
102
RTVSPost2010PropOp51
 70
     0
102
RTVSPost2010Prop52
140
1.0
102
RTVSPost2010PropOp52
 70
     0
102
RTVSPost2010Prop53
 90
        2
102
RTVSPost2010PropOp53
 70
     1
102
RTVSPost2010Prop54
  1
strokes_ogs.tif
102
RTVSPost2010PropOp54
 70
     1
102
RTVSPost2010Prop55
280
     0
102
RTVSPost2010PropOp55
 70
     1
102
RTVSPost2010Prop56
140
1.0
102
RTVSPost2010PropOp56
 70
     1
102
RTVSPost2010Prop57
140
1.0
102
RTVSPost2010PropOp57
 70
     1
102
RTVSPropertyOp0
 70
     1
102
RTVSPropertyOp1
 70
     1
102
RTVSPropertyOp2
 70
     1
102
RTVSPropertyOp3
 70
     1
102
RTVSPropertyOp4
 70
     1
102
RTVSPropertyOp5
 70
     1
102
RTVSPropertyOp6
 70
     1
102
RTVSPropertyOp7
 70
     1
102
RTVSPropertyOp8
 70
     1
102
RTVSPropertyOp9
 70
     1
102
RTVSPropertyOp10
 70
     1
102
RTVSPropertyOp11
 70
     1
102
RTVSPropertyOp12
 70
     1
102
RTVSPropertyOp13
 70
     1
102
RTVSPropertyOp14
 70
     1
102
RTVSPropertyOp15
 70
     1
102
RTVSPropertyOp16
 70
     1
102
RTVSPropertyOp17
 70
     1
102
RTVSPropertyOp18
 70
     1
102
RTVSPropertyOp19
 70
     1
102
RTVSPropertyOp20
 70
     1
102
RTVSPropertyOp21
 70
     1
102
RTVSPropertyOp22
 70
     1
102
RTVSPropertyOp23
 70
     1
102
RTVSPropertyOp24
 70
     1
102
RTVSPropertyOp25
 70
     1
102
RTVSPropertyOp26
 70
     1
102
RTVSPropertyOp27
 70
     1
102
RTVSPropertyOp28
 70
     1
102
RTVSPropertyOp29
 70
     1
102
RTVSPropertyOp30
 70
     1
102
RTVSPropertyOp31
 70
     1
102
RTVSPropertyOp32
 70
     1
102
RTVSPropertyOp33
 70
     1
102
RTVSPropertyOp34
 70
     1
102
RTVSPropertyOp35
 70
     1
102
RTVSPropertyOp36
 70
     1
102
RTVSPropertyOp37
 70
     1
102
RTVSPropertyOp38
 70
     1
102
RTVSPropertyOp39
 70
     1
102
RTVSPropertyOp40
 70
     1
102
RTVSPropertyOp41
 70
     1
102
RTVSPropertyOp42
 70
     1
102
RTVSPropertyOp43
 70
     1
102
RTVSPropertyOp44
 70
     1
102
RTVSPropertyOp45
 70
     1
102
RTVSPropertyOp46
 70
     1
102
RTVSPropertyOp47
 70
     1
102
RTVSPropertyOp48
 70
     1
102
RTVSPropertyOp49
 70
     1
102
RTVSPropertyOp50
 70
     1
102
RTVSPropertyOp51
 70
     0
102
RTVSPropertyOp52
 70
     0
102
RTVSPropertyOp53
 70
     1
102
RTVSPropertyOp54
 70
     1
102
RTVSPropertyOp55
 70
     1
102
RTVSPropertyOp56
 70
     1
102
RTVSPropertyOp57
 70
     1
102
RTVSPropertyOp58
 70
     1
102
RTVSPropertyOp59
 70
     1
102
RTVSPropertyOp60
 70
     1
102
RTVSPropertyOp61
 70
     1
102
RTVSPropertyOp62
 70
     1
  0
XRECORD
  5
7E614
102
{ACAD_REACTORS
330
7E613
102
}
330
7E613
100
AcDbXrecord
280
     1
102
RTVSPost2010Prop28
280
     0
102
RTVSPost2010PropOp28
 70
     1
102
RTVSPost2010Prop29
280
     1
102
RTVSPost2010PropOp29
 70
     1
102
RTVSPost2010Prop30
280
     1
102
RTVSPost2010PropOp30
 70
     1
102
RTVSPost2010Prop31
280
     0
102
RTVSPost2010PropOp31
 70
     1
102
RTVSPost2010Prop32
280
     0
102
RTVSPost2010PropOp32
 70
     1
102
RTVSPost2010Prop33
280
     0
102
RTVSPost2010PropOp33
 70
     1
102
RTVSPost2010Prop34
280
     0
102
RTVSPost2010PropOp34
 70
     1
102
RTVSPost2010Prop35
280
     0
102
RTVSPost2010PropOp35
 70
     1
102
RTVSPost2010Prop36
280
     0
102
RTVSPost2010PropOp36
 70
     1
102
RTVSPost2010Prop37
 90
       50
102
RTVSPost2010PropOp37
 70
     1
102
RTVSPost2010Prop38
140
0.0
102
RTVSPost2010PropOp38
 70
     1
102
RTVSPost2010Prop39
140
1.0
102
RTVSPost2010PropOp39
 70
     1
102
RTVSPost2010Prop40
 90
        0
102
RTVSPost2010PropOp40
 70
     1
102
RTVSPost2010Prop41ColorIndex
 90
       18
102
RTVSPost2010Prop41ColorRGB
 90
-16777216
102
RTVSPost2010PropOp41
 70
     1
102
RTVSPost2010Prop42
 90
       50
102
RTVSPost2010PropOp42
 70
     1
102
RTVSPost2010Prop43
 90
        3
102
RTVSPost2010PropOp43
 70
     1
102
RTVSPost2010Prop44ColorIndex
 90
        5
102
RTVSPost2010Prop44ColorRGB
 90
      255
102
RTVSPost2010PropOp44
 70
     1
102
RTVSPost2010Prop45
280
     0
102
RTVSPost2010PropOp45
 70
     1
102
RTVSPost2010Prop46
 90
       50
102
RTVSPost2010PropOp46
 70
     1
102
RTVSPost2010Prop47
 90
       50
102
RTVSPost2010PropOp47
 70
     1
102
RTVSPost2010Prop48
 90
       50
102
RTVSPost2010PropOp48
 70
     1
102
RTVSPost2010Prop49
280
     0
102
RTVSPost2010PropOp49
 70
     1
102
RTVSPost2010Prop50
 90
       50
102
RTVSPost2010PropOp50
 70
     1
102
RTVSPost2010Prop51ColorIndex
 90
      256
102
RTVSPost2010Prop51ColorRGB
 90
-16777216
102
RTVSPost2010PropOp51
 70
     0
102
RTVSPost2010Prop52
140
1.0
102
RTVSPost2010PropOp52
 70
     0
102
RTVSPost2010Prop53
 90
        2
102
RTVSPost2010PropOp53
 70
     1
102
RTVSPost2010Prop54
  1
strokes_ogs.tif
102
RTVSPost2010PropOp54
 70
     1
102
RTVSPost2010Prop55
280
     0
102
RTVSPost2010PropOp55
 70
     1
102
RTVSPost2010Prop56
140
1.0
102
RTVSPost2010PropOp56
 70
     1
102
RTVSPost2010Prop57
140
1.0
102
RTVSPost2010PropOp57
 70
     1
102
RTVSPropertyOp0
 70
     1
102
RTVSPropertyOp1
 70
     1
102
RTVSPropertyOp2
 70
     1
102
RTVSPropertyOp3
 70
     1
102
RTVSPropertyOp4
 70
     1
102
RTVSPropertyOp5
 70
     1
102
RTVSPropertyOp6
 70
     1
102
RTVSPropertyOp7
 70
     1
102
RTVSPropertyOp8
 70
     1
102
RTVSPropertyOp9
 70
     1
102
RTVSPropertyOp10
 70
     1
102
RTVSPropertyOp11
 70
     1
102
RTVSPropertyOp12
 70
     1
102
RTVSPropertyOp13
 70
     1
102
RTVSPropertyOp14
 70
     1
102
RTVSPropertyOp15
 70
     1
102
RTVSPropertyOp16
 70
     1
102
RTVSPropertyOp17
 70
     1
102
RTVSPropertyOp18
 70
     1
102
RTVSPropertyOp19
 70
     1
102
RTVSPropertyOp20
 70
     1
102
RTVSPropertyOp21
 70
     1
102
RTVSPropertyOp22
 70
     1
102
RTVSPropertyOp23
 70
     1
102
RTVSPropertyOp24
 70
     1
102
RTVSPropertyOp25
 70
     1
102
RTVSPropertyOp26
 70
     1
102
RTVSPropertyOp27
 70
     1
102
RTVSPropertyOp28
 70
     1
102
RTVSPropertyOp29
 70
     1
102
RTVSPropertyOp30
 70
     1
102
RTVSPropertyOp31
 70
     1
102
RTVSPropertyOp32
 70
     1
102
RTVSPropertyOp33
 70
     1
102
RTVSPropertyOp34
 70
     1
102
RTVSPropertyOp35
 70
     1
102
RTVSPropertyOp36
 70
     1
102
RTVSPropertyOp37
 70
     1
102
RTVSPropertyOp38
 70
     1
102
RTVSPropertyOp39
 70
     1
102
RTVSPropertyOp40
 70
     1
102
RTVSPropertyOp41
 70
     1
102
RTVSPropertyOp42
 70
     1
102
RTVSPropertyOp43
 70
     1
102
RTVSPropertyOp44
 70
     1
102
RTVSPropertyOp45
 70
     1
102
RTVSPropertyOp46
 70
     1
102
RTVSPropertyOp47
 70
     1
102
RTVSPropertyOp48
 70
     1
102
RTVSPropertyOp49
 70
     1
102
RTVSPropertyOp50
 70
     1
102
RTVSPropertyOp51
 70
     0
102
RTVSPropertyOp52
 70
     0
102
RTVSPropertyOp53
 70
     1
102
RTVSPropertyOp54
 70
     1
102
RTVSPropertyOp55
 70
     1
102
RTVSPropertyOp56
 70
     1
102
RTVSPropertyOp57
 70
     1
102
RTVSPropertyOp58
 70
     1
102
RTVSPropertyOp59
 70
     1
102
RTVSPropertyOp60
 70
     1
102
RTVSPropertyOp61
 70
     1
102
RTVSPropertyOp62
 70
     1
  0
XRECORD
  5
7E61C
102
{ACAD_REACTORS
330
7E61B
102
}
330
7E61B
100
AcDbXrecord
280
     1
102
RTVSPost2010Prop28
280
     0
102
RTVSPost2010PropOp28
 70
     1
102
RTVSPost2010Prop29
280
     1
102
RTVSPost2010PropOp29
 70
     1
102
RTVSPost2010Prop30
280
     1
102
RTVSPost2010PropOp30
 70
     1
102
RTVSPost2010Prop31
280
     0
102
RTVSPost2010PropOp31
 70
     1
102
RTVSPost2010Prop32
280
     0
102
RTVSPost2010PropOp32
 70
     1
102
RTVSPost2010Prop33
280
     0
102
RTVSPost2010PropOp33
 70
     1
102
RTVSPost2010Prop34
280
     0
102
RTVSPost2010PropOp34
 70
     1
102
RTVSPost2010Prop35
280
     0
102
RTVSPost2010PropOp35
 70
     1
102
RTVSPost2010Prop36
280
     0
102
RTVSPost2010PropOp36
 70
     1
102
RTVSPost2010Prop37
 90
       50
102
RTVSPost2010PropOp37
 70
     1
102
RTVSPost2010Prop38
140
0.0
102
RTVSPost2010PropOp38
 70
     1
102
RTVSPost2010Prop39
140
1.0
102
RTVSPost2010PropOp39
 70
     1
102
RTVSPost2010Prop40
 90
        0
102
RTVSPost2010PropOp40
 70
     1
102
RTVSPost2010Prop41ColorIndex
 90
       18
102
RTVSPost2010Prop41ColorRGB
 90
-16777216
102
RTVSPost2010PropOp41
 70
     1
102
RTVSPost2010Prop42
 90
       50
102
RTVSPost2010PropOp42
 70
     1
102
RTVSPost2010Prop43
 90
        3
102
RTVSPost2010PropOp43
 70
     1
102
RTVSPost2010Prop44ColorIndex
 90
        5
102
RTVSPost2010Prop44ColorRGB
 90
      255
102
RTVSPost2010PropOp44
 70
     1
102
RTVSPost2010Prop45
280
     0
102
RTVSPost2010PropOp45
 70
     1
102
RTVSPost2010Prop46
 90
       50
102
RTVSPost2010PropOp46
 70
     1
102
RTVSPost2010Prop47
 90
       50
102
RTVSPost2010PropOp47
 70
     1
102
RTVSPost2010Prop48
 90
       50
102
RTVSPost2010PropOp48
 70
     1
102
RTVSPost2010Prop49
280
     0
102
RTVSPost2010PropOp49
 70
     1
102
RTVSPost2010Prop50
 90
       50
102
RTVSPost2010PropOp50
 70
     1
102
RTVSPost2010Prop51ColorIndex
 90
      256
102
RTVSPost2010Prop51ColorRGB
 90
-16777216
102
RTVSPost2010PropOp51
 70
     0
102
RTVSPost2010Prop52
140
1.0
102
RTVSPost2010PropOp52
 70
     0
102
RTVSPost2010Prop53
 90
        2
102
RTVSPost2010PropOp53
 70
     1
102
RTVSPost2010Prop54
  1
strokes_ogs.tif
102
RTVSPost2010PropOp54
 70
     1
102
RTVSPost2010Prop55
280
     0
102
RTVSPost2010PropOp55
 70
     1
102
RTVSPost2010Prop56
140
1.0
102
RTVSPost2010PropOp56
 70
     1
102
RTVSPost2010Prop57
140
1.0
102
RTVSPost2010PropOp57
 70
     1
102
RTVSPropertyOp0
 70
     1
102
RTVSPropertyOp1
 70
     1
102
RTVSPropertyOp2
 70
     1
102
RTVSPropertyOp3
 70
     1
102
RTVSPropertyOp4
 70
     1
102
RTVSPropertyOp5
 70
     1
102
RTVSPropertyOp6
 70
     1
102
RTVSPropertyOp7
 70
     1
102
RTVSPropertyOp8
 70
     1
102
RTVSPropertyOp9
 70
     1
102
RTVSPropertyOp10
 70
     1
102
RTVSPropertyOp11
 70
     1
102
RTVSPropertyOp12
 70
     1
102
RTVSPropertyOp13
 70
     1
102
RTVSPropertyOp14
 70
     1
102
RTVSPropertyOp15
 70
     1
102
RTVSPropertyOp16
 70
     1
102
RTVSPropertyOp17
 70
     1
102
RTVSPropertyOp18
 70
     1
102
RTVSPropertyOp19
 70
     1
102
RTVSPropertyOp20
 70
     1
102
RTVSPropertyOp21
 70
     1
102
RTVSPropertyOp22
 70
     1
102
RTVSPropertyOp23
 70
     1
102
RTVSPropertyOp24
 70
     1
102
RTVSPropertyOp25
 70
     1
102
RTVSPropertyOp26
 70
     1
102
RTVSPropertyOp27
 70
     1
102
RTVSPropertyOp28
 70
     1
102
RTVSPropertyOp29
 70
     1
102
RTVSPropertyOp30
 70
     1
102
RTVSPropertyOp31
 70
     1
102
RTVSPropertyOp32
 70
     1
102
RTVSPropertyOp33
 70
     1
102
RTVSPropertyOp34
 70
     1
102
RTVSPropertyOp35
 70
     1
102
RTVSPropertyOp36
 70
     1
102
RTVSPropertyOp37
 70
     1
102
RTVSPropertyOp38
 70
     1
102
RTVSPropertyOp39
 70
     1
102
RTVSPropertyOp40
 70
     1
102
RTVSPropertyOp41
 70
     1
102
RTVSPropertyOp42
 70
     1
102
RTVSPropertyOp43
 70
     1
102
RTVSPropertyOp44
 70
     1
102
RTVSPropertyOp45
 70
     1
102
RTVSPropertyOp46
 70
     1
102
RTVSPropertyOp47
 70
     1
102
RTVSPropertyOp48
 70
     1
102
RTVSPropertyOp49
 70
     1
102
RTVSPropertyOp50
 70
     1
102
RTVSPropertyOp51
 70
     0
102
RTVSPropertyOp52
 70
     0
102
RTVSPropertyOp53
 70
     1
102
RTVSPropertyOp54
 70
     1
102
RTVSPropertyOp55
 70
     1
102
RTVSPropertyOp56
 70
     1
102
RTVSPropertyOp57
 70
     1
102
RTVSPropertyOp58
 70
     1
102
RTVSPropertyOp59
 70
     1
102
RTVSPropertyOp60
 70
     1
102
RTVSPropertyOp61
 70
     1
102
RTVSPropertyOp62
 70
     1
  0
ENDSEC
  0
EOF
