  0
SECTION
  2
HEADER
  9
$ACADVER
  1
AC1015
  9
$ACADMAINTVER
 70
     6
  9
$DWGCODEPAGE
  3
ANSI_1252
  9
$INSBASE
 10
0.0
 20
0.0
 30
0.0
  9
$EXTMIN
 10
0.0
 20
0.0
 30
0.0
  9
$EXTMAX
 10
17.0
 20
11.0
 30
0.0
  9
$LIMMIN
 10
0.0
 20
0.0
  9
$LIMMAX
 10
17.0
 20
11.0
  9
$ORTHOMODE
 70
     0
  9
$REGENMODE
 70
     1
  9
$FILLMODE
 70
     1
  9
$QTEXTMODE
 70
     0
  9
$MIRRTEXT
 70
     1
  9
$LTSCALE
 40
1.0
  9
$ATTMODE
 70
     1
  9
$TEXTSIZE
 40
0.125
  9
$TRACEWID
 40
0.05
  9
$TEXTSTYLE
  7
Standard
  9
$CLAYER
  8
0
  9
$CELTYPE
  6
ByLayer
  9
$CECOLOR
 62
   256
  9
$CELTSCALE
 40
1.0
  9
$DISPSILH
 70
     0
  9
$DIMSCALE
 40
1.0
  9
$DIMASZ
 40
0.13
  9
$DIMEXO
 40
0.05
  9
$DIMDLI
 40
0.38
  9
$DIMRND
 40
0.0
  9
$DIMDLE
 40
0.0
  9
$DIMEXE
 40
0.125
  9
$DIMTP
 40
0.0
  9
$DIMTM
 40
0.0
  9
$DIMTXT
 40
0.125
  9
$DIMCEN
 40
0.09
  9
$DIMTSZ
 40
0.0
  9
$DIMTOL
 70
     0
  9
$DIMLIM
 70
     0
  9
$DIMTIH
 70
     1
  9
$DIMTOH
 70
     1
  9
$DIMSE1
 70
     0
  9
$DIMSE2
 70
     0
  9
$DIMTAD
 70
     0
  9
$DIMZIN
 70
     1
  9
$DIMBLK
  1

  9
$DIMASO
 70
     1
  9
$DIMSHO
 70
     1
  9
$DIMPOST
  1

  9
$DIMAPOST
  1

  9
$DIMALT
 70
     0
  9
$DIMALTD
 70
     2
  9
$DIMALTF
 40
25.4
  9
$DIMLFAC
 40
2.0
  9
$DIMTOFL
 70
     0
  9
$DIMTVP
 40
0.0
  9
$DIMTIX
 70
     0
  9
$DIMSOXD
 70
     0
  9
$DIMSAH
 70
     0
  9
$DIMBLK1
  1

  9
$DIMBLK2
  1

  9
$DIMSTYLE
  2
Standard
  9
$DIMCLRD
 70
     0
  9
$DIMCLRE
 70
     0
  9
$DIMCLRT
 70
     0
  9
$DIMTFAC
 40
1.0
  9
$DIMGAP
 40
0.06
  9
$DIMJUST
 70
     0
  9
$DIMSD1
 70
     0
  9
$DIMSD2
 70
     0
  9
$DIMTOLJ
 70
     1
  9
$DIMTZIN
 70
     1
  9
$DIMALTZ
 70
     0
  9
$DIMALTTZ
 70
     0
  9
$DIMUPT
 70
     0
  9
$DIMDEC
 70
     2
  9
$DIMTDEC
 70
     2
  9
$DIMALTU
 70
     2
  9
$DIMALTTD
 70
     2
  9
$DIMTXSTY
  7
Standard
  9
$DIMAUNIT
 70
     0
  9
$DIMADEC
 70
     0
  9
$DIMALTRND
 40
0.0
  9
$DIMAZIN
 70
     0
  9
$DIMDSEP
 70
    46
  9
$DIMATFIT
 70
     3
  9
$DIMFRAC
 70
     0
  9
$DIMLDRBLK
  1

  9
$DIMLUNIT
 70
     2
  9
$DIMLWD
 70
    -2
  9
$DIMLWE
 70
    -2
  9
$DIMTMOVE
 70
     0
  9
$LUNITS
 70
     2
  9
$LUPREC
 70
     2
  9
$SKETCHINC
 40
0.1
  9
$FILLETRAD
 40
0.5
  9
$AUNITS
 70
     0
  9
$AUPREC
 70
     0
  9
$MENU
  1
.
  9
$ELEVATION
 40
0.0
  9
$PELEVATION
 40
0.0
  9
$THICKNESS
 40
0.0
  9
$LIMCHECK
 70
     0
  9
$CHAMFERA
 40
0.0
  9
$CHAMFERB
 40
0.0
  9
$CHAMFERC
 40
0.0
  9
$CHAMFERD
 40
0.0
  9
$SKPOLY
 70
     0
  9
$TDCREATE
 40
2459661.343063889
  9
$TDUCREATE
 40
2459661.634730556
  9
$TDUPDATE
 40
2459661.343064722
  9
$TDUUPDATE
 40
2459661.634731389
  9
$TDINDWG
 40
0.0000000116
  9
$TDUSRTIMER
 40
0.0000000116
  9
$USRTIMER
 70
     1
  9
$ANGBASE
 50
0.0
  9
$ANGDIR
 70
     0
  9
$PDMODE
 70
     0
  9
$PDSIZE
 40
-1.0
  9
$PLINEWID
 40
0.0
  9
$SPLFRAME
 70
     0
  9
$SPLINETYPE
 70
     6
  9
$SPLINESEGS
 70
     8
  9
$HANDSEED
  5
1FC
  9
$SURFTAB1
 70
     6
  9
$SURFTAB2
 70
     6
  9
$SURFTYPE
 70
     6
  9
$SURFU
 70
     6
  9
$SURFV
 70
     6
  9
$UCSBASE
  2

  9
$UCSNAME
  2

  9
$UCSORG
 10
0.0
 20
0.0
 30
0.0
  9
$UCSXDIR
 10
1.0
 20
0.0
 30
0.0
  9
$UCSYDIR
 10
0.0
 20
1.0
 30
0.0
  9
$UCSORTHOREF
  2

  9
$UCSORTHOVIEW
 70
     0
  9
$UCSORGTOP
 10
0.0
 20
0.0
 30
0.0
  9
$UCSORGBOTTOM
 10
0.0
 20
0.0
 30
0.0
  9
$UCSORGLEFT
 10
0.0
 20
0.0
 30
0.0
  9
$UCSORGRIGHT
 10
0.0
 20
0.0
 30
0.0
  9
$UCSORGFRONT
 10
0.0
 20
0.0
 30
0.0
  9
$UCSORGBACK
 10
0.0
 20
0.0
 30
0.0
  9
$PUCSBASE
  2

  9
$PUCSNAME
  2

  9
$PUCSORG
 10
0.0
 20
0.0
 30
0.0
  9
$PUCSXDIR
 10
1.0
 20
0.0
 30
0.0
  9
$PUCSYDIR
 10
0.0
 20
1.0
 30
0.0
  9
$PUCSORTHOREF
  2

  9
$PUCSORTHOVIEW
 70
     0
  9
$PUCSORGTOP
 10
0.0
 20
0.0
 30
0.0
  9
$PUCSORGBOTTOM
 10
0.0
 20
0.0
 30
0.0
  9
$PUCSORGLEFT
 10
0.0
 20
0.0
 30
0.0
  9
$PUCSORGRIGHT
 10
0.0
 20
0.0
 30
0.0
  9
$PUCSORGFRONT
 10
0.0
 20
0.0
 30
0.0
  9
$PUCSORGBACK
 10
0.0
 20
0.0
 30
0.0
  9
$USERI1
 70
     0
  9
$USERI2
 70
     0
  9
$USERI3
 70
     0
  9
$USERI4
 70
     0
  9
$USERI5
 70
     0
  9
$USERR1
 40
0.0
  9
$USERR2
 40
0.0
  9
$USERR3
 40
0.0
  9
$USERR4
 40
0.0
  9
$USERR5
 40
0.0
  9
$WORLDVIEW
 70
     1
  9
$SHADEDGE
 70
     3
  9
$SHADEDIF
 70
    70
  9
$TILEMODE
 70
     1
  9
$MAXACTVP
 70
    64
  9
$PINSBASE
 10
0.0
 20
0.0
 30
0.0
  9
$PLIMCHECK
 70
     0
  9
$PEXTMIN
 10
1.0000000000E+20
 20
1.0000000000E+20
 30
1.0000000000E+20
  9
$PEXTMAX
 10
-1.0000000000E+20
 20
-1.0000000000E+20
 30
-1.0000000000E+20
  9
$PLIMMIN
 10
0.0
 20
0.0
  9
$PLIMMAX
 10
12.0
 20
9.0
  9
$UNITMODE
 70
     0
  9
$VISRETAIN
 70
     1
  9
$PLINEGEN
 70
     0
  9
$PSLTSCALE
 70
     1
  9
$TREEDEPTH
 70
  3020
  9
$CMLSTYLE
  2
Standard
  9
$CMLJUST
 70
     0
  9
$CMLSCALE
 40
1.0
  9
$PROXYGRAPHICS
 70
     1
  9
$MEASUREMENT
 70
     0
  9
$CELWEIGHT
370
    -1
  9
$ENDCAPS
280
     0
  9
$JOINSTYLE
280
     0
  9
$LWDISPLAY
290
     1
  9
$INSUNITS
 70
     1
  9
$HYPERLINKBASE
  1

  9
$STYLESHEET
  1

  9
$XEDIT
290
     1
  9
$CEPSNTYPE
380
     0
  9
$PSTYLEMODE
290
     1
  9
$FINGERPRINTGUID
  2
{d5bc871d-11e4-4847-9f48-219c051a84ea}
  9
$VERSIONGUID
  2
{FAEB1C32-E019-11D5-929B-00C0DF256EC4}
  9
$EXTNAMES
290
     1
  9
$PSVPSCALE
 40
0.0
  9
$OLESTARTUP
290
     0
  0
ENDSEC
  0
SECTION
  2
CLASSES
  0
CLASS
  1
ACDBDICTIONARYWDFLT
  2
AcDbDictionaryWithDefault
  3
ObjectDBX Classes
 90
        0
280
     0
281
     0
  0
CLASS
  1
VISUALSTYLE
  2
AcDbVisualStyle
  3
ObjectDBX Classes
 90
     4095
280
     0
281
     0
  0
CLASS
  1
MATERIAL
  2
AcDbMaterial
  3
ObjectDBX Classes
 90
     1153
280
     0
281
     0
  0
CLASS
  1
SCALE
  2
AcDbScale
  3
ObjectDBX Classes
 90
     1153
280
     0
281
     0
  0
CLASS
  1
TABLESTYLE
  2
AcDbTableStyle
  3
ObjectDBX Classes
 90
     4095
280
     0
281
     0
  0
CLASS
  1
MLEADERSTYLE
  2
AcDbMLeaderStyle
  3
ACDB_MLEADERSTYLE_CLASS
 90
     4095
280
     0
281
     0
  0
CLASS
  1
SUN
  2
AcDbSun
  3
SCENEOE
 90
     1153
280
     0
281
     0
  0
CLASS
  1
ACDBPLACEHOLDER
  2
AcDbPlaceHolder
  3
ObjectDBX Classes
 90
        0
280
     0
281
     0
  0
CLASS
  1
LAYOUT
  2
AcDbLayout
  3
ObjectDBX Classes
 90
        0
280
     0
281
     0
  0
ENDSEC
  0
SECTION
  2
TABLES
  0
TABLE
  2
VPORT
  5
8
330
0
100
AcDbSymbolTable
 70
     1
  0
VPORT
  5
29
330
8
100
AcDbSymbolTableRecord
100
AcDbViewportTableRecord
  2
*Active
 70
     0
 10
0.0
 20
0.0
 11
1.0
 21
1.0
 12
8.5
 22
5.5
 13
0.0
 23
0.0
 14
0.5
 24
0.5
 15
0.5
 25
0.5
 16
0.0
 26
0.0
 36
1.0
 17
0.0
 27
0.0
 37
0.0
 40
11.0
 41
1.5454545455
 42
50.0
 43
0.0
 44
0.0
 50
0.0
 51
0.0
 71
     0
 72
  2000
 73
     1
 74
     3
 75
     0
 76
     0
 77
     0
 78
     0
281
     0
 65
     1
110
0.0
120
0.0
130
0.0
111
1.0
121
0.0
131
0.0
112
0.0
122
1.0
132
0.0
 79
     0
146
0.0
  0
ENDTAB
  0
TABLE
  2
LTYPE
  5
5
330
0
100
AcDbSymbolTable
 70
     6
  0
LTYPE
  5
14
330
5
100
AcDbSymbolTableRecord
100
AcDbLinetypeTableRecord
  2
ByBlock
 70
     0
  3

 72
    65
 73
     0
 40
0.0
  0
LTYPE
  5
15
330
5
100
AcDbSymbolTableRecord
100
AcDbLinetypeTableRecord
  2
ByLayer
 70
     0
  3

 72
    65
 73
     0
 40
0.0
  0
LTYPE
  5
16
330
5
100
AcDbSymbolTableRecord
100
AcDbLinetypeTableRecord
  2
Continuous
 70
     0
  3
Solid line
 72
    65
 73
     0
 40
0.0
  0
LTYPE
  5
6E
330
5
100
AcDbSymbolTableRecord
100
AcDbLinetypeTableRecord
  2
HIDDEN
 70
     0
  3
Hidden __ __ __ __ __ __ __ __ __ __ __ __ __ __
 72
    65
 73
     2
 40
0.075
 49
0.05
 74
     0
 49
-0.025
 74
     0
  0
LTYPE
  5
6F
330
5
100
AcDbSymbolTableRecord
100
AcDbLinetypeTableRecord
  2
PHANTOM
 70
     0
  3
Phantom ______  __  __  ______  __  __  ______
 72
    65
 73
     6
 40
0.5
 49
0.25
 74
     0
 49
-0.05
 74
     0
 49
0.05
 74
     0
 49
-0.05
 74
     0
 49
0.05
 74
     0
 49
-0.05
 74
     0
  0
LTYPE
  5
70
330
5
100
AcDbSymbolTableRecord
100
AcDbLinetypeTableRecord
  2
CENTER
 70
     0
  3
Center ____ _ ____ _ ____ _ ____ _ ____ _ ____
 72
    65
 73
     4
 40
0.4
 49
0.25
 74
     0
 49
-0.05
 74
     0
 49
0.05
 74
     0
 49
-0.05
 74
     0
  0
LTYPE
  5
71
330
5
100
AcDbSymbolTableRecord
100
AcDbLinetypeTableRecord
  2
CENTERX2
 70
     0
  3
Center (2x) ________  __  ________  __  _____
 72
    65
 73
     4
 40
0.8
 49
0.5
 74
     0
 49
-0.1
 74
     0
 49
0.1
 74
     0
 49
-0.1
 74
     0
  0
LTYPE
  5
72
330
5
100
AcDbSymbolTableRecord
100
AcDbLinetypeTableRecord
  2
DOT2
 70
     0
  3
Dot (.5x) ........................................
 72
    65
 73
     2
 40
0.025
 49
0.0
 74
     0
 49
-0.025
 74
     0
  0
ENDTAB
  0
TABLE
  2
LAYER
  5
2
330
0
100
AcDbSymbolTable
 70
     5
  0
LAYER
  5
10
330
2
100
AcDbSymbolTableRecord
100
AcDbLayerTableRecord
  2
0
 70
     0
 62
     7
  6
Continuous
370
    -3
390
F
  0
LAYER
  5
73
330
2
100
AcDbSymbolTableRecord
100
AcDbLayerTableRecord
  2
FORMAT
 70
     0
 62
     7
  6
Continuous
370
    -3
390
F
  0
LAYER
  5
74
330
2
100
AcDbSymbolTableRecord
100
AcDbLayerTableRecord
  2
DIMENSION
 70
     0
 62
     7
  6
Continuous
370
    -3
390
F
  0
LAYER
  5
75
330
2
100
AcDbSymbolTableRecord
100
AcDbLayerTableRecord
  2
FAIR
 70
     0
 62
     5
  6
Continuous
370
    -3
390
F
  0
LAYER
  5
76
330
2
100
AcDbSymbolTableRecord
100
AcDbLayerTableRecord
  2
REVISION
 70
     0
 62
     6
  6
Continuous
370
    -3
390
F
  0
ENDTAB
  0
TABLE
  2
STYLE
  5
3
330
0
100
AcDbSymbolTable
 70
     3
  0
STYLE
  5
11
330
3
100
AcDbSymbolTableRecord
100
AcDbTextStyleTableRecord
  2
Standard
 70
     0
 40
0.0
 41
1.0
 50
0.0
 71
     0
 42
0.125
  3
txt
  4

  0
STYLE
  5
90
330
3
100
AcDbSymbolTableRecord
100
AcDbTextStyleTableRecord
  2
SLDTEXTSTYLE0
 70
     0
 40
0.0
 41
0.7
 50
0.0
 71
     0
 42
0.125
  3
TXT
  4

  0
STYLE
  5
B5
330
3
100
AcDbSymbolTableRecord
100
AcDbTextStyleTableRecord
  2
SLDTEXTSTYLE1
 70
     0
 40
0.0
 41
0.65
 50
0.0
 71
     0
 42
0.125
  3
TXT
  4

  0
ENDTAB
  0
TABLE
  2
VIEW
  5
6
330
0
100
AcDbSymbolTable
 70
     0
  0
ENDTAB
  0
TABLE
  2
UCS
  5
7
330
0
100
AcDbSymbolTable
 70
     0
  0
ENDTAB
  0
TABLE
  2
APPID
  5
9
330
0
100
AcDbSymbolTable
 70
     1
  0
APPID
  5
12
330
9
100
AcDbSymbolTableRecord
100
AcDbRegAppTableRecord
  2
ACAD
 70
     0
  0
ENDTAB
  0
TABLE
  2
DIMSTYLE
  5
A
330
0
100
AcDbSymbolTable
 70
     2
100
AcDbDimStyleTable
  0
DIMSTYLE
105
27
330
A
100
AcDbSymbolTableRecord
100
AcDbDimStyleTableRecord
  2
Standard
 70
     0
178
     0
340
11
  0
DIMSTYLE
105
E6
102
{ACAD_REACTORS
330
E5
330
13B
102
}
330
A
100
AcDbSymbolTableRecord
100
AcDbDimStyleTableRecord
  2
SLDDIMSTYLE0
 70
     0
 41
0.13
 44
0.0
 45
0.000000001
 78
    12
 79
     3
140
0.125
144
2.0
147
0.03125
173
     1
178
     0
271
     6
272
     2
276
     2
277
     5
284
    12
340
90
  0
ENDTAB
  0
TABLE
  2
BLOCK_RECORD
  5
1
330
0
100
AcDbSymbolTable
 70
     6
  0
BLOCK_RECORD
  5
1F
330
1
100
AcDbSymbolTableRecord
100
AcDbBlockTableRecord
  2
*Model_Space
340
22
  0
BLOCK_RECORD
  5
1B
330
1
100
AcDbSymbolTableRecord
100
AcDbBlockTableRecord
  2
*Paper_Space
340
1E
  0
BLOCK_RECORD
  5
23
330
1
100
AcDbSymbolTableRecord
100
AcDbBlockTableRecord
  2
*Paper_Space0
340
26
  0
BLOCK_RECORD
  5
93
330
1
100
AcDbSymbolTableRecord
100
AcDbBlockTableRecord
  2
SW_NOTE_0
340
0
102
{BLKREFS
331
98
102
}
  0
BLOCK_RECORD
  5
9A
330
1
100
AcDbSymbolTableRecord
100
AcDbBlockTableRecord
  2
SW_NOTE_0_1
340
0
102
{BLKREFS
331
A1
102
}
  0
BLOCK_RECORD
  5
A7
330
1
100
AcDbSymbolTableRecord
100
AcDbBlockTableRecord
  2
SW_NOTE_0_2
340
0
102
{BLKREFS
331
AE
102
}
  0
BLOCK_RECORD
  5
E7
330
1
100
AcDbSymbolTableRecord
100
AcDbBlockTableRecord
  2
_D
340
0
  0
BLOCK_RECORD
  5
13C
330
1
100
AcDbSymbolTableRecord
100
AcDbBlockTableRecord
  2
_D_1
340
0
  0
ENDTAB
  0
ENDSEC
  0
SECTION
  2
BLOCKS
  0
BLOCK
  5
20
330
1F
100
AcDbEntity
  8
0
100
AcDbBlockBegin
  2
*Model_Space
 70
     0
 10
0.0
 20
0.0
 30
0.0
  3
*Model_Space
  1

  0
ENDBLK
  5
21
330
1F
100
AcDbEntity
  8
0
100
AcDbBlockEnd
  0
BLOCK
  5
1C
330
1B
100
AcDbEntity
 67
     1
  8
0
100
AcDbBlockBegin
  2
*Paper_Space
 70
     0
 10
0.0
 20
0.0
 30
0.0
  3
*Paper_Space
  1

  0
ENDBLK
  5
1D
330
1B
100
AcDbEntity
 67
     1
  8
0
100
AcDbBlockEnd
  0
BLOCK
  5
24
330
23
100
AcDbEntity
  8
0
100
AcDbBlockBegin
  2
*Paper_Space0
 70
     0
 10
0.0
 20
0.0
 30
0.0
  3
*Paper_Space0
  1

  0
ENDBLK
  5
25
330
23
100
AcDbEntity
  8
0
100
AcDbBlockEnd
  0
BLOCK
  5
94
330
93
100
AcDbEntity
  8
0
100
AcDbBlockBegin
  2
SW_NOTE_0
 70
     0
 10
0.0
 20
0.0
 30
0.0
  3
SW_NOTE_0
  1

  0
MTEXT
  5
96
330
93
100
AcDbEntity
  8
DIMENSION
 62
     0
100
AcDbMText
 10
0.546875
 20
0.1074223116
 30
0.0
 40
0.0833333333
 41
0.0
 71
     2
 72
     1
  1
SURFACE MOUNTED
  7
SLDTEXTSTYLE0
 73
     1
 44
1.0
  0
MTEXT
  5
97
330
93
100
AcDbEntity
  8
DIMENSION
 62
     0
100
AcDbMText
 10
0.5716435889
 20
-0.0430588741
 30
0.0
 40
0.0833333333
 41
0.0
 71
     2
 72
     1
  1
DOWNLIGHT - NARROW BEAM
  7
SLDTEXTSTYLE0
 73
     1
 44
1.0
  0
ENDBLK
  5
95
330
93
100
AcDbEntity
  8
0
100
AcDbBlockEnd
  0
BLOCK
  5
9B
330
9A
100
AcDbEntity
  8
0
100
AcDbBlockBegin
  2
SW_NOTE_0_1
 70
     0
 10
0.0
 20
0.0
 30
0.0
  3
SW_NOTE_0_1
  1

  0
MTEXT
  5
9D
330
9A
100
AcDbEntity
  8
DIMENSION
 62
     0
100
AcDbMText
 10
0.0
 20
0.1611334675
 30
0.0
 40
0.125
 41
0.0
 71
     1
 72
     1
  1
NOTES:
  7
SLDTEXTSTYLE0
 73
     1
 44
1.0
  0
MTEXT
  5
9E
330
9A
100
AcDbEntity
  8
DIMENSION
 62
     0
100
AcDbMText
 10
0.3937007786
 20
-0.003236607
 30
0.0
 40
0.125
 41
0.0
 71
     1
 72
     1
  1
MOUNTS DIRECTLY TO RECESSED 4"
  7
SLDTEXTSTYLE0
 73
     1
 44
1.0
  0
MTEXT
  5
9F
330
9A
100
AcDbEntity
  8
DIMENSION
 62
     0
100
AcDbMText
 10
0.0
 20
-0.003236607
 30
0.0
 40
0.125
 41
0.0
 71
     1
 72
     1
  1
1.
  7
SLDTEXTSTYLE0
 73
     1
 44
1.0
  0
MTEXT
  5
A0
330
9A
100
AcDbEntity
  8
DIMENSION
 62
     0
100
AcDbMText
 10
0.3937007786
 20
-0.1676066816
 30
0.0
 40
0.125
 41
0.0
 71
     1
 72
     1
  1
OCTAGONAL WIRING BOX (BY OTHERS)
  7
SLDTEXTSTYLE0
 73
     1
 44
1.0
  0
ENDBLK
  5
9C
330
9A
100
AcDbEntity
  8
0
100
AcDbBlockEnd
  0
BLOCK
  5
A8
330
A7
100
AcDbEntity
  8
0
100
AcDbBlockBegin
  2
SW_NOTE_0_2
 70
     0
 10
0.0
 20
0.0
 30
0.0
  3
SW_NOTE_0_2
  1

  0
MTEXT
  5
AA
330
A7
100
AcDbEntity
  8
DIMENSION
 62
     0
100
AcDbMText
 10
0.0
 20
0.0671389448
 30
0.0
 40
0.0520833333
 41
0.0
 71
     1
 72
     1
  1
THE INFORMATION CONTAINED IN THIS DRAWING IS THE SOLE PROPERTY
  7
SLDTEXTSTYLE0
 73
     1
 44
1.0
  0
MTEXT
  5
AB
330
A7
100
AcDbEntity
  8
DIMENSION
 62
     0
100
AcDbMText
 10
0.0
 20
-0.0313054996
 30
0.0
 40
0.0520833333
 41
0.0
 71
     1
 72
     1
  1
OF BEGA NORTH AMERICA, INC.
  7
SLDTEXTSTYLE0
 73
     1
 44
1.0
  0
MTEXT
  5
AC
330
A7
100
AcDbEntity
  8
DIMENSION
 62
     0
100
AcDbMText
 10
0.0
 20
-0.1297499441
 30
0.0
 40
0.0520833333
 41
0.0
 71
     1
 72
     1
  1
ANY REPRODUCTION IN PART OR AS A WHOLE WITHOUT THE WRITTEN
  7
SLDTEXTSTYLE0
 73
     1
 44
1.0
  0
MTEXT
  5
AD
330
A7
100
AcDbEntity
  8
DIMENSION
 62
     0
100
AcDbMText
 10
0.0
 20
-0.2281943885
 30
0.0
 40
0.0520833333
 41
0.0
 71
     1
 72
     1
  1
PERMISSION OF BEGA NORTH AMERICA, INC. IS PROHIBITED.
  7
SLDTEXTSTYLE0
 73
     1
 44
1.0
  0
ENDBLK
  5
A9
330
A7
100
AcDbEntity
  8
0
100
AcDbBlockEnd
  0
BLOCK
  5
E8
330
E7
100
AcDbEntity
  8
0
100
AcDbBlockBegin
  2
_D
 70
     0
 10
0.0
 20
0.0
 30
0.0
  3
_D
  1

  0
SOLID
  5
EA
330
E7
100
AcDbEntity
  8
DIMENSION
100
AcDbTrace
 10
4.2909551431
 20
5.0388638089
 30
0.0
 11
4.4209551431
 21
5.0188638089
 31
0.0
 12
4.4209551431
 22
5.0588638089
 32
0.0
 13
4.4209551431
 23
5.0588638089
 33
0.0
  0
SOLID
  5
EB
330
E7
100
AcDbEntity
  8
DIMENSION
100
AcDbTrace
 10
7.1846559305
 20
5.0388638089
 30
0.0
 11
7.0546559305
 21
5.0588638089
 31
0.0
 12
7.0546559305
 22
5.0188638089
 32
0.0
 13
7.0546559305
 23
5.0188638089
 33
0.0
  0
LINE
  5
EC
330
E7
100
AcDbEntity
  8
DIMENSION
100
AcDbLine
 10
5.8708664578
 20
5.087928765
 30
0.0
 11
5.7958664587
 21
4.9629287665
 31
0.0
  0
LINE
  5
ED
330
E7
100
AcDbEntity
  8
DIMENSION
100
AcDbLine
 10
4.2909551431
 20
3.2585172106
 30
0.0
 11
4.2909551431
 21
5.1638638089
 31
0.0
  0
LINE
  5
EE
330
E7
100
AcDbEntity
  8
DIMENSION
100
AcDbLine
 10
7.1846559305
 20
3.2585172106
 30
0.0
 11
7.1846559305
 21
5.1638638089
 31
0.0
  0
LINE
  5
EF
330
E7
100
AcDbEntity
  8
DIMENSION
100
AcDbLine
 10
4.2909551431
 20
5.0388638089
 30
0.0
 11
5.4911008333
 21
5.0388638089
 31
0.0
  0
LINE
  5
F0
330
E7
100
AcDbEntity
  8
DIMENSION
100
AcDbLine
 10
7.1846559305
 20
5.0388638089
 30
0.0
 11
5.9467345265
 21
5.0388638089
 31
0.0
  0
MTEXT
  5
F1
330
E7
100
AcDbEntity
  8
DIMENSION
100
AcDbMText
 10
5.4911008333
 20
5.1053122379
 30
0.0
 40
0.125
 41
0.0
 71
     1
 72
     1
  1
%%c
  7
SLDTEXTSTYLE0
 73
     1
 44
1.0
  0
MTEXT
  5
F2
330
E7
100
AcDbEntity
  8
DIMENSION
100
AcDbMText
 10
5.6875331175
 20
5.0928122367
 30
0.0
 40
0.125
 41
0.0
 71
     1
 72
     1
  1
5
  7
SLDTEXTSTYLE0
 73
     1
 44
1.0
  0
MTEXT
  5
F3
330
E7
100
AcDbEntity
  8
DIMENSION
100
AcDbMText
 10
5.7847553477
 20
5.1059955029
 30
0.0
 40
0.0625
 41
0.0
 71
     1
 72
     1
  1
3
  7
SLDTEXTSTYLE0
 73
     1
 44
1.0
  0
MTEXT
  5
F4
330
E7
100
AcDbEntity
  8
DIMENSION
100
AcDbMText
 10
5.8333664582
 20
5.0247455007
 30
0.0
 40
0.0625
 41
0.0
 71
     1
 72
     1
  1
4
  7
SLDTEXTSTYLE0
 73
     1
 44
1.0
  0
MTEXT
  5
F5
330
E7
100
AcDbEntity
  8
DIMENSION
100
AcDbMText
 10
5.8819775779
 20
5.0928122367
 30
0.0
 40
0.125
 41
0.0
 71
     1
 72
     1
  1
"
  7
SLDTEXTSTYLE0
 73
     1
 44
1.0
  0
ENDBLK
  5
E9
330
E7
100
AcDbEntity
  8
0
100
AcDbBlockEnd
  0
BLOCK
  5
13D
330
13C
100
AcDbEntity
  8
0
100
AcDbBlockBegin
  2
_D_1
 70
     0
 10
0.0
 20
0.0
 30
0.0
  3
_D_1
  1

  0
SOLID
  5
13F
330
13C
100
AcDbEntity
  8
DIMENSION
100
AcDbTrace
 10
8.2942582226
 20
6.0841638023
 30
0.0
 11
8.3142582226
 21
6.2141638023
 31
0.0
 12
8.2742582226
 22
6.2141638023
 32
0.0
 13
8.2742582226
 23
6.2141638023
 33
0.0
  0
SOLID
  5
140
330
13C
100
AcDbEntity
  8
DIMENSION
100
AcDbTrace
 10
8.2942582226
 20
9.0014866369
 30
0.0
 11
8.2742582226
 21
8.8714866369
 31
0.0
 12
8.3142582226
 22
8.8714866369
 32
0.0
 13
8.3142582226
 23
8.8714866369
 33
0.0
  0
LINE
  5
141
330
13C
100
AcDbEntity
  8
DIMENSION
100
AcDbLine
 10
8.3479908584
 20
7.6865713547
 30
0.0
 11
8.2729908593
 21
7.5615713562
 31
0.0
  0
LINE
  5
142
330
13C
100
AcDbEntity
  8
DIMENSION
100
AcDbLine
 10
7.2346559305
 20
6.0841638023
 30
0.0
 11
8.4192582226
 21
6.0841638023
 31
0.0
  0
LINE
  5
143
330
13C
100
AcDbEntity
  8
DIMENSION
100
AcDbLine
 10
7.2346559305
 20
9.0014866369
 30
0.0
 11
8.4192582226
 21
9.0014866369
 31
0.0
  0
LINE
  5
144
330
13C
100
AcDbEntity
  8
DIMENSION
100
AcDbLine
 10
8.2942582226
 20
6.0841638023
 30
0.0
 11
8.2942582226
 21
7.5303213635
 31
0.0
  0
LINE
  5
145
330
13C
100
AcDbEntity
  8
DIMENSION
100
AcDbLine
 10
8.2942582226
 20
9.0014866369
 30
0.0
 11
8.2942582226
 21
7.7370921899
 31
0.0
  0
MTEXT
  5
146
330
13C
100
AcDbEntity
  8
DIMENSION
100
AcDbMText
 10
8.1646575273
 20
7.6914548264
 30
0.0
 40
0.125
 41
0.0
 71
     1
 72
     1
  1
5
  7
SLDTEXTSTYLE0
 73
     1
 44
1.0
  0
MTEXT
  5
147
330
13C
100
AcDbEntity
  8
DIMENSION
100
AcDbMText
 10
8.2618797483
 20
7.7046380927
 30
0.0
 40
0.0625
 41
0.0
 71
     1
 72
     1
  1
7
  7
SLDTEXTSTYLE0
 73
     1
 44
1.0
  0
MTEXT
  5
148
330
13C
100
AcDbEntity
  8
DIMENSION
100
AcDbMText
 10
8.3104908588
 20
7.6233880904
 30
0.0
 40
0.0625
 41
0.0
 71
     1
 72
     1
  1
8
  7
SLDTEXTSTYLE0
 73
     1
 44
1.0
  0
MTEXT
  5
149
330
13C
100
AcDbEntity
  8
DIMENSION
100
AcDbMText
 10
8.3591019694
 20
7.6914548264
 30
0.0
 40
0.125
 41
0.0
 71
     1
 72
     1
  1
"
  7
SLDTEXTSTYLE0
 73
     1
 44
1.0
  0
ENDBLK
  5
13E
330
13C
100
AcDbEntity
  8
0
100
AcDbBlockEnd
  0
ENDSEC
  0
SECTION
  2
ENTITIES
  0
LINE
  5
77
330
1F
100
AcDbEntity
  8
0
  6
Continuous
 62
     7
370
    18
100
AcDbLine
 10
0.6262516046
 20
10.6420731707
 30
0.0
 11
16.3762516046
 21
10.6420731707
 31
0.0
  0
LINE
  5
78
330
1F
100
AcDbEntity
  8
0
  6
Continuous
 62
     7
370
    18
100
AcDbLine
 10
0.6262516046
 20
10.6420731707
 30
0.0
 11
0.6262516046
 21
0.3920731707
 31
0.0
  0
LINE
  5
79
330
1F
100
AcDbEntity
  8
0
  6
Continuous
 62
     7
370
    18
100
AcDbLine
 10
16.3762516046
 20
0.3920731707
 30
0.0
 11
0.6262516046
 21
0.3920731707
 31
0.0
  0
LINE
  5
7A
330
1F
100
AcDbEntity
  8
0
  6
Continuous
 62
     7
370
    18
100
AcDbLine
 10
16.3762516046
 20
0.3920731707
 30
0.0
 11
16.3762516046
 21
10.6420731707
 31
0.0
  0
LINE
  5
7B
330
1F
100
AcDbEntity
  8
DIMENSION
100
AcDbLine
 10
11.2626236588
 20
1.7278378237
 30
0.0
 11
11.2626236588
 21
0.3920731707
 31
0.0
  0
LINE
  5
7C
330
1F
100
AcDbEntity
  8
DIMENSION
100
AcDbLine
 10
11.2626236588
 20
0.3920731707
 30
0.0
 11
16.3762516046
 21
0.3920731707
 31
0.0
  0
LINE
  5
7D
330
1F
100
AcDbEntity
  8
DIMENSION
100
AcDbLine
 10
16.3762516046
 20
1.7278378237
 30
0.0
 11
16.3762516046
 21
0.3920731707
 31
0.0
  0
LINE
  5
7E
330
1F
100
AcDbEntity
  8
DIMENSION
100
AcDbLine
 10
16.3762516046
 20
1.469058281
 30
0.0
 11
11.2626236588
 21
1.469058281
 31
0.0
  0
LINE
  5
7F
330
1F
100
AcDbEntity
  8
DIMENSION
100
AcDbLine
 10
16.3762516046
 20
1.0223554989
 30
0.0
 11
11.2626236588
 21
1.0223554989
 31
0.0
  0
LINE
  5
80
330
1F
100
AcDbEntity
  8
DIMENSION
100
AcDbLine
 10
11.9188146421
 20
1.3057807123
 30
0.0
 11
12.9046414715
 21
1.3057807123
 31
0.0
  0
LINE
  5
81
330
1F
100
AcDbEntity
  8
DIMENSION
100
AcDbLine
 10
13.2989722032
 20
1.3057807123
 30
0.0
 11
13.8966297185
 21
1.3057807123
 31
0.0
  0
LINE
  5
82
330
1F
100
AcDbEntity
  8
DIMENSION
100
AcDbLine
 10
11.6569543906
 20
1.117857473
 30
0.0
 11
13.8966297185
 21
1.117857473
 31
0.0
  0
LINE
  5
83
330
1F
100
AcDbEntity
  8
DIMENSION
100
AcDbLine
 10
14.004454528
 20
1.469058281
 30
0.0
 11
14.004454528
 21
0.3920731707
 31
0.0
  0
LINE
  5
84
330
1F
100
AcDbEntity
  8
DIMENSION
100
AcDbLine
 10
14.004454528
 20
0.5879755522
 30
0.0
 11
16.3762516046
 21
0.5879755522
 31
0.0
  0
LINE
  5
85
330
1F
100
AcDbEntity
  8
DIMENSION
100
AcDbLine
 10
14.3402517917
 20
1.0223554989
 30
0.0
 11
14.3402517917
 21
0.5879755522
 31
0.0
  0
LINE
  5
86
330
1F
100
AcDbEntity
  8
DIMENSION
100
AcDbLine
 10
15.8775255037
 20
1.0223554989
 30
0.0
 11
15.8775255037
 21
0.5879755522
 31
0.0
  0
LINE
  5
87
330
1F
100
AcDbEntity
  8
DIMENSION
100
AcDbLine
 10
14.8578108771
 20
0.5879755522
 30
0.0
 11
14.8578108771
 21
0.3920731707
 31
0.0
  0
LINE
  5
88
330
1F
100
AcDbEntity
  8
DIMENSION
100
AcDbLine
 10
15.5860684709
 20
0.5879755522
 30
0.0
 11
15.5860684709
 21
0.3920731707
 31
0.0
  0
LINE
  5
89
330
1F
100
AcDbEntity
  8
DIMENSION
100
AcDbLine
 10
16.3762516046
 20
10.1244820986
 30
0.0
 11
11.2804930555
 21
10.1244820986
 31
0.0
  0
LINE
  5
8A
330
1F
100
AcDbEntity
  8
DIMENSION
100
AcDbLine
 10
16.3762516046
 20
10.3827969916
 30
0.0
 11
11.2804930555
 21
10.3827969916
 31
0.0
  0
LINE
  5
8B
330
1F
100
AcDbEntity
  8
DIMENSION
100
AcDbLine
 10
11.2804930555
 20
10.6420731707
 30
0.0
 11
11.2804930555
 21
10.3827969916
 31
0.0
  0
LINE
  5
8C
330
1F
100
AcDbEntity
  8
DIMENSION
100
AcDbLine
 10
11.2804930555
 20
10.3827969916
 30
0.0
 11
11.2804930555
 21
10.1244820986
 31
0.0
  0
LINE
  5
8D
330
1F
100
AcDbEntity
  8
DIMENSION
100
AcDbLine
 10
11.6012197167
 20
10.6420731707
 30
0.0
 11
11.6012197167
 21
10.1244820986
 31
0.0
  0
LINE
  5
8E
330
1F
100
AcDbEntity
  8
DIMENSION
100
AcDbLine
 10
12.4025538432
 20
10.6420731707
 30
0.0
 11
12.4025538432
 21
10.1244820986
 31
0.0
  0
LINE
  5
8F
330
1F
100
AcDbEntity
  8
DIMENSION
100
AcDbLine
 10
15.9668590304
 20
10.6420731707
 30
0.0
 11
15.9668590304
 21
10.1244820986
 31
0.0
  0
MTEXT
  5
91
330
1F
100
AcDbEntity
  8
DIMENSION
100
AcDbMText
 10
16.081300029
 20
0.7937897033
 30
0.0
 40
0.1458333333
 41
0.0
 71
     1
 72
     1
  1
-
  7
SLDTEXTSTYLE0
 73
     1
 44
1.0
  0
MTEXT
  5
92
330
1F
100
AcDbEntity
  8
DIMENSION
100
AcDbMText
 10
14.4266876409
 20
0.7937897033
 30
0.0
 40
0.1458333333
 41
0.0
 71
     1
 72
     1
  1
24422
  7
SLDTEXTSTYLE0
 73
     1
 44
1.0
  0
INSERT
  5
98
330
1F
100
AcDbEntity
  8
DIMENSION
100
AcDbBlockReference
  2
SW_NOTE_0
 10
14.8641006565
 20
1.2489580158
 30
0.0
  0
MTEXT
  5
99
330
1F
100
AcDbEntity
  8
DIMENSION
100
AcDbMText
 10
14.8950147033
 20
0.5361071054
 30
0.0
 40
0.09375
 41
0.0
 71
     1
 72
     1
  1
3/22/2022
  7
SLDTEXTSTYLE0
 73
     1
 44
1.0
  0
INSERT
  5
A1
330
1F
100
AcDbEntity
  8
DIMENSION
100
AcDbBlockReference
  2
SW_NOTE_0_1
 10
11.3468547095
 20
2.6111228203
 30
0.0
  0
MTEXT
  5
A2
330
1F
100
AcDbEntity
  8
DIMENSION
100
AcDbMText
 10
15.9288899758
 20
0.9569614615
 30
0.0
 40
0.0729166667
 41
0.0
 71
     1
 72
     1
  1
REV
  7
SLDTEXTSTYLE0
 73
     1
 44
1.0
  0
MTEXT
  5
A3
330
1F
100
AcDbEntity
  8
DIMENSION
100
AcDbMText
 10
14.3970715044
 20
0.9569614615
 30
0.0
 40
0.0729166667
 41
0.0
 71
     1
 72
     1
  1
PART NO.
  7
SLDTEXTSTYLE0
 73
     1
 44
1.0
  0
MTEXT
  5
A4
330
1F
100
AcDbEntity
  8
DIMENSION
100
AcDbMText
 10
14.065489575
 20
0.9569614615
 30
0.0
 40
0.0729166667
 41
0.0
 71
     1
 72
     1
  1
SIZE
  7
SLDTEXTSTYLE0
 73
     1
 44
1.0
  0
MTEXT
  5
A5
330
1F
100
AcDbEntity
  8
DIMENSION
100
AcDbMText
 10
11.3359835269
 20
1.1963622335
 30
0.0
 40
0.0729166667
 41
0.0
 71
     1
 72
     1
  1
TYPE:
  7
SLDTEXTSTYLE0
 73
     1
 44
1.0
  0
MTEXT
  5
A6
330
1F
100
AcDbEntity
  8
DIMENSION
100
AcDbMText
 10
11.3209402851
 20
0.9459256477
 30
0.0
 40
0.0625
 41
0.0
 71
     1
 72
     1
  1
PROPRIETARY AND CONFIDENTIAL
  7
SLDTEXTSTYLE0
 73
     1
 44
1.0
  0
INSERT
  5
AE
330
1F
100
AcDbEntity
  8
DIMENSION
100
AcDbBlockReference
  2
SW_NOTE_0_2
 10
11.326561577
 20
0.7343328561
 30
0.0
  0
MTEXT
  5
AF
330
1F
100
AcDbEntity
  8
DIMENSION
100
AcDbMText
 10
12.9947001633
 20
1.3755202712
 30
0.0
 40
0.0729166667
 41
0.0
 71
     1
 72
     1
  1
DATE:
  7
SLDTEXTSTYLE0
 73
     1
 44
1.0
  0
MTEXT
  5
B0
330
1F
100
AcDbEntity
  8
DIMENSION
100
AcDbMText
 10
11.326561577
 20
1.3755202712
 30
0.0
 40
0.0729166667
 41
0.0
 71
     1
 72
     1
  1
APPROVED:
  7
SLDTEXTSTYLE0
 73
     1
 44
1.0
  0
MTEXT
  5
B1
330
1F
100
AcDbEntity
  8
DIMENSION
100
AcDbMText
 10
14.5857227754
 20
1.6249729161
 30
0.0
 40
0.0729166667
 41
0.0
 71
     1
 72
     1
  1
P (805) 684-0533  -  www.bega-us.com
  7
SLDTEXTSTYLE0
 73
     1
 44
1.0
  0
MTEXT
  5
B2
330
1F
100
AcDbEntity
  8
DIMENSION
100
AcDbMText
 10
14.0525094629
 20
1.3755202712
 30
0.0
 40
0.0729166667
 41
0.0
 71
     1
 72
     1
  1
DESCRIPTION:
  7
SLDTEXTSTYLE0
 73
     1
 44
1.0
  0
MTEXT
  5
B3
330
1F
100
AcDbEntity
  8
DIMENSION
100
AcDbMText
 10
11.326561577
 20
1.6249729161
 30
0.0
 40
0.0729166667
 41
0.0
 71
     1
 72
     1
  1
1000 BEGA Way, Carpinteria, California 93013
  7
SLDTEXTSTYLE0
 73
     1
 44
1.0
  0
MTEXT
  5
B4
330
1F
100
AcDbEntity
  8
DIMENSION
100
AcDbMText
 10
14.1041759173
 20
0.7867712706
 30
0.0
 40
0.1458333333
 41
0.0
 71
     1
 72
     1
  1
B
  7
SLDTEXTSTYLE0
 73
     1
 44
1.0
  0
MTEXT
  5
B6
330
1F
100
AcDbEntity
  8
DIMENSION
 62
     7
100
AcDbMText
 10
15.6270022299
 20
0.5271397321
 30
0.0
 40
0.0833333333
 41
0.0
 71
     1
 72
     1
  1
SHEET 1 OF 1
  7
SLDTEXTSTYLE1
 73
     1
 44
1.0
  0
MTEXT
  5
B7
330
1F
100
AcDbEntity
  8
DIMENSION
 62
     7
100
AcDbMText
 10
14.0525094629
 20
0.5271397321
 30
0.0
 40
0.0833333333
 41
0.0
 71
     1
 72
     1
  1
NOT TO SCALE
  7
SLDTEXTSTYLE0
 73
     1
 44
1.0
  0
MTEXT
  5
B8
330
1F
100
AcDbEntity
  8
DIMENSION
100
AcDbMText
 10
16.0442421265
 20
10.557416565
 30
0.0
 40
0.0729166667
 41
0.0
 71
     1
 72
     1
  1
DATE
  7
SLDTEXTSTYLE0
 73
     1
 44
1.0
  0
MTEXT
  5
B9
330
1F
100
AcDbEntity
  8
DIMENSION
100
AcDbMText
 10
13.9228861369
 20
10.557416565
 30
0.0
 40
0.0729166667
 41
0.0
 71
     1
 72
     1
  1
DESCRIPTION
  7
SLDTEXTSTYLE0
 73
     1
 44
1.0
  0
MTEXT
  5
BA
330
1F
100
AcDbEntity
  8
DIMENSION
100
AcDbMText
 10
11.6992358738
 20
10.557416565
 30
0.0
 40
0.0729166667
 41
0.0
 71
     1
 72
     1
  1
CHANGED BY
  7
SLDTEXTSTYLE0
 73
     1
 44
1.0
  0
MTEXT
  5
BB
330
1F
100
AcDbEntity
  8
DIMENSION
100
AcDbMText
 10
11.3555855583
 20
10.557416565
 30
0.0
 40
0.0729166667
 41
0.0
 71
     1
 72
     1
  1
REV
  7
SLDTEXTSTYLE0
 73
     1
 44
1.0
  0
LINE
  5
BC
330
1F
100
AcDbEntity
  8
0
  6
Continuous
 62
     7
370
    25
100
AcDbLine
 10
4.2840817291
 20
3.2021453385
 30
0.0
 11
4.2909690915
 21
3.2021453385
 31
0.0
  0
LINE
  5
BD
330
1F
100
AcDbEntity
  8
0
  6
Continuous
 62
     7
370
    25
100
AcDbLine
 10
4.2921248918
 20
3.1503490529
 30
0.0
 11
4.2862182414
 21
3.1503490529
 31
0.0
  0
CIRCLE
  5
BE
330
1F
100
AcDbEntity
  8
0
  6
Continuous
 62
     7
370
    25
100
AcDbCircle
 10
5.7378055368
 20
3.2085172106
 30
0.0
 40
1.446850393700786
  0
CIRCLE
  5
BF
330
1F
100
AcDbEntity
  8
0
  6
Continuous
 62
     7
370
    25
100
AcDbCircle
 10
5.7378055368
 20
3.2085172106
 30
0.0
 40
1.41732283464577
  0
CIRCLE
  5
C0
330
1F
100
AcDbEntity
  8
0
  6
Continuous
 62
     7
370
    25
100
AcDbCircle
 10
5.7378055368
 20
3.2085172106
 30
0.0
 40
1.279527559055209
  0
SPLINE
  5
C1
330
1F
100
AcDbEntity
  8
0
  6
Continuous
 62
     7
370
    25
100
AcDbSpline
210
0.0
220
0.0
230
1.0
 70
     8
 71
     3
 72
    12
 73
     8
 74
     0
 42
0.00000001
 43
0.00000001
 40
0.0
 40
0.0
 40
0.0
 40
0.0
 40
0.2893679421779997
 40
0.4933694727724831
 40
0.6981147401454187
 40
0.8871274519614095
 40
1.0
 40
1.0
 40
1.0
 40
1.0
 10
4.285063603639172
 20
3.202145655308604
 30
0.0
 10
4.28506151336683
 20
3.202522715085973
 30
0.0
 10
4.285057949473205
 20
3.203165598268417
 30
0.0
 10
4.285044986362895
 20
3.208779898452011
 30
0.0
 10
4.285062007806655
 20
3.216066960003897
 30
0.0
 10
4.285121414748938
 20
3.223687984175066
 30
0.0
 10
4.285186732409414
 20
3.228413327774676
 30
0.0
 10
4.285211154174073
 20
3.230180096952816
 30
0.0
  0
LINE
  5
C2
330
1F
100
AcDbEntity
  8
0
  6
Continuous
 62
     7
370
    25
100
AcDbLine
 10
4.2852111542
 20
3.230180097
 30
0.0
 11
4.2911173253
 21
3.230180097
 31
0.0
  0
LINE
  5
C3
330
1F
100
AcDbEntity
  8
0
  6
Continuous
 62
     7
370
    25
100
AcDbLine
 10
4.2855470631
 20
3.2465309791
 30
0.0
 11
4.2914546059
 21
3.2465309791
 31
0.0
  0
SPLINE
  5
C4
330
1F
100
AcDbEntity
  8
0
  6
Continuous
 62
     7
370
    25
100
AcDbSpline
210
0.0
220
0.0
230
1.0
 70
     8
 71
     3
 72
    10
 73
     6
 74
     0
 42
0.00000001
 43
0.00000001
 40
0.0
 40
0.0
 40
0.0
 40
0.0
 40
0.3211424501690244
 40
0.6423031599228871
 40
1.0
 40
1.0
 40
1.0
 40
1.0
 10
4.285211154174073
 20
3.230180096952816
 30
0.0
 10
4.285245139704473
 20
3.232277475938142
 30
0.0
 10
4.285313112697628
 20
3.236472353162008
 30
0.0
 10
4.285441105867107
 20
3.242370528482732
 30
0.0
 10
4.285510499095785
 20
3.24509528017978
 30
0.0
 10
4.285547063082776
 20
3.246530979130572
 30
0.0
  0
LINE
  5
C5
330
1F
100
AcDbEntity
  8
0
  6
Continuous
 62
     7
370
    25
100
AcDbLine
 10
4.2914678955
 20
3.247033301
 30
0.0
 11
4.2855602986
 21
3.247033301
 31
0.0
  0
LINE
  5
C6
330
1F
100
AcDbEntity
  8
0
  6
Continuous
 62
     7
370
    25
100
AcDbLine
 10
4.2855602986
 20
3.247033301
 30
0.0
 11
4.2855470631
 21
3.2465309791
 31
0.0
  0
LINE
  5
C7
330
1F
100
AcDbEntity
  8
0
  6
Continuous
 62
     7
370
    25
100
AcDbLine
 10
4.2917562125
 20
3.2566567307
 30
0.0
 11
4.2858474425
 21
3.2566567307
 31
0.0
  0
ARC
  5
C8
330
1F
100
AcDbEntity
  8
0
  6
Continuous
 62
     7
370
    25
100
AcDbCircle
 10
5.7378055368
 20
3.2085172106
 30
0.0
 40
1.452755905511707
100
AcDbArc
 50
178.1010599693
 51
178.480771596
  0
LINE
  5
C9
330
1F
100
AcDbEntity
  8
0
  6
Continuous
 62
     7
370
    25
100
AcDbLine
 10
4.2938961913
 20
3.300722762
 30
0.0
 11
4.2879786998
 21
3.300722762
 31
0.0
  0
LINE
  5
CA
330
1F
100
AcDbEntity
  8
0
  6
Continuous
 62
     7
370
    25
100
AcDbLine
 10
4.294779243
 20
3.3136417898
 30
0.0
 11
4.2888581451
 21
3.3136417898
 31
0.0
  0
ARC
  5
CB
330
1F
100
AcDbEntity
  8
0
  6
Continuous
 62
     7
370
    25
100
AcDbCircle
 10
5.7378055368
 20
3.2085172106
 30
0.0
 40
1.452755905511811
100
AcDbArc
 50
175.8503258248
 51
176.3610250436
  0
LINE
  5
CC
330
1F
100
AcDbEntity
  8
0
  6
Continuous
 62
     7
370
    25
100
AcDbLine
 10
4.285944742
 20
3.1575274714
 30
0.0
 11
4.2918539096
 21
3.1575274714
 31
0.0
  0
ARC
  5
CD
330
1F
100
AcDbEntity
  8
0
  6
Continuous
 62
     7
370
    25
100
AcDbCircle
 10
5.7378055368
 20
3.2085172106
 30
0.0
 40
1.452755905512012
100
AcDbArc
 50
180.2884273727
 51
182.0114163807
  0
LINE
  5
CE
330
1F
100
AcDbEntity
  8
0
  6
Continuous
 62
     7
370
    25
100
AcDbLine
 10
4.2909736255
 20
3.2012040577
 30
0.0
 11
4.2850680385
 21
3.2012040577
 31
0.0
  0
LINE
  5
CF
330
1F
100
AcDbEntity
  8
0
  6
Continuous
 62
     7
370
    25
100
AcDbLine
 10
4.2923133681
 20
3.2711945761
 30
0.0
 11
4.2864023299
 21
3.2711945761
 31
0.0
  0
LINE
  5
D0
330
1F
100
AcDbEntity
  8
0
  6
Continuous
 62
     7
370
    25
100
AcDbLine
 10
4.2859020524
 20
3.2582765636
 30
0.0
 11
4.2918110456
 21
3.2582765636
 31
0.0
  0
ARC
  5
D1
330
1F
100
AcDbEntity
  8
0
  6
Continuous
 62
     7
370
    25
100
AcDbCircle
 10
5.7378055368
 20
3.2085172106
 30
0.0
 40
1.452755905511812
100
AcDbArc
 50
177.5272765941
 51
178.0371384774
  0
LINE
  5
D2
330
1F
100
AcDbEntity
  8
0
  6
Continuous
 62
     7
370
    25
100
AcDbLine
 10
4.2925065682
 20
3.275501934
 30
0.0
 11
4.286594743
 21
3.275501934
 31
0.0
  0
ARC
  5
D3
330
1F
100
AcDbEntity
  8
0
  6
Continuous
 62
     7
370
    25
100
AcDbCircle
 10
5.7378055368
 20
3.2085172106
 30
0.0
 40
1.452755905511812
100
AcDbArc
 50
177.3572276317
 51
177.5272765941
  0
LINE
  5
D4
330
1F
100
AcDbEntity
  8
0
  6
Continuous
 62
     7
370
    25
100
AcDbLine
 10
4.2929963077
 20
3.1316904363
 30
0.0
 11
4.2870824868
 21
3.1316904363
 31
0.0
  0
LINE
  5
D5
330
1F
100
AcDbEntity
  8
0
  6
Continuous
 62
     7
370
    25
100
AcDbLine
 10
4.2888581451
 20
3.1033926314
 30
0.0
 11
4.294779243
 21
3.1033926314
 31
0.0
  0
ARC
  5
D6
330
1F
100
AcDbEntity
  8
0
  6
Continuous
 62
     7
370
    25
100
AcDbCircle
 10
5.7378055368
 20
3.2085172106
 30
0.0
 40
1.452755905511811
100
AcDbArc
 50
183.0314137703
 51
184.1496741752
  0
LINE
  5
D7
330
1F
100
AcDbEntity
  8
0
  6
Continuous
 62
     7
370
    25
100
AcDbLine
 10
4.2936053473
 20
3.2960493438
 30
0.0
 11
4.2876890426
 21
3.2960493438
 31
0.0
  0
ARC
  5
D8
330
1F
100
AcDbEntity
  8
0
  6
Continuous
 62
     7
370
    25
100
AcDbCircle
 10
5.7378055368
 20
3.2085172106
 30
0.0
 40
1.452755905511812
100
AcDbArc
 50
176.3610250436
 51
176.5456954855
  0
LINE
  5
D9
330
1F
100
AcDbEntity
  8
0
  6
Continuous
 62
     7
370
    25
100
AcDbLine
 10
4.2925801851
 20
3.1399625276
 30
0.0
 11
4.28666806
 21
3.1399625276
 31
0.0
  0
LINE
  5
DA
330
1F
100
AcDbEntity
  8
0
  6
Continuous
 62
     7
370
    25
100
AcDbLine
 10
4.28666806
 20
3.1399625276
 30
0.0
 11
4.2870824868
 21
3.1316904363
 31
0.0
  0
SPLINE
  5
DB
330
1F
100
AcDbEntity
  8
0
  6
Continuous
 62
     7
370
    25
100
AcDbSpline
210
0.0
220
0.0
230
1.0
 70
     8
 71
     3
 72
    11
 73
     7
 74
     0
 42
0.00000001
 43
0.00000001
 40
0.0
 40
0.0
 40
0.0
 40
0.0
 40
0.2666786099121747
 40
0.533354908916948
 40
0.8001019226657612
 40
1.0
 40
1.0
 40
1.0
 40
1.0
 10
4.286215094998679
 20
3.150337228216944
 30
0.0
 10
4.286219214966959
 20
3.150232697602964
 30
0.0
 10
4.286227454867815
 20
3.150023637280813
 30
0.0
 10
4.286330834996996
 20
3.147494449205245
 30
0.0
 10
4.28648074919017
 20
3.143995495669492
 30
0.0
 10
4.286611885000267
 20
3.141172025518714
 30
0.0
 10
4.28666806001809
 20
3.139962527625484
 30
0.0
  0
ARC
  5
DC
330
1F
100
AcDbEntity
  8
0
  6
Continuous
 62
     7
370
    25
100
AcDbCircle
 10
5.7378055368
 20
3.2085172106
 30
0.0
 40
1.452755905511812
100
AcDbArc
 50
176.5456954855
 51
177.3572276317
  0
LINE
  5
DD
330
1F
100
AcDbEntity
  8
0
  6
Continuous
 62
     7
370
    25
100
AcDbLine
 10
4.2852331791
 20
3.2316097823
 30
0.0
 11
4.2852331711
 21
3.2316087655
 31
0.0
  0
CIRCLE
  5
DE
330
1F
100
AcDbEntity
  8
0
  6
Continuous
 62
     7
370
    25
100
AcDbCircle
 10
5.7378055368
 20
3.2085172106
 30
0.0
 40
1.278840142332677
  0
ARC
  5
DF
330
1F
100
AcDbEntity
  8
0
  6
Continuous
 62
     7
370
    25
100
AcDbCircle
 10
5.7378055368
 20
3.2085172106
 30
0.0
 40
1.269685039369055
100
AcDbArc
 50
180.0
 51
360.0
  0
LINE
  5
E0
330
1F
100
AcDbEntity
  8
0
  6
Continuous
 62
     7
370
    25
100
AcDbLine
 10
4.4681204974
 20
3.2085172106
 30
0.0
 11
4.4779630171
 21
3.2085172106
 31
0.0
  0
ARC
  5
E1
330
1F
100
AcDbEntity
  8
0
  6
Continuous
 62
     7
370
    25
100
AcDbCircle
 10
5.7378055368
 20
3.2085172106
 30
0.0
 40
1.25984251968434
100
AcDbArc
 50
180.0
 51
0.0000000001
  0
LINE
  5
E2
330
1F
100
AcDbEntity
  8
0
  6
Continuous
 62
     7
370
    25
100
AcDbLine
 10
6.9976480565
 20
3.2085172106
 30
0.0
 11
7.0074905761
 21
3.2085172106
 31
0.0
  0
ARC
  5
E3
330
1F
100
AcDbEntity
  8
0
  6
Continuous
 62
     7
370
    25
100
AcDbCircle
 10
5.7378055368
 20
3.2085172106
 30
0.0
 40
1.269685039369149
100
AcDbArc
 50
0.0
 51
180.0
  0
ARC
  5
E4
330
1F
100
AcDbEntity
  8
0
  6
Continuous
 62
     7
370
    25
100
AcDbCircle
 10
5.7378055368
 20
3.2085172106
 30
0.0
 40
1.259842519684341
100
AcDbArc
 50
0.0
 51
180.0
  0
DIMENSION
  5
E5
330
1F
100
AcDbEntity
  8
DIMENSION
100
AcDbDimension
  2
_D
 10
7.1846559305
 20
5.0388638089
 30
0.0
 11
5.7189176799
 21
5.0388638089
 31
0.0
 70
   160
  1
%%c<>
 71
     2
 42
-1.0
  3
SLDDIMSTYLE0
100
AcDbAlignedDimension
 13
4.2909551431
 23
3.2085172106
 33
0.0
 14
7.1846559305
 24
3.2085172106
 34
0.0
100
AcDbRotatedDimension
  0
LINE
  5
F6
330
1F
100
AcDbEntity
  8
0
  6
Continuous
 62
     7
370
    25
100
AcDbLine
 10
7.1846559305
 20
6.3597543535
 30
0.0
 11
7.1846559305
 21
8.9227464795
 31
0.0
  0
LINE
  5
F7
330
1F
100
AcDbEntity
  8
0
  6
Continuous
 62
     7
370
    25
100
AcDbLine
 10
4.2909551431
 20
8.9227464795
 30
0.0
 11
4.2909551431
 21
6.3597543535
 31
0.0
  0
ARC
  5
F8
330
1F
100
AcDbEntity
  8
0
  6
Continuous
 62
     7
370
    25
100
AcDbCircle
 10
4.3007976628
 20
8.9516190555
 30
0.0
 40
0.0098425196850401
100
AcDbArc
 50
180.0
 51
227.1767185949
  0
ARC
  5
F9
330
1F
100
AcDbEntity
  8
0
  6
Continuous
 62
     7
370
    25
100
AcDbCircle
 10
7.1748134108
 20
8.9516190555
 30
0.0
 40
0.0098425196850395
100
AcDbArc
 50
312.8232814051
 51
0.0
  0
LINE
  5
FA
330
1F
100
AcDbEntity
  8
0
  6
Continuous
 62
     7
370
    25
100
AcDbLine
 10
4.2909551431
 20
9.0014866369
 30
0.0
 11
4.2909551431
 21
8.9516190555
 31
0.0
  0
LINE
  5
FB
330
1F
100
AcDbEntity
  8
0
  6
Continuous
 62
     7
370
    25
100
AcDbLine
 10
7.1846559305
 20
8.9516190555
 30
0.0
 11
7.1846559305
 21
9.0014866369
 31
0.0
  0
LINE
  5
FC
330
1F
100
AcDbEntity
  8
0
  6
Continuous
 62
     7
370
    25
100
AcDbLine
 10
4.3598527809
 20
8.9444000228
 30
0.0
 11
4.372146084
 21
8.9424315188
 31
0.0
  0
LINE
  5
FD
330
1F
100
AcDbEntity
  8
0
  6
Continuous
 62
     7
370
    25
100
AcDbLine
 10
7.1034649895
 20
8.9424315188
 30
0.0
 11
7.1157582927
 21
8.9444000228
 31
0.0
  0
ARC
  5
FE
330
1F
100
AcDbEntity
  8
0
  6
Continuous
 62
     7
370
    25
100
AcDbCircle
 10
7.1256008124
 20
8.9030614401
 30
0.0
 40
0.0393700787401574
100
AcDbArc
 50
30.0
 51
90.0
  0
ARC
  5
FF
330
1F
100
AcDbEntity
  8
0
  6
Continuous
 62
     7
370
    25
100
AcDbCircle
 10
4.3500102612
 20
8.9030614401
 30
0.0
 40
0.0393700787401574
100
AcDbArc
 50
90.0
 51
150.0
  0
LINE
  5
100
330
1F
100
AcDbEntity
  8
0
  6
Continuous
 62
     7
370
    25
100
AcDbLine
 10
7.1256008124
 20
8.9424315188
 30
0.0
 11
4.3500102612
 21
8.9424315188
 31
0.0
  0
ARC
  5
101
330
1F
100
AcDbEntity
  8
0
  6
Continuous
 62
     7
370
    25
100
AcDbCircle
 10
7.1256008124
 20
6.3794393928
 30
0.0
 40
0.0393700787401581
100
AcDbArc
 50
270.0
 51
330.0
  0
ARC
  5
102
330
1F
100
AcDbEntity
  8
0
  6
Continuous
 62
     7
370
    25
100
AcDbCircle
 10
4.3500102612
 20
6.3794393928
 30
0.0
 40
0.0393700787401574
100
AcDbArc
 50
210.0
 51
270.0
  0
LINE
  5
103
330
1F
100
AcDbEntity
  8
0
  6
Continuous
 62
     7
370
    25
100
AcDbLine
 10
7.1846559305
 20
6.0841638023
 30
0.0
 11
7.1846559305
 21
6.3308817775
 31
0.0
  0
LINE
  5
104
330
1F
100
AcDbEntity
  8
0
  6
Continuous
 62
     7
370
    25
100
AcDbLine
 10
4.2909551431
 20
6.1813915475
 30
0.0
 11
4.2909551431
 21
6.0841638023
 31
0.0
  0
LINE
  5
105
330
1F
100
AcDbEntity
  8
0
  6
Continuous
 62
     7
370
    25
100
AcDbLine
 10
4.2909551431
 20
6.3308817775
 30
0.0
 11
4.2909551431
 21
6.2441035505
 31
0.0
  0
ARC
  5
106
330
1F
100
AcDbEntity
  8
0
  6
Continuous
 62
     7
370
    25
100
AcDbCircle
 10
7.1748134108
 20
6.3308817775
 30
0.0
 40
0.0098425196850389
100
AcDbArc
 50
0.0
 51
68.9797517724
  0
ARC
  5
107
330
1F
100
AcDbEntity
  8
0
  6
Continuous
 62
     7
370
    25
100
AcDbCircle
 10
4.3007976628
 20
6.3308817775
 30
0.0
 40
0.0098425196850389
100
AcDbArc
 50
111.0202482276
 51
180.0
  0
LINE
  5
108
330
1F
100
AcDbEntity
  8
0
  6
Continuous
 62
     7
370
    25
100
AcDbLine
 10
4.2850496313
 20
6.2331236005
 30
0.0
 11
4.2850496313
 21
6.1922411462
 31
0.0
  0
LINE
  5
109
330
1F
100
AcDbEntity
  8
0
  6
Continuous
 62
     7
370
    25
100
AcDbLine
 10
4.2841047257
 20
6.1813915475
 30
0.0
 11
4.2911180175
 21
6.1813915475
 31
0.0
  0
LINE
  5
10A
330
1F
100
AcDbEntity
  8
0
  6
Continuous
 62
     7
370
    25
100
AcDbLine
 10
4.2911169266
 20
6.2441035505
 30
0.0
 11
4.2839615678
 21
6.2441035505
 31
0.0
  0
LINE
  5
10B
330
1F
100
AcDbEntity
  8
0
  6
Continuous
 62
     7
370
    25
100
AcDbLine
 10
4.2909551431
 20
6.3597543535
 30
0.0
 11
7.1846559305
 21
6.3597543535
 31
0.0
  0
LINE
  5
10C
330
1F
100
AcDbEntity
  8
0
  6
Continuous
 62
     7
370
    25
100
AcDbLine
 10
7.1846559305
 20
8.9227464795
 30
0.0
 11
4.2909551431
 21
8.9227464795
 31
0.0
  0
LINE
  5
10D
330
1F
100
AcDbEntity
  8
0
  6
Continuous
 62
     7
370
    25
100
AcDbLine
 10
4.2941073144
 20
8.9444000228
 30
0.0
 11
7.1815037591
 21
8.9444000228
 31
0.0
  0
LINE
  5
10E
330
1F
100
AcDbEntity
  8
0
  6
Continuous
 62
     7
370
    25
100
AcDbLine
 10
4.2909551431
 20
9.0014866369
 30
0.0
 11
7.1846559305
 21
9.0014866369
 31
0.0
  0
SPLINE
  5
10F
330
1F
100
AcDbEntity
  8
0
  6
Continuous
 62
     7
370
    25
100
AcDbSpline
210
0.0
220
0.0
230
1.0
 70
     8
 71
     3
 72
     9
 73
     5
 74
     0
 42
0.00000001
 43
0.00000001
 40
0.0
 40
0.0
 40
0.0
 40
0.0
 40
0.7677713652112199
 40
1.0
 40
1.0
 40
1.0
 40
1.0
 10
4.291236973023281
 20
6.182829419094848
 30
0.0
 10
4.291203996084882
 20
6.182223258247544
 30
0.0
 10
4.29116104457628
 20
6.181433751273501
 30
0.0
 10
4.291125564764344
 20
6.181399543100219
 30
0.0
 10
4.291117325336055
 20
6.181391598982839
 30
0.0
  0
LINE
  5
110
330
1F
100
AcDbEntity
  8
0
  6
Continuous
 62
     7
370
    25
100
AcDbLine
 10
4.2917562125
 20
6.182888394
 30
0.0
 11
4.2917562125
 21
6.1828294191
 31
0.0
  0
SPLINE
  5
111
330
1F
100
AcDbEntity
  8
0
  6
Continuous
 62
     7
370
    25
100
AcDbSpline
210
0.0
220
0.0
230
1.0
 70
     8
 71
     3
 72
     9
 73
     5
 74
     0
 42
0.00000001
 43
0.00000001
 40
0.0
 40
0.0
 40
0.0
 40
0.0
 40
0.9949113432560194
 40
1.0
 40
1.0
 40
1.0
 40
1.0
 10
4.291117325336055
 20
6.244103536579098
 30
0.0
 10
4.291184478659689
 20
6.24406444901775
 30
0.0
 10
4.291251975451328
 20
6.244025161535892
 30
0.0
 10
4.291335987545305
 20
6.241956314800072
 30
0.0
 10
4.291336415054014
 20
6.241945787149178
 30
0.0
  0
ELLIPSE
  5
112
330
1F
100
AcDbEntity
  8
0
  6
Continuous
 62
     7
370
    25
100
AcDbEllipse
 10
5.7378055368
 20
6.4797200918
 30
0.0
 11
0.0
 21
4.085353417388019
 31
0.0
210
0.0
220
0.0
230
1.0
 40
0.3541555028
 41
1.629030884774034
 42
1.643517939378176
  0
LINE
  5
113
330
1F
100
AcDbEntity
  8
0
  6
Continuous
 62
     7
370
    25
100
AcDbLine
 10
7.1846559305
 20
6.0841638023
 30
0.0
 11
4.2909551431
 21
6.0841638023
 31
0.0
  0
LINE
  5
114
330
1F
100
AcDbEntity
  8
0
  6
Continuous
 62
     7
370
    25
100
AcDbLine
 10
7.1783439015
 20
6.3400693141
 30
0.0
 11
4.2972671721
 21
6.3400693141
 31
0.0
  0
LINE
  5
115
330
1F
100
AcDbEntity
  8
0
  6
Continuous
 62
     7
370
    25
100
AcDbLine
 10
4.294779243
 20
6.182888394
 30
0.0
 11
4.2888581451
 21
6.182888394
 31
0.0
  0
ELLIPSE
  5
116
330
1F
100
AcDbEntity
  8
0
  6
Continuous
 62
     7
370
    25
100
AcDbEllipse
 10
5.7378055368
 20
6.4797200918
 30
0.0
 11
0.0
 21
4.102028329295724
 31
0.0
210
0.0
220
0.0
230
1.0
 40
0.3541555028
 41
1.628793892600179
 42
1.643221804036471
  0
LINE
  5
117
330
1F
100
AcDbEntity
  8
0
  6
Continuous
 62
     7
370
    25
100
AcDbLine
 10
4.2874922768
 20
6.2419457871
 30
0.0
 11
4.2934077755
 21
6.2419457871
 31
0.0
  0
ELLIPSE
  5
118
330
1F
100
AcDbEntity
  8
0
  6
Continuous
 62
     7
370
    25
100
AcDbEllipse
 10
5.7378055368
 20
5.994900621
 30
0.0
 11
-8.881784197001252E-16
 21
4.357240374009244
 31
0.0
210
0.0
220
0.0
230
1.0
 40
0.3334119261
 41
1.524671247586871
 42
1.52763916187072
  0
LINE
  5
119
330
1F
100
AcDbEntity
  8
0
  6
Continuous
 62
     7
370
    25
100
AcDbLine
 10
4.2864023299
 20
6.182888394
 30
0.0
 11
4.2859020524
 21
6.182888394
 31
0.0
  0
ELLIPSE
  5
11A
330
1F
100
AcDbEntity
  8
0
  6
Continuous
 62
     7
370
    25
100
AcDbEllipse
 10
5.7378055368
 20
6.0423938284
 30
0.0
 11
-8.881784197001252E-16
 21
4.101828048571485
 31
0.0
210
0.0
220
0.0
230
1.0
 40
0.3541727952
 41
1.522127597596597
 42
1.536537930464445
  0
LINE
  5
11B
330
1F
100
AcDbEntity
  8
0
  6
Continuous
 62
     7
370
    25
100
AcDbLine
 10
4.2874922768
 20
6.2419457871
 30
0.0
 11
4.2867698233
 21
6.2419457871
 31
0.0
  0
LINE
  5
11C
330
1F
100
AcDbEntity
  8
0
  6
Continuous
 62
     7
370
    25
100
AcDbLine
 10
4.2888581451
 20
6.182888394
 30
0.0
 11
4.2879786998
 21
6.182888394
 31
0.0
  0
ELLIPSE
  5
11D
330
1F
100
AcDbEntity
  8
0
  6
Continuous
 62
     7
370
    25
100
AcDbEllipse
 10
5.7378055368
 20
6.4377780753
 30
0.0
 11
0.0
 21
4.015945721825097
 31
0.0
210
0.0
220
0.0
230
1.0
 40
0.3617468975
 41
1.631085313939319
 42
1.634308421181213
  0
LINE
  5
11E
330
1F
100
AcDbEntity
  8
0
  6
Continuous
 62
     7
370
    25
100
AcDbLine
 10
4.2876890426
 20
6.1958074217
 30
0.0
 11
4.286594743
 21
6.1958074217
 31
0.0
  0
ELLIPSE
  5
11F
330
1F
100
AcDbEntity
  8
0
  6
Continuous
 62
     7
370
    25
100
AcDbEllipse
 10
5.7378055368
 20
5.9714558292
 30
0.0
 11
-8.881784197001252E-16
 21
4.843386922349032
 31
0.0
210
0.0
220
0.0
230
1.0
 40
0.2999462832
 41
1.517464110331799
 42
1.52255156000238
  0
LINE
  5
120
330
1F
100
AcDbEntity
  8
0
  6
Continuous
 62
     7
370
    25
100
AcDbLine
 10
4.2875281868
 20
6.2050332663
 30
0.0
 11
4.2867399898
 21
6.2050332663
 31
0.0
  0
ELLIPSE
  5
121
330
1F
100
AcDbEntity
  8
0
  6
Continuous
 62
     7
370
    25
100
AcDbEllipse
 10
5.7378055368
 20
6.4877569631
 30
0.0
 11
0.0
 21
4.842052839735278
 31
0.0
210
0.0
220
0.0
230
1.0
 40
0.3000289244
 41
1.624128543257996
 42
1.629218777259007
  0
LINE
  5
122
330
1F
100
AcDbEntity
  8
0
  6
Continuous
 62
     7
370
    25
100
AcDbLine
 10
4.2879786998
 20
6.182888394
 30
0.0
 11
4.2864023299
 21
6.182888394
 31
0.0
  0
LINE
  5
123
330
1F
100
AcDbEntity
  8
0
  6
Continuous
 62
     7
370
    25
100
AcDbLine
 10
4.2864643882
 20
6.2233741159
 30
0.0
 11
4.2858432675
 21
6.2233741159
 31
0.0
  0
SPLINE
  5
124
330
1F
100
AcDbEntity
  8
0
  6
Continuous
 62
     7
370
    25
100
AcDbSpline
210
0.0
220
0.0
230
1.0
 70
     8
 71
     3
 72
    11
 73
     7
 74
     0
 42
0.00000001
 43
0.00000001
 40
0.0
 40
0.0
 40
0.0
 40
0.0
 40
0.3214330871865774
 40
0.5371901904106425
 40
0.7528418101721636
 40
1.0
 40
1.0
 40
1.0
 40
1.0
 10
4.285843267486748
 20
6.223374115927705
 30
0.0
 10
4.285801574429373
 20
6.227130183955047
 30
0.0
 10
4.285731895537174
 20
6.233407455895104
 30
0.0
 10
4.285539412145683
 20
6.239900152887451
 30
0.0
 10
4.285356092897627
 20
6.243501059894614
 30
0.0
 10
4.285261611085622
 20
6.243893798891101
 30
0.0
 10
4.285211154174073
 20
6.244103536579098
 30
0.0
  0
LINE
  5
125
330
1F
100
AcDbEntity
  8
0
  6
Continuous
 62
     7
370
    25
100
AcDbLine
 10
4.2852111542
 20
6.2441035366
 30
0.0
 11
4.2911173253
 21
6.2441035366
 31
0.0
  0
SPLINE
  5
126
330
1F
100
AcDbEntity
  8
0
  6
Continuous
 62
     7
370
    25
100
AcDbSpline
210
0.0
220
0.0
230
1.0
 70
     8
 71
     3
 72
    11
 73
     7
 74
     0
 42
0.00000001
 43
0.00000001
 40
0.0
 40
0.0
 40
0.0
 40
0.0
 40
0.2768564673858609
 40
0.5554463643757621
 40
0.794470881457573
 40
1.0
 40
1.0
 40
1.0
 40
1.0
 10
4.285526857735293
 20
6.205157321511325
 30
0.0
 10
4.28551379723956
 20
6.20318893498016
 30
0.0
 10
4.285487594474856
 20
6.199239837627495
 30
0.0
 10
4.285397081856393
 20
6.194678998936787
 30
0.0
 10
4.285300365119966
 20
6.192010967796382
 30
0.0
 10
4.2852472197973
 20
6.191717219541893
 30
0.0
 10
4.285222649283313
 20
6.191581411812564
 30
0.0
  0
ELLIPSE
  5
127
330
1F
100
AcDbEntity
  8
0
  6
Continuous
 62
     7
370
    25
100
AcDbEllipse
 10
5.7378055368
 20
6.2051519668
 30
0.0
 11
1.452755905511809
 21
0.0
 31
0.0
210
0.0
220
0.0
230
1.0
 40
0.0001438125
 41
3.115960043476539
 42
3.125696284360926
  0
LINE
  5
128
330
1F
100
AcDbEntity
  8
0
  6
Continuous
 62
     7
370
    25
100
AcDbLine
 10
4.2852331791
 20
6.2051552878
 30
0.0
 11
4.2852331711
 21
6.2147085551
 31
0.0
  0
LINE
  5
129
330
1F
100
AcDbEntity
  8
0
  6
Continuous
 62
     7
370
    25
100
AcDbLine
 10
4.2858474425
 20
6.2147085551
 30
0.0
 11
4.2852331711
 21
6.2147085551
 31
0.0
  0
LINE
  5
12A
330
1F
100
AcDbEntity
  8
0
  6
Continuous
 62
     7
370
    25
100
AcDbLine
 10
4.2858474425
 20
6.2147085551
 30
0.0
 11
4.2858474425
 21
6.1828294191
 31
0.0
  0
LINE
  5
12B
330
1F
100
AcDbEntity
  8
0
  6
Continuous
 62
     7
370
    25
100
AcDbLine
 10
4.2858474425
 20
6.1828294191
 30
0.0
 11
4.2855602986
 21
6.1828294191
 31
0.0
  0
LINE
  5
12C
330
1F
100
AcDbEntity
  8
0
  6
Continuous
 62
     7
370
    25
100
AcDbLine
 10
4.2855602986
 20
6.1828294191
 30
0.0
 11
4.2855470631
 21
6.1906591326
 31
0.0
  0
SPLINE
  5
12D
330
1F
100
AcDbEntity
  8
0
  6
Continuous
 62
     7
370
    25
100
AcDbSpline
210
0.0
220
0.0
230
1.0
 70
     8
 71
     3
 72
    10
 73
     6
 74
     0
 42
0.00000001
 43
0.00000001
 40
0.0
 40
0.0
 40
0.0
 40
0.0
 40
0.3211424501690244
 40
0.6423031599228871
 40
1.0
 40
1.0
 40
1.0
 40
1.0
 10
4.285211154174073
 20
6.181391598982839
 30
0.0
 10
4.285245139704473
 20
6.181593589042934
 30
0.0
 10
4.285313112697628
 20
6.181997580647915
 30
0.0
 10
4.285441105867107
 20
6.18528112116646
 30
0.0
 10
4.285510499095785
 20
6.188803274642972
 30
0.0
 10
4.285547063082776
 20
6.190659132575359
 30
0.0
  0
SPLINE
  5
12E
330
1F
100
AcDbEntity
  8
0
  6
Continuous
 62
     7
370
    25
100
AcDbSpline
210
0.0
220
0.0
230
1.0
 70
     8
 71
     3
 72
    11
 73
     7
 74
     0
 42
0.00000001
 43
0.00000001
 40
0.0
 40
0.0
 40
0.0
 40
0.0
 40
0.0541562809750745
 40
0.4364013584766972
 40
0.7892748563793186
 40
1.0
 40
1.0
 40
1.0
 40
1.0
 10
4.285050588746815
 20
6.192241146212056
 30
0.0
 10
4.285050265857481
 20
6.191842646714194
 30
0.0
 10
4.28504766395533
 20
6.188631463835908
 30
0.0
 10
4.285062911450458
 20
6.184648893950826
 30
0.0
 10
4.285121295527142
 20
6.181731777666816
 30
0.0
 10
4.285186699964292
 20
6.181484175503686
 30
0.0
 10
4.285211154174073
 20
6.181391598982839
 30
0.0
  0
SPLINE
  5
12F
330
1F
100
AcDbEntity
  8
0
  6
Continuous
 62
     7
370
    25
100
AcDbSpline
210
0.0
220
0.0
230
1.0
 70
     8
 71
     3
 72
    10
 73
     6
 74
     0
 42
0.00000001
 43
0.00000001
 40
0.0
 40
0.0
 40
0.0
 40
0.0
 40
0.3652482592700516
 40
0.7322202570688761
 40
1.0
 40
1.0
 40
1.0
 40
1.0
 10
4.285211154174073
 20
6.244103536579098
 30
0.0
 10
4.285171070929578
 20
6.243839033473849
 30
0.0
 10
4.285090715273272
 20
6.243308778977608
 30
0.0
 10
4.285052363143456
 20
6.239146950755281
 30
0.0
 10
4.285051681917874
 20
6.23491071952785
 30
0.0
 10
4.28505139453243
 20
6.233123600507468
 30
0.0
  0
ELLIPSE
  5
130
330
1F
100
AcDbEntity
  8
0
  6
Continuous
 62
     7
370
    25
100
AcDbEllipse
 10
5.7378055368
 20
6.2233700318
 30
0.0
 11
1.45275590551181
 21
0.0
 31
0.0
210
0.0
220
0.0
230
1.0
 40
0.0000850629
 41
3.108536737086394
 42
3.116768734951117
  0
SPLINE
  5
131
330
1F
100
AcDbEntity
  8
0
  6
Continuous
 62
     7
370
    25
100
AcDbSpline
210
0.0
220
0.0
230
1.0
 70
     8
 71
     3
 72
    11
 73
     7
 74
     0
 42
0.00000001
 43
0.00000001
 40
0.0
 40
0.0
 40
0.0
 40
0.0
 40
0.3082189398597598
 40
0.5181066108953921
 40
0.7272613116594631
 40
1.0
 40
1.0
 40
1.0
 40
1.0
 10
4.285222649283313
 20
6.234004223035005
 30
0.0
 10
4.28525494796335
 20
6.233858341855375
 30
0.0
 10
4.285309241056623
 20
6.23361312005426
 30
0.0
 10
4.285391606962426
 20
6.231132756048526
 30
0.0
 10
4.285454545207592
 20
6.227761307491291
 30
0.0
 10
4.28548179773721
 20
6.224959082823379
 30
0.0
 10
4.285497221935487
 20
6.223373099081658
 30
0.0
  0
SPLINE
  5
132
330
1F
100
AcDbEntity
  8
0
  6
Continuous
 62
     7
370
    25
100
AcDbSpline
210
0.0
220
0.0
230
1.0
 70
     8
 71
     3
 72
    12
 73
     8
 74
     0
 42
0.00000001
 43
0.00000001
 40
0.0
 40
0.0
 40
0.0
 40
0.0
 40
0.2994771820565349
 40
0.5157672397309907
 40
0.6904605516522555
 40
0.8660935935465442
 40
1.0
 40
1.0
 40
1.0
 40
1.0
 10
4.285062712981601
 20
6.212791800577918
 30
0.0
 10
4.285063499614553
 20
6.215780423688614
 30
0.0
 10
4.285064854373885
 20
6.220927506620992
 30
0.0
 10
4.285080620232619
 20
6.227279184398957
 30
0.0
 10
4.285111042766787
 20
6.23146664606664
 30
0.0
 10
4.285158110940791
 20
6.233696137244551
 30
0.0
 10
4.285203160776582
 20
6.233911191020764
 30
0.0
 10
4.285222649283313
 20
6.234004223035005
 30
0.0
  0
SPLINE
  5
133
330
1F
100
AcDbEntity
  8
0
  6
Continuous
 62
     7
370
    25
100
AcDbSpline
210
0.0
220
0.0
230
1.0
 70
     8
 71
     3
 72
    12
 73
     8
 74
     0
 42
0.00000001
 43
0.00000001
 40
0.0
 40
0.0
 40
0.0
 40
0.0
 40
0.1648188153105175
 40
0.3303571212818759
 40
0.4859375874146323
 40
0.7166820556312956
 40
1.0
 40
1.0
 40
1.0
 40
1.0
 10
4.285222649283313
 20
6.191581411812564
 30
0.0
 10
4.285198867138566
 20
6.191716718877668
 30
0.0
 10
4.285151199031855
 20
6.191987923669627
 30
0.0
 10
4.285107451666288
 20
6.194444509627864
 30
0.0
 10
4.285078915610483
 20
6.198582774608532
 30
0.0
 10
4.285064690957945
 20
6.204829562286222
 30
0.0
 10
4.285063415778186
 20
6.209962730403686
 30
0.0
 10
4.285062712981601
 20
6.212791800577918
 30
0.0
  0
LINE
  5
134
330
1F
100
AcDbEntity
  8
0
  6
Continuous
 62
     7
370
    25
100
AcDbLine
 10
4.2863320926
 20
6.2147085551
 30
0.0
 11
4.2858474425
 21
6.2147085551
 31
0.0
  0
LINE
  5
135
330
1F
100
AcDbEntity
  8
0
  6
Continuous
 62
     7
370
    25
100
AcDbLine
 10
4.2917562125
 20
6.1828294191
 30
0.0
 11
4.2858474425
 21
6.1828294191
 31
0.0
  0
LINE
  5
136
330
1F
100
AcDbEntity
  8
0
  6
Continuous
 62
     7
370
    25
100
AcDbLine
 10
4.2854972219
 20
6.2233730991
 30
0.0
 11
4.2864643723
 21
6.2233730991
 31
0.0
  0
LINE
  5
137
330
1F
100
AcDbEntity
  8
0
  6
Continuous
 62
     7
370
    25
100
AcDbLine
 10
4.2850680385
 20
6.1859701087
 30
0.0
 11
4.2850680385
 21
6.182888394
 31
0.0
  0
LINE
  5
138
330
1F
100
AcDbEntity
  8
0
  6
Continuous
 62
     8
370
    25
100
AcDbLine
 10
4.2909551431
 20
8.9516190555
 30
0.0
 11
7.1846559305
 21
8.9516190555
 31
0.0
  0
LINE
  5
139
330
1F
100
AcDbEntity
  8
0
  6
Continuous
 62
     8
370
    25
100
AcDbLine
 10
7.1846559305
 20
6.3308817775
 30
0.0
 11
4.2909551431
 21
6.3308817775
 31
0.0
  0
LINE
  5
13A
330
1F
100
AcDbEntity
  8
0
  6
Continuous
 62
     8
370
    25
100
AcDbLine
 10
4.285062713
 20
6.2127918006
 30
0.0
 11
4.2852331727
 21
6.2127918006
 31
0.0
  0
DIMENSION
  5
13B
330
1F
100
AcDbEntity
  8
DIMENSION
100
AcDbDimension
  2
_D_1
 10
8.2942582226
 20
9.0014866369
 30
0.0
 11
8.2942582226
 21
7.6337067767
 31
0.0
 70
   160
  1
<>
 71
     2
 42
-1.0
  3
SLDDIMSTYLE0
100
AcDbAlignedDimension
 13
7.1846559305
 23
6.0841638023
 33
0.0
 14
7.1846559305
 24
9.0014866369
 34
0.0
 50
90.0
100
AcDbRotatedDimension
  0
LINE
  5
14A
330
1F
100
AcDbEntity
  8
0
  6
Continuous
 62
     7
370
    25
100
AcDbLine
 10
14.678276119
 20
5.8190008954
 30
0.0
 11
14.678276119
 21
7.9117885668
 31
0.0
  0
LINE
  5
14B
330
1F
100
AcDbEntity
  8
0
  6
Continuous
 62
     7
370
    25
100
AcDbLine
 10
11.7845753316
 20
7.9117885668
 30
0.0
 11
11.7845753316
 21
5.8190008954
 31
0.0
  0
LINE
  5
14C
330
1F
100
AcDbEntity
  8
0
  6
Continuous
 62
     7
370
    25
100
AcDbLine
 10
11.7845753316
 20
7.976083119
 30
0.0
 11
11.7845753316
 21
7.9353642035
 31
0.0
  0
LINE
  5
14D
330
1F
100
AcDbEntity
  8
0
  6
Continuous
 62
     7
370
    25
100
AcDbLine
 10
14.678276119
 20
7.9353642035
 30
0.0
 11
14.678276119
 21
7.976083119
 31
0.0
  0
LINE
  5
14E
330
1F
100
AcDbEntity
  8
0
  6
Continuous
 62
     7
370
    25
100
AcDbLine
 10
14.678276119
 20
5.593969963
 30
0.0
 11
14.678276119
 21
5.7954252588
 31
0.0
  0
LINE
  5
14F
330
1F
100
AcDbEntity
  8
0
  6
Continuous
 62
     7
370
    25
100
AcDbLine
 10
11.7845753316
 20
5.7954252588
 30
0.0
 11
11.7845753316
 21
5.593969963
 31
0.0
  0
LINE
  5
150
330
1F
100
AcDbEntity
  8
0
  6
Continuous
 62
     7
370
    25
100
AcDbLine
 10
12.205166982
 20
6.2741201743
 30
0.0
 11
12.2100305462
 21
6.2713124984
 31
0.0
  0
LINE
  5
151
330
1F
100
AcDbEntity
  8
0
  6
Continuous
 62
     7
370
    25
100
AcDbLine
 10
12.2376365588
 20
6.3257236059
 30
0.0
 11
12.2322497984
 21
6.3288333165
 31
0.0
  0
LINE
  5
152
330
1F
100
AcDbEntity
  8
0
  6
Continuous
 62
     7
370
    25
100
AcDbLine
 10
12.1648987161
 20
6.2622932234
 30
0.0
 11
12.160718945
 21
6.2647061539
 31
0.0
  0
LINE
  5
153
330
1F
100
AcDbEntity
  8
0
  6
Continuous
 62
     7
370
    25
100
AcDbLine
 10
12.1637533951
 20
6.2831423558
 30
0.0
 11
12.1595709559
 21
6.2855568265
 31
0.0
  0
LINE
  5
154
330
1F
100
AcDbEntity
  8
0
  6
Continuous
 62
     7
370
    25
100
AcDbLine
 10
11.9617406859
 20
5.8832954475
 30
0.0
 11
11.9617406859
 21
5.8334671697
 31
0.0
  0
LINE
  5
155
330
1F
100
AcDbEntity
  8
0
  6
Continuous
 62
     7
370
    25
100
AcDbLine
 10
14.5011107646
 20
5.8334671697
 30
0.0
 11
14.5011107646
 21
5.8832954475
 31
0.0
  0
LINE
  5
156
330
1F
100
AcDbEntity
  8
0
  6
Continuous
 62
     7
370
    25
100
AcDbLine
 10
12.3334769413
 20
5.3152608168
 30
0.0
 11
12.3404377846
 21
5.3112411013
 31
0.0
  0
LWPOLYLINE
  5
157
330
1F
100
AcDbEntity
  8
0
  6
Continuous
 62
     7
370
    25
100
AcDbPolyline
 90
       50
 70
   128
 43
0.0
 10
11.7845753316
 20
5.8190008954
 10
11.7850203177
 20
5.8397146556
 10
11.7905541068
 20
5.8948544814
 10
11.8023884608
 20
5.9496626186
 10
11.8204716313
 20
6.0038994055
 10
11.8447245449
 20
6.0573276781
 10
11.8750411501
 20
6.1097138084
 10
11.9112888798
 20
6.1608287251
 10
11.9533092321
 20
6.2104489157
 10
12.0009184626
 20
6.2583574036
 10
12.0539083883
 20
6.3043446974
 10
12.1120472977
 20
6.3482097062
 10
12.1750809641
 20
6.3897606195
 10
12.2427337574
 20
6.4288157458
 10
12.3147098491
 20
6.4652043069
 10
12.3906945061
 20
6.4987671848
 10
12.4703554668
 20
6.5293576178
 10
12.5533443942
 20
6.5568418416
 10
12.6392983986
 20
6.5810996746
 10
12.7278416252
 20
6.6020250436
 10
12.8185868969
 20
6.6195264472
 10
12.9111374078
 20
6.6335273562
 10
13.0050884579
 20
6.6439665483
 10
13.1000292234
 20
6.6507983755
 10
13.1955445524
 20
6.6539929639
 10
13.2912167805
 20
6.6535363445
 10
13.3866275576
 20
6.6494305139
 10
13.4813596766
 20
6.6416934259
 10
13.574998898
 20
6.6303589128
 10
13.6671357614
 20
6.6154765375
 10
13.7573673756
 20
6.5971113768
 10
13.8452991808
 20
6.575343737
 10
13.9305466736
 20
6.5502688024
 10
14.0127370883
 20
6.5219962193
 10
14.0915110273
 20
6.4906496166
 10
14.166524032
 20
6.4563660648
 10
14.2374480898
 20
6.4192954774
 10
14.3039730678
 20
6.3795999545
 10
14.3658080691
 20
6.3374530745
 10
14.4226827051
 20
6.293039135
 10
14.4743482774
 20
6.246552347
 10
14.5205788656
 20
6.1981959852
 10
14.5611723151
 20
6.1481814998
 10
14.5959511212
 20
6.0967275914
 10
14.6247632049
 20
6.0440592548
 10
14.6474825783
 20
5.9904067952
 10
14.6640098953
 20
5.9360048213
 10
14.6742728863
 20
5.881091219
 10
14.6782266738
 20
5.8259061114
 10
14.6781320235
 20
5.8072130771
  0
LWPOLYLINE
  5
158
330
1F
100
AcDbEntity
  8
0
  6
Continuous
 62
     7
370
    25
100
AcDbPolyline
 90
       50
 70
   128
 43
0.0
 10
14.678276119
 20
7.9117885668
 10
14.6782266738
 20
7.9186937828
 10
14.6742728863
 20
7.9738788904
 10
14.6640098953
 20
8.0287924927
 10
14.6474825783
 20
8.0831944666
 10
14.6247632049
 20
8.1368469262
 10
14.5959511212
 20
8.1895152628
 10
14.5611723151
 20
8.2409691712
 10
14.5205788656
 20
8.2909836566
 10
14.4743482774
 20
8.3393400184
 10
14.4226827051
 20
8.3858268064
 10
14.3658080691
 20
8.4302407459
 10
14.3039730678
 20
8.4723876259
 10
14.2374480898
 20
8.5120831488
 10
14.166524032
 20
8.5491537362
 10
14.0915110273
 20
8.583437288
 10
14.0127370883
 20
8.6147838908
 10
13.9305466736
 20
8.6430564738
 10
13.8452991808
 20
8.6681314084
 10
13.7573673756
 20
8.6898990482
 10
13.6671357614
 20
8.7082642089
 10
13.574998898
 20
8.7231465842
 10
13.4813596766
 20
8.7344810973
 10
13.3866275576
 20
8.7422181853
 10
13.2912167805
 20
8.7463240159
 10
13.1955445524
 20
8.7467806353
 10
13.1000292234
 20
8.7435860469
 10
13.0050884579
 20
8.7367542197
 10
12.9111374078
 20
8.7263150276
 10
12.8185868969
 20
8.7123141186
 10
12.7278416252
 20
8.694812715
 10
12.6392983986
 20
8.673887346
 10
12.5533443942
 20
8.649629513
 10
12.4703554668
 20
8.6221452892
 10
12.3906945061
 20
8.5915548562
 10
12.3147098491
 20
8.5579919783
 10
12.2427337574
 20
8.5216034172
 10
12.1750809641
 20
8.4825482909
 10
12.1120472977
 20
8.4409973776
 10
12.0539083883
 20
8.3971323688
 10
12.0009184626
 20
8.3511450751
 10
11.9533092321
 20
8.3032365871
 10
11.9112888798
 20
8.2536163965
 10
11.8750411501
 20
8.2025014798
 10
11.8447245449
 20
8.1501153495
 10
11.8204716313
 20
8.0966870769
 10
11.8023884608
 20
8.0424502901
 10
11.7905541068
 20
7.9876421528
 10
11.7850203177
 20
7.9325023271
 10
11.7845753316
 20
7.9117885668
  0
ARC
  5
159
330
1F
100
AcDbEntity
  8
0
  6
Continuous
 62
     7
370
    25
100
AcDbCircle
 10
12.6554932135
 20
5.5862753863
 30
0.0
 40
0.9266638772687847
100
AcDbArc
 50
118.1165393957
 51
145.6593810221
  0
LWPOLYLINE
  5
15A
330
1F
100
AcDbEntity
  8
0
  6
Continuous
 62
     7
370
    25
100
AcDbPolyline
 90
       32
 70
   128
 43
0.0
 10
14.572503288
 20
6.1090171891
 10
14.5655448524
 20
6.1195223877
 10
14.5282228714
 20
6.1697663593
 10
14.4852303264
 20
6.2184765227
 10
14.4367552129
 20
6.2654398809
 10
14.3830095003
 20
6.3104510749
 10
14.3242282048
 20
6.3533132824
 10
14.2606683622
 20
6.3938390777
 10
14.1926079033
 20
6.431851252
 10
14.1203444394
 20
6.4671835875
 10
14.0441939601
 20
6.4996815851
 10
13.9644894521
 20
6.5292031392
 10
13.8815794429
 20
6.5556191596
 10
13.795826477
 20
6.5788141358
 10
13.7076055301
 20
6.5986866419
 10
13.6173023702
 20
6.6151497807
 10
13.5253118699
 20
6.628131563
 10
13.4320362802
 20
6.6375752227
 10
13.3378834716
 20
6.6434394652
 10
13.2432651504
 20
6.6456986476
 10
13.1485950583
 20
6.6443428911
 10
13.0542871638
 20
6.639378124
 10
12.960753851
 20
6.630826056
 10
12.8684041175
 20
6.6187240832
 10
12.7776417852
 20
6.6031251243
 10
12.6888637345
 20
6.5840973897
 10
12.6024581694
 20
6.5617240828
 10
12.5188029194
 20
6.5361030364
 10
12.4382637875
 20
6.5073462848
 10
12.3611929511
 20
6.4755795739
 10
12.2879274211
 20
6.4409418115
 10
12.2187875691
 20
6.4035844597
  0
LWPOLYLINE
  5
15B
330
1F
100
AcDbEntity
  8
0
  6
Continuous
 62
     7
370
    25
100
AcDbPolyline
 90
       36
 70
   128
 43
0.0
 10
12.2105769223
 20
8.5187930385
 10
12.2802773722
 20
8.5564532902
 10
12.3541369519
 20
8.5913719016
 10
12.4318326921
 20
8.6233961825
 10
12.5130248493
 20
8.6523860989
 10
12.5973583907
 20
8.6782148853
 10
12.6844645472
 20
8.7007695988
 10
12.7739624258
 20
8.7199516136
 10
12.865460675
 20
8.7356770516
 10
12.9585591962
 20
8.7478771493
 10
13.0528508934
 20
8.756498559
 10
13.1479234528
 20
8.7615035812
 10
13.2433611465
 20
8.7628703305
 10
13.3387466496
 20
8.7605928303
 10
13.4336628656
 20
8.7546810395
 10
13.52769475
 20
8.7451608089
 10
13.6204311254
 20
8.732073768
 10
13.7114664791
 20
8.7154771433
 10
13.8004027368
 20
8.6954435073
 10
13.8868510027
 20
8.6720604623
 10
13.9704332607
 20
8.6454302562
 10
14.0507840267
 20
8.6156693362
 10
14.1275519474
 20
8.5829078391
 10
14.2004013361
 20
8.5472890228
 10
14.2690136411
 20
8.5089686393
 10
14.333088838
 20
8.4681142537
 10
14.3923467425
 20
8.424904512
 10
14.4465282348
 20
8.3795283593
 10
14.4953963929
 20
8.332184214
 10
14.5387375289
 20
8.2830791001
 10
14.576362123
 20
8.2324277417
 10
14.6081056525
 20
8.1804516242
 10
14.6338293109
 20
8.1273780261
 10
14.6534206153
 20
8.0734390246
 10
14.6667938978
 20
8.0188704814
 10
14.668944559
 20
8.0064983552
  0
LWPOLYLINE
  5
15C
330
1F
100
AcDbEntity
  8
0
  6
Continuous
 62
     7
370
    25
100
AcDbPolyline
 90
       12
 70
   128
 43
0.0
 10
11.7939068915
 20
8.0064983552
 10
11.7988142683
 20
8.0325586248
 10
11.813748606
 20
8.0869920629
 10
11.834882085
 20
8.1407366952
 10
11.862122294
 20
8.1935575102
 10
11.8953501185
 20
8.2452235357
 10
11.9344202617
 20
8.2955088496
 10
11.9791618798
 20
8.3441935667
 10
12.0293793291
 20
8.3910648014
 10
12.0848530214
 20
8.4359175975
 10
12.1453403844
 20
8.4785558253
 10
12.2105769223
 20
8.5187930385
  0
LWPOLYLINE
  5
15D
330
1F
100
AcDbEntity
  8
0
  6
Continuous
 62
     7
370
    25
100
AcDbPolyline
 90
       11
 70
   128
 43
0.0
 10
14.4124309785
 20
8.4178754371
 10
14.4491812901
 20
8.3864056527
 10
14.498156147
 20
8.3389581362
 10
14.5415919141
 20
8.2897458061
 10
14.5792986578
 20
8.2389838555
 10
14.6111114961
 20
8.1868942534
 10
14.6368913196
 20
8.1337047743
 10
14.6565253996
 20
8.0796480024
 10
14.6699278813
 20
8.0249603142
 10
14.6770401592
 20
7.969880845
 10
14.6781320235
 20
7.9235763851
  0
LWPOLYLINE
  5
15E
330
1F
100
AcDbEntity
  8
0
  6
Continuous
 62
     7
370
    25
100
AcDbPolyline
 90
       12
 70
   128
 43
0.0
 10
11.784719427
 20
7.9235763851
 10
11.7846247767
 20
7.9284589875
 10
11.7869974817
 20
7.9836742897
 10
11.7956863038
 20
8.0386783443
 10
11.8106532491
 20
8.0932306324
 10
11.831832871
 20
8.1470926108
 10
11.8591325563
 20
8.2000287547
 10
11.8924329305
 20
8.2518075879
 10
11.9315883794
 20
8.3022026947
 10
11.9764276864
 20
8.3509937101
 10
12.0267547804
 20
8.3979672834
 10
12.0511114241
 20
8.4184385514
  0
LWPOLYLINE
  5
15F
330
1F
100
AcDbEntity
  8
0
  6
Continuous
 62
     7
370
    25
100
AcDbPolyline
 90
       37
 70
   128
 43
0.0
 10
12.2083480005
 20
8.566693318
 10
12.2782006345
 20
8.6044357971
 10
12.3522214792
 20
8.6394306498
 10
12.4300868604
 20
8.6715248525
 10
12.5114562925
 20
8.7005780655
 10
12.5959739678
 20
8.7264632464
 10
12.6832703119
 20
8.749067206
 10
12.7729636002
 20
8.7682911028
 10
12.8646616267
 20
8.7840508757
 10
12.9579634193
 20
8.7962776111
 10
13.052460993
 20
8.8049178447
 10
13.1477411339
 20
8.809933795
 10
13.2433872063
 20
8.8113035284
 10
13.3389809741
 20
8.8090210555
 10
13.4341044302
 20
8.8030963569
 10
13.5283416239
 20
8.7935553398
 10
13.6212804799
 20
8.7804397247
 10
13.7125146003
 20
8.7638068628
 10
13.8016450414
 20
8.7437294855
 10
13.8882820586
 20
8.7202953858
 10
13.9720468101
 20
8.6936070353
 10
14.052573014
 20
8.6637811353
 10
14.1295085498
 20
8.6309481068
 10
14.2025169979
 20
8.5952515204
 10
14.271279111
 20
8.5568474681
 10
14.3354942098
 20
8.515903881
 10
14.394881498
 20
8.4725997951
 10
14.4491812901
 20
8.4271245681
 10
14.498156147
 20
8.3796770517
 10
14.5415919141
 20
8.3304647216
 10
14.5792986578
 20
8.279702771
 10
14.6111114961
 20
8.2276131688
 10
14.6368913196
 20
8.1744236898
 10
14.6565253996
 20
8.1203669179
 10
14.6699278813
 20
8.0656792297
 10
14.6770401592
 20
8.0105997604
 10
14.678276119
 20
7.976083119
  0
LWPOLYLINE
  5
160
330
1F
100
AcDbEntity
  8
0
  6
Continuous
 62
     7
370
    25
100
AcDbPolyline
 90
       13
 70
   128
 43
0.0
 10
11.7845753316
 20
7.976083119
 10
11.7869974817
 20
8.0243932052
 10
11.7956863038
 20
8.0793972598
 10
11.8106532491
 20
8.1339495479
 10
11.831832871
 20
8.1878115263
 10
11.8591325563
 20
8.2407476702
 10
11.8924329305
 20
8.2925265034
 10
11.9315883794
 20
8.3429216102
 10
11.9764276864
 20
8.3917126256
 10
12.0267547804
 20
8.4386861989
 10
12.082349594
 20
8.4836369266
 10
12.1429690252
 20
8.5263682507
 10
12.2083480005
 20
8.566693318
  0
LWPOLYLINE
  5
161
330
1F
100
AcDbEntity
  8
0
  6
Continuous
 62
     7
370
    25
100
AcDbPolyline
 90
       96
 70
   128
 43
0.0
 10
14.25450345
 20
5.003359764
 10
14.3198824254
 20
5.0436848312
 10
14.3805018565
 20
5.0864161553
 10
14.4360966701
 20
5.1313668831
 10
14.4864237642
 20
5.1783404564
 10
14.5312630711
 20
5.2271314718
 10
14.5704185201
 20
5.2775265786
 10
14.6037188943
 20
5.3293054118
 10
14.6310185796
 20
5.3822415557
 10
14.6521982014
 20
5.4361035341
 10
14.6671651467
 20
5.4906558222
 10
14.6758539689
 20
5.5456598768
 10
14.6782266738
 20
5.600875179
 10
14.6742728863
 20
5.6560602866
 10
14.6640098953
 20
5.7109738889
 10
14.6474825783
 20
5.7653758628
 10
14.6247632049
 20
5.8190283224
 10
14.5959511212
 20
5.871696659
 10
14.5611723151
 20
5.9231505674
 10
14.5205788656
 20
5.9731650528
 10
14.4743482774
 20
6.0215214146
 10
14.4226827051
 20
6.0680082026
 10
14.3658080691
 20
6.1124221421
 10
14.3039730678
 20
6.154569022
 10
14.2374480898
 20
6.194264545
 10
14.166524032
 20
6.2313351324
 10
14.0915110273
 20
6.2656186842
 10
14.0127370883
 20
6.2969652869
 10
13.9305466736
 20
6.32523787
 10
13.8452991808
 20
6.3503128046
 10
13.7573673756
 20
6.3720804444
 10
13.6671357614
 20
6.390445605
 10
13.574998898
 20
6.4053279804
 10
13.4813596766
 20
6.4166624935
 10
13.3866275576
 20
6.4243995815
 10
13.2912167805
 20
6.4285054121
 10
13.1955445524
 20
6.4289620315
 10
13.1000292234
 20
6.4257674431
 10
13.0050884579
 20
6.4189356159
 10
12.9111374078
 20
6.4084964238
 10
12.8185868969
 20
6.3944955148
 10
12.7278416252
 20
6.3769941111
 10
12.6392983986
 20
6.3560687422
 10
12.5533443942
 20
6.3318109091
 10
12.4703554668
 20
6.3043266854
 10
12.3906945061
 20
6.2737362524
 10
12.3147098491
 20
6.2401733744
 10
12.2427337574
 20
6.2037848134
 10
12.1750809641
 20
6.1647296871
 10
12.1120472977
 20
6.1231787738
 10
12.0539083883
 20
6.079313765
 10
12.0009184626
 20
6.0333264712
 10
11.9533092321
 20
5.9854179833
 10
11.9112888798
 20
5.9357977927
 10
11.8750411501
 20
5.884682876
 10
11.8447245449
 20
5.8322967457
 10
11.8204716313
 20
5.778868473
 10
11.8023884608
 20
5.7246316862
 10
11.7905541068
 20
5.669823549
 10
11.7850203177
 20
5.6146837232
 10
11.7858112914
 20
5.5594533215
 10
11.7929235692
 20
5.5043738523
 10
11.806326051
 20
5.4496861641
 10
11.825960131
 20
5.3956293922
 10
11.8517399545
 20
5.3424399131
 10
11.8835527928
 20
5.290350311
 10
11.9212595364
 20
5.2395883604
 10
11.9646953035
 20
5.1903760303
 10
12.0136701604
 20
5.1429285138
 10
12.0679699526
 20
5.0974532868
 10
12.1273572408
 20
5.0541492009
 10
12.1915723396
 20
5.0132056139
 10
12.2603344526
 20
4.9748015616
 10
12.3333429007
 20
4.9391049751
 10
12.4102784365
 20
4.9062719466
 10
12.4908046405
 20
4.8764460466
 10
12.574569392
 20
4.8497576961
 10
12.6612064091
 20
4.8263235965
 10
12.7503368502
 20
4.8062462191
 10
12.8415709706
 20
4.7896133573
 10
12.9345098266
 20
4.7764977422
 10
13.0287470203
 20
4.7669567251
 10
13.1238704764
 20
4.7610320265
 10
13.2194642443
 20
4.7587495536
 10
13.3151103166
 20
4.760119287
 10
13.4103904575
 20
4.7651352372
 10
13.5048880312
 20
4.7737754709
 10
13.5981898238
 20
4.7860022063
 10
13.6898878503
 20
4.8017619792
 10
13.7795811386
 20
4.820985876
 10
13.8668774828
 20
4.8435898355
 10
13.951395158
 20
4.8694750165
 10
14.0327645902
 20
4.8985282295
 10
14.1106299714
 20
4.9306224322
 10
14.1846508161
 20
4.9656172849
 10
14.25450345
 20
5.003359764
  0
LWPOLYLINE
  5
162
330
1F
100
AcDbEntity
  8
0
  6
Continuous
 62
     7
370
    25
100
AcDbPolyline
 90
       95
 70
   128
 43
0.0
 10
14.2336243128
 20
5.0154130334
 10
14.1644467985
 20
4.9780616801
 10
14.0911021856
 20
4.9434611228
 10
14.013918049
 20
4.9117658958
 10
13.9332391116
 20
4.8831175578
 10
13.8494257054
 20
4.8576440593
 10
13.7628521611
 20
4.8354591709
 10
13.6739051375
 20
4.8166619759
 10
13.5829818933
 20
4.801336427
 10
13.490488514
 20
4.789550972
 10
13.3968380974
 20
4.7813582474
 10
13.3024489089
 20
4.776794844
 10
13.2077425137
 20
4.7758811431
 10
13.1131418934
 20
4.7786212254
 10
13.0190695575
 20
4.7850028531
 10
12.9259456557
 20
4.7949975243
 10
12.8341861021
 20
4.8085606004
 10
12.7442007171
 20
4.8256315053
 10
12.6563913973
 20
4.8461339964
 10
12.5711503203
 20
4.8699765043
 10
12.4888581936
 20
4.8970525429
 10
12.4098825538
 20
4.9272411838
 10
12.3345761252
 20
4.9604075972
 10
12.2632752446
 20
4.9964036541
 10
12.196298359
 20
5.0350685871
 10
12.1339446036
 20
5.0762297093
 10
12.0764924653
 20
5.1197031852
 10
12.0241985393
 20
5.1652948516
 10
11.977296383
 20
5.2128010851
 10
11.9359954727
 20
5.2620097114
 10
11.9004802684
 20
5.3127009528
 10
11.8709093897
 20
5.3646484098
 10
11.8474149071
 20
5.4176200726
 10
11.8301017529
 20
5.4713793568
 10
11.8190472517
 20
5.5256861604
 10
11.8143007756
 20
5.580297936
 10
11.8158835235
 20
5.6349707742
 10
11.8237884265
 20
5.6894604928
 10
11.8379801795
 20
5.7435237276
 10
11.8583953985
 20
5.7969190189
 10
11.8849429042
 20
5.8494078905
 10
11.9175041291
 20
5.9007559143
 10
11.9559336468
 20
5.9507337576
 10
12.0000598218
 20
5.9991182071
 10
12.0496855758
 20
6.0456931663
 10
12.1045892681
 20
6.0902506199
 10
12.1645256857
 20
6.1325915637
 10
12.2292271378
 20
6.1725268927
 10
12.2984046521
 20
6.2098782459
 10
12.3717492649
 20
6.2444788033
 10
12.4489334016
 20
6.2761740302
 10
12.5296123389
 20
6.3048223682
 10
12.6134257452
 20
6.3302958668
 10
12.6999992894
 20
6.3524807551
 10
12.7889463131
 20
6.3712779501
 10
12.8798695572
 20
6.386603499
 10
12.9723629366
 20
6.3983889541
 10
13.0660133532
 20
6.4065816786
 10
13.1604025416
 20
6.411145082
 10
13.2551089369
 20
6.412058783
 10
13.3497095571
 20
6.4093187006
 10
13.4437818931
 20
6.4029370729
 10
13.5369057948
 20
6.3929424017
 10
13.6286653484
 20
6.3793793256
 10
13.7186507334
 20
6.3623084207
 10
13.8064600533
 20
6.3418059297
 10
13.8917011302
 20
6.3179634217
 10
13.9739932569
 20
6.2908873832
 10
14.0529688968
 20
6.2606987423
 10
14.1282753254
 20
6.2275323288
 10
14.199576206
 20
6.191536272
 10
14.2665530915
 20
6.152871339
 10
14.3289068469
 20
6.1117102168
 10
14.3863589852
 20
6.0682367409
 10
14.4386529112
 20
6.0226450744
 10
14.4855550676
 20
5.9751388409
 10
14.5268559778
 20
5.9259302146
 10
14.5623711821
 20
5.8752389732
 10
14.5919420609
 20
5.8232915162
 10
14.6154365434
 20
5.7703198534
 10
14.6327496977
 20
5.7165605693
 10
14.6438041989
 20
5.6622537657
 10
14.648550675
 20
5.60764199
 10
14.646967927
 20
5.5529691518
 10
14.639063024
 20
5.4984794332
 10
14.6248712711
 20
5.4444161984
 10
14.6044560521
 20
5.3910209071
 10
14.5779085463
 20
5.3385320355
 10
14.5453473214
 20
5.2871840117
 10
14.5069178037
 20
5.2372061684
 10
14.4627916288
 20
5.1888217189
 10
14.4131658748
 20
5.1422467598
 10
14.3582621824
 20
5.0976893061
 10
14.2983257649
 20
5.0553483623
 10
14.2336243128
 20
5.0154130334
  0
LWPOLYLINE
  5
163
330
1F
100
AcDbEntity
  8
0
  6
Continuous
 62
     7
370
    25
100
AcDbPolyline
 90
       12
 70
   128
 43
0.0
 10
14.678276119
 20
5.7954252588
 10
14.6782266738
 20
5.8023304748
 10
14.6742728863
 20
5.8575155823
 10
14.6640098953
 20
5.9124291847
 10
14.6474825783
 20
5.9668311586
 10
14.6247632049
 20
6.0204836181
 10
14.5959511212
 20
6.0731519548
 10
14.5611723151
 20
6.1246058632
 10
14.5205788656
 20
6.1746203486
 10
14.4743482774
 20
6.2229767103
 10
14.4226827051
 20
6.2694634984
 10
14.410724912
 20
6.2793251229
  0
LWPOLYLINE
  5
164
330
1F
100
AcDbEntity
  8
0
  6
Continuous
 62
     7
370
    25
100
AcDbPolyline
 90
       11
 70
   128
 43
0.0
 10
12.0485254693
 20
6.2763870157
 10
12.0009184626
 20
6.234781767
 10
11.9533092321
 20
6.186873279
 10
11.9112888798
 20
6.1372530885
 10
11.8750411501
 20
6.0861381718
 10
11.8447245449
 20
6.0337520415
 10
11.8204716313
 20
5.9803237688
 10
11.8023884608
 20
5.926086982
 10
11.7905541068
 20
5.8712788447
 10
11.7850203177
 20
5.816139019
 10
11.7845753316
 20
5.7954252588
  0
ARC
  5
165
330
1F
100
AcDbEntity
  8
0
  6
Continuous
 62
     7
370
    25
100
AcDbCircle
 10
12.8241877098
 20
5.1914796641
 30
0.0
 40
1.237719535878103
100
AcDbArc
 50
122.7030323238
 51
123.7405266761
  0
LINE
  5
166
330
1F
100
AcDbEntity
  8
0
  6
Continuous
 62
     7
370
    25
100
AcDbLine
 10
12.1610215975
 20
6.2377282065
 30
0.0
 11
12.1554665887
 21
6.2329986086
 31
0.0
  0
SPLINE
  5
167
330
1F
100
AcDbEntity
  8
0
  6
Continuous
 62
     7
370
    25
100
AcDbSpline
210
0.0
220
0.0
230
1.0
 70
     8
 71
     3
 72
    11
 73
     7
 74
     0
 42
0.00000001
 43
0.00000001
 40
0.0
 40
0.0
 40
0.0
 40
0.0
 40
0.2666763647058216
 40
0.5333503996252209
 40
0.8000957266629559
 40
1.0
 40
1.0
 40
1.0
 40
1.0
 10
12.16803601417609
 20
6.254723733679779
 30
0.0
 10
12.16796502602874
 20
6.25323097717135
 30
0.0
 10
12.16782305035422
 20
6.250245477195783
 30
0.0
 10
12.166108064124
 20
6.245265079674073
 30
0.0
 10
12.16374037637224
 20
6.240922811196302
 30
0.0
 10
12.161836978741
 20
6.238686291275629
 30
0.0
 10
12.16102159752126
 20
6.237728206474556
 30
0.0
  0
SPLINE
  5
168
330
1F
100
AcDbEntity
  8
0
  6
Continuous
 62
     7
370
    25
100
AcDbSpline
210
0.0
220
0.0
230
1.0
 70
     8
 71
     3
 72
    10
 73
     6
 74
     0
 42
0.00000001
 43
0.00000001
 40
0.0
 40
0.0
 40
0.0
 40
0.0
 40
0.3101137727575976
 40
0.7232891341825315
 40
1.0
 40
1.0
 40
1.0
 40
1.0
 10
12.16480731319265
 20
6.262151303740207
 30
0.0
 10
12.1654323564477
 20
6.261752962415669
 30
0.0
 10
12.16689016656285
 20
6.26082389709499
 30
0.0
 10
12.16792164817727
 20
6.258040448948854
 30
0.0
 10
12.16800327425293
 20
6.255673220451844
 30
0.0
 10
12.16803601417609
 20
6.254723733679779
 30
0.0
  0
SPLINE
  5
169
330
1F
100
AcDbEntity
  8
0
  6
Continuous
 62
     7
370
    25
100
AcDbSpline
210
0.0
220
0.0
230
1.0
 70
     8
 71
     3
 72
    11
 73
     7
 74
     0
 42
0.00000001
 43
0.00000001
 40
0.0
 40
0.0
 40
0.0
 40
0.0
 40
0.3299247461934071
 40
0.6598457411512618
 40
0.9898777029620605
 40
1.0
 40
1.0
 40
1.0
 40
1.0
 10
12.16657995364865
 20
6.276706154801666
 30
0.0
 10
12.16647247822845
 20
6.275338422837816
 30
0.0
 10
12.16625752861003
 20
6.272602974461194
 30
0.0
 10
12.16458754328049
 20
6.268136095338991
 30
0.0
 10
12.16298129828142
 20
6.265259340200837
 30
0.0
 10
12.16201594312769
 20
6.26401114041677
 30
0.0
 10
12.16198721612705
 20
6.263973996536755
 30
0.0
  0
SPLINE
  5
16A
330
1F
100
AcDbEntity
  8
0
  6
Continuous
 62
     7
370
    25
100
AcDbSpline
210
0.0
220
0.0
230
1.0
 70
     8
 71
     3
 72
    10
 73
     6
 74
     0
 42
0.00000001
 43
0.00000001
 40
0.0
 40
0.0
 40
0.0
 40
0.0
 40
0.2622005401137231
 40
0.6925725995097864
 40
1.0
 40
1.0
 40
1.0
 40
1.0
 10
12.16365343288012
 20
6.282977370177453
 30
0.0
 10
12.16412855674898
 20
6.282721719115923
 30
0.0
 10
12.16538354185619
 20
6.282046446211547
 30
0.0
 10
12.16637297515216
 20
6.279737150504467
 30
0.0
 10
12.16651907608843
 20
6.277597646558273
 30
0.0
 10
12.16657995364865
 20
6.276706154801666
 30
0.0
  0
ARC
  5
16B
330
1F
100
AcDbEntity
  8
0
  6
Continuous
 62
     7
370
    25
100
AcDbCircle
 10
12.8739909768
 20
5.1519467285
 30
0.0
 40
1.331721296101545
100
AcDbArc
 50
120.2457443837
 51
121.3391619709
  0
LINE
  5
16C
330
1F
100
AcDbEntity
  8
0
  6
Continuous
 62
     7
370
    25
100
AcDbLine
 10
12.2031898895
 20
6.3104227887
 30
0.0
 11
12.2031898895
 21
6.3065464601
 31
0.0
  0
ARC
  5
16D
330
1F
100
AcDbEntity
  8
0
  6
Continuous
 62
     7
370
    25
100
AcDbCircle
 10
12.869582925
 20
5.1191914224
 30
0.0
 40
1.323082886692012
100
AcDbArc
 50
120.242897109
 51
121.7718982747
  0
LINE
  5
16E
330
1F
100
AcDbEntity
  8
0
  6
Continuous
 62
     7
370
    25
100
AcDbLine
 10
12.2031898895
 20
6.2702364539
 30
0.0
 11
12.2031898895
 21
6.262200017
 31
0.0
  0
LINE
  5
16F
330
1F
100
AcDbEntity
  8
0
  6
Continuous
 62
     7
370
    25
100
AcDbLine
 10
12.181358712
 20
6.2712915752
 30
0.0
 11
12.181358712
 21
6.2621707796
 31
0.0
  0
ARC
  5
170
330
1F
100
AcDbEntity
  8
0
  6
Continuous
 62
     7
370
    25
100
AcDbCircle
 10
12.8726613375
 20
5.1360769011
 30
0.0
 40
1.329139449534378
100
AcDbArc
 50
120.3737196937
 51
121.3398275309
  0
LINE
  5
171
330
1F
100
AcDbEntity
  8
0
  6
Continuous
 62
     7
370
    25
100
AcDbLine
 10
12.181358712
 20
6.2893745971
 30
0.0
 11
12.181358712
 21
6.2842732635
 31
0.0
  0
SPLINE
  5
172
330
1F
100
AcDbEntity
  8
0
  6
Continuous
 62
     7
370
    25
100
AcDbSpline
210
0.0
220
0.0
230
1.0
 70
     8
 71
     3
 72
    10
 73
     6
 74
     0
 42
0.00000001
 43
0.00000001
 40
0.0
 40
0.0
 40
0.0
 40
0.0
 40
0.4402532515870587
 40
0.8817397424442359
 40
1.0
 40
1.0
 40
1.0
 40
1.0
 10
12.2237806545346
 20
6.272747300672686
 30
0.0
 10
12.22155977288864
 20
6.271758847666728
 30
0.0
 10
12.21711178845366
 20
6.269779172796074
 30
0.0
 10
12.21234217348154
 20
6.269759875305734
 30
0.0
 10
12.21056526129353
 20
6.271249494304932
 30
0.0
 10
12.21018984492245
 20
6.271564212929031
 30
0.0
  0
SPLINE
  5
173
330
1F
100
AcDbEntity
  8
0
  6
Continuous
 62
     7
370
    25
100
AcDbSpline
210
0.0
220
0.0
230
1.0
 70
     8
 71
     3
 72
    10
 73
     6
 74
     0
 42
0.00000001
 43
0.00000001
 40
0.0
 40
0.0
 40
0.0
 40
0.0
 40
0.4311059169438425
 40
0.8871428965243702
 40
1.0
 40
1.0
 40
1.0
 40
1.0
 10
12.2331565992095
 20
6.282267814325487
 30
0.0
 10
12.23198838250693
 20
6.280555617917661
 30
0.0
 10
12.22958439056771
 20
6.277032207959787
 30
0.0
 10
12.22611735773704
 20
6.274121828124855
 30
0.0
 10
12.22416747242405
 20
6.272974839971426
 30
0.0
 10
12.2237806545346
 20
6.272747300672686
 30
0.0
  0
ARC
  5
174
330
1F
100
AcDbEntity
  8
0
  6
Continuous
 62
     7
370
    25
100
AcDbCircle
 10
12.9205287509
 20
5.0298958819
 30
0.0
 40
1.425853945896522
100
AcDbArc
 50
118.3727716213
 51
118.6933402217
  0
LINE
  5
175
330
1F
100
AcDbEntity
  8
0
  6
Continuous
 62
     7
370
    25
100
AcDbLine
 10
12.2429542232
 20
6.310499028
 30
0.0
 11
12.2429542232
 21
6.2986027094
 31
0.0
  0
LINE
  5
176
330
1F
100
AcDbEntity
  8
0
  6
Continuous
 62
     7
370
    25
100
AcDbLine
 10
12.2429542232
 20
6.2858390126
 30
0.0
 11
12.2429542232
 21
6.2844684124
 31
0.0
  0
LINE
  5
177
330
1F
100
AcDbEntity
  8
0
  6
Continuous
 62
     7
370
    25
100
AcDbLine
 10
12.229386295
 20
6.2952620885
 30
0.0
 11
12.2248072326
 21
6.2927258986
 31
0.0
  0
SPLINE
  5
178
330
1F
100
AcDbEntity
  8
0
  6
Continuous
 62
     7
370
    25
100
AcDbSpline
210
0.0
220
0.0
230
1.0
 70
     8
 71
     3
 72
     9
 73
     5
 74
     0
 42
0.00000001
 43
0.00000001
 40
0.0
 40
0.0
 40
0.0
 40
0.0
 40
0.7589725694229568
 40
1.0
 40
1.0
 40
1.0
 40
1.0
 10
12.21271669925477
 20
6.292121444647208
 30
0.0
 10
12.2127746728123
 20
6.289722267882786
 30
0.0
 10
12.21285105707157
 20
6.286561182935743
 30
0.0
 10
12.21407226162303
 20
6.284430166796095
 30
0.0
 10
12.21436660541828
 20
6.283916533451437
 30
0.0
  0
SPLINE
  5
179
330
1F
100
AcDbEntity
  8
0
  6
Continuous
 62
     7
370
    25
100
AcDbSpline
210
0.0
220
0.0
230
1.0
 70
     8
 71
     3
 72
    12
 73
     8
 74
     0
 42
0.00000001
 43
0.00000001
 40
0.0
 40
0.0
 40
0.0
 40
0.0
 40
0.1631644137059052
 40
0.3268802667177738
 40
0.4836251736251203
 40
0.717454815241478
 40
1.0
 40
1.0
 40
1.0
 40
1.0
 10
12.22432448487237
 20
6.316012178988934
 30
0.0
 10
12.22315556006028
 20
6.315243401542864
 30
0.0
 10
12.22081375987438
 20
6.313703248448747
 30
0.0
 10
12.21774086328005
 20
6.309959802377345
 30
0.0
 10
12.21509379728247
 20
6.305083894449118
 30
0.0
 10
12.21309833151128
 20
6.298841384825169
 30
0.0
 10
12.21285166690475
 20
6.294498011403189
 30
0.0
 10
12.21271669925477
 20
6.292121444647208
 30
0.0
  0
SPLINE
  5
17A
330
1F
100
AcDbEntity
  8
0
  6
Continuous
 62
     7
370
    25
100
AcDbSpline
210
0.0
220
0.0
230
1.0
 70
     8
 71
     3
 72
     9
 73
     5
 74
     0
 42
0.00000001
 43
0.00000001
 40
0.0
 40
0.0
 40
0.0
 40
0.0
 40
0.4389929486257579
 40
0.9999999999999999
 40
0.9999999999999999
 40
0.9999999999999999
 40
0.9999999999999999
 10
12.22882019650107
 20
6.317389104741635
 30
0.0
 10
12.22819455146312
 20
6.317366104673031
 30
0.0
 10
12.22676936903157
 20
6.317313711875663
 30
0.0
 10
12.22520314666438
 20
6.316479934164293
 30
0.0
 10
12.22432448487237
 20
6.316012178988934
 30
0.0
  0
LINE
  5
17B
330
1F
100
AcDbEntity
  8
0
  6
Continuous
 62
     7
370
    25
100
AcDbLine
 10
12.2428621007
 20
6.3175250533
 30
0.0
 11
12.2341636268
 21
6.3127863695
 31
0.0
  0
SPLINE
  5
17C
330
1F
100
AcDbEntity
  8
0
  6
Continuous
 62
     7
370
    25
100
AcDbSpline
210
0.0
220
0.0
230
1.0
 70
     8
 71
     3
 72
     9
 73
     5
 74
     0
 42
0.00000001
 43
0.00000001
 40
0.0
 40
0.0
 40
0.0
 40
0.0
 40
0.4236146797468512
 40
1.0
 40
1.0
 40
1.0
 40
1.0
 10
12.23753361947715
 20
6.325568592121035
 30
0.0
 10
12.23861671835345
 20
6.32482931082379
 30
0.0
 10
12.24117352039097
 20
6.32308413688958
 30
0.0
 10
12.24224469267711
 20
6.319557661791226
 30
0.0
 10
12.24286210065831
 20
6.317525053312295
 30
0.0
  0
ELLIPSE
  5
17D
330
1F
100
AcDbEntity
  8
0
  6
Continuous
 62
     7
370
    25
100
AcDbEllipse
 10
13.2314257253
 20
5.5210829325
 30
0.0
 11
0.9352206869528797
 21
4.16863695568129
 31
0.0
210
0.0
220
0.0
230
1.0
 40
0.264826329
 41
1.441920206589304
 42
1.444900259139644
  0
ARC
  5
17E
330
1F
100
AcDbEntity
  8
0
  6
Continuous
 62
     7
370
    25
100
AcDbCircle
 10
12.942084307
 20
4.9999756041
 30
0.0
 40
1.471748887424048
100
AcDbArc
 50
117.1957635598
 51
117.7502762046
  0
ARC
  5
17F
330
1F
100
AcDbEntity
  8
0
  6
Continuous
 62
     7
370
    25
100
AcDbCircle
 10
12.9575538464
 20
4.9591878558
 30
0.0
 40
1.505715097869267
100
AcDbArc
 50
116.5136373492
 51
116.92941426
  0
ELLIPSE
  5
180
330
1F
100
AcDbEntity
  8
0
  6
Continuous
 62
     7
370
    25
100
AcDbEllipse
 10
13.2314257253
 20
5.9169578168
 30
0.0
 11
-1.292521173770823
 21
2.791879970851511
 31
0.0
210
0.0
220
0.0
230
1.0
 40
0.2328910556
 41
1.309718029722686
 42
1.324205084326816
  0
ARC
  5
181
330
1F
100
AcDbEntity
  8
0
  6
Continuous
 62
     7
370
    25
100
AcDbCircle
 10
12.9293116378
 20
5.0136507023
 30
0.0
 40
1.444363732755148
100
AcDbArc
 50
117.8920458021
 51
118.3188083883
  0
ARC
  5
182
330
1F
100
AcDbEntity
  8
0
  6
Continuous
 62
     7
370
    25
100
AcDbCircle
 10
14.0788556518
 20
5.8832554376
 30
0.0
 40
0.4320543866161456
100
AcDbArc
 50
345.4175281973
 51
9.2432935337
  0
ARC
  5
183
330
1F
100
AcDbEntity
  8
0
  6
Continuous
 62
     7
370
    25
100
AcDbCircle
 10
12.3831927264
 20
5.8832179929
 30
0.0
 40
0.4312677885036098
100
AcDbArc
 50
170.7346588056
 51
194.6045194634
  0
LWPOLYLINE
  5
184
330
1F
100
AcDbEntity
  8
0
  6
Continuous
 62
     7
370
    25
100
AcDbPolyline
 90
       34
 70
   128
 43
0.0
 10
14.4838897001
 20
6.2137698958
 10
14.4689259039
 20
6.2286134732
 10
14.4174857278
 20
6.274897458
 10
14.3608592131
 20
6.3191176372
 10
14.2992939731
 20
6.3610806472
 10
14.233059217
 20
6.4006029944
 10
14.1624445725
 20
6.4375118577
 10
14.0877588194
 20
6.4716458441
 10
14.0093285396
 20
6.5028556942
 10
13.9274966888
 20
6.5310049353
 10
13.8426210967
 20
6.555970478
 10
13.7550729027
 20
6.5776431543
 10
13.6652349329
 20
6.5959281951
 10
13.5735000258
 20
6.6107456445
 10
13.4802693149
 20
6.6220307097
 10
13.3859504742
 20
6.6297340439
 10
13.2909559361
 20
6.6338219624
 10
13.1957010875
 20
6.6342765898
 10
13.1006024537
 20
6.6310959381
 10
13.0060758768
 20
6.6242939154
 10
12.9125346975
 20
6.6139002653
 10
12.8203879474
 20
6.5999604367
 10
12.730038561
 20
6.5825353847
 10
12.6418816131
 20
6.5617013047
 10
12.5563025915
 20
6.5375492989
 10
12.4736757117
 20
6.5101849778
 10
12.3943622799
 20
6.4797279986
 10
12.3187091135
 20
6.4463115421
 10
12.2470470246
 20
6.4100817297
 10
12.1796893734
 20
6.3711969853
 10
12.1169306976
 20
6.329827342
 10
12.059045425
 20
6.2861536987
 10
12.0062866731
 20
6.2403670291
 10
11.9710571192
 20
6.2056332336
  0
ARC
  5
185
330
1F
100
AcDbEntity
  8
0
  6
Continuous
 62
     7
370
    25
100
AcDbCircle
 10
14.0793654316
 20
5.8994993458
 30
0.0
 40
0.4308960517412179
100
AcDbArc
 50
347.661702143
 51
1.33838295
  0
ARC
  5
186
330
1F
100
AcDbEntity
  8
0
  6
Continuous
 62
     7
370
    25
100
AcDbCircle
 10
12.3842988715
 20
5.899577614
 30
0.0
 40
0.4317068653081135
100
AcDbArc
 50
178.6745216911
 51
192.325393216
  0
ELLIPSE
  5
187
330
1F
100
AcDbEntity
  8
0
  6
Continuous
 62
     7
370
    25
100
AcDbEllipse
 10
13.2314257253
 20
5.5210829325
 30
0.0
 11
0.9390379142465638
 21
4.185651800398356
 31
0.0
210
0.0
220
0.0
230
1.0
 40
0.264826329
 41
1.442108606665882
 42
1.445076520949732
  0
ARC
  5
188
330
1F
100
AcDbEntity
  8
0
  6
Continuous
 62
     7
370
    25
100
AcDbCircle
 10
12.9279229828
 20
5.0112441022
 30
0.0
 40
1.449929065712629
100
AcDbArc
 50
117.9004327748
 51
118.3255224286
  0
ELLIPSE
  5
189
330
1F
100
AcDbEntity
  8
0
  6
Continuous
 62
     7
370
    25
100
AcDbEllipse
 10
13.2314257253
 20
5.5598630746
 30
0.0
 11
0.9378337036045554
 21
3.978093992392798
 31
0.0
210
0.0
220
0.0
230
1.0
 40
0.2788998511
 41
1.438479084806517
 42
1.452889417674365
  0
ARC
  5
18A
330
1F
100
AcDbEntity
  8
0
  6
Continuous
 62
     7
370
    25
100
AcDbCircle
 10
12.9421804764
 20
5.0323862805
 30
0.0
 40
1.480533667749726
100
AcDbArc
 50
117.1994522531
 51
117.6389234314
  0
ELLIPSE
  5
18B
330
1F
100
AcDbEntity
  8
0
  6
Continuous
 62
     7
370
    25
100
AcDbEllipse
 10
13.2314257253
 20
5.9169578168
 30
0.0
 11
-1.297796770398458
 21
2.803275399303965
 31
0.0
210
0.0
220
0.0
230
1.0
 40
0.2328910556
 41
1.309481037548831
 42
1.323908948985111
  0
ARC
  5
18C
330
1F
100
AcDbEntity
  8
0
  6
Continuous
 62
     7
370
    25
100
AcDbCircle
 10
12.9561730617
 20
4.9567899376
 30
0.0
 40
1.511276337056282
100
AcDbArc
 50
116.5273428304
 51
116.9415284981
  0
ELLIPSE
  5
18D
330
1F
100
AcDbEntity
  8
0
  6
Continuous
 62
     7
370
    25
100
AcDbEllipse
 10
13.2314257253
 20
5.8827104486
 30
0.0
 11
-1.30380690341766
 21
2.73381701684146
 31
0.0
210
0.0
220
0.0
230
1.0
 40
0.2343868825
 41
1.302480627046398
 42
1.305703734288292
  0
ARC
  5
18E
330
1F
100
AcDbEntity
  8
0
  6
Continuous
 62
     7
370
    25
100
AcDbCircle
 10
12.9420632037
 20
4.994956169
 30
0.0
 40
1.48026330092273
100
AcDbArc
 50
117.0914657136
 51
117.7587928689
  0
ELLIPSE
  5
18F
330
1F
100
AcDbEntity
  8
0
  6
Continuous
 62
     7
370
    25
100
AcDbEllipse
 10
13.2314257253
 20
5.5019393031
 30
0.0
 11
0.9418119992205991
 21
4.580702733713574
 31
0.0
210
0.0
220
0.0
230
1.0
 40
0.2414727241
 41
1.437406753977315
 42
1.442494203647897
  0
ARC
  5
190
330
1F
100
AcDbEntity
  8
0
  6
Continuous
 62
     7
370
    25
100
AcDbCircle
 10
12.9421815794
 20
5.0022461577
 30
0.0
 40
1.48053377007767
100
AcDbArc
 50
117.1794364246
 51
117.6588958137
  0
ELLIPSE
  5
191
330
1F
100
AcDbEntity
  8
0
  6
Continuous
 62
     7
370
    25
100
AcDbEllipse
 10
13.2314257253
 20
5.9235202502
 30
0.0
 11
-1.252528901128848
 21
3.401857439896871
 31
0.0
210
0.0
220
0.0
230
1.0
 40
0.2163474157
 41
1.369980605651268
 42
1.375070839652289
  0
LINE
  5
192
330
1F
100
AcDbEntity
  8
0
  6
Continuous
 62
     7
370
    25
100
AcDbLine
 10
12.2853863503
 20
6.3065440868
 30
0.0
 11
12.2811995019
 21
6.3089611029
 31
0.0
  0
LINE
  5
193
330
1F
100
AcDbEntity
  8
0
  6
Continuous
 62
     7
370
    25
100
AcDbLine
 10
12.2654441947
 20
6.3492036355
 30
0.0
 11
12.2696270839
 21
6.3467889049
 31
0.0
  0
LINE
  5
194
330
1F
100
AcDbEntity
  8
0
  6
Continuous
 62
     7
370
    25
100
AcDbLine
 10
12.2756268063
 20
6.3016309525
 30
0.0
 11
12.271442508
 21
6.3040464965
 31
0.0
  0
LINE
  5
195
330
1F
100
AcDbEntity
  8
0
  6
Continuous
 62
     7
370
    25
100
AcDbLine
 10
12.2568103759
 20
6.3024518714
 30
0.0
 11
12.2526300842
 21
6.3048651024
 31
0.0
  0
LINE
  5
196
330
1F
100
AcDbEntity
  8
0
  6
Continuous
 62
     7
370
    25
100
AcDbLine
 10
12.2536280008
 20
6.2902235421
 30
0.0
 11
12.2494482656
 21
6.2926364518
 31
0.0
  0
LINE
  5
197
330
1F
100
AcDbEntity
  8
0
  6
Continuous
 62
     7
370
    25
100
AcDbLine
 10
12.2399601018
 20
6.2875674821
 30
0.0
 11
12.2441383909
 21
6.2851554071
 31
0.0
  0
ELLIPSE
  5
198
330
1F
100
AcDbEntity
  8
0
  6
Continuous
 62
     7
370
    25
100
AcDbEllipse
 10
13.2314257253
 20
5.5019393031
 30
0.0
 11
0.9379834951587293
 21
4.562081990893603
 31
0.0
210
0.0
220
0.0
230
1.0
 40
0.2414727241
 41
1.438547880744469
 42
1.441130060977181
  0
SPLINE
  5
199
330
1F
100
AcDbEntity
  8
0
  6
Continuous
 62
     7
370
    25
100
AcDbSpline
210
0.0
220
0.0
230
1.0
 70
     8
 71
     3
 72
    11
 73
     7
 74
     0
 42
0.00000001
 43
0.00000001
 40
0.0
 40
0.0
 40
0.0
 40
0.0
 40
0.2768564673858609
 40
0.5554463643757621
 40
0.794470881457573
 40
1.0
 40
1.0
 40
1.0
 40
1.0
 10
12.23083792935666
 20
6.300791164174878
 30
0.0
 10
12.23046923391598
 20
6.29898171558587
 30
0.0
 10
12.22972953459084
 20
6.295351489245925
 30
0.0
 10
12.2269529172156
 20
6.290098366462579
 30
0.0
 10
12.22355938842187
 20
6.286039728003998
 30
0.0
 10
12.22122664713246
 20
6.284496595956468
 30
0.0
 10
12.22014815800859
 20
6.283783164451002
 30
0.0
  0
ELLIPSE
  5
19A
330
1F
100
AcDbEntity
  8
0
  6
Continuous
 62
     7
370
    25
100
AcDbEllipse
 10
13.2314257253
 20
5.6927617371
 30
0.0
 11
1.452755901755129
 21
0.0001809500672376174
 31
0.0
210
0.0
220
0.0
230
1.0
 40
0.5773707408
 41
2.330489965125698
 42
2.340226205734746
  0
LINE
  5
19B
330
1F
100
AcDbEntity
  8
0
  6
Continuous
 62
     7
370
    25
100
AcDbLine
 10
12.2206308751
 20
6.2951368581
 30
0.0
 11
12.2206301503
 21
6.302937079
 31
0.0
  0
ARC
  5
19C
330
1F
100
AcDbEntity
  8
0
  6
Continuous
 62
     7
370
    25
100
AcDbCircle
 10
12.913789505
 20
5.0633406266
 30
0.0
 40
1.420235633913164
100
AcDbArc
 50
118.3777575666
 51
119.2131113344
  0
LINE
  5
19D
330
1F
100
AcDbEntity
  8
0
  6
Continuous
 62
     7
370
    25
100
AcDbLine
 10
12.2387760919
 20
6.3129110119
 30
0.0
 11
12.2387760919
 21
6.2868803963
 31
0.0
  0
ARC
  5
19E
330
1F
100
AcDbEntity
  8
0
  6
Continuous
 62
     7
370
    25
100
AcDbCircle
 10
12.9191386696
 20
5.0274873797
 30
0.0
 40
1.431420276275381
100
AcDbArc
 50
118.3792724274
 51
118.6985744246
  0
LINE
  5
19F
330
1F
100
AcDbEntity
  8
0
  6
Continuous
 62
     7
370
    25
100
AcDbLine
 10
12.2317682581
 20
6.2830692866
 30
0.0
 11
12.231403704
 21
6.2892629201
 31
0.0
  0
SPLINE
  5
1A0
330
1F
100
AcDbEntity
  8
0
  6
Continuous
 62
     7
370
    25
100
AcDbSpline
210
0.0
220
0.0
230
1.0
 70
     8
 71
     3
 72
    10
 73
     6
 74
     0
 42
0.00000001
 43
0.00000001
 40
0.0
 40
0.0
 40
0.0
 40
0.0
 40
0.3211424501690244
 40
0.6423031599228871
 40
1.0
 40
1.0
 40
1.0
 40
1.0
 10
12.21960436085511
 20
6.275158223695913
 30
0.0
 10
12.22111146315736
 20
6.276165442400816
 30
0.0
 10
12.224125753453
 20
6.278179937079276
 30
0.0
 10
12.22838689805699
 20
6.283216493677634
 30
0.0
 10
12.23036265688159
 20
6.28717640383362
 30
0.0
 10
12.23140370398859
 20
6.289262920143465
 30
0.0
  0
SPLINE
  5
1A1
330
1F
100
AcDbEntity
  8
0
  6
Continuous
 62
     7
370
    25
100
AcDbSpline
210
0.0
220
0.0
230
1.0
 70
     8
 71
     3
 72
    12
 73
     8
 74
     0
 42
0.00000001
 43
0.00000001
 40
0.0
 40
0.0
 40
0.0
 40
0.0
 40
0.2893679421779997
 40
0.4933694727724831
 40
0.6981147401454187
 40
0.8871274519614095
 40
1.0
 40
1.0
 40
1.0
 40
1.0
 10
12.19967668307791
 20
6.289378525006296
 30
0.0
 10
12.19994182655766
 20
6.285802079203696
 30
0.0
 10
12.20039389356212
 20
6.27970427456526
 30
0.0
 10
12.20435463699035
 20
6.274073853342105
 30
0.0
 10
12.20951940360692
 20
6.272036772533287
 30
0.0
 10
12.21495028852968
 20
6.272833206434963
 30
0.0
 10
12.21833779759305
 20
6.274525491490555
 30
0.0
 10
12.21960436085511
 20
6.275158223695913
 30
0.0
  0
SPLINE
  5
1A2
330
1F
100
AcDbEntity
  8
0
  6
Continuous
 62
     7
370
    25
100
AcDbSpline
210
0.0
220
0.0
230
1.0
 70
     8
 71
     3
 72
    12
 73
     8
 74
     0
 42
0.00000001
 43
0.00000001
 40
0.0
 40
0.0
 40
0.0
 40
0.0
 40
0.1963360218390123
 40
0.3935986243169201
 40
0.5746658481678578
 40
0.7680508097859678
 40
1.0
 40
1.0
 40
1.0
 40
1.0
 10
12.21960436085511
 20
6.326365080135691
 30
0.0
 10
12.2173910650277
 20
6.324912619982521
 30
0.0
 10
12.21295402803004
 20
6.322000844991829
 30
0.0
 10
12.20721557875169
 20
6.314963808960282
 30
0.0
 10
12.2030333464412
 20
6.306960569078881
 30
0.0
 10
12.20023344674727
 20
6.298131271759975
 30
0.0
 10
12.1998731598087
 20
6.292467288088811
 30
0.0
 10
12.19967668307791
 20
6.289378525006296
 30
0.0
  0
SPLINE
  5
1A3
330
1F
100
AcDbEntity
  8
0
  6
Continuous
 62
     7
370
    25
100
AcDbSpline
210
0.0
220
0.0
230
1.0
 70
     8
 71
     3
 72
    11
 73
     7
 74
     0
 42
0.00000001
 43
0.00000001
 40
0.0
 40
0.0
 40
0.0
 40
0.0
 40
0.3214330871865774
 40
0.5371901904106425
 40
0.7528418101721636
 40
1.0
 40
1.0
 40
1.0
 40
1.0
 10
12.2386839813973
 20
6.319937030221285
 30
0.0
 10
12.23776355524694
 20
6.32250670090159
 30
0.0
 10
12.23622530694991
 20
6.326801224200754
 30
0.0
 10
12.23131656907758
 20
6.329426167220872
 30
0.0
 10
12.22582619384753
 20
6.329346591918144
 30
0.0
 10
12.22177034154872
 20
6.327403021360797
 30
0.0
 10
12.21960436085511
 20
6.326365080135689
 30
0.0
  0
ELLIPSE
  5
1A4
330
1F
100
AcDbEntity
  8
0
  6
Continuous
 62
     7
370
    25
100
AcDbEllipse
 10
13.2314257253
 20
5.7076375306
 30
0.0
 11
1.452755904197829
 21
0.0001070229989332816
 31
0.0
210
0.0
220
0.0
230
1.0
 40
0.5773368238
 41
2.32309604302321
 42
2.331328039750332
  0
SPLINE
  5
1A5
330
1F
100
AcDbEntity
  8
0
  6
Continuous
 62
     7
370
    25
100
AcDbSpline
210
0.0
220
0.0
230
1.0
 70
     8
 71
     3
 72
    11
 73
     7
 74
     0
 42
0.00000001
 43
0.00000001
 40
0.0
 40
0.0
 40
0.0
 40
0.0
 40
0.3082189398597598
 40
0.5181066108953921
 40
0.7272613116594631
 40
1.0
 40
1.0
 40
1.0
 40
1.0
 10
12.22014815800859
 20
6.318423121169048
 30
0.0
 10
12.22154451806595
 20
6.319083735830576
 30
0.0
 10
12.22389175661411
 20
6.32019420887142
 30
0.0
 10
12.22672965892851
 20
6.319739932372974
 30
0.0
 10
12.22873168112843
 20
6.318091366552258
 30
0.0
 10
12.22953298866057
 20
6.316243571552489
 30
0.0
 10
12.22998650715701
 20
6.315197769314996
 30
0.0
  0
SPLINE
  5
1A6
330
1F
100
AcDbEntity
  8
0
  6
Continuous
 62
     7
370
    25
100
AcDbSpline
210
0.0
220
0.0
230
1.0
 70
     8
 71
     3
 72
    12
 73
     8
 74
     0
 42
0.00000001
 43
0.00000001
 40
0.0
 40
0.0
 40
0.0
 40
0.0
 40
0.2994771820565349
 40
0.5157672397309907
 40
0.6904605516522555
 40
0.8660935935465442
 40
1.0
 40
1.0
 40
1.0
 40
1.0
 10
12.20854083405067
 20
6.294532120316863
 30
0.0
 10
12.20869154761307
 20
6.297058815932189
 30
0.0
 10
12.20895111035351
 20
6.301410355552696
 30
0.0
 10
12.21104654016924
 20
6.307793554191556
 30
0.0
 10
12.2138041609197
 20
6.312779890911578
 30
0.0
 10
12.21697971416224
 20
6.31639514247501
 30
0.0
 10
12.21919138972466
 20
6.317810736733965
 30
0.0
 10
12.22014815800859
 20
6.31842312116905
 30
0.0
  0
SPLINE
  5
1A7
330
1F
100
AcDbEntity
  8
0
  6
Continuous
 62
     7
370
    25
100
AcDbSpline
210
0.0
220
0.0
230
1.0
 70
     8
 71
     3
 72
    12
 73
     8
 74
     0
 42
0.00000001
 43
0.00000001
 40
0.0
 40
0.0
 40
0.0
 40
0.0
 40
0.1648188153105175
 40
0.3303571212818759
 40
0.4859375874146323
 40
0.7166820556312956
 40
1.0
 40
1.0
 40
1.0
 40
1.0
 10
12.22014815800859
 20
6.283783164451002
 30
0.0
 10
12.21896508608311
 20
6.283230091242594
 30
0.0
 10
12.21659377771743
 20
6.282121530471522
 30
0.0
 10
12.21349125895231
 20
6.28237210290883
 30
0.0
 10
12.21086198996416
 20
6.284256617544759
 30
0.0
 10
12.20890748255484
 20
6.288240674637916
 30
0.0
 10
12.20867110826623
 20
6.292296700994929
 30
0.0
 10
12.20854083405067
 20
6.294532120316863
 30
0.0
  0
LINE
  5
1A8
330
1F
100
AcDbEntity
  8
0
  6
Continuous
 62
     7
370
    25
100
AcDbLine
 10
12.2429542232
 20
6.2844684124
 30
0.0
 11
12.2387760919
 21
6.2868803963
 31
0.0
  0
LINE
  5
1A9
330
1F
100
AcDbEntity
  8
0
  6
Continuous
 62
     7
370
    25
100
AcDbLine
 10
12.23594556
 20
6.2806577816
 30
0.0
 11
12.2317682581
 21
6.2830692866
 31
0.0
  0
LINE
  5
1AA
330
1F
100
AcDbEntity
  8
0
  6
Continuous
 62
     7
370
    25
100
AcDbLine
 10
12.2429542232
 20
6.310499028
 30
0.0
 11
12.2387760919
 21
6.3129110119
 31
0.0
  0
LINE
  5
1AB
330
1F
100
AcDbEntity
  8
0
  6
Continuous
 62
     7
370
    25
100
AcDbLine
 10
12.2196043609
 20
6.2751582237
 30
0.0
 11
12.2237806545
 21
6.2727473007
 31
0.0
  0
LINE
  5
1AC
330
1F
100
AcDbEntity
  8
0
  6
Continuous
 62
     7
370
    25
100
AcDbLine
 10
12.2085408341
 20
6.2945321203
 30
0.0
 11
12.2127166993
 21
6.2921214446
 31
0.0
  0
LINE
  5
1AD
330
1F
100
AcDbEntity
  8
0
  6
Continuous
 62
     7
370
    25
100
AcDbLine
 10
12.2248072326
 20
6.2927258986
 30
0.0
 11
12.2206308751
 21
6.2951368581
 31
0.0
  0
LINE
  5
1AE
330
1F
100
AcDbEntity
  8
0
  6
Continuous
 62
     7
370
    25
100
AcDbLine
 10
12.2428621007
 20
6.3175250533
 30
0.0
 11
12.2386839814
 21
6.3199370302
 31
0.0
  0
LINE
  5
1AF
330
1F
100
AcDbEntity
  8
0
  6
Continuous
 62
     7
370
    25
100
AcDbLine
 10
12.2299865072
 20
6.3151977693
 30
0.0
 11
12.2341636268
 21
6.3127863695
 31
0.0
  0
LINE
  5
1B0
330
1F
100
AcDbEntity
  8
0
  6
Continuous
 62
     7
370
    25
100
AcDbLine
 10
12.220148158
 20
6.3184231212
 30
0.0
 11
12.2243244849
 21
6.316012179
 31
0.0
  0
ARC
  5
1B1
330
1F
100
AcDbEntity
  8
0
  6
Continuous
 62
     7
370
    25
100
AcDbCircle
 10
12.8681914834
 20
5.165004004
 30
0.0
 40
1.328650060377738
100
AcDbArc
 50
120.2419206344
 51
121.7645758787
  0
LINE
  5
1B2
330
1F
100
AcDbEntity
  8
0
  6
Continuous
 62
     7
370
    25
100
AcDbLine
 10
12.1990140089
 20
6.3047953782
 30
0.0
 11
12.1990140089
 21
6.3128334733
 31
0.0
  0
ARC
  5
1B3
330
1F
100
AcDbEntity
  8
0
  6
Continuous
 62
     7
370
    25
100
AcDbCircle
 10
12.8725993094
 20
5.1495360908
 30
0.0
 40
1.337288741525472
100
AcDbArc
 50
120.2447443478
 51
121.3336442762
  0
LINE
  5
1B4
330
1F
100
AcDbEntity
  8
0
  6
Continuous
 62
     7
370
    25
100
AcDbLine
 10
12.1771813972
 20
6.2817403538
 30
0.0
 11
12.1771813972
 21
6.2917861096
 31
0.0
  0
ARC
  5
1B5
330
1F
100
AcDbEntity
  8
0
  6
Continuous
 62
     7
370
    25
100
AcDbCircle
 10
12.8712697689
 20
5.1417037243
 30
0.0
 40
1.334706778399639
100
AcDbArc
 50
120.3721934337
 51
121.3343043548
  0
LINE
  5
1B6
330
1F
100
AcDbEntity
  8
0
  6
Continuous
 62
     7
370
    25
100
AcDbLine
 10
12.1964218506
 20
6.2932342152
 30
0.0
 11
12.1964218506
 21
6.2851969492
 31
0.0
  0
ARC
  5
1B7
330
1F
100
AcDbEntity
  8
0
  6
Continuous
 62
     7
370
    25
100
AcDbCircle
 10
12.87126977
 20
5.1336664565
 30
0.0
 40
1.334706780528891
100
AcDbArc
 50
120.3721934341
 51
121.3343043537
  0
LINE
  5
1B8
330
1F
100
AcDbEntity
  8
0
  6
Continuous
 62
     7
370
    25
100
AcDbLine
 10
12.1771813972
 20
6.2737030878
 30
0.0
 11
12.1771813972
 21
6.2596378698
 31
0.0
  0
ARC
  5
1B9
330
1F
100
AcDbEntity
  8
0
  6
Continuous
 62
     7
370
    25
100
AcDbCircle
 10
12.8725993105
 20
5.1173878493
 30
0.0
 40
1.337288743563318
100
AcDbArc
 50
120.2447443483
 51
121.333644275
  0
LINE
  5
1BA
330
1F
100
AcDbEntity
  8
0
  6
Continuous
 62
     7
370
    25
100
AcDbLine
 10
12.1990140089
 20
6.2726471384
 30
0.0
 11
12.1990140089
 21
6.2646107015
 31
0.0
  0
ARC
  5
1BB
330
1F
100
AcDbEntity
  8
0
  6
Continuous
 62
     7
370
    25
100
AcDbCircle
 10
12.8681914835
 20
5.116781232
 30
0.0
 40
1.328650060571177
100
AcDbArc
 50
120.2419206345
 51
121.7645758786
  0
LINE
  5
1BC
330
1F
100
AcDbEntity
  8
0
  6
Continuous
 62
     7
370
    25
100
AcDbLine
 10
12.1687499216
 20
6.2946466397
 30
0.0
 11
12.1687499216
 21
6.246423868
 31
0.0
  0
LINE
  5
1BD
330
1F
100
AcDbEntity
  8
0
  6
Continuous
 62
     7
370
    25
100
AcDbLine
 10
12.2031898895
 20
6.2702364539
 30
0.0
 11
12.1990140089
 21
6.2726471384
 31
0.0
  0
LINE
  5
1BE
330
1F
100
AcDbEntity
  8
0
  6
Continuous
 62
     7
370
    25
100
AcDbLine
 10
12.2031898895
 20
6.262200017
 30
0.0
 11
12.1990140089
 21
6.2646107015
 31
0.0
  0
LINE
  5
1BF
330
1F
100
AcDbEntity
  8
0
  6
Continuous
 62
     7
370
    25
100
AcDbLine
 10
12.1687499216
 20
6.246423868
 30
0.0
 11
12.172928334
 21
6.2440117218
 31
0.0
  0
LINE
  5
1C0
330
1F
100
AcDbEntity
  8
0
  6
Continuous
 62
     7
370
    25
100
AcDbLine
 10
12.2005977983
 20
6.2908234919
 30
0.0
 11
12.1964218506
 21
6.2932342152
 31
0.0
  0
LINE
  5
1C1
330
1F
100
AcDbEntity
  8
0
  6
Continuous
 62
     7
370
    25
100
AcDbLine
 10
12.2005977983
 20
6.2827862259
 30
0.0
 11
12.1964218506
 21
6.2851969492
 31
0.0
  0
LINE
  5
1C2
330
1F
100
AcDbEntity
  8
0
  6
Continuous
 62
     7
370
    25
100
AcDbLine
 10
12.181358712
 20
6.2712915752
 30
0.0
 11
12.1771813972
 21
6.2737030878
 31
0.0
  0
LINE
  5
1C3
330
1F
100
AcDbEntity
  8
0
  6
Continuous
 62
     7
370
    25
100
AcDbLine
 10
12.2031898895
 20
6.3023846937
 30
0.0
 11
12.1990140089
 21
6.3047953782
 31
0.0
  0
LINE
  5
1C4
330
1F
100
AcDbEntity
  8
0
  6
Continuous
 62
     7
370
    25
100
AcDbLine
 10
12.181358712
 20
6.2893745971
 30
0.0
 11
12.1771813972
 21
6.2917861096
 31
0.0
  0
LINE
  5
1C5
330
1F
100
AcDbEntity
  8
0
  6
Continuous
 62
     7
370
    25
100
AcDbLine
 10
12.2031898895
 20
6.3104227887
 30
0.0
 11
12.1990140089
 21
6.3128334733
 31
0.0
  0
ARC
  5
1C6
330
1F
100
AcDbEntity
  8
0
  6
Continuous
 62
     7
370
    25
100
AcDbCircle
 10
12.8226629297
 20
5.2375185733
 30
0.0
 40
1.243023914468516
100
AcDbArc
 50
122.7058550726
 51
123.7247771455
  0
SPLINE
  5
1C7
330
1F
100
AcDbEntity
  8
0
  6
Continuous
 62
     7
370
    25
100
AcDbSpline
210
0.0
220
0.0
230
1.0
 70
     8
 71
     3
 72
     9
 73
     5
 74
     0
 42
0.00000001
 43
0.00000001
 40
0.0
 40
0.0
 40
0.0
 40
0.0
 40
0.558180396184543
 40
1.0
 40
1.0
 40
1.0
 40
1.0
 10
12.1586114979837
 20
6.285967347214563
 30
0.0
 10
12.15726828414903
 20
6.285929093690634
 30
0.0
 10
12.15486186886851
 20
6.285860561144186
 30
0.0
 10
12.15220032476833
 20
6.284201136433684
 30
0.0
 10
12.15102440240845
 20
6.283467970065527
 30
0.0
  0
SPLINE
  5
1C8
330
1F
100
AcDbEntity
  8
0
  6
Continuous
 62
     7
370
    25
100
AcDbSpline
210
0.0
220
0.0
230
1.0
 70
     8
 71
     3
 72
    10
 73
     6
 74
     0
 42
0.00000001
 43
0.00000001
 40
0.0
 40
0.0
 40
0.0
 40
0.0
 40
0.3681507711434111
 40
0.7362973978400029
 40
1.0
 40
1.0
 40
1.0
 40
1.0
 10
12.16240050638365
 20
6.279118898351071
 30
0.0
 10
12.16228914862106
 20
6.280356196957652
 30
0.0
 10
12.16206643434949
 20
6.282830780241961
 30
0.0
 10
12.16057666545554
 20
6.285096374688985
 30
0.0
 10
12.15919015770842
 20
6.285710882191043
 30
0.0
 10
12.1586114979837
 20
6.285967347214563
 30
0.0
  0
SPLINE
  5
1C9
330
1F
100
AcDbEntity
  8
0
  6
Continuous
 62
     7
370
    25
100
AcDbSpline
210
0.0
220
0.0
230
1.0
 70
     8
 71
     3
 72
    11
 73
     7
 74
     0
 42
0.00000001
 43
0.00000001
 40
0.0
 40
0.0
 40
0.0
 40
0.0
 40
0.3001000691565723
 40
0.6002091243452101
 40
0.9001092429809016
 40
0.9999999999999999
 40
0.9999999999999999
 40
0.9999999999999999
 40
0.9999999999999999
 10
12.15694979460093
 20
6.265275737049601
 30
0.0
 10
12.15787371275656
 20
6.26653464980335
 30
0.0
 10
12.15972157673312
 20
6.269052513007042
 30
0.0
 10
12.16159194760465
 20
6.273512221730252
 30
0.0
 10
12.16233507437261
 20
6.276922595451442
 30
0.0
 10
12.16238742594865
 20
6.278679838067601
 30
0.0
 10
12.16240050638365
 20
6.279118898351071
 30
0.0
  0
SPLINE
  5
1CA
330
1F
100
AcDbEntity
  8
0
  6
Continuous
 62
     7
370
    25
100
AcDbSpline
210
0.0
220
0.0
230
1.0
 70
     8
 71
     3
 72
    11
 73
     7
 74
     0
 42
0.00000001
 43
0.00000001
 40
0.0
 40
0.0
 40
0.0
 40
0.0
 40
0.2725817866515143
 40
0.545171793722604
 40
0.8175693686318752
 40
1.0
 40
1.0
 40
1.0
 40
1.0
 10
12.15694979460093
 20
6.265275737049601
 30
0.0
 10
12.15803275810006
 20
6.265310221280259
 30
0.0
 10
12.16019871775792
 20
6.265379190781542
 30
0.0
 10
12.16253153838041
 20
6.263381918601571
 30
0.0
 10
12.16375378500783
 20
6.260475327180609
 30
0.0
 10
12.16382732398101
 20
6.258092198727596
 30
0.0
 10
12.16385682030758
 20
6.2571363309465
 30
0.0
  0
SPLINE
  5
1CB
330
1F
100
AcDbEntity
  8
0
  6
Continuous
 62
     7
370
    25
100
AcDbSpline
210
0.0
220
0.0
230
1.0
 70
     8
 71
     3
 72
    11
 73
     7
 74
     0
 42
0.00000001
 43
0.00000001
 40
0.0
 40
0.0
 40
0.0
 40
0.0
 40
0.2666786099121747
 40
0.533354908916948
 40
0.8001019226657612
 40
1.0
 40
1.0
 40
1.0
 40
1.0
 10
12.16385682030758
 20
6.2571363309465
 30
0.0
 10
12.1637858192591
 20
6.255643572721886
 30
0.0
 10
12.1636438177774
 20
6.25265806920818
 30
0.0
 10
12.16192851252865
 20
6.247677812400038
 30
0.0
 10
12.15956038409905
 20
6.24333580960661
 30
0.0
 10
12.15765661622954
 20
6.241099523923461
 30
0.0
 10
12.15684109380344
 20
6.24014155990118
 30
0.0
  0
LINE
  5
1CC
330
1F
100
AcDbEntity
  8
0
  6
Continuous
 62
     7
370
    25
100
AcDbLine
 10
12.1568410938
 20
6.2401415599
 30
0.0
 11
12.1512848859
 21
6.2354126543
 31
0.0
  0
ARC
  5
1CD
330
1F
100
AcDbEntity
  8
0
  6
Continuous
 62
     7
370
    25
100
AcDbCircle
 10
12.8228022851
 20
5.1890846784
 30
0.0
 40
1.243277061070116
100
AcDbArc
 50
122.6917310916
 51
123.7247110615
  0
LINE
  5
1CE
330
1F
100
AcDbEntity
  8
0
  6
Continuous
 62
     7
370
    25
100
AcDbLine
 10
12.1325308962
 20
6.2713590969
 30
0.0
 11
12.1325308962
 21
6.2231365437
 31
0.0
  0
SPLINE
  5
1CF
330
1F
100
AcDbEntity
  8
0
  6
Continuous
 62
     7
370
    25
100
AcDbSpline
210
0.0
220
0.0
230
1.0
 70
     8
 71
     3
 72
    10
 73
     6
 74
     0
 42
0.00000001
 43
0.00000001
 40
0.0
 40
0.0
 40
0.0
 40
0.0
 40
0.2651291045079783
 40
0.6185166078205578
 40
1.0
 40
1.0
 40
1.0
 40
1.0
 10
12.15301382768946
 20
6.256970988298455
 30
0.0
 10
12.15337470990136
 20
6.256905880533023
 30
0.0
 10
12.15421660782103
 20
6.256753991383428
 30
0.0
 10
12.15522841102702
 20
6.255737806121625
 30
0.0
 10
12.15547981045097
 20
6.25445194996182
 30
0.0
 10
12.15561031596646
 20
6.25378444118891
 30
0.0
  0
SPLINE
  5
1D0
330
1F
100
AcDbEntity
  8
0
  6
Continuous
 62
     7
370
    25
100
AcDbSpline
210
0.0
220
0.0
230
1.0
 70
     8
 71
     3
 72
     9
 73
     5
 74
     0
 42
0.00000001
 43
0.00000001
 40
0.0
 40
0.0
 40
0.0
 40
0.0
 40
0.7181535970301943
 40
1.0
 40
1.0
 40
1.0
 40
1.0
 10
12.14906324604993
 20
6.25558701037323
 30
0.0
 10
12.15004900337722
 20
6.256117481322815
 30
0.0
 10
12.1514216308087
 20
6.256856140784772
 30
0.0
 10
12.15266374287226
 20
6.256945736163295
 30
0.0
 10
12.15301382768946
 20
6.256970988298455
 30
0.0
  0
ARC
  5
1D1
330
1F
100
AcDbEntity
  8
0
  6
Continuous
 62
     7
370
    25
100
AcDbCircle
 10
12.8259127585
 20
5.2058813246
 30
0.0
 40
1.249002517717309
100
AcDbArc
 50
122.8138953419
 51
123.2974405824
  0
LINE
  5
1D2
330
1F
100
AcDbEntity
  8
0
  6
Continuous
 62
     7
370
    25
100
AcDbLine
 10
12.1402285097
 20
6.2362642495
 30
0.0
 11
12.1402285097
 21
6.249837454
 31
0.0
  0
ARC
  5
1D3
330
1F
100
AcDbEntity
  8
0
  6
Continuous
 62
     7
370
    25
100
AcDbCircle
 10
12.8259382802
 20
5.1922690234
 30
0.0
 40
1.249049206957862
100
AcDbArc
 50
122.8114096763
 51
123.2974345439
  0
SPLINE
  5
1D4
330
1F
100
AcDbEntity
  8
0
  6
Continuous
 62
     7
370
    25
100
AcDbSpline
210
0.0
220
0.0
230
1.0
 70
     8
 71
     3
 72
     9
 73
     5
 74
     0
 42
0.00000001
 43
0.00000001
 40
0.0
 40
0.0
 40
0.0
 40
0.0
 40
0.651331386016811
 40
1.0
 40
1.0
 40
1.0
 40
1.0
 10
12.15341156987677
 20
6.246194806391041
 30
0.0
 10
12.1525126934857
 20
6.245116106320288
 30
0.0
 10
12.15113263348801
 20
6.243459960011494
 30
0.0
 10
12.14963217190779
 20
6.24240955547356
 30
0.0
 10
12.14910900804828
 20
6.242043312379197
 30
0.0
  0
SPLINE
  5
1D5
330
1F
100
AcDbEntity
  8
0
  6
Continuous
 62
     7
370
    25
100
AcDbSpline
210
0.0
220
0.0
230
1.0
 70
     8
 71
     3
 72
    10
 73
     6
 74
     0
 42
0.00000001
 43
0.00000001
 40
0.0
 40
0.0
 40
0.0
 40
0.0
 40
0.3484435707986857
 40
0.6968803769531865
 40
0.9999999999999999
 40
0.9999999999999999
 40
0.9999999999999999
 40
0.9999999999999999
 10
12.15564584892278
 20
6.252285347907175
 30
0.0
 10
12.15556869052241
 20
6.251589131530706
 30
0.0
 10
12.15541437521962
 20
6.250196712294036
 30
0.0
 10
12.15458196163629
 20
6.248020437531458
 30
0.0
 10
12.15378318149113
 20
6.246774463356148
 30
0.0
 10
12.15341156987677
 20
6.246194806391041
 30
0.0
  0
SPLINE
  5
1D6
330
1F
100
AcDbEntity
  8
0
  6
Continuous
 62
     7
370
    25
100
AcDbSpline
210
0.0
220
0.0
230
1.0
 70
     8
 71
     3
 72
    10
 73
     6
 74
     0
 42
0.00000001
 43
0.00000001
 40
0.0
 40
0.0
 40
0.0
 40
0.0
 40
0.2505062776362822
 40
0.5010132827252309
 40
1.0
 40
1.0
 40
1.0
 40
1.0
 10
12.15561031596646
 20
6.25378444118891
 30
0.0
 10
12.15561966504204
 20
6.253663681834627
 30
0.0
 10
12.15563836322035
 20
6.253422162775384
 30
0.0
 10
12.1556580734218
 20
6.252927194756726
 30
0.0
 10
12.15565073475234
 20
6.252541878199747
 30
0.0
 10
12.15564584892278
 20
6.252285347907175
 30
0.0
  0
ARC
  5
1D7
330
1F
100
AcDbEntity
  8
0
  6
Continuous
 62
     7
370
    25
100
AcDbCircle
 10
12.826162106
 20
5.2240857261
 30
0.0
 40
1.249458716893731
100
AcDbArc
 50
122.789612558
 51
123.2973802723
  0
LINE
  5
1D8
330
1F
100
AcDbEntity
  8
0
  6
Continuous
 62
     7
370
    25
100
AcDbLine
 10
12.1402285097
 20
6.257365315
 30
0.0
 11
12.1402285097
 21
6.2684238834
 31
0.0
  0
ARC
  5
1D9
330
1F
100
AcDbEntity
  8
0
  6
Continuous
 62
     7
370
    25
100
AcDbCircle
 10
12.8256681031
 20
5.2137839097
 30
0.0
 40
1.248554999021635
100
AcDbArc
 50
122.8377281995
 51
123.2974969015
  0
SPLINE
  5
1DA
330
1F
100
AcDbEntity
  8
0
  6
Continuous
 62
     7
370
    25
100
AcDbSpline
210
0.0
220
0.0
230
1.0
 70
     8
 71
     3
 72
     9
 73
     5
 74
     0
 42
0.00000001
 43
0.00000001
 40
0.0
 40
0.0
 40
0.0
 40
0.0
 40
0.5901520352141945
 40
1.0
 40
1.0
 40
1.0
 40
1.0
 10
12.15297924888316
 20
6.26719096875769
 30
0.0
 10
12.15216751487688
 20
6.266150541404683
 30
0.0
 10
12.15079204896666
 20
6.264387559510317
 30
0.0
 10
12.14925474481756
 20
6.263284172499049
 30
0.0
 10
12.1486246838408
 20
6.26283195157811
 30
0.0
  0
SPLINE
  5
1DB
330
1F
100
AcDbEntity
  8
0
  6
Continuous
 62
     7
370
    25
100
AcDbSpline
210
0.0
220
0.0
230
1.0
 70
     8
 71
     3
 72
    10
 73
     6
 74
     0
 42
0.00000001
 43
0.00000001
 40
0.0
 40
0.0
 40
0.0
 40
0.0
 40
0.3250849377089288
 40
0.6501638711264107
 40
1.0
 40
1.0
 40
1.0
 40
1.0
 10
12.15476245969903
 20
6.272062487043915
 30
0.0
 10
12.15471886732087
 20
6.271547294992574
 30
0.0
 10
12.1546316833697
 20
6.270516920405446
 30
0.0
 10
12.15400370969885
 20
6.268761529643744
 30
0.0
 10
12.15332898588179
 20
6.267727136898088
 30
0.0
 10
12.15297924888316
 20
6.26719096875769
 30
0.0
  0
LINE
  5
1DC
330
1F
100
AcDbEntity
  8
0
  6
Continuous
 62
     7
370
    25
100
AcDbLine
 10
12.1547634041
 20
6.2722094914
 30
0.0
 11
12.1547624597
 21
6.272062487
 31
0.0
  0
SPLINE
  5
1DD
330
1F
100
AcDbEntity
  8
0
  6
Continuous
 62
     7
370
    25
100
AcDbSpline
210
0.0
220
0.0
230
1.0
 70
     8
 71
     3
 72
    10
 73
     6
 74
     0
 42
0.00000001
 43
0.00000001
 40
0.0
 40
0.0
 40
0.0
 40
0.0
 40
0.2500407287068626
 40
0.5000814594583111
 40
1.0
 40
1.0
 40
1.0
 40
1.0
 10
12.15475669967034
 20
6.272620158839518
 30
0.0
 10
12.15475773207497
 20
6.272586246919167
 30
0.0
 10
12.15475979688423
 20
6.272518423078189
 30
0.0
 10
12.15476261461781
 20
6.27238190834319
 30
0.0
 10
12.15476308830872
 20
6.27227845368713
 30
0.0
 10
12.15476340406836
 20
6.27220949140791
 30
0.0
  0
SPLINE
  5
1DE
330
1F
100
AcDbEntity
  8
0
  6
Continuous
 62
     7
370
    25
100
AcDbSpline
210
0.0
220
0.0
230
1.0
 70
     8
 71
     3
 72
    10
 73
     6
 74
     0
 42
0.00000001
 43
0.00000001
 40
0.0
 40
0.0
 40
0.0
 40
0.0
 40
0.2626904665813341
 40
0.6671461508530456
 40
1.0
 40
1.0
 40
1.0
 40
1.0
 10
12.15323147797559
 20
6.275427575004307
 30
0.0
 10
12.15345612905387
 20
6.275308863837203
 30
0.0
 10
12.15402666784847
 20
6.275007377075132
 30
0.0
 10
12.15460105206379
 20
6.274057344796344
 30
0.0
 10
12.15470828845968
 20
6.273067168039668
 30
0.0
 10
12.15475669967034
 20
6.272620158839518
 30
0.0
  0
SPLINE
  5
1DF
330
1F
100
AcDbEntity
  8
0
  6
Continuous
 62
     7
370
    25
100
AcDbSpline
210
0.0
220
0.0
230
1.0
 70
     8
 71
     3
 72
     9
 73
     5
 74
     0
 42
0.00000001
 43
0.00000001
 40
0.0
 40
0.0
 40
0.0
 40
0.0
 40
0.5555500201066185
 40
1.0
 40
1.0
 40
1.0
 40
1.0
 10
12.14951047747511
 20
6.274461686854258
 30
0.0
 10
12.1502487047336
 20
6.27485807534253
 30
0.0
 10
12.15157752703902
 20
6.27557158173066
 30
0.0
 10
12.15272256560705
 20
6.275471885148322
 30
0.0
 10
12.15323147797559
 20
6.275427575004307
 30
0.0
  0
LINE
  5
1E0
330
1F
100
AcDbEntity
  8
0
  6
Continuous
 62
     7
370
    25
100
AcDbLine
 10
12.1680360142
 20
6.2547237337
 30
0.0
 11
12.1638568203
 21
6.2571363309
 31
0.0
  0
LINE
  5
1E1
330
1F
100
AcDbEntity
  8
0
  6
Continuous
 62
     7
370
    25
100
AcDbLine
 10
12.1610215975
 20
6.2377282065
 30
0.0
 11
12.1568410938
 21
6.2401415599
 31
0.0
  0
LINE
  5
1E2
330
1F
100
AcDbEntity
  8
0
  6
Continuous
 62
     7
370
    25
100
AcDbLine
 10
12.1554665887
 20
6.2329986086
 30
0.0
 11
12.1512848859
 21
6.2354126543
 31
0.0
  0
LINE
  5
1E3
330
1F
100
AcDbEntity
  8
0
  6
Continuous
 62
     7
370
    25
100
AcDbLine
 10
12.1325308962
 20
6.2231365437
 30
0.0
 11
12.1367177447
 21
6.2207195275
 31
0.0
  0
SPLINE
  5
1E4
330
1F
100
AcDbEntity
  8
0
  6
Continuous
 62
     7
370
    25
100
AcDbSpline
210
0.0
220
0.0
230
1.0
 70
     8
 71
     3
 72
     9
 73
     5
 74
     0
 42
0.00000001
 43
0.00000001
 40
0.0
 40
0.0
 40
0.0
 40
0.0
 40
0.5055868816551783
 40
1.0
 40
1.0
 40
1.0
 40
1.0
 10
12.15551698441142
 20
6.254115154197299
 30
0.0
 10
12.15514600931743
 20
6.254047101009888
 30
0.0
 10
12.15441225789419
 20
6.253912498649979
 30
0.0
 10
12.153631490672
 20
6.253417431889454
 30
0.0
 10
12.15324546911498
 20
6.253172664388593
 30
0.0
  0
LINE
  5
1E5
330
1F
100
AcDbEntity
  8
0
  6
Continuous
 62
     7
370
    25
100
AcDbLine
 10
12.1444130367
 20
6.239000731
 30
0.0
 11
12.1444130367
 21
6.247421778
 31
0.0
  0
ARC
  5
1E6
330
1F
100
AcDbEntity
  8
0
  6
Continuous
 62
     7
370
    25
100
AcDbCircle
 10
12.8272986406
 20
5.2082778547
 30
0.0
 40
1.243443943766421
100
AcDbArc
 50
122.8257341584
 51
123.3113854679
  0
LINE
  5
1E7
330
1F
100
AcDbEntity
  8
0
  6
Continuous
 62
     7
370
    25
100
AcDbLine
 10
12.1547834651
 20
6.2559493983
 30
0.0
 11
12.1530138277
 21
6.2569709883
 31
0.0
  0
LINE
  5
1E8
330
1F
100
AcDbEntity
  8
0
  6
Continuous
 62
     7
370
    25
100
AcDbLine
 10
12.1665799536
 20
6.2767061548
 30
0.0
 11
12.1624005064
 21
6.2791188984
 31
0.0
  0
LINE
  5
1E9
330
1F
100
AcDbEntity
  8
0
  6
Continuous
 62
     7
370
    25
100
AcDbLine
 10
12.1532454691
 20
6.2531726644
 30
0.0
 11
12.149063246
 21
6.2555870104
 31
0.0
  0
LINE
  5
1EA
330
1F
100
AcDbEntity
  8
0
  6
Continuous
 62
     7
370
    25
100
AcDbLine
 10
12.1402285097
 20
6.249837454
 30
0.0
 11
12.1444130367
 21
6.247421778
 31
0.0
  0
LINE
  5
1EB
330
1F
100
AcDbEntity
  8
0
  6
Continuous
 62
     7
370
    25
100
AcDbLine
 10
12.1545134786
 20
6.2724395046
 30
0.0
 11
12.1536925939
 21
6.2720474024
 31
0.0
  0
LINE
  5
1EC
330
1F
100
AcDbEntity
  8
0
  6
Continuous
 62
     7
370
    25
100
AcDbLine
 10
12.1444130367
 20
6.2601017965
 30
0.0
 11
12.1444130367
 21
6.2660082073
 31
0.0
  0
ARC
  5
1ED
330
1F
100
AcDbEntity
  8
0
  6
Continuous
 62
     7
370
    25
100
AcDbCircle
 10
12.8275480315
 20
5.2264823822
 30
0.0
 40
1.243900061152155
100
AcDbArc
 50
122.8013459402
 51
123.3113246353
  0
LINE
  5
1EE
330
1F
100
AcDbEntity
  8
0
  6
Continuous
 62
     7
370
    25
100
AcDbLine
 10
12.1536925939
 20
6.2720474024
 30
0.0
 11
12.1495104775
 21
6.2744616869
 31
0.0
  0
LINE
  5
1EF
330
1F
100
AcDbEntity
  8
0
  6
Continuous
 62
     7
370
    25
100
AcDbLine
 10
12.1402285097
 20
6.2684238834
 30
0.0
 11
12.1444130367
 21
6.2660082073
 31
0.0
  0
LWPOLYLINE
  5
1F0
330
1F
100
AcDbEntity
  8
0
  6
Continuous
 62
     7
370
    25
100
AcDbPolyline
 90
       16
 70
   128
 43
0.0
 10
14.1292286266
 20
5.3151765869
 10
14.1909896533
 20
5.3534715587
 10
14.2478609623
 20
5.3942124781
 10
14.2995527502
 20
5.4371917388
 10
14.3458016077
 20
5.4821903282
 10
14.3863718611
 20
5.5289789439
 10
14.4210567737
 20
5.5773191618
 10
14.4496795993
 20
5.6269646513
 10
14.4720944823
 20
5.6776624302
 10
14.4881872017
 20
5.7291541544
 10
14.4978757527
 20
5.7811774338
 10
14.5011107646
 20
5.8334671697
 10
14.4978757527
 20
5.8857569055
 10
14.4881872017
 20
5.9377801849
 10
14.4720944823
 20
5.9892719091
 10
14.4719231345
 20
5.98972593
  0
LINE
  5
1F1
330
1F
100
AcDbEntity
  8
0
  6
Continuous
 62
     7
370
    25
100
AcDbLine
 10
14.1222689142
 20
5.3111575243
 30
0.0
 11
14.1292286266
 21
5.3151765869
 31
0.0
  0
LWPOLYLINE
  5
1F2
330
1F
100
AcDbEntity
  8
0
  6
Continuous
 62
     7
370
    25
100
AcDbPolyline
 90
       16
 70
   128
 43
0.0
 10
14.1222689142
 20
5.3111575243
 10
14.1835511733
 20
5.3491556359
 10
14.2399816194
 20
5.3895807343
 10
14.2912726958
 20
5.4322268224
 10
14.337163035
 20
5.4768765855
 10
14.3774187903
 20
5.5233024988
 10
14.4118348276
 20
5.5712679863
 10
14.4402357708
 20
5.620528627
 10
14.462476895
 20
5.6708333999
 10
14.4784448647
 20
5.7219259634
 10
14.4880583106
 20
5.7735459615
 10
14.491268245
 20
5.8254303506
 10
14.4880583106
 20
5.8773147397
 10
14.4784448647
 20
5.9289347379
 10
14.462476895
 20
5.9800273014
 10
14.4485499683
 20
6.0132146443
  0
LWPOLYLINE
  5
1F3
330
1F
100
AcDbEntity
  8
0
  6
Continuous
 62
     7
370
    25
100
AcDbPolyline
 90
       16
 70
   128
 43
0.0
 10
11.990928316
 20
5.98972593
 10
11.9907569683
 20
5.9892719091
 10
11.9746642489
 20
5.9377801849
 10
11.9649756979
 20
5.8857569055
 10
11.9617406859
 20
5.8334671697
 10
11.9649756979
 20
5.7811774338
 10
11.9746642489
 20
5.7291541544
 10
11.9907569683
 20
5.6776624302
 10
12.0131718513
 20
5.6269646513
 10
12.0417946768
 20
5.5773191618
 10
12.0764795894
 20
5.5289789439
 10
12.1170498429
 20
5.4821903282
 10
12.1632987003
 20
5.4371917388
 10
12.2149904883
 20
5.3942124781
 10
12.2718617972
 20
5.3534715587
 10
12.3334769413
 20
5.3152608168
  0
ARC
  5
1F4
330
1F
100
AcDbEntity
  8
0
  6
Continuous
 62
     7
370
    25
100
AcDbCircle
 10
12.389393318
 20
5.8831225704
 30
0.0
 40
0.42765266707359
100
AcDbArc
 50
168.6745856546
 51
179.9768383746
  0
ARC
  5
1F5
330
1F
100
AcDbEntity
  8
0
  6
Continuous
 62
     7
370
    25
100
AcDbCircle
 10
14.0726380832
 20
5.8830410903
 30
0.0
 40
0.4284727569635456
100
AcDbArc
 50
0.0340128981
 51
11.3145630727
  0
LWPOLYLINE
  5
1F6
330
1F
100
AcDbEntity
  8
0
  6
Continuous
 62
     7
370
    25
100
AcDbPolyline
 90
       38
 70
   128
 43
0.0
 10
12.0143014822
 20
6.0132146443
 10
12.0003745555
 20
5.9800273014
 10
11.9844065859
 20
5.9289347379
 10
11.9747931399
 20
5.8773147397
 10
11.9715832056
 20
5.8254303506
 10
11.9747931399
 20
5.7735459615
 10
11.9844065859
 20
5.7219259634
 10
12.0003745555
 20
5.6708333999
 10
12.0226156798
 20
5.620528627
 10
12.0510166229
 20
5.5712679863
 10
12.0854326603
 20
5.5233024988
 10
12.1256884156
 20
5.4768765855
 10
12.1715787548
 20
5.4322268224
 10
12.2228698312
 20
5.3895807343
 10
12.2793002773
 20
5.3491556359
 10
12.3405825364
 20
5.3111575243
 10
12.4064043282
 20
5.2757800291
 10
12.4764302399
 20
5.243203426
 10
12.5503034356
 20
5.2135937179
 10
12.6276474743
 20
5.187101789
 10
12.7080682286
 20
5.1638626361
 10
12.7911558927
 20
5.1439946806
 10
12.876487071
 20
5.1275991651
 10
12.9636269353
 20
5.1147596374
 10
13.0521314408
 20
5.1055415247
 10
13.141549589
 20
5.0999918005
 10
13.2314257253
 20
5.0981387449
 10
13.3213018616
 20
5.0999918005
 10
13.4107200097
 20
5.1055415247
 10
13.4992245153
 20
5.1147596374
 10
13.5863643796
 20
5.1275991651
 10
13.6716955578
 20
5.1439946806
 10
13.754783222
 20
5.1638626361
 10
13.8352039763
 20
5.187101789
 10
13.912548015
 20
5.2135937179
 10
13.9864212106
 20
5.243203426
 10
14.0564471224
 20
5.2757800291
 10
14.1222689142
 20
5.3111575243
  0
LWPOLYLINE
  5
1F7
330
1F
100
AcDbEntity
  8
0
  6
Continuous
 62
     8
370
    25
100
AcDbPolyline
 90
       28
 70
   128
 43
0.0
 10
12.2083480005
 20
8.5259744025
 10
12.2782006345
 20
8.5637168816
 10
12.3522214792
 20
8.5987117343
 10
12.4300868604
 20
8.630805937
 10
12.5114562925
 20
8.65985915
 10
12.5959739678
 20
8.685744331
 10
12.6832703119
 20
8.7083482905
 10
12.7729636002
 20
8.7275721873
 10
12.8646616267
 20
8.7433319602
 10
12.9579634193
 20
8.7555586956
 10
13.052460993
 20
8.7641989293
 10
13.1477411339
 20
8.7692148795
 10
13.2433872063
 20
8.7705846129
 10
13.3389809741
 20
8.76830214
 10
13.4341044302
 20
8.7623774414
 10
13.5283416239
 20
8.7528364243
 10
13.6212804799
 20
8.7397208092
 10
13.7125146003
 20
8.7230879474
 10
13.8016450414
 20
8.70301057
 10
13.8882820586
 20
8.6795764704
 10
13.9720468101
 20
8.6528881199
 10
14.052573014
 20
8.6230622199
 10
14.1295085498
 20
8.5902291914
 10
14.2025169979
 20
8.5545326049
 10
14.271279111
 20
8.5161285526
 10
14.3354942098
 20
8.4751849656
 10
14.394881498
 20
8.4318808797
 10
14.4124309785
 20
8.4178754371
  0
ARC
  5
1F8
330
1F
100
AcDbEntity
  8
0
  6
Continuous
 62
     8
370
    25
100
AcDbCircle
 10
12.7969171049
 20
7.4966596212
 30
0.0
 40
1.18570759868396
100
AcDbArc
 50
119.7612115138
 51
128.9761094043
  0
LWPOLYLINE
  5
1F9
330
1F
100
AcDbEntity
  8
0
  6
Continuous
 62
     8
370
    25
100
AcDbPolyline
 90
       31
 70
   128
 43
0.0
 10
14.410724912
 20
6.2793251229
 10
14.3658080691
 20
6.3138774378
 10
14.3039730678
 20
6.3560243178
 10
14.2374480898
 20
6.3957198407
 10
14.166524032
 20
6.4327904282
 10
14.0915110273
 20
6.4670739799
 10
14.0127370883
 20
6.4984205827
 10
13.9305466736
 20
6.5266931658
 10
13.8452991808
 20
6.5517681004
 10
13.7573673756
 20
6.5735357402
 10
13.6671357614
 20
6.5919009008
 10
13.574998898
 20
6.6067832761
 10
13.4813596766
 20
6.6181177893
 10
13.3866275576
 20
6.6258548773
 10
13.2912167805
 20
6.6299607079
 10
13.1955445524
 20
6.6304173273
 10
13.1000292234
 20
6.6272227388
 10
13.0050884579
 20
6.6203909117
 10
12.9111374078
 20
6.6099517196
 10
12.8185868969
 20
6.5959508105
 10
12.7278416252
 20
6.5784494069
 10
12.6392983986
 20
6.5575240379
 10
12.5533443942
 20
6.5332662049
 10
12.4703554668
 20
6.5057819812
 10
12.3906945061
 20
6.4751915482
 10
12.3147098491
 20
6.4416286702
 10
12.2427337574
 20
6.4052401091
 10
12.1750809641
 20
6.3661849829
 10
12.1120472977
 20
6.3246340695
 10
12.0539083883
 20
6.2807690608
 10
12.0485254693
 20
6.2763870157
  0
OLE2FRAME
  5
1FA
330
1F
100
AcDbEntity
  8
0
100
AcDbOle2Frame
 70
     2
  3
Picture (Enhanced Metafile)
 10
11.2640598822
 20
2.0925019973
 30
0.0
 11
16.3719380133
 21
1.7309273738
 31
0.0
 71
     3
 72
     0
 73
     1
 90
     4224
310
805541185CDB32872640168DE8AF71BD0040000000000000000058636354375F
310
3040168DE8AF71BD0040000000000000000058636354375F30405516E5E6E0B1
310
FB3F000000000000000041185CDB328726405516E5E6E0B1FB3F000000000000
310
0000000000000100000000010000010000000100000000000100000000100000
310
D0CF11E0A1B11AE1000000000000000000000000000000003E000300FEFF0900
310
0600000000000000000000000100000001000000000000000010000002000000
310
01000000FEFFFFFF0000000000000000FFFFFFFFFFFFFFFFFFFFFFFFFFFFFFFF
310
FFFFFFFFFFFFFFFFFFFFFFFFFFFFFFFFFFFFFFFFFFFFFFFFFFFFFFFFFFFFFFFF
310
FFFFFFFFFFFFFFFFFFFFFFFFFFFFFFFFFFFFFFFFFFFFFFFFFFFFFFFFFFFFFFFF
310
FFFFFFFFFFFFFFFFFFFFFFFFFFFFFFFFFFFFFFFFFFFFFFFFFFFFFFFFFFFFFFFF
310
FFFFFFFFFFFFFFFFFFFFFFFFFFFFFFFFFFFFFFFFFFFFFFFFFFFFFFFFFFFFFFFF
310
FFFFFFFFFFFFFFFFFFFFFFFFFFFFFFFFFFFFFFFFFFFFFFFFFFFFFFFFFFFFFFFF
310
FFFFFFFFFFFFFFFFFFFFFFFFFFFFFFFFFFFFFFFFFFFFFFFFFFFFFFFFFFFFFFFF
310
FFFFFFFFFFFFFFFFFFFFFFFFFFFFFFFFFFFFFFFFFFFFFFFFFFFFFFFFFFFFFFFF
310
FFFFFFFFFFFFFFFFFFFFFFFFFFFFFFFFFFFFFFFFFFFFFFFFFFFFFFFFFFFFFFFF
310
FFFFFFFFFFFFFFFFFFFFFFFFFFFFFFFFFFFFFFFFFFFFFFFFFFFFFFFFFFFFFFFF
310
FFFFFFFFFFFFFFFFFFFFFFFFFFFFFFFFFFFFFFFFFFFFFFFFFFFFFFFFFFFFFFFF
310
FFFFFFFFFFFFFFFFFFFFFFFFFFFFFFFFFFFFFFFFFFFFFFFFFFFFFFFFFFFFFFFF
310
FFFFFFFFFFFFFFFFFFFFFFFFFFFFFFFFFFFFFFFFFFFFFFFFFFFFFFFFFFFFFFFF
310
FFFFFFFFFFFFFFFFFFFFFFFFFFFFFFFFFFFFFFFFFFFFFFFFFFFFFFFFFFFFFFFF
310
FDFFFFFFFEFFFFFFFEFFFFFF040000000500000006000000FEFFFFFFFFFFFFFF
310
FFFFFFFFFFFFFFFFFFFFFFFFFFFFFFFFFFFFFFFFFFFFFFFFFFFFFFFFFFFFFFFF
310
FFFFFFFFFFFFFFFFFFFFFFFFFFFFFFFFFFFFFFFFFFFFFFFFFFFFFFFFFFFFFFFF
310
FFFFFFFFFFFFFFFFFFFFFFFFFFFFFFFFFFFFFFFFFFFFFFFFFFFFFFFFFFFFFFFF
310
FFFFFFFFFFFFFFFFFFFFFFFFFFFFFFFFFFFFFFFFFFFFFFFFFFFFFFFFFFFFFFFF
310
FFFFFFFFFFFFFFFFFFFFFFFFFFFFFFFFFFFFFFFFFFFFFFFFFFFFFFFFFFFFFFFF
310
FFFFFFFFFFFFFFFFFFFFFFFFFFFFFFFFFFFFFFFFFFFFFFFFFFFFFFFFFFFFFFFF
310
FFFFFFFFFFFFFFFFFFFFFFFFFFFFFFFFFFFFFFFFFFFFFFFFFFFFFFFFFFFFFFFF
310
FFFFFFFFFFFFFFFFFFFFFFFFFFFFFFFFFFFFFFFFFFFFFFFFFFFFFFFFFFFFFFFF
310
FFFFFFFFFFFFFFFFFFFFFFFFFFFFFFFFFFFFFFFFFFFFFFFFFFFFFFFFFFFFFFFF
310
FFFFFFFFFFFFFFFFFFFFFFFFFFFFFFFFFFFFFFFFFFFFFFFFFFFFFFFFFFFFFFFF
310
FFFFFFFFFFFFFFFFFFFFFFFFFFFFFFFFFFFFFFFFFFFFFFFFFFFFFFFFFFFFFFFF
310
FFFFFFFFFFFFFFFFFFFFFFFFFFFFFFFFFFFFFFFFFFFFFFFFFFFFFFFFFFFFFFFF
310
FFFFFFFFFFFFFFFFFFFFFFFFFFFFFFFFFFFFFFFFFFFFFFFFFFFFFFFFFFFFFFFF
310
FFFFFFFFFFFFFFFFFFFFFFFFFFFFFFFFFFFFFFFFFFFFFFFFFFFFFFFFFFFFFFFF
310
FFFFFFFFFFFFFFFFFFFFFFFFFFFFFFFFFFFFFFFFFFFFFFFFFFFFFFFFFFFFFFFF
310
52006F006F007400200045006E00740072007900000000000000000000000000
310
0000000000000000000000000000000000000000000000000000000000000000
310
16000500FFFFFFFFFFFFFFFF020000001903000000000000C000000000000046
310
0000000000000000000000005090B075FF3DD801030000004007000000000000
310
01004F006C006500000000000000000000000000000000000000000000000000
310
0000000000000000000000000000000000000000000000000000000000000000
310
0A000200FFFFFFFFFFFFFFFFFFFFFFFF00000000000000000000000000000000
310
0000000000000000000000000000000000000000000000001400000000000000
310
010043006F006D0070004F0062006A0000000000000000000000000000000000
310
0000000000000000000000000000000000000000000000000000000000000000
310
120002010100000003000000FFFFFFFF00000000000000000000000000000000
310
0000000000000000000000000000000000000000010000005800000000000000
310
43004F004E00540045004E005400530000000000000000000000000000000000
310
0000000000000000000000000000000000000000000000000000000000000000
310
12000200FFFFFFFFFFFFFFFFFFFFFFFF00000000000000000000000000000000
310
0000000000000000000000000000000000000000030000008006000000000000
310
FEFFFFFF02000000FEFFFFFF0400000005000000060000000700000008000000
310
090000000A0000000B0000000C0000000D0000000E0000000F00000010000000
310
1100000012000000130000001400000015000000160000001700000018000000
310
190000001A0000001B0000001C000000FEFFFFFFFFFFFFFFFFFFFFFFFFFFFFFF
310
FFFFFFFFFFFFFFFFFFFFFFFFFFFFFFFFFFFFFFFFFFFFFFFFFFFFFFFFFFFFFFFF
310
FFFFFFFFFFFFFFFFFFFFFFFFFFFFFFFFFFFFFFFFFFFFFFFFFFFFFFFFFFFFFFFF
310
FFFFFFFFFFFFFFFFFFFFFFFFFFFFFFFFFFFFFFFFFFFFFFFFFFFFFFFFFFFFFFFF
310
FFFFFFFFFFFFFFFFFFFFFFFFFFFFFFFFFFFFFFFFFFFFFFFFFFFFFFFFFFFFFFFF
310
FFFFFFFFFFFFFFFFFFFFFFFFFFFFFFFFFFFFFFFFFFFFFFFFFFFFFFFFFFFFFFFF
310
FFFFFFFFFFFFFFFFFFFFFFFFFFFFFFFFFFFFFFFFFFFFFFFFFFFFFFFFFFFFFFFF
310
FFFFFFFFFFFFFFFFFFFFFFFFFFFFFFFFFFFFFFFFFFFFFFFFFFFFFFFFFFFFFFFF
310
FFFFFFFFFFFFFFFFFFFFFFFFFFFFFFFFFFFFFFFFFFFFFFFFFFFFFFFFFFFFFFFF
310
FFFFFFFFFFFFFFFFFFFFFFFFFFFFFFFFFFFFFFFFFFFFFFFFFFFFFFFFFFFFFFFF
310
FFFFFFFFFFFFFFFFFFFFFFFFFFFFFFFFFFFFFFFFFFFFFFFFFFFFFFFFFFFFFFFF
310
FFFFFFFFFFFFFFFFFFFFFFFFFFFFFFFFFFFFFFFFFFFFFFFFFFFFFFFFFFFFFFFF
310
FFFFFFFFFFFFFFFFFFFFFFFFFFFFFFFFFFFFFFFFFFFFFFFFFFFFFFFFFFFFFFFF
310
0100000200000000000000000000000000000000000000000000000000000000
310
0000000000000000000000000000000000000000000000000000000000000000
310
0100FEFF030A0000FFFFFFFF1903000000000000C0000000000000461C000000
310
506963747572652028456E68616E636564204D65746166696C652900FFFFFFFF
310
0E00000000000000F439B2710000000000000000000000000000000000000000
310
0000000000000000000000000000000000000000000000000000000000000000
310
74000000010000006C000000F1000000330100002C030000620100006B1D0000
310
7A2500001F630000372B000020454D4600000100080600002B00000004000000
310
0D0000005800000000000000000400000003000040010000F000000041006400
310
6F006200650020005300790073007400692600005AF706480100000074000000
310
F1000000330100002C030000620100006B1D00007A2500001F630000372B0000
310
20454D4600000100080600002B000000040000000D0000005800000000000000
310
000400000003000040010000F0000000410064006F0062006500200053007900
310
7300740065006D0073000000110000000C00000008000000120000000C000000
310
010000000A0000001000000000000000000000000C0000001000000000000000
310
00000000090000001000000016140000AD0100000B00000010000000B2060000
310
8F000000130000000C0000000200000027000000180000000100000000000000
310
0000000000000000250000000C000000010000005F0000003400000002000000
310
2C000000000000002C0000000000000005000000000000000000000000000000
310
0000000000000000250000000C000000020000005B00000038000000F0000000
310
320100002D0300006301000001000000050000000500000085092704D3022704
310
D30298038509980385092704130000000C000000020000002700000018000000
310
0300000000000000FFFFFF0000000000250000000C0000000300000028000000
310
0C000000010000003B000000080000001B0000001000000020030000CC030000
310
58000000B8000000FD000000410100000D01000055010000270000002103CE03
310
2203D1032203D4032203D8032103DA032003DC031F03DD031D03DE031B03DF03
310
1E03E0032003E2032203E4032303E6032403E9032403EC032403EF032303F203
310
2103F4032003F6031F03F7031E03F8031C03FA031A03FB031803FB031503FC03
310
1303FC031003FC03F802FC03F802FC03F802FC03F802C603F802C603F802C603
310
1203C6031203C6031203C6031803C7031D03C8032003CC033D00000008000000
310
1B0000001000000003030000D003000058000000640000000001000045010000
310
080100004A010000120000000303DB030303DB030303DB031003DB031003DB03
310
1003DB031203DB031403DB031503DA031703D9031703D8031703D5031703D303
310
1603D1031403D1031303D0031103D0030E03D0033D000000080000001B000000
310
1000000003030000E40300005800000064000000000100004B01000009010000
310
52010000120000000303F3030303F3030303F3031003F3031003F3031003F303
310
1203F3031403F2031503F2031703F0031803EE031803EB031803E8031703E603
310
1503E5031403E5031203E4031003E4033D000000080000003C00000008000000
310
3E000000180000009F8601009F8601006179FEFF6179FEFF130000000C000000
310
020000005B000000580000000D010000410100001C0100005501000001000000
310
0D0000000D0000005003D0033403D0033403DB034D03DB034D03E4033403E403
310
3403F2035103F2035103FC032903FC032903C6035003C6035003D00313000000
310
0C000000020000003B000000080000001B0000001000000079030000D7030000
310
58000000240100001B010000410100002D01000055010000420000007903D303
310
7703D1037303CF037103CF036F03CE036D03CE036903CE036503D0036303D303
310
6003D6035E03DB035E03E2035E03E8036003ED036303F0036603F2036903F403
310
6D03F4037103F4037403F3037603F0037903EE037A03EC037B03E8036E03E803
310
6E03E8036E03E8036E03DF036E03DF036E03DF038503DF038503DF038503DF03
310
8503FC038503FC038503FC037D03FC037D03FC037D03FC037C03F5037C03F503
310
7C03F5037A03F8037803F9037603FA037303FC037003FD036B03FD036403FD03
310
5F03FB035A03F6035503F1035303EA035303E2035303D9035503D2035A03CD03
310
5F03C8036503C5036D03C5037403C5037903C7037D03CA038103CE038403D203
310
8403D7033D000000080000003C000000080000003E000000180000009F860100
310
9F8601006179FEFF6179FEFF130000000C000000020000005B0000005C000000
310
2C010000410100003F01000055010000020000000D0000000900000004000000
310
9A03C603A703C603BA03FC03AE03FC03AA03F1039703F1039303FC038703FC03
310
9A03C6039A03E803A703E803A103D3039A03E803280000000C00000002000000
310
280000000C000000030000000E00000014000000000000001000000014000000
310
0000000000000000000000000000000000000000000000000000000000000000
310
0000000000000000000000000000000000000000000000000000000000000000
310
0000000000000000000000000000000000000000000000000000000000000000
310
0000000000000000000000000000000000000000000000000000000000000000
310
0000000000000000000000000000000000000000000000000000000000000000
310
0000000000000000000000000000000000000000000000000000000000000000
  1
OLE
  0
ENDSEC
  0
SECTION
  2
OBJECTS
  0
DICTIONARY
  5
C
330
0
100
AcDbDictionary
281
     1
  3
ACAD_GROUP
350
D
  3
ACAD_LAYOUT
350
1A
  3
ACAD_MLINESTYLE
350
17
  3
ACAD_PLOTSETTINGS
350
19
  3
ACAD_PLOTSTYLENAME
350
E
  3
ACAD_SCALELIST
350
47
  3
DWGPROPS
350
1FB
  0
DICTIONARY
  5
D
102
{ACAD_REACTORS
330
C
102
}
330
C
100
AcDbDictionary
281
     1
  0
DICTIONARY
  5
1A
102
{ACAD_REACTORS
330
C
102
}
330
C
100
AcDbDictionary
281
     1
  3
Layout1
350
1E
  3
Layout2
350
26
  3
Model
350
22
  0
DICTIONARY
  5
17
102
{ACAD_REACTORS
330
C
102
}
330
C
100
AcDbDictionary
281
     1
  3
Standard
350
18
  0
DICTIONARY
  5
19
102
{ACAD_REACTORS
330
C
102
}
330
C
100
AcDbDictionary
281
     1
  0
ACDBDICTIONARYWDFLT
  5
E
102
{ACAD_REACTORS
330
C
102
}
330
C
100
AcDbDictionary
281
     1
  3
Normal
350
F
100
AcDbDictionaryWithDefault
340
F
  0
DICTIONARY
  5
47
102
{ACAD_REACTORS
330
C
102
}
330
C
100
AcDbDictionary
281
     1
  3
A0
350
48
  3
A1
350
49
  3
A2
350
4A
  3
A3
350
4B
  3
A4
350
4C
  3
A5
350
4D
  3
A6
350
4E
  3
A7
350
4F
  3
A8
350
50
  3
A9
350
51
  3
B0
350
52
  3
B1
350
53
  3
B2
350
54
  3
B3
350
55
  3
B4
350
56
  3
B5
350
57
  3
B6
350
58
  3
B7
350
59
  3
B8
350
5A
  3
B9
350
5B
  3
C0
350
5C
  3
C1
350
5D
  3
C2
350
5E
  3
C3
350
5F
  3
C4
350
60
  3
C5
350
61
  3
C6
350
62
  3
C7
350
63
  3
C8
350
64
  3
C9
350
65
  3
D0
350
66
  3
D1
350
67
  3
D2
350
68
  0
XRECORD
  5
1FB
102
{ACAD_REACTORS
330
C
102
}
330
C
100
AcDbXrecord
280
     1
  1
DWGPROPS COOKIE
  2

  3

  4

  6

  7

  8
rmundstock
  9

300
=
301
=
302
=
303
=
304
=
305
=
306
=
307
=
308
=
309
=
 40
0.0
 41
2459661.634730556
 42
2459661.634731389
  1

 90
        0
  0
LAYOUT
  5
1E
102
{ACAD_REACTORS
330
1A
102
}
330
1A
100
AcDbPlotSettings
  1

  2
none_device
  4

  6

 40
0.0
 41
0.0
 42
0.0
 43
0.0
 44
0.0
 45
0.0
 46
0.0
 47
0.0
 48
0.0
 49
0.0
140
0.0
141
0.0
142
1.0
143
1.0
 70
   688
 72
     0
 73
     0
 74
     5
  7

 75
    16
147
1.0
148
0.0
149
0.0
100
AcDbLayout
  1
Layout1
 70
     1
 71
     1
 10
0.0
 20
0.0
 11
12.0
 21
9.0
 12
0.0
 22
0.0
 32
0.0
 14
1.0000000000E+20
 24
1.0000000000E+20
 34
1.0000000000E+20
 15
-1.0000000000E+20
 25
-1.0000000000E+20
 35
-1.0000000000E+20
146
0.0
 13
0.0
 23
0.0
 33
0.0
 16
1.0
 26
0.0
 36
0.0
 17
0.0
 27
1.0
 37
0.0
 76
     0
330
1B
  0
LAYOUT
  5
26
102
{ACAD_REACTORS
330
1A
102
}
330
1A
100
AcDbPlotSettings
  1

  2
none_device
  4

  6

 40
0.0
 41
0.0
 42
0.0
 43
0.0
 44
0.0
 45
0.0
 46
0.0
 47
0.0
 48
0.0
 49
0.0
140
0.0
141
0.0
142
1.0
143
1.0
 70
   688
 72
     0
 73
     0
 74
     5
  7

 75
    16
147
1.0
148
0.0
149
0.0
100
AcDbLayout
  1
Layout2
 70
     1
 71
     2
 10
0.0
 20
0.0
 11
0.0
 21
0.0
 12
0.0
 22
0.0
 32
0.0
 14
0.0
 24
0.0
 34
0.0
 15
0.0
 25
0.0
 35
0.0
146
0.0
 13
0.0
 23
0.0
 33
0.0
 16
1.0
 26
0.0
 36
0.0
 17
0.0
 27
1.0
 37
0.0
 76
     0
330
23
  0
LAYOUT
  5
22
102
{ACAD_REACTORS
330
1A
102
}
330
1A
100
AcDbPlotSettings
  1

  2
none_device
  4
Letter_(8.50_x_11.00_Inches)
  6

 40
6.35
 41
6.35
 42
6.35000508
 43
6.35000508
 44
215.9
 45
279.4
 46
0.0
 47
0.0
 48
0.0
 49
0.0
140
0.0
141
0.0
142
1.0
143
1.0
 70
  1712
 72
     0
 73
     0
 74
     0
  7

 75
     0
147
1.0
148
0.0
149
0.0
100
AcDbLayout
  1
Model
 70
     1
 71
     0
 10
0.0
 20
0.0
 11
17.0
 21
11.0
 12
0.0
 22
0.0
 32
0.0
 14
0.0
 24
0.0
 34
0.0
 15
17.0
 25
11.0
 35
0.0
146
0.0
 13
0.0
 23
0.0
 33
0.0
 16
1.0
 26
0.0
 36
0.0
 17
0.0
 27
1.0
 37
0.0
 76
     0
330
1F
331
29
  0
MLINESTYLE
  5
18
102
{ACAD_REACTORS
330
17
102
}
330
17
100
AcDbMlineStyle
  2
Standard
 70
     0
  3

 62
   256
 51
90.0
 52
90.0
 71
     2
 49
0.5
 62
   256
  6
BYLAYER
 49
-0.5
 62
   256
  6
BYLAYER
  0
ACDBPLACEHOLDER
  5
F
102
{ACAD_REACTORS
330
E
102
}
330
E
  0
SCALE
  5
48
102
{ACAD_REACTORS
330
47
102
}
330
47
100
AcDbScale
 70
     0
300
1:1
140
1.0
141
1.0
290
     1
  0
SCALE
  5
49
102
{ACAD_REACTORS
330
47
102
}
330
47
100
AcDbScale
 70
     0
300
1:2
140
1.0
141
2.0
290
     0
  0
SCALE
  5
4A
102
{ACAD_REACTORS
330
47
102
}
330
47
100
AcDbScale
 70
     0
300
1:4
140
1.0
141
4.0
290
     0
  0
SCALE
  5
4B
102
{ACAD_REACTORS
330
47
102
}
330
47
100
AcDbScale
 70
     0
300
1:5
140
1.0
141
5.0
290
     0
  0
SCALE
  5
4C
102
{ACAD_REACTORS
330
47
102
}
330
47
100
AcDbScale
 70
     0
300
1:8
140
1.0
141
8.0
290
     0
  0
SCALE
  5
4D
102
{ACAD_REACTORS
330
47
102
}
330
47
100
AcDbScale
 70
     0
300
1:10
140
1.0
141
10.0
290
     0
  0
SCALE
  5
4E
102
{ACAD_REACTORS
330
47
102
}
330
47
100
AcDbScale
 70
     0
300
1:16
140
1.0
141
16.0
290
     0
  0
SCALE
  5
4F
102
{ACAD_REACTORS
330
47
102
}
330
47
100
AcDbScale
 70
     0
300
1:20
140
1.0
141
20.0
290
     0
  0
SCALE
  5
50
102
{ACAD_REACTORS
330
47
102
}
330
47
100
AcDbScale
 70
     0
300
1:30
140
1.0
141
30.0
290
     0
  0
SCALE
  5
51
102
{ACAD_REACTORS
330
47
102
}
330
47
100
AcDbScale
 70
     0
300
1:40
140
1.0
141
40.0
290
     0
  0
SCALE
  5
52
102
{ACAD_REACTORS
330
47
102
}
330
47
100
AcDbScale
 70
     0
300
1:50
140
1.0
141
50.0
290
     0
  0
SCALE
  5
53
102
{ACAD_REACTORS
330
47
102
}
330
47
100
AcDbScale
 70
     0
300
1:100
140
1.0
141
100.0
290
     0
  0
SCALE
  5
54
102
{ACAD_REACTORS
330
47
102
}
330
47
100
AcDbScale
 70
     0
300
2:1
140
2.0
141
1.0
290
     0
  0
SCALE
  5
55
102
{ACAD_REACTORS
330
47
102
}
330
47
100
AcDbScale
 70
     0
300
4:1
140
4.0
141
1.0
290
     0
  0
SCALE
  5
56
102
{ACAD_REACTORS
330
47
102
}
330
47
100
AcDbScale
 70
     0
300
8:1
140
8.0
141
1.0
290
     0
  0
SCALE
  5
57
102
{ACAD_REACTORS
330
47
102
}
330
47
100
AcDbScale
 70
     0
300
10:1
140
10.0
141
1.0
290
     0
  0
SCALE
  5
58
102
{ACAD_REACTORS
330
47
102
}
330
47
100
AcDbScale
 70
     0
300
100:1
140
100.0
141
1.0
290
     0
  0
SCALE
  5
59
102
{ACAD_REACTORS
330
47
102
}
330
47
100
AcDbScale
 70
     0
300
1/128" = 1'-0"
140
0.0078125
141
12.0
290
     0
  0
SCALE
  5
5A
102
{ACAD_REACTORS
330
47
102
}
330
47
100
AcDbScale
 70
     0
300
1/64" = 1'-0"
140
0.015625
141
12.0
290
     0
  0
SCALE
  5
5B
102
{ACAD_REACTORS
330
47
102
}
330
47
100
AcDbScale
 70
     0
300
1/32" = 1'-0"
140
0.03125
141
12.0
290
     0
  0
SCALE
  5
5C
102
{ACAD_REACTORS
330
47
102
}
330
47
100
AcDbScale
 70
     0
300
1/16" = 1'-0"
140
0.0625
141
12.0
290
     0
  0
SCALE
  5
5D
102
{ACAD_REACTORS
330
47
102
}
330
47
100
AcDbScale
 70
     0
300
3/32" = 1'-0"
140
0.09375
141
12.0
290
     0
  0
SCALE
  5
5E
102
{ACAD_REACTORS
330
47
102
}
330
47
100
AcDbScale
 70
     0
300
1/8" = 1'-0"
140
0.125
141
12.0
290
     0
  0
SCALE
  5
5F
102
{ACAD_REACTORS
330
47
102
}
330
47
100
AcDbScale
 70
     0
300
3/16" = 1'-0"
140
0.1875
141
12.0
290
     0
  0
SCALE
  5
60
102
{ACAD_REACTORS
330
47
102
}
330
47
100
AcDbScale
 70
     0
300
1/4" = 1'-0"
140
0.25
141
12.0
290
     0
  0
SCALE
  5
61
102
{ACAD_REACTORS
330
47
102
}
330
47
100
AcDbScale
 70
     0
300
3/8" = 1'-0"
140
0.375
141
12.0
290
     0
  0
SCALE
  5
62
102
{ACAD_REACTORS
330
47
102
}
330
47
100
AcDbScale
 70
     0
300
1/2" = 1'-0"
140
0.5
141
12.0
290
     0
  0
SCALE
  5
63
102
{ACAD_REACTORS
330
47
102
}
330
47
100
AcDbScale
 70
     0
300
3/4" = 1'-0"
140
0.75
141
12.0
290
     0
  0
SCALE
  5
64
102
{ACAD_REACTORS
330
47
102
}
330
47
100
AcDbScale
 70
     0
300
1" = 1'-0"
140
1.0
141
12.0
290
     0
  0
SCALE
  5
65
102
{ACAD_REACTORS
330
47
102
}
330
47
100
AcDbScale
 70
     0
300
1-1/2" = 1'-0"
140
1.5
141
12.0
290
     0
  0
SCALE
  5
66
102
{ACAD_REACTORS
330
47
102
}
330
47
100
AcDbScale
 70
     0
300
3" = 1'-0"
140
3.0
141
12.0
290
     0
  0
SCALE
  5
67
102
{ACAD_REACTORS
330
47
102
}
330
47
100
AcDbScale
 70
     0
300
6" = 1'-0"
140
6.0
141
12.0
290
     0
  0
SCALE
  5
68
102
{ACAD_REACTORS
330
47
102
}
330
47
100
AcDbScale
 70
     0
300
1'-0" = 1'-0"
140
12.0
141
12.0
290
     0
  0
ENDSEC
  0
EOF
