  0
SECTION
  2
HEADER
  9
$ACADVER
  1
AC1015
  9
$ACADMAINTVER
 70
     6
  9
$DWGCODEPAGE
  3
ANSI_1252
  9
$INSBASE
 10
0.0
 20
0.0
 30
0.0
  9
$EXTMIN
 10
0.0
 20
0.0
 30
0.0
  9
$EXTMAX
 10
17.0
 20
11.0
 30
0.0
  9
$LIMMIN
 10
0.0
 20
0.0
  9
$LIMMAX
 10
17.0
 20
11.0
  9
$ORTHOMODE
 70
     0
  9
$REGENMODE
 70
     1
  9
$FILLMODE
 70
     1
  9
$QTEXTMODE
 70
     0
  9
$MIRRTEXT
 70
     1
  9
$LTSCALE
 40
1.0
  9
$ATTMODE
 70
     1
  9
$TEXTSIZE
 40
0.125
  9
$TRACEWID
 40
0.05
  9
$TEXTSTYLE
  7
Standard
  9
$CLAYER
  8
0
  9
$CELTYPE
  6
ByLayer
  9
$CECOLOR
 62
   256
  9
$CELTSCALE
 40
1.0
  9
$DISPSILH
 70
     0
  9
$DIMSCALE
 40
1.0
  9
$DIMASZ
 40
0.13
  9
$DIMEXO
 40
0.05
  9
$DIMDLI
 40
0.38
  9
$DIMRND
 40
0.0
  9
$DIMDLE
 40
0.0
  9
$DIMEXE
 40
0.125
  9
$DIMTP
 40
0.0
  9
$DIMTM
 40
0.0
  9
$DIMTXT
 40
0.125
  9
$DIMCEN
 40
0.09
  9
$DIMTSZ
 40
0.0
  9
$DIMTOL
 70
     0
  9
$DIMLIM
 70
     0
  9
$DIMTIH
 70
     1
  9
$DIMTOH
 70
     1
  9
$DIMSE1
 70
     0
  9
$DIMSE2
 70
     0
  9
$DIMTAD
 70
     0
  9
$DIMZIN
 70
     1
  9
$DIMBLK
  1

  9
$DIMASO
 70
     1
  9
$DIMSHO
 70
     1
  9
$DIMPOST
  1

  9
$DIMAPOST
  1

  9
$DIMALT
 70
     0
  9
$DIMALTD
 70
     2
  9
$DIMALTF
 40
25.4
  9
$DIMLFAC
 40
2.0
  9
$DIMTOFL
 70
     0
  9
$DIMTVP
 40
0.0
  9
$DIMTIX
 70
     0
  9
$DIMSOXD
 70
     0
  9
$DIMSAH
 70
     0
  9
$DIMBLK1
  1

  9
$DIMBLK2
  1

  9
$DIMSTYLE
  2
Standard
  9
$DIMCLRD
 70
     0
  9
$DIMCLRE
 70
     0
  9
$DIMCLRT
 70
     0
  9
$DIMTFAC
 40
1.0
  9
$DIMGAP
 40
0.06
  9
$DIMJUST
 70
     0
  9
$DIMSD1
 70
     0
  9
$DIMSD2
 70
     0
  9
$DIMTOLJ
 70
     1
  9
$DIMTZIN
 70
     1
  9
$DIMALTZ
 70
     0
  9
$DIMALTTZ
 70
     0
  9
$DIMUPT
 70
     0
  9
$DIMDEC
 70
     2
  9
$DIMTDEC
 70
     2
  9
$DIMALTU
 70
     2
  9
$DIMALTTD
 70
     2
  9
$DIMTXSTY
  7
Standard
  9
$DIMAUNIT
 70
     0
  9
$DIMADEC
 70
     0
  9
$DIMALTRND
 40
0.0
  9
$DIMAZIN
 70
     0
  9
$DIMDSEP
 70
    46
  9
$DIMATFIT
 70
     3
  9
$DIMFRAC
 70
     0
  9
$DIMLDRBLK
  1

  9
$DIMLUNIT
 70
     2
  9
$DIMLWD
 70
    -2
  9
$DIMLWE
 70
    -2
  9
$DIMTMOVE
 70
     0
  9
$LUNITS
 70
     2
  9
$LUPREC
 70
     2
  9
$SKETCHINC
 40
0.1
  9
$FILLETRAD
 40
0.5
  9
$AUNITS
 70
     0
  9
$AUPREC
 70
     0
  9
$MENU
  1
.
  9
$ELEVATION
 40
0.0
  9
$PELEVATION
 40
0.0
  9
$THICKNESS
 40
0.0
  9
$LIMCHECK
 70
     0
  9
$CHAMFERA
 40
0.0
  9
$CHAMFERB
 40
0.0
  9
$CHAMFERC
 40
0.0
  9
$CHAMFERD
 40
0.0
  9
$SKPOLY
 70
     0
  9
$TDCREATE
 40
2459661.657749942
  9
$TDUCREATE
 40
2459661.949416609
  9
$TDUPDATE
 40
2459661.657750857
  9
$TDUUPDATE
 40
2459661.949417523
  9
$TDINDWG
 40
0.0000000116
  9
$TDUSRTIMER
 40
0.0000000116
  9
$USRTIMER
 70
     1
  9
$ANGBASE
 50
0.0
  9
$ANGDIR
 70
     0
  9
$PDMODE
 70
     0
  9
$PDSIZE
 40
-1.0
  9
$PLINEWID
 40
0.0
  9
$SPLFRAME
 70
     0
  9
$SPLINETYPE
 70
     6
  9
$SPLINESEGS
 70
     8
  9
$HANDSEED
  5
1FA
  9
$SURFTAB1
 70
     6
  9
$SURFTAB2
 70
     6
  9
$SURFTYPE
 70
     6
  9
$SURFU
 70
     6
  9
$SURFV
 70
     6
  9
$UCSBASE
  2

  9
$UCSNAME
  2

  9
$UCSORG
 10
0.0
 20
0.0
 30
0.0
  9
$UCSXDIR
 10
1.0
 20
0.0
 30
0.0
  9
$UCSYDIR
 10
0.0
 20
1.0
 30
0.0
  9
$UCSORTHOREF
  2

  9
$UCSORTHOVIEW
 70
     0
  9
$UCSORGTOP
 10
0.0
 20
0.0
 30
0.0
  9
$UCSORGBOTTOM
 10
0.0
 20
0.0
 30
0.0
  9
$UCSORGLEFT
 10
0.0
 20
0.0
 30
0.0
  9
$UCSORGRIGHT
 10
0.0
 20
0.0
 30
0.0
  9
$UCSORGFRONT
 10
0.0
 20
0.0
 30
0.0
  9
$UCSORGBACK
 10
0.0
 20
0.0
 30
0.0
  9
$PUCSBASE
  2

  9
$PUCSNAME
  2

  9
$PUCSORG
 10
0.0
 20
0.0
 30
0.0
  9
$PUCSXDIR
 10
1.0
 20
0.0
 30
0.0
  9
$PUCSYDIR
 10
0.0
 20
1.0
 30
0.0
  9
$PUCSORTHOREF
  2

  9
$PUCSORTHOVIEW
 70
     0
  9
$PUCSORGTOP
 10
0.0
 20
0.0
 30
0.0
  9
$PUCSORGBOTTOM
 10
0.0
 20
0.0
 30
0.0
  9
$PUCSORGLEFT
 10
0.0
 20
0.0
 30
0.0
  9
$PUCSORGRIGHT
 10
0.0
 20
0.0
 30
0.0
  9
$PUCSORGFRONT
 10
0.0
 20
0.0
 30
0.0
  9
$PUCSORGBACK
 10
0.0
 20
0.0
 30
0.0
  9
$USERI1
 70
     0
  9
$USERI2
 70
     0
  9
$USERI3
 70
     0
  9
$USERI4
 70
     0
  9
$USERI5
 70
     0
  9
$USERR1
 40
0.0
  9
$USERR2
 40
0.0
  9
$USERR3
 40
0.0
  9
$USERR4
 40
0.0
  9
$USERR5
 40
0.0
  9
$WORLDVIEW
 70
     1
  9
$SHADEDGE
 70
     3
  9
$SHADEDIF
 70
    70
  9
$TILEMODE
 70
     1
  9
$MAXACTVP
 70
    64
  9
$PINSBASE
 10
0.0
 20
0.0
 30
0.0
  9
$PLIMCHECK
 70
     0
  9
$PEXTMIN
 10
1.0000000000E+20
 20
1.0000000000E+20
 30
1.0000000000E+20
  9
$PEXTMAX
 10
-1.0000000000E+20
 20
-1.0000000000E+20
 30
-1.0000000000E+20
  9
$PLIMMIN
 10
0.0
 20
0.0
  9
$PLIMMAX
 10
12.0
 20
9.0
  9
$UNITMODE
 70
     0
  9
$VISRETAIN
 70
     1
  9
$PLINEGEN
 70
     0
  9
$PSLTSCALE
 70
     1
  9
$TREEDEPTH
 70
  3020
  9
$CMLSTYLE
  2
Standard
  9
$CMLJUST
 70
     0
  9
$CMLSCALE
 40
1.0
  9
$PROXYGRAPHICS
 70
     1
  9
$MEASUREMENT
 70
     0
  9
$CELWEIGHT
370
    -1
  9
$ENDCAPS
280
     0
  9
$JOINSTYLE
280
     0
  9
$LWDISPLAY
290
     1
  9
$INSUNITS
 70
     1
  9
$HYPERLINKBASE
  1

  9
$STYLESHEET
  1

  9
$XEDIT
290
     1
  9
$CEPSNTYPE
380
     0
  9
$PSTYLEMODE
290
     1
  9
$FINGERPRINTGUID
  2
{0452946d-bb33-4e3c-be86-8c58bfad55b5}
  9
$VERSIONGUID
  2
{FAEB1C32-E019-11D5-929B-00C0DF256EC4}
  9
$EXTNAMES
290
     1
  9
$PSVPSCALE
 40
0.0
  9
$OLESTARTUP
290
     0
  0
ENDSEC
  0
SECTION
  2
CLASSES
  0
CLASS
  1
ACDBDICTIONARYWDFLT
  2
AcDbDictionaryWithDefault
  3
ObjectDBX Classes
 90
        0
280
     0
281
     0
  0
CLASS
  1
VISUALSTYLE
  2
AcDbVisualStyle
  3
ObjectDBX Classes
 90
     4095
280
     0
281
     0
  0
CLASS
  1
MATERIAL
  2
AcDbMaterial
  3
ObjectDBX Classes
 90
     1153
280
     0
281
     0
  0
CLASS
  1
SCALE
  2
AcDbScale
  3
ObjectDBX Classes
 90
     1153
280
     0
281
     0
  0
CLASS
  1
TABLESTYLE
  2
AcDbTableStyle
  3
ObjectDBX Classes
 90
     4095
280
     0
281
     0
  0
CLASS
  1
MLEADERSTYLE
  2
AcDbMLeaderStyle
  3
ACDB_MLEADERSTYLE_CLASS
 90
     4095
280
     0
281
     0
  0
CLASS
  1
SUN
  2
AcDbSun
  3
SCENEOE
 90
     1153
280
     0
281
     0
  0
CLASS
  1
ACDBPLACEHOLDER
  2
AcDbPlaceHolder
  3
ObjectDBX Classes
 90
        0
280
     0
281
     0
  0
CLASS
  1
LAYOUT
  2
AcDbLayout
  3
ObjectDBX Classes
 90
        0
280
     0
281
     0
  0
ENDSEC
  0
SECTION
  2
TABLES
  0
TABLE
  2
VPORT
  5
8
330
0
100
AcDbSymbolTable
 70
     1
  0
VPORT
  5
29
330
8
100
AcDbSymbolTableRecord
100
AcDbViewportTableRecord
  2
*Active
 70
     0
 10
0.0
 20
0.0
 11
1.0
 21
1.0
 12
8.5
 22
5.5
 13
0.0
 23
0.0
 14
0.5
 24
0.5
 15
0.5
 25
0.5
 16
0.0
 26
0.0
 36
1.0
 17
0.0
 27
0.0
 37
0.0
 40
11.0
 41
1.5454545455
 42
50.0
 43
0.0
 44
0.0
 50
0.0
 51
0.0
 71
     0
 72
  2000
 73
     1
 74
     3
 75
     0
 76
     0
 77
     0
 78
     0
281
     0
 65
     1
110
0.0
120
0.0
130
0.0
111
1.0
121
0.0
131
0.0
112
0.0
122
1.0
132
0.0
 79
     0
146
0.0
  0
ENDTAB
  0
TABLE
  2
LTYPE
  5
5
330
0
100
AcDbSymbolTable
 70
     6
  0
LTYPE
  5
14
330
5
100
AcDbSymbolTableRecord
100
AcDbLinetypeTableRecord
  2
ByBlock
 70
     0
  3

 72
    65
 73
     0
 40
0.0
  0
LTYPE
  5
15
330
5
100
AcDbSymbolTableRecord
100
AcDbLinetypeTableRecord
  2
ByLayer
 70
     0
  3

 72
    65
 73
     0
 40
0.0
  0
LTYPE
  5
16
330
5
100
AcDbSymbolTableRecord
100
AcDbLinetypeTableRecord
  2
Continuous
 70
     0
  3
Solid line
 72
    65
 73
     0
 40
0.0
  0
LTYPE
  5
6E
330
5
100
AcDbSymbolTableRecord
100
AcDbLinetypeTableRecord
  2
HIDDEN
 70
     0
  3
Hidden __ __ __ __ __ __ __ __ __ __ __ __ __ __
 72
    65
 73
     2
 40
0.075
 49
0.05
 74
     0
 49
-0.025
 74
     0
  0
LTYPE
  5
6F
330
5
100
AcDbSymbolTableRecord
100
AcDbLinetypeTableRecord
  2
PHANTOM
 70
     0
  3
Phantom ______  __  __  ______  __  __  ______
 72
    65
 73
     6
 40
0.5
 49
0.25
 74
     0
 49
-0.05
 74
     0
 49
0.05
 74
     0
 49
-0.05
 74
     0
 49
0.05
 74
     0
 49
-0.05
 74
     0
  0
LTYPE
  5
70
330
5
100
AcDbSymbolTableRecord
100
AcDbLinetypeTableRecord
  2
CENTER
 70
     0
  3
Center ____ _ ____ _ ____ _ ____ _ ____ _ ____
 72
    65
 73
     4
 40
0.4
 49
0.25
 74
     0
 49
-0.05
 74
     0
 49
0.05
 74
     0
 49
-0.05
 74
     0
  0
LTYPE
  5
71
330
5
100
AcDbSymbolTableRecord
100
AcDbLinetypeTableRecord
  2
CENTERX2
 70
     0
  3
Center (2x) ________  __  ________  __  _____
 72
    65
 73
     4
 40
0.8
 49
0.5
 74
     0
 49
-0.1
 74
     0
 49
0.1
 74
     0
 49
-0.1
 74
     0
  0
LTYPE
  5
72
330
5
100
AcDbSymbolTableRecord
100
AcDbLinetypeTableRecord
  2
DOT2
 70
     0
  3
Dot (.5x) ........................................
 72
    65
 73
     2
 40
0.025
 49
0.0
 74
     0
 49
-0.025
 74
     0
  0
ENDTAB
  0
TABLE
  2
LAYER
  5
2
330
0
100
AcDbSymbolTable
 70
     5
  0
LAYER
  5
10
330
2
100
AcDbSymbolTableRecord
100
AcDbLayerTableRecord
  2
0
 70
     0
 62
     7
  6
Continuous
370
    -3
390
F
  0
LAYER
  5
73
330
2
100
AcDbSymbolTableRecord
100
AcDbLayerTableRecord
  2
FORMAT
 70
     0
 62
     7
  6
Continuous
370
    -3
390
F
  0
LAYER
  5
74
330
2
100
AcDbSymbolTableRecord
100
AcDbLayerTableRecord
  2
DIMENSION
 70
     0
 62
     7
  6
Continuous
370
    -3
390
F
  0
LAYER
  5
75
330
2
100
AcDbSymbolTableRecord
100
AcDbLayerTableRecord
  2
FAIR
 70
     0
 62
     5
  6
Continuous
370
    -3
390
F
  0
LAYER
  5
76
330
2
100
AcDbSymbolTableRecord
100
AcDbLayerTableRecord
  2
REVISION
 70
     0
 62
     6
  6
Continuous
370
    -3
390
F
  0
ENDTAB
  0
TABLE
  2
STYLE
  5
3
330
0
100
AcDbSymbolTable
 70
     3
  0
STYLE
  5
11
330
3
100
AcDbSymbolTableRecord
100
AcDbTextStyleTableRecord
  2
Standard
 70
     0
 40
0.0
 41
1.0
 50
0.0
 71
     0
 42
0.125
  3
txt
  4

  0
STYLE
  5
90
330
3
100
AcDbSymbolTableRecord
100
AcDbTextStyleTableRecord
  2
SLDTEXTSTYLE0
 70
     0
 40
0.0
 41
0.7
 50
0.0
 71
     0
 42
0.125
  3
TXT
  4

  0
STYLE
  5
B5
330
3
100
AcDbSymbolTableRecord
100
AcDbTextStyleTableRecord
  2
SLDTEXTSTYLE1
 70
     0
 40
0.0
 41
0.65
 50
0.0
 71
     0
 42
0.125
  3
TXT
  4

  0
ENDTAB
  0
TABLE
  2
VIEW
  5
6
330
0
100
AcDbSymbolTable
 70
     0
  0
ENDTAB
  0
TABLE
  2
UCS
  5
7
330
0
100
AcDbSymbolTable
 70
     0
  0
ENDTAB
  0
TABLE
  2
APPID
  5
9
330
0
100
AcDbSymbolTable
 70
     1
  0
APPID
  5
12
330
9
100
AcDbSymbolTableRecord
100
AcDbRegAppTableRecord
  2
ACAD
 70
     0
  0
ENDTAB
  0
TABLE
  2
DIMSTYLE
  5
A
330
0
100
AcDbSymbolTable
 70
     2
100
AcDbDimStyleTable
  0
DIMSTYLE
105
27
330
A
100
AcDbSymbolTableRecord
100
AcDbDimStyleTableRecord
  2
Standard
 70
     0
178
     0
340
11
  0
DIMSTYLE
105
E6
102
{ACAD_REACTORS
330
E5
330
137
102
}
330
A
100
AcDbSymbolTableRecord
100
AcDbDimStyleTableRecord
  2
SLDDIMSTYLE0
 70
     0
 41
0.13
 44
0.0
 45
0.000000001
 78
    12
 79
     3
140
0.125
144
2.0
147
0.03125
173
     1
178
     0
271
     6
272
     2
276
     2
277
     5
284
    12
340
90
  0
ENDTAB
  0
TABLE
  2
BLOCK_RECORD
  5
1
330
0
100
AcDbSymbolTable
 70
     6
  0
BLOCK_RECORD
  5
1F
330
1
100
AcDbSymbolTableRecord
100
AcDbBlockTableRecord
  2
*Model_Space
340
22
  0
BLOCK_RECORD
  5
1B
330
1
100
AcDbSymbolTableRecord
100
AcDbBlockTableRecord
  2
*Paper_Space
340
1E
  0
BLOCK_RECORD
  5
23
330
1
100
AcDbSymbolTableRecord
100
AcDbBlockTableRecord
  2
*Paper_Space0
340
26
  0
BLOCK_RECORD
  5
93
330
1
100
AcDbSymbolTableRecord
100
AcDbBlockTableRecord
  2
SW_NOTE_0
340
0
102
{BLKREFS
331
98
102
}
  0
BLOCK_RECORD
  5
9A
330
1
100
AcDbSymbolTableRecord
100
AcDbBlockTableRecord
  2
SW_NOTE_0_1
340
0
102
{BLKREFS
331
A1
102
}
  0
BLOCK_RECORD
  5
A7
330
1
100
AcDbSymbolTableRecord
100
AcDbBlockTableRecord
  2
SW_NOTE_0_2
340
0
102
{BLKREFS
331
AE
102
}
  0
BLOCK_RECORD
  5
E7
330
1
100
AcDbSymbolTableRecord
100
AcDbBlockTableRecord
  2
_D
340
0
  0
BLOCK_RECORD
  5
138
330
1
100
AcDbSymbolTableRecord
100
AcDbBlockTableRecord
  2
_D_1
340
0
  0
ENDTAB
  0
ENDSEC
  0
SECTION
  2
BLOCKS
  0
BLOCK
  5
20
330
1F
100
AcDbEntity
  8
0
100
AcDbBlockBegin
  2
*Model_Space
 70
     0
 10
0.0
 20
0.0
 30
0.0
  3
*Model_Space
  1

  0
ENDBLK
  5
21
330
1F
100
AcDbEntity
  8
0
100
AcDbBlockEnd
  0
BLOCK
  5
1C
330
1B
100
AcDbEntity
 67
     1
  8
0
100
AcDbBlockBegin
  2
*Paper_Space
 70
     0
 10
0.0
 20
0.0
 30
0.0
  3
*Paper_Space
  1

  0
ENDBLK
  5
1D
330
1B
100
AcDbEntity
 67
     1
  8
0
100
AcDbBlockEnd
  0
BLOCK
  5
24
330
23
100
AcDbEntity
  8
0
100
AcDbBlockBegin
  2
*Paper_Space0
 70
     0
 10
0.0
 20
0.0
 30
0.0
  3
*Paper_Space0
  1

  0
ENDBLK
  5
25
330
23
100
AcDbEntity
  8
0
100
AcDbBlockEnd
  0
BLOCK
  5
94
330
93
100
AcDbEntity
  8
0
100
AcDbBlockBegin
  2
SW_NOTE_0
 70
     0
 10
0.0
 20
0.0
 30
0.0
  3
SW_NOTE_0
  1

  0
MTEXT
  5
96
330
93
100
AcDbEntity
  8
DIMENSION
 62
     0
100
AcDbMText
 10
0.546875
 20
0.1074223116
 30
0.0
 40
0.0833333333
 41
0.0
 71
     2
 72
     1
  1
SURFACE MOUNTED
  7
SLDTEXTSTYLE0
 73
     1
 44
1.0
  0
MTEXT
  5
97
330
93
100
AcDbEntity
  8
DIMENSION
 62
     0
100
AcDbMText
 10
0.5709973862
 20
-0.0430588741
 30
0.0
 40
0.0833333333
 41
0.0
 71
     2
 72
     1
  1
DOWNLIGHT - VERY WIDE BEAM
  7
SLDTEXTSTYLE0
 73
     1
 44
1.0
  0
ENDBLK
  5
95
330
93
100
AcDbEntity
  8
0
100
AcDbBlockEnd
  0
BLOCK
  5
9B
330
9A
100
AcDbEntity
  8
0
100
AcDbBlockBegin
  2
SW_NOTE_0_1
 70
     0
 10
0.0
 20
0.0
 30
0.0
  3
SW_NOTE_0_1
  1

  0
MTEXT
  5
9D
330
9A
100
AcDbEntity
  8
DIMENSION
 62
     0
100
AcDbMText
 10
0.0
 20
0.1611334675
 30
0.0
 40
0.125
 41
0.0
 71
     1
 72
     1
  1
NOTES:
  7
SLDTEXTSTYLE0
 73
     1
 44
1.0
  0
MTEXT
  5
9E
330
9A
100
AcDbEntity
  8
DIMENSION
 62
     0
100
AcDbMText
 10
0.3937007786
 20
-0.003236607
 30
0.0
 40
0.125
 41
0.0
 71
     1
 72
     1
  1
MOUNTS DIRECTLY TO RECESSED 4"
  7
SLDTEXTSTYLE0
 73
     1
 44
1.0
  0
MTEXT
  5
9F
330
9A
100
AcDbEntity
  8
DIMENSION
 62
     0
100
AcDbMText
 10
0.0
 20
-0.003236607
 30
0.0
 40
0.125
 41
0.0
 71
     1
 72
     1
  1
1.
  7
SLDTEXTSTYLE0
 73
     1
 44
1.0
  0
MTEXT
  5
A0
330
9A
100
AcDbEntity
  8
DIMENSION
 62
     0
100
AcDbMText
 10
0.3937007786
 20
-0.1676066816
 30
0.0
 40
0.125
 41
0.0
 71
     1
 72
     1
  1
OCTAGONAL WIRING BOX (BY OTHERS)
  7
SLDTEXTSTYLE0
 73
     1
 44
1.0
  0
ENDBLK
  5
9C
330
9A
100
AcDbEntity
  8
0
100
AcDbBlockEnd
  0
BLOCK
  5
A8
330
A7
100
AcDbEntity
  8
0
100
AcDbBlockBegin
  2
SW_NOTE_0_2
 70
     0
 10
0.0
 20
0.0
 30
0.0
  3
SW_NOTE_0_2
  1

  0
MTEXT
  5
AA
330
A7
100
AcDbEntity
  8
DIMENSION
 62
     0
100
AcDbMText
 10
0.0
 20
0.0671389448
 30
0.0
 40
0.0520833333
 41
0.0
 71
     1
 72
     1
  1
THE INFORMATION CONTAINED IN THIS DRAWING IS THE SOLE PROPERTY
  7
SLDTEXTSTYLE0
 73
     1
 44
1.0
  0
MTEXT
  5
AB
330
A7
100
AcDbEntity
  8
DIMENSION
 62
     0
100
AcDbMText
 10
0.0
 20
-0.0313054996
 30
0.0
 40
0.0520833333
 41
0.0
 71
     1
 72
     1
  1
OF BEGA NORTH AMERICA, INC.
  7
SLDTEXTSTYLE0
 73
     1
 44
1.0
  0
MTEXT
  5
AC
330
A7
100
AcDbEntity
  8
DIMENSION
 62
     0
100
AcDbMText
 10
0.0
 20
-0.1297499441
 30
0.0
 40
0.0520833333
 41
0.0
 71
     1
 72
     1
  1
ANY REPRODUCTION IN PART OR AS A WHOLE WITHOUT THE WRITTEN
  7
SLDTEXTSTYLE0
 73
     1
 44
1.0
  0
MTEXT
  5
AD
330
A7
100
AcDbEntity
  8
DIMENSION
 62
     0
100
AcDbMText
 10
0.0
 20
-0.2281943885
 30
0.0
 40
0.0520833333
 41
0.0
 71
     1
 72
     1
  1
PERMISSION OF BEGA NORTH AMERICA, INC. IS PROHIBITED.
  7
SLDTEXTSTYLE0
 73
     1
 44
1.0
  0
ENDBLK
  5
A9
330
A7
100
AcDbEntity
  8
0
100
AcDbBlockEnd
  0
BLOCK
  5
E8
330
E7
100
AcDbEntity
  8
0
100
AcDbBlockBegin
  2
_D
 70
     0
 10
0.0
 20
0.0
 30
0.0
  3
_D
  1

  0
SOLID
  5
EA
330
E7
100
AcDbEntity
  8
DIMENSION
100
AcDbTrace
 10
4.293907899
 20
5.2852888642
 30
0.0
 11
4.423907899
 21
5.2652888642
 31
0.0
 12
4.423907899
 22
5.3052888642
 32
0.0
 13
4.423907899
 23
5.3052888642
 33
0.0
  0
SOLID
  5
EB
330
E7
100
AcDbEntity
  8
DIMENSION
100
AcDbTrace
 10
7.1876086864
 20
5.2852888642
 30
0.0
 11
7.0576086864
 21
5.3052888642
 31
0.0
 12
7.0576086864
 22
5.2652888642
 32
0.0
 13
7.0576086864
 23
5.2652888642
 33
0.0
  0
LINE
  5
EC
330
E7
100
AcDbEntity
  8
DIMENSION
100
AcDbLine
 10
5.9213085726
 20
5.3343538203
 30
0.0
 11
5.8463085735
 21
5.2093538218
 31
0.0
  0
LINE
  5
ED
330
E7
100
AcDbEntity
  8
DIMENSION
100
AcDbLine
 10
4.293907899
 20
3.2585172106
 30
0.0
 11
4.293907899
 21
5.4102888642
 31
0.0
  0
LINE
  5
EE
330
E7
100
AcDbEntity
  8
DIMENSION
100
AcDbLine
 10
7.1876086864
 20
3.2585172106
 30
0.0
 11
7.1876086864
 21
5.4102888642
 31
0.0
  0
LINE
  5
EF
330
E7
100
AcDbEntity
  8
DIMENSION
100
AcDbLine
 10
4.293907899
 20
5.2852888642
 30
0.0
 11
5.5415429482
 21
5.2852888642
 31
0.0
  0
LINE
  5
F0
330
E7
100
AcDbEntity
  8
DIMENSION
100
AcDbLine
 10
7.1876086864
 20
5.2852888642
 30
0.0
 11
5.9971766414
 21
5.2852888642
 31
0.0
  0
MTEXT
  5
F1
330
E7
100
AcDbEntity
  8
DIMENSION
100
AcDbMText
 10
5.5415429482
 20
5.3517372931
 30
0.0
 40
0.125
 41
0.0
 71
     1
 72
     1
  1
%%c
  7
SLDTEXTSTYLE0
 73
     1
 44
1.0
  0
MTEXT
  5
F2
330
E7
100
AcDbEntity
  8
DIMENSION
100
AcDbMText
 10
5.7379752323
 20
5.3392372919
 30
0.0
 40
0.125
 41
0.0
 71
     1
 72
     1
  1
5
  7
SLDTEXTSTYLE0
 73
     1
 44
1.0
  0
MTEXT
  5
F3
330
E7
100
AcDbEntity
  8
DIMENSION
100
AcDbMText
 10
5.8351974626
 20
5.3524205582
 30
0.0
 40
0.0625
 41
0.0
 71
     1
 72
     1
  1
3
  7
SLDTEXTSTYLE0
 73
     1
 44
1.0
  0
MTEXT
  5
F4
330
E7
100
AcDbEntity
  8
DIMENSION
100
AcDbMText
 10
5.8838085731
 20
5.271170556
 30
0.0
 40
0.0625
 41
0.0
 71
     1
 72
     1
  1
4
  7
SLDTEXTSTYLE0
 73
     1
 44
1.0
  0
MTEXT
  5
F5
330
E7
100
AcDbEntity
  8
DIMENSION
100
AcDbMText
 10
5.9324196928
 20
5.3392372919
 30
0.0
 40
0.125
 41
0.0
 71
     1
 72
     1
  1
"
  7
SLDTEXTSTYLE0
 73
     1
 44
1.0
  0
ENDBLK
  5
E9
330
E7
100
AcDbEntity
  8
0
100
AcDbBlockEnd
  0
BLOCK
  5
139
330
138
100
AcDbEntity
  8
0
100
AcDbBlockBegin
  2
_D_1
 70
     0
 10
0.0
 20
0.0
 30
0.0
  3
_D_1
  1

  0
SOLID
  5
13B
330
138
100
AcDbEntity
  8
DIMENSION
100
AcDbTrace
 10
8.1802194986
 20
6.0841638023
 30
0.0
 11
8.2002194986
 21
6.2141638023
 31
0.0
 12
8.1602194986
 22
6.2141638023
 32
0.0
 13
8.1602194986
 23
6.2141638023
 33
0.0
  0
SOLID
  5
13C
330
138
100
AcDbEntity
  8
DIMENSION
100
AcDbTrace
 10
8.1802194986
 20
9.0014866369
 30
0.0
 11
8.1602194986
 21
8.8714866369
 31
0.0
 12
8.2002194986
 22
8.8714866369
 32
0.0
 13
8.2002194986
 23
8.8714866369
 33
0.0
  0
LINE
  5
13D
330
138
100
AcDbEntity
  8
DIMENSION
100
AcDbLine
 10
8.2339521344
 20
7.4458536086
 30
0.0
 11
8.1589521353
 21
7.3208536101
 31
0.0
  0
LINE
  5
13E
330
138
100
AcDbEntity
  8
DIMENSION
100
AcDbLine
 10
7.2376086864
 20
6.0841638023
 30
0.0
 11
8.3052194986
 21
6.0841638023
 31
0.0
  0
LINE
  5
13F
330
138
100
AcDbEntity
  8
DIMENSION
100
AcDbLine
 10
7.2376086864
 20
9.0014866369
 30
0.0
 11
8.3052194986
 21
9.0014866369
 31
0.0
  0
LINE
  5
140
330
138
100
AcDbEntity
  8
DIMENSION
100
AcDbLine
 10
8.1802194986
 20
6.0841638023
 30
0.0
 11
8.1802194986
 21
7.2896036173
 31
0.0
  0
LINE
  5
141
330
138
100
AcDbEntity
  8
DIMENSION
100
AcDbLine
 10
8.1802194986
 20
9.0014866369
 30
0.0
 11
8.1802194986
 21
7.4963744437
 31
0.0
  0
MTEXT
  5
142
330
138
100
AcDbEntity
  8
DIMENSION
100
AcDbMText
 10
8.0506188032
 20
7.4507370802
 30
0.0
 40
0.125
 41
0.0
 71
     1
 72
     1
  1
5
  7
SLDTEXTSTYLE0
 73
     1
 44
1.0
  0
MTEXT
  5
143
330
138
100
AcDbEntity
  8
DIMENSION
100
AcDbMText
 10
8.1478410243
 20
7.4639203465
 30
0.0
 40
0.0625
 41
0.0
 71
     1
 72
     1
  1
7
  7
SLDTEXTSTYLE0
 73
     1
 44
1.0
  0
MTEXT
  5
144
330
138
100
AcDbEntity
  8
DIMENSION
100
AcDbMText
 10
8.1964521348
 20
7.3826703443
 30
0.0
 40
0.0625
 41
0.0
 71
     1
 72
     1
  1
8
  7
SLDTEXTSTYLE0
 73
     1
 44
1.0
  0
MTEXT
  5
145
330
138
100
AcDbEntity
  8
DIMENSION
100
AcDbMText
 10
8.2450632453
 20
7.4507370802
 30
0.0
 40
0.125
 41
0.0
 71
     1
 72
     1
  1
"
  7
SLDTEXTSTYLE0
 73
     1
 44
1.0
  0
ENDBLK
  5
13A
330
138
100
AcDbEntity
  8
0
100
AcDbBlockEnd
  0
ENDSEC
  0
SECTION
  2
ENTITIES
  0
LINE
  5
77
330
1F
100
AcDbEntity
  8
0
  6
Continuous
 62
     7
370
    18
100
AcDbLine
 10
0.6262516046
 20
10.6420731707
 30
0.0
 11
16.3762516046
 21
10.6420731707
 31
0.0
  0
LINE
  5
78
330
1F
100
AcDbEntity
  8
0
  6
Continuous
 62
     7
370
    18
100
AcDbLine
 10
0.6262516046
 20
10.6420731707
 30
0.0
 11
0.6262516046
 21
0.3920731707
 31
0.0
  0
LINE
  5
79
330
1F
100
AcDbEntity
  8
0
  6
Continuous
 62
     7
370
    18
100
AcDbLine
 10
16.3762516046
 20
0.3920731707
 30
0.0
 11
0.6262516046
 21
0.3920731707
 31
0.0
  0
LINE
  5
7A
330
1F
100
AcDbEntity
  8
0
  6
Continuous
 62
     7
370
    18
100
AcDbLine
 10
16.3762516046
 20
0.3920731707
 30
0.0
 11
16.3762516046
 21
10.6420731707
 31
0.0
  0
LINE
  5
7B
330
1F
100
AcDbEntity
  8
DIMENSION
100
AcDbLine
 10
11.2626236588
 20
1.7278378237
 30
0.0
 11
11.2626236588
 21
0.3920731707
 31
0.0
  0
LINE
  5
7C
330
1F
100
AcDbEntity
  8
DIMENSION
100
AcDbLine
 10
11.2626236588
 20
0.3920731707
 30
0.0
 11
16.3762516046
 21
0.3920731707
 31
0.0
  0
LINE
  5
7D
330
1F
100
AcDbEntity
  8
DIMENSION
100
AcDbLine
 10
16.3762516046
 20
1.7278378237
 30
0.0
 11
16.3762516046
 21
0.3920731707
 31
0.0
  0
LINE
  5
7E
330
1F
100
AcDbEntity
  8
DIMENSION
100
AcDbLine
 10
16.3762516046
 20
1.469058281
 30
0.0
 11
11.2626236588
 21
1.469058281
 31
0.0
  0
LINE
  5
7F
330
1F
100
AcDbEntity
  8
DIMENSION
100
AcDbLine
 10
16.3762516046
 20
1.0223554989
 30
0.0
 11
11.2626236588
 21
1.0223554989
 31
0.0
  0
LINE
  5
80
330
1F
100
AcDbEntity
  8
DIMENSION
100
AcDbLine
 10
11.9188146421
 20
1.3057807123
 30
0.0
 11
12.9046414715
 21
1.3057807123
 31
0.0
  0
LINE
  5
81
330
1F
100
AcDbEntity
  8
DIMENSION
100
AcDbLine
 10
13.2989722032
 20
1.3057807123
 30
0.0
 11
13.8966297185
 21
1.3057807123
 31
0.0
  0
LINE
  5
82
330
1F
100
AcDbEntity
  8
DIMENSION
100
AcDbLine
 10
11.6569543906
 20
1.117857473
 30
0.0
 11
13.8966297185
 21
1.117857473
 31
0.0
  0
LINE
  5
83
330
1F
100
AcDbEntity
  8
DIMENSION
100
AcDbLine
 10
14.004454528
 20
1.469058281
 30
0.0
 11
14.004454528
 21
0.3920731707
 31
0.0
  0
LINE
  5
84
330
1F
100
AcDbEntity
  8
DIMENSION
100
AcDbLine
 10
14.004454528
 20
0.5879755522
 30
0.0
 11
16.3762516046
 21
0.5879755522
 31
0.0
  0
LINE
  5
85
330
1F
100
AcDbEntity
  8
DIMENSION
100
AcDbLine
 10
14.3402517917
 20
1.0223554989
 30
0.0
 11
14.3402517917
 21
0.5879755522
 31
0.0
  0
LINE
  5
86
330
1F
100
AcDbEntity
  8
DIMENSION
100
AcDbLine
 10
15.8775255037
 20
1.0223554989
 30
0.0
 11
15.8775255037
 21
0.5879755522
 31
0.0
  0
LINE
  5
87
330
1F
100
AcDbEntity
  8
DIMENSION
100
AcDbLine
 10
14.8578108771
 20
0.5879755522
 30
0.0
 11
14.8578108771
 21
0.3920731707
 31
0.0
  0
LINE
  5
88
330
1F
100
AcDbEntity
  8
DIMENSION
100
AcDbLine
 10
15.5860684709
 20
0.5879755522
 30
0.0
 11
15.5860684709
 21
0.3920731707
 31
0.0
  0
LINE
  5
89
330
1F
100
AcDbEntity
  8
DIMENSION
100
AcDbLine
 10
16.3762516046
 20
10.1244820986
 30
0.0
 11
11.2804930555
 21
10.1244820986
 31
0.0
  0
LINE
  5
8A
330
1F
100
AcDbEntity
  8
DIMENSION
100
AcDbLine
 10
16.3762516046
 20
10.3827969916
 30
0.0
 11
11.2804930555
 21
10.3827969916
 31
0.0
  0
LINE
  5
8B
330
1F
100
AcDbEntity
  8
DIMENSION
100
AcDbLine
 10
11.2804930555
 20
10.6420731707
 30
0.0
 11
11.2804930555
 21
10.3827969916
 31
0.0
  0
LINE
  5
8C
330
1F
100
AcDbEntity
  8
DIMENSION
100
AcDbLine
 10
11.2804930555
 20
10.3827969916
 30
0.0
 11
11.2804930555
 21
10.1244820986
 31
0.0
  0
LINE
  5
8D
330
1F
100
AcDbEntity
  8
DIMENSION
100
AcDbLine
 10
11.6012197167
 20
10.6420731707
 30
0.0
 11
11.6012197167
 21
10.1244820986
 31
0.0
  0
LINE
  5
8E
330
1F
100
AcDbEntity
  8
DIMENSION
100
AcDbLine
 10
12.4025538432
 20
10.6420731707
 30
0.0
 11
12.4025538432
 21
10.1244820986
 31
0.0
  0
LINE
  5
8F
330
1F
100
AcDbEntity
  8
DIMENSION
100
AcDbLine
 10
15.9668590304
 20
10.6420731707
 30
0.0
 11
15.9668590304
 21
10.1244820986
 31
0.0
  0
MTEXT
  5
91
330
1F
100
AcDbEntity
  8
DIMENSION
100
AcDbMText
 10
16.081300029
 20
0.7937897033
 30
0.0
 40
0.1458333333
 41
0.0
 71
     1
 72
     1
  1
-
  7
SLDTEXTSTYLE0
 73
     1
 44
1.0
  0
MTEXT
  5
92
330
1F
100
AcDbEntity
  8
DIMENSION
100
AcDbMText
 10
14.4266876409
 20
0.7937897033
 30
0.0
 40
0.1458333333
 41
0.0
 71
     1
 72
     1
  1
24416
  7
SLDTEXTSTYLE0
 73
     1
 44
1.0
  0
INSERT
  5
98
330
1F
100
AcDbEntity
  8
DIMENSION
100
AcDbBlockReference
  2
SW_NOTE_0
 10
14.8641006565
 20
1.2489580158
 30
0.0
  0
MTEXT
  5
99
330
1F
100
AcDbEntity
  8
DIMENSION
100
AcDbMText
 10
14.8950147033
 20
0.5361071054
 30
0.0
 40
0.09375
 41
0.0
 71
     1
 72
     1
  1
3/22/2022
  7
SLDTEXTSTYLE0
 73
     1
 44
1.0
  0
INSERT
  5
A1
330
1F
100
AcDbEntity
  8
DIMENSION
100
AcDbBlockReference
  2
SW_NOTE_0_1
 10
11.3468547095
 20
2.6111228203
 30
0.0
  0
MTEXT
  5
A2
330
1F
100
AcDbEntity
  8
DIMENSION
100
AcDbMText
 10
15.9288899758
 20
0.9569614615
 30
0.0
 40
0.0729166667
 41
0.0
 71
     1
 72
     1
  1
REV
  7
SLDTEXTSTYLE0
 73
     1
 44
1.0
  0
MTEXT
  5
A3
330
1F
100
AcDbEntity
  8
DIMENSION
100
AcDbMText
 10
14.3970715044
 20
0.9569614615
 30
0.0
 40
0.0729166667
 41
0.0
 71
     1
 72
     1
  1
PART NO.
  7
SLDTEXTSTYLE0
 73
     1
 44
1.0
  0
MTEXT
  5
A4
330
1F
100
AcDbEntity
  8
DIMENSION
100
AcDbMText
 10
14.065489575
 20
0.9569614615
 30
0.0
 40
0.0729166667
 41
0.0
 71
     1
 72
     1
  1
SIZE
  7
SLDTEXTSTYLE0
 73
     1
 44
1.0
  0
MTEXT
  5
A5
330
1F
100
AcDbEntity
  8
DIMENSION
100
AcDbMText
 10
11.3359835269
 20
1.1963622335
 30
0.0
 40
0.0729166667
 41
0.0
 71
     1
 72
     1
  1
TYPE:
  7
SLDTEXTSTYLE0
 73
     1
 44
1.0
  0
MTEXT
  5
A6
330
1F
100
AcDbEntity
  8
DIMENSION
100
AcDbMText
 10
11.3209402851
 20
0.9459256477
 30
0.0
 40
0.0625
 41
0.0
 71
     1
 72
     1
  1
PROPRIETARY AND CONFIDENTIAL
  7
SLDTEXTSTYLE0
 73
     1
 44
1.0
  0
INSERT
  5
AE
330
1F
100
AcDbEntity
  8
DIMENSION
100
AcDbBlockReference
  2
SW_NOTE_0_2
 10
11.326561577
 20
0.7343328561
 30
0.0
  0
MTEXT
  5
AF
330
1F
100
AcDbEntity
  8
DIMENSION
100
AcDbMText
 10
12.9947001633
 20
1.3755202712
 30
0.0
 40
0.0729166667
 41
0.0
 71
     1
 72
     1
  1
DATE:
  7
SLDTEXTSTYLE0
 73
     1
 44
1.0
  0
MTEXT
  5
B0
330
1F
100
AcDbEntity
  8
DIMENSION
100
AcDbMText
 10
11.326561577
 20
1.3755202712
 30
0.0
 40
0.0729166667
 41
0.0
 71
     1
 72
     1
  1
APPROVED:
  7
SLDTEXTSTYLE0
 73
     1
 44
1.0
  0
MTEXT
  5
B1
330
1F
100
AcDbEntity
  8
DIMENSION
100
AcDbMText
 10
14.5857227754
 20
1.6249729161
 30
0.0
 40
0.0729166667
 41
0.0
 71
     1
 72
     1
  1
P (805) 684-0533  -  www.bega-us.com
  7
SLDTEXTSTYLE0
 73
     1
 44
1.0
  0
MTEXT
  5
B2
330
1F
100
AcDbEntity
  8
DIMENSION
100
AcDbMText
 10
14.0525094629
 20
1.3755202712
 30
0.0
 40
0.0729166667
 41
0.0
 71
     1
 72
     1
  1
DESCRIPTION:
  7
SLDTEXTSTYLE0
 73
     1
 44
1.0
  0
MTEXT
  5
B3
330
1F
100
AcDbEntity
  8
DIMENSION
100
AcDbMText
 10
11.326561577
 20
1.6249729161
 30
0.0
 40
0.0729166667
 41
0.0
 71
     1
 72
     1
  1
1000 BEGA Way, Carpinteria, California 93013
  7
SLDTEXTSTYLE0
 73
     1
 44
1.0
  0
MTEXT
  5
B4
330
1F
100
AcDbEntity
  8
DIMENSION
100
AcDbMText
 10
14.1041759173
 20
0.7867712706
 30
0.0
 40
0.1458333333
 41
0.0
 71
     1
 72
     1
  1
B
  7
SLDTEXTSTYLE0
 73
     1
 44
1.0
  0
MTEXT
  5
B6
330
1F
100
AcDbEntity
  8
DIMENSION
 62
     7
100
AcDbMText
 10
15.6270022299
 20
0.5271397321
 30
0.0
 40
0.0833333333
 41
0.0
 71
     1
 72
     1
  1
SHEET 1 OF 1
  7
SLDTEXTSTYLE1
 73
     1
 44
1.0
  0
MTEXT
  5
B7
330
1F
100
AcDbEntity
  8
DIMENSION
 62
     7
100
AcDbMText
 10
14.0525094629
 20
0.5271397321
 30
0.0
 40
0.0833333333
 41
0.0
 71
     1
 72
     1
  1
NOT TO SCALE
  7
SLDTEXTSTYLE0
 73
     1
 44
1.0
  0
MTEXT
  5
B8
330
1F
100
AcDbEntity
  8
DIMENSION
100
AcDbMText
 10
16.0442421265
 20
10.557416565
 30
0.0
 40
0.0729166667
 41
0.0
 71
     1
 72
     1
  1
DATE
  7
SLDTEXTSTYLE0
 73
     1
 44
1.0
  0
MTEXT
  5
B9
330
1F
100
AcDbEntity
  8
DIMENSION
100
AcDbMText
 10
13.9228861369
 20
10.557416565
 30
0.0
 40
0.0729166667
 41
0.0
 71
     1
 72
     1
  1
DESCRIPTION
  7
SLDTEXTSTYLE0
 73
     1
 44
1.0
  0
MTEXT
  5
BA
330
1F
100
AcDbEntity
  8
DIMENSION
100
AcDbMText
 10
11.6992358738
 20
10.557416565
 30
0.0
 40
0.0729166667
 41
0.0
 71
     1
 72
     1
  1
CHANGED BY
  7
SLDTEXTSTYLE0
 73
     1
 44
1.0
  0
MTEXT
  5
BB
330
1F
100
AcDbEntity
  8
DIMENSION
100
AcDbMText
 10
11.3555855583
 20
10.557416565
 30
0.0
 40
0.0729166667
 41
0.0
 71
     1
 72
     1
  1
REV
  7
SLDTEXTSTYLE0
 73
     1
 44
1.0
  0
LINE
  5
BC
330
1F
100
AcDbEntity
  8
0
  6
Continuous
 62
     7
370
    25
100
AcDbLine
 10
4.2870344851
 20
3.2021453385
 30
0.0
 11
4.2939218474
 21
3.2021453385
 31
0.0
  0
LINE
  5
BD
330
1F
100
AcDbEntity
  8
0
  6
Continuous
 62
     7
370
    25
100
AcDbLine
 10
4.2950776477
 20
3.1503490529
 30
0.0
 11
4.2891709973
 21
3.1503490529
 31
0.0
  0
CIRCLE
  5
BE
330
1F
100
AcDbEntity
  8
0
  6
Continuous
 62
     7
370
    25
100
AcDbCircle
 10
5.7407582927
 20
3.2085172106
 30
0.0
 40
1.446850393700788
  0
CIRCLE
  5
BF
330
1F
100
AcDbEntity
  8
0
  6
Continuous
 62
     7
370
    25
100
AcDbCircle
 10
5.7407582927
 20
3.2085172106
 30
0.0
 40
1.41732283464577
  0
CIRCLE
  5
C0
330
1F
100
AcDbEntity
  8
0
  6
Continuous
 62
     7
370
    25
100
AcDbCircle
 10
5.7407582927
 20
3.2085172106
 30
0.0
 40
1.279527559055211
  0
SPLINE
  5
C1
330
1F
100
AcDbEntity
  8
0
  6
Continuous
 62
     7
370
    25
100
AcDbSpline
210
0.0
220
0.0
230
1.0
 70
     8
 71
     3
 72
    12
 73
     8
 74
     0
 42
0.00000001
 43
0.00000001
 40
0.0
 40
0.0
 40
0.0
 40
0.0
 40
0.2893679421779997
 40
0.4933694727724831
 40
0.6981147401454187
 40
0.8871274519614095
 40
1.0
 40
1.0
 40
1.0
 40
1.0
 10
4.288016359544685
 20
3.202145655308605
 30
0.0
 10
4.288014269272341
 20
3.202522715085974
 30
0.0
 10
4.288010705378717
 20
3.203165598268418
 30
0.0
 10
4.287997742268405
 20
3.208779898452012
 30
0.0
 10
4.288014763712166
 20
3.216066960003899
 30
0.0
 10
4.288074170654449
 20
3.223687984175067
 30
0.0
 10
4.288139488314926
 20
3.228413327774677
 30
0.0
 10
4.288163910079584
 20
3.230180096952817
 30
0.0
  0
LINE
  5
C2
330
1F
100
AcDbEntity
  8
0
  6
Continuous
 62
     7
370
    25
100
AcDbLine
 10
4.2881639101
 20
3.230180097
 30
0.0
 11
4.2940700812
 21
3.230180097
 31
0.0
  0
LINE
  5
C3
330
1F
100
AcDbEntity
  8
0
  6
Continuous
 62
     7
370
    25
100
AcDbLine
 10
4.288499819
 20
3.2465309791
 30
0.0
 11
4.2944073618
 21
3.2465309791
 31
0.0
  0
SPLINE
  5
C4
330
1F
100
AcDbEntity
  8
0
  6
Continuous
 62
     7
370
    25
100
AcDbSpline
210
0.0
220
0.0
230
1.0
 70
     8
 71
     3
 72
    10
 73
     6
 74
     0
 42
0.00000001
 43
0.00000001
 40
0.0
 40
0.0
 40
0.0
 40
0.0
 40
0.3211424501690244
 40
0.6423031599228871
 40
1.0
 40
1.0
 40
1.0
 40
1.0
 10
4.288163910079584
 20
3.230180096952817
 30
0.0
 10
4.288197895609984
 20
3.232277475938143
 30
0.0
 10
4.288265868603139
 20
3.236472353162009
 30
0.0
 10
4.288393861772618
 20
3.242370528482732
 30
0.0
 10
4.288463255001296
 20
3.245095280179782
 30
0.0
 10
4.288499818988286
 20
3.246530979130573
 30
0.0
  0
LINE
  5
C5
330
1F
100
AcDbEntity
  8
0
  6
Continuous
 62
     7
370
    25
100
AcDbLine
 10
4.2944206514
 20
3.247033301
 30
0.0
 11
4.2885130545
 21
3.247033301
 31
0.0
  0
LINE
  5
C6
330
1F
100
AcDbEntity
  8
0
  6
Continuous
 62
     7
370
    25
100
AcDbLine
 10
4.2885130545
 20
3.247033301
 30
0.0
 11
4.288499819
 21
3.2465309791
 31
0.0
  0
LINE
  5
C7
330
1F
100
AcDbEntity
  8
0
  6
Continuous
 62
     7
370
    25
100
AcDbLine
 10
4.2947089684
 20
3.2566567307
 30
0.0
 11
4.2888001984
 21
3.2566567307
 31
0.0
  0
ARC
  5
C8
330
1F
100
AcDbEntity
  8
0
  6
Continuous
 62
     7
370
    25
100
AcDbCircle
 10
5.7407582927
 20
3.2085172106
 30
0.0
 40
1.452755905511707
100
AcDbArc
 50
178.1010599693
 51
178.480771596
  0
LINE
  5
C9
330
1F
100
AcDbEntity
  8
0
  6
Continuous
 62
     7
370
    25
100
AcDbLine
 10
4.2954593241
 20
3.275501934
 30
0.0
 11
4.2895474989
 21
3.275501934
 31
0.0
  0
LINE
  5
CA
330
1F
100
AcDbEntity
  8
0
  6
Continuous
 62
     7
370
    25
100
AcDbLine
 10
4.295266124
 20
3.2711945761
 30
0.0
 11
4.2893550858
 21
3.2711945761
 31
0.0
  0
ARC
  5
CB
330
1F
100
AcDbEntity
  8
0
  6
Continuous
 62
     7
370
    25
100
AcDbCircle
 10
5.7407582927
 20
3.2085172106
 30
0.0
 40
1.452755905511811
100
AcDbArc
 50
177.3572276317
 51
177.5272765941
  0
LINE
  5
CC
330
1F
100
AcDbEntity
  8
0
  6
Continuous
 62
     7
370
    25
100
AcDbLine
 10
4.2888548084
 20
3.2582765636
 30
0.0
 11
4.2947638015
 21
3.2582765636
 31
0.0
  0
ARC
  5
CD
330
1F
100
AcDbEntity
  8
0
  6
Continuous
 62
     7
370
    25
100
AcDbCircle
 10
5.7407582927
 20
3.2085172106
 30
0.0
 40
1.452755905511811
100
AcDbArc
 50
177.5272765941
 51
178.0371384774
  0
LINE
  5
CE
330
1F
100
AcDbEntity
  8
0
  6
Continuous
 62
     7
370
    25
100
AcDbLine
 10
4.2939263814
 20
3.2012040577
 30
0.0
 11
4.2880207944
 21
3.2012040577
 31
0.0
  0
LINE
  5
CF
330
1F
100
AcDbEntity
  8
0
  6
Continuous
 62
     7
370
    25
100
AcDbLine
 10
4.2888974979
 20
3.1575274714
 30
0.0
 11
4.2948066655
 21
3.1575274714
 31
0.0
  0
ARC
  5
D0
330
1F
100
AcDbEntity
  8
0
  6
Continuous
 62
     7
370
    25
100
AcDbCircle
 10
5.7407582927
 20
3.2085172106
 30
0.0
 40
1.452755905512011
100
AcDbArc
 50
180.2884273727
 51
182.0114163807
  0
LINE
  5
D1
330
1F
100
AcDbEntity
  8
0
  6
Continuous
 62
     7
370
    25
100
AcDbLine
 10
4.2968489472
 20
3.300722762
 30
0.0
 11
4.2909314557
 21
3.300722762
 31
0.0
  0
ARC
  5
D2
330
1F
100
AcDbEntity
  8
0
  6
Continuous
 62
     7
370
    25
100
AcDbCircle
 10
5.7407582927
 20
3.2085172106
 30
0.0
 40
1.452755905511811
100
AcDbArc
 50
175.8503258248
 51
176.3610250436
  0
LINE
  5
D3
330
1F
100
AcDbEntity
  8
0
  6
Continuous
 62
     7
370
    25
100
AcDbLine
 10
4.2977319989
 20
3.3136417898
 30
0.0
 11
4.291810901
 21
3.3136417898
 31
0.0
  0
LINE
  5
D4
330
1F
100
AcDbEntity
  8
0
  6
Continuous
 62
     7
370
    25
100
AcDbLine
 10
4.2959490636
 20
3.1316904363
 30
0.0
 11
4.2900352427
 21
3.1316904363
 31
0.0
  0
LINE
  5
D5
330
1F
100
AcDbEntity
  8
0
  6
Continuous
 62
     7
370
    25
100
AcDbLine
 10
4.291810901
 20
3.1033926314
 30
0.0
 11
4.2977319989
 21
3.1033926314
 31
0.0
  0
ARC
  5
D6
330
1F
100
AcDbEntity
  8
0
  6
Continuous
 62
     7
370
    25
100
AcDbCircle
 10
5.7407582927
 20
3.2085172106
 30
0.0
 40
1.452755905511811
100
AcDbArc
 50
183.0314137703
 51
184.1496741752
  0
LINE
  5
D7
330
1F
100
AcDbEntity
  8
0
  6
Continuous
 62
     7
370
    25
100
AcDbLine
 10
4.2965581032
 20
3.2960493438
 30
0.0
 11
4.2906417985
 21
3.2960493438
 31
0.0
  0
ARC
  5
D8
330
1F
100
AcDbEntity
  8
0
  6
Continuous
 62
     7
370
    25
100
AcDbCircle
 10
5.7407582927
 20
3.2085172106
 30
0.0
 40
1.452755905511811
100
AcDbArc
 50
176.3610250436
 51
176.5456954855
  0
LINE
  5
D9
330
1F
100
AcDbEntity
  8
0
  6
Continuous
 62
     7
370
    25
100
AcDbLine
 10
4.295532941
 20
3.1399625276
 30
0.0
 11
4.2896208159
 21
3.1399625276
 31
0.0
  0
LINE
  5
DA
330
1F
100
AcDbEntity
  8
0
  6
Continuous
 62
     7
370
    25
100
AcDbLine
 10
4.2896208159
 20
3.1399625276
 30
0.0
 11
4.2900352427
 21
3.1316904363
 31
0.0
  0
SPLINE
  5
DB
330
1F
100
AcDbEntity
  8
0
  6
Continuous
 62
     7
370
    25
100
AcDbSpline
210
0.0
220
0.0
230
1.0
 70
     8
 71
     3
 72
    11
 73
     7
 74
     0
 42
0.00000001
 43
0.00000001
 40
0.0
 40
0.0
 40
0.0
 40
0.0
 40
0.2666786099121751
 40
0.5333549089169478
 40
0.8001019226657611
 40
1.0
 40
1.0
 40
1.0
 40
1.0
 10
4.289167850904191
 20
3.150337228216946
 30
0.0
 10
4.289171970872469
 20
3.150232697602965
 30
0.0
 10
4.289180210773326
 20
3.150023637280814
 30
0.0
 10
4.289283590902507
 20
3.147494449205246
 30
0.0
 10
4.289433505095681
 20
3.143995495669492
 30
0.0
 10
4.289564640905778
 20
3.141172025518715
 30
0.0
 10
4.289620815923601
 20
3.139962527625485
 30
0.0
  0
ARC
  5
DC
330
1F
100
AcDbEntity
  8
0
  6
Continuous
 62
     7
370
    25
100
AcDbCircle
 10
5.7407582927
 20
3.2085172106
 30
0.0
 40
1.452755905511811
100
AcDbArc
 50
176.5456954855
 51
177.3572276317
  0
LINE
  5
DD
330
1F
100
AcDbEntity
  8
0
  6
Continuous
 62
     7
370
    25
100
AcDbLine
 10
4.2881859351
 20
3.2316097823
 30
0.0
 11
4.288185927
 21
3.2316087655
 31
0.0
  0
CIRCLE
  5
DE
330
1F
100
AcDbEntity
  8
0
  6
Continuous
 62
     7
370
    25
100
AcDbCircle
 10
5.7407582927
 20
3.2085172106
 30
0.0
 40
1.278840142332677
  0
ARC
  5
DF
330
1F
100
AcDbEntity
  8
0
  6
Continuous
 62
     7
370
    25
100
AcDbCircle
 10
5.7407582927
 20
3.2085172106
 30
0.0
 40
1.269685039369055
100
AcDbArc
 50
180.0
 51
360.0
  0
LINE
  5
E0
330
1F
100
AcDbEntity
  8
0
  6
Continuous
 62
     7
370
    25
100
AcDbLine
 10
4.4710732533
 20
3.2085172106
 30
0.0
 11
4.480915773
 21
3.2085172106
 31
0.0
  0
ARC
  5
E1
330
1F
100
AcDbEntity
  8
0
  6
Continuous
 62
     7
370
    25
100
AcDbCircle
 10
5.7407582927
 20
3.2085172106
 30
0.0
 40
1.259842519684342
100
AcDbArc
 50
180.0
 51
0.0000000001
  0
LINE
  5
E2
330
1F
100
AcDbEntity
  8
0
  6
Continuous
 62
     7
370
    25
100
AcDbLine
 10
7.0006008124
 20
3.2085172106
 30
0.0
 11
7.010443332
 21
3.2085172106
 31
0.0
  0
ARC
  5
E3
330
1F
100
AcDbEntity
  8
0
  6
Continuous
 62
     7
370
    25
100
AcDbCircle
 10
5.7407582927
 20
3.2085172106
 30
0.0
 40
1.269685039369148
100
AcDbArc
 50
0.0
 51
180.0
  0
ARC
  5
E4
330
1F
100
AcDbEntity
  8
0
  6
Continuous
 62
     7
370
    25
100
AcDbCircle
 10
5.7407582927
 20
3.2085172106
 30
0.0
 40
1.259842519684342
100
AcDbArc
 50
0.0
 51
180.0
  0
DIMENSION
  5
E5
330
1F
100
AcDbEntity
  8
DIMENSION
100
AcDbDimension
  2
_D
 10
7.1876086864
 20
5.2852888642
 30
0.0
 11
5.7693597948
 21
5.2852888642
 31
0.0
 70
   160
  1
%%c<>
 71
     2
 42
-1.0
  3
SLDDIMSTYLE0
100
AcDbAlignedDimension
 13
4.293907899
 23
3.2085172106
 33
0.0
 14
7.1876086864
 24
3.2085172106
 34
0.0
100
AcDbRotatedDimension
  0
LINE
  5
F6
330
1F
100
AcDbEntity
  8
0
  6
Continuous
 62
     7
370
    25
100
AcDbLine
 10
7.1876086864
 20
6.3597543535
 30
0.0
 11
7.1876086864
 21
8.9227464795
 31
0.0
  0
LINE
  5
F7
330
1F
100
AcDbEntity
  8
0
  6
Continuous
 62
     7
370
    25
100
AcDbLine
 10
4.293907899
 20
8.9227464795
 30
0.0
 11
4.293907899
 21
6.3597543535
 31
0.0
  0
ARC
  5
F8
330
1F
100
AcDbEntity
  8
0
  6
Continuous
 62
     7
370
    25
100
AcDbCircle
 10
4.3037504187
 20
8.9516190555
 30
0.0
 40
0.0098425196850401
100
AcDbArc
 50
180.0
 51
227.1767185949
  0
ARC
  5
F9
330
1F
100
AcDbEntity
  8
0
  6
Continuous
 62
     7
370
    25
100
AcDbCircle
 10
7.1777661667
 20
8.9516190555
 30
0.0
 40
0.0098425196850407
100
AcDbArc
 50
312.8232814051
 51
0.0
  0
LINE
  5
FA
330
1F
100
AcDbEntity
  8
0
  6
Continuous
 62
     7
370
    25
100
AcDbLine
 10
4.293907899
 20
9.0014866369
 30
0.0
 11
4.293907899
 21
8.9516190555
 31
0.0
  0
LINE
  5
FB
330
1F
100
AcDbEntity
  8
0
  6
Continuous
 62
     7
370
    25
100
AcDbLine
 10
7.1876086864
 20
8.9516190555
 30
0.0
 11
7.1876086864
 21
9.0014866369
 31
0.0
  0
ARC
  5
FC
330
1F
100
AcDbEntity
  8
0
  6
Continuous
 62
     7
370
    25
100
AcDbCircle
 10
7.1285535683
 20
6.3794393928
 30
0.0
 40
0.039370078740158
100
AcDbArc
 50
270.0
 51
330.0
  0
ARC
  5
FD
330
1F
100
AcDbEntity
  8
0
  6
Continuous
 62
     7
370
    25
100
AcDbCircle
 10
4.3529630171
 20
6.3794393928
 30
0.0
 40
0.0393700787401574
100
AcDbArc
 50
210.0
 51
270.0
  0
ARC
  5
FE
330
1F
100
AcDbEntity
  8
0
  6
Continuous
 62
     7
370
    25
100
AcDbCircle
 10
7.1285535683
 20
8.905029944
 30
0.0
 40
0.0393700787401581
100
AcDbArc
 50
26.7436839504
 51
90.0
  0
ARC
  5
FF
330
1F
100
AcDbEntity
  8
0
  6
Continuous
 62
     7
370
    25
100
AcDbCircle
 10
4.3529630171
 20
8.905029944
 30
0.0
 40
0.0393700787401574
100
AcDbArc
 50
90.0
 51
153.2563160496
  0
LINE
  5
100
330
1F
100
AcDbEntity
  8
0
  6
Continuous
 62
     7
370
    25
100
AcDbLine
 10
7.1876086864
 20
6.0841638023
 30
0.0
 11
7.1876086864
 21
6.3308817775
 31
0.0
  0
LINE
  5
101
330
1F
100
AcDbEntity
  8
0
  6
Continuous
 62
     7
370
    25
100
AcDbLine
 10
4.293907899
 20
6.1813915475
 30
0.0
 11
4.293907899
 21
6.0841638023
 31
0.0
  0
LINE
  5
102
330
1F
100
AcDbEntity
  8
0
  6
Continuous
 62
     7
370
    25
100
AcDbLine
 10
4.293907899
 20
6.3308817775
 30
0.0
 11
4.293907899
 21
6.2441035505
 31
0.0
  0
ARC
  5
103
330
1F
100
AcDbEntity
  8
0
  6
Continuous
 62
     7
370
    25
100
AcDbCircle
 10
7.1777661667
 20
6.3308817775
 30
0.0
 40
0.0098425196850398
100
AcDbArc
 50
0.0
 51
68.9797517724
  0
ARC
  5
104
330
1F
100
AcDbEntity
  8
0
  6
Continuous
 62
     7
370
    25
100
AcDbCircle
 10
4.3037504187
 20
6.3308817775
 30
0.0
 40
0.0098425196850398
100
AcDbArc
 50
111.0202482276
 51
180.0
  0
LINE
  5
105
330
1F
100
AcDbEntity
  8
0
  6
Continuous
 62
     7
370
    25
100
AcDbLine
 10
4.2880023872
 20
6.2331236005
 30
0.0
 11
4.2880023872
 21
6.1922411462
 31
0.0
  0
LINE
  5
106
330
1F
100
AcDbEntity
  8
0
  6
Continuous
 62
     7
370
    25
100
AcDbLine
 10
4.2870574816
 20
6.1813915475
 30
0.0
 11
4.2940707734
 21
6.1813915475
 31
0.0
  0
LINE
  5
107
330
1F
100
AcDbEntity
  8
0
  6
Continuous
 62
     7
370
    25
100
AcDbLine
 10
4.2940696825
 20
6.2441035505
 30
0.0
 11
4.2869143237
 21
6.2441035505
 31
0.0
  0
LINE
  5
108
330
1F
100
AcDbEntity
  8
0
  6
Continuous
 62
     7
370
    25
100
AcDbLine
 10
4.293907899
 20
6.3597543535
 30
0.0
 11
7.1876086864
 21
6.3597543535
 31
0.0
  0
LINE
  5
109
330
1F
100
AcDbEntity
  8
0
  6
Continuous
 62
     7
370
    25
100
AcDbLine
 10
7.1876086864
 20
8.9227464795
 30
0.0
 11
4.293907899
 21
8.9227464795
 31
0.0
  0
LINE
  5
10A
330
1F
100
AcDbEntity
  8
0
  6
Continuous
 62
     7
370
    25
100
AcDbLine
 10
4.2970600703
 20
8.9444000228
 30
0.0
 11
7.184456515
 21
8.9444000228
 31
0.0
  0
LINE
  5
10B
330
1F
100
AcDbEntity
  8
0
  6
Continuous
 62
     7
370
    25
100
AcDbLine
 10
4.293907899
 20
9.0014866369
 30
0.0
 11
7.1876086864
 21
9.0014866369
 31
0.0
  0
SPLINE
  5
10C
330
1F
100
AcDbEntity
  8
0
  6
Continuous
 62
     7
370
    25
100
AcDbSpline
210
0.0
220
0.0
230
1.0
 70
     8
 71
     3
 72
     9
 73
     5
 74
     0
 42
0.00000001
 43
0.00000001
 40
0.0
 40
0.0
 40
0.0
 40
0.0
 40
0.7677713652112198
 40
1.0
 40
1.0
 40
1.0
 40
1.0
 10
4.294189728928791
 20
6.182829419094844
 30
0.0
 10
4.294156751990394
 20
6.182223258247541
 30
0.0
 10
4.29411380048179
 20
6.1814337512735
 30
0.0
 10
4.294078320669854
 20
6.181399543100217
 30
0.0
 10
4.294070081241565
 20
6.181391598982836
 30
0.0
  0
LINE
  5
10D
330
1F
100
AcDbEntity
  8
0
  6
Continuous
 62
     7
370
    25
100
AcDbLine
 10
4.2947089684
 20
6.182888394
 30
0.0
 11
4.2947089684
 21
6.1828294191
 31
0.0
  0
SPLINE
  5
10E
330
1F
100
AcDbEntity
  8
0
  6
Continuous
 62
     7
370
    25
100
AcDbSpline
210
0.0
220
0.0
230
1.0
 70
     8
 71
     3
 72
     9
 73
     5
 74
     0
 42
0.00000001
 43
0.00000001
 40
0.0
 40
0.0
 40
0.0
 40
0.0
 40
0.9949113432560188
 40
1.0
 40
1.0
 40
1.0
 40
1.0
 10
4.294070081241565
 20
6.244103536579097
 30
0.0
 10
4.294137234565184
 20
6.244064449017728
 30
0.0
 10
4.294204731356807
 20
6.244025161535848
 30
0.0
 10
4.294288743450816
 20
6.241956314800071
 30
0.0
 10
4.294289170959525
 20
6.241945787149175
 30
0.0
  0
ELLIPSE
  5
10F
330
1F
100
AcDbEntity
  8
0
  6
Continuous
 62
     7
370
    25
100
AcDbEllipse
 10
5.7407582927
 20
6.4797200918
 30
0.0
 11
8.881784197001252E-16
 21
4.085353417388018
 31
0.0
210
0.0
220
0.0
230
1.0
 40
0.3541555028
 41
1.629030884774035
 42
1.643517939378176
  0
LINE
  5
110
330
1F
100
AcDbEntity
  8
0
  6
Continuous
 62
     7
370
    25
100
AcDbLine
 10
7.1876086864
 20
6.0841638023
 30
0.0
 11
4.293907899
 21
6.0841638023
 31
0.0
  0
LINE
  5
111
330
1F
100
AcDbEntity
  8
0
  6
Continuous
 62
     7
370
    25
100
AcDbLine
 10
7.1812966574
 20
6.3400693141
 30
0.0
 11
4.300219928
 21
6.3400693141
 31
0.0
  0
LINE
  5
112
330
1F
100
AcDbEntity
  8
0
  6
Continuous
 62
     7
370
    25
100
AcDbLine
 10
4.2977319989
 20
6.182888394
 30
0.0
 11
4.291810901
 21
6.182888394
 31
0.0
  0
ELLIPSE
  5
113
330
1F
100
AcDbEntity
  8
0
  6
Continuous
 62
     7
370
    25
100
AcDbEllipse
 10
5.7407582927
 20
6.4797200918
 30
0.0
 11
8.881784197001252E-16
 21
4.102028329295723
 31
0.0
210
0.0
220
0.0
230
1.0
 40
0.3541555028
 41
1.628793892600179
 42
1.643221804036471
  0
LINE
  5
114
330
1F
100
AcDbEntity
  8
0
  6
Continuous
 62
     7
370
    25
100
AcDbLine
 10
4.2904450327
 20
6.2419457871
 30
0.0
 11
4.2963605314
 21
6.2419457871
 31
0.0
  0
ELLIPSE
  5
115
330
1F
100
AcDbEntity
  8
0
  6
Continuous
 62
     7
370
    25
100
AcDbEllipse
 10
5.7407582927
 20
5.994900621
 30
0.0
 11
0.0
 21
4.357240374009241
 31
0.0
210
0.0
220
0.0
230
1.0
 40
0.3334119261
 41
1.524671247586871
 42
1.52763916187072
  0
LINE
  5
116
330
1F
100
AcDbEntity
  8
0
  6
Continuous
 62
     7
370
    25
100
AcDbLine
 10
4.2893550858
 20
6.182888394
 30
0.0
 11
4.2888548084
 21
6.182888394
 31
0.0
  0
ELLIPSE
  5
117
330
1F
100
AcDbEntity
  8
0
  6
Continuous
 62
     7
370
    25
100
AcDbEllipse
 10
5.7407582927
 20
6.0423938284
 30
0.0
 11
0.0
 21
4.101828048571486
 31
0.0
210
0.0
220
0.0
230
1.0
 40
0.3541727952
 41
1.522127597596597
 42
1.536537930464444
  0
LINE
  5
118
330
1F
100
AcDbEntity
  8
0
  6
Continuous
 62
     7
370
    25
100
AcDbLine
 10
4.2904450327
 20
6.2419457871
 30
0.0
 11
4.2897225792
 21
6.2419457871
 31
0.0
  0
LINE
  5
119
330
1F
100
AcDbEntity
  8
0
  6
Continuous
 62
     7
370
    25
100
AcDbLine
 10
4.291810901
 20
6.182888394
 30
0.0
 11
4.2909314557
 21
6.182888394
 31
0.0
  0
ELLIPSE
  5
11A
330
1F
100
AcDbEntity
  8
0
  6
Continuous
 62
     7
370
    25
100
AcDbEllipse
 10
5.7407582927
 20
6.4377780753
 30
0.0
 11
8.881784197001252E-16
 21
4.015945721825097
 31
0.0
210
0.0
220
0.0
230
1.0
 40
0.3617468975
 41
1.631085313939319
 42
1.634308421181213
  0
LINE
  5
11B
330
1F
100
AcDbEntity
  8
0
  6
Continuous
 62
     7
370
    25
100
AcDbLine
 10
4.2906417985
 20
6.1958074217
 30
0.0
 11
4.2895474989
 21
6.1958074217
 31
0.0
  0
ELLIPSE
  5
11C
330
1F
100
AcDbEntity
  8
0
  6
Continuous
 62
     7
370
    25
100
AcDbEllipse
 10
5.7407582927
 20
5.9714558292
 30
0.0
 11
0.0
 21
4.843386922349031
 31
0.0
210
0.0
220
0.0
230
1.0
 40
0.2999462832
 41
1.517464110331798
 42
1.52255156000238
  0
LINE
  5
11D
330
1F
100
AcDbEntity
  8
0
  6
Continuous
 62
     7
370
    25
100
AcDbLine
 10
4.2904809427
 20
6.2050332663
 30
0.0
 11
4.2896927457
 21
6.2050332663
 31
0.0
  0
ELLIPSE
  5
11E
330
1F
100
AcDbEntity
  8
0
  6
Continuous
 62
     7
370
    25
100
AcDbEllipse
 10
5.7407582927
 20
6.4877569631
 30
0.0
 11
8.881784197001252E-16
 21
4.84205283973528
 31
0.0
210
0.0
220
0.0
230
1.0
 40
0.3000289244
 41
1.624128543257995
 42
1.629218777259007
  0
LINE
  5
11F
330
1F
100
AcDbEntity
  8
0
  6
Continuous
 62
     7
370
    25
100
AcDbLine
 10
4.2909314557
 20
6.182888394
 30
0.0
 11
4.2893550858
 21
6.182888394
 31
0.0
  0
LINE
  5
120
330
1F
100
AcDbEntity
  8
0
  6
Continuous
 62
     7
370
    25
100
AcDbLine
 10
4.2894171441
 20
6.2233741159
 30
0.0
 11
4.2887960234
 21
6.2233741159
 31
0.0
  0
SPLINE
  5
121
330
1F
100
AcDbEntity
  8
0
  6
Continuous
 62
     7
370
    25
100
AcDbSpline
210
0.0
220
0.0
230
1.0
 70
     8
 71
     3
 72
    11
 73
     7
 74
     0
 42
0.00000001
 43
0.00000001
 40
0.0
 40
0.0
 40
0.0
 40
0.0
 40
0.3214330871865768
 40
0.5371901904106423
 40
0.7528418101721637
 40
1.0
 40
1.0
 40
1.0
 40
1.0
 10
4.28879602339226
 20
6.223374115927705
 30
0.0
 10
4.288754330334884
 20
6.227130183955046
 30
0.0
 10
4.288684651442686
 20
6.233407455895104
 30
0.0
 10
4.288492168051193
 20
6.239900152887447
 30
0.0
 10
4.288308848803139
 20
6.243501059894614
 30
0.0
 10
4.288214366991134
 20
6.243893798891099
 30
0.0
 10
4.288163910079584
 20
6.244103536579097
 30
0.0
  0
LINE
  5
122
330
1F
100
AcDbEntity
  8
0
  6
Continuous
 62
     7
370
    25
100
AcDbLine
 10
4.2881639101
 20
6.2441035366
 30
0.0
 11
4.2940700812
 21
6.2441035366
 31
0.0
  0
SPLINE
  5
123
330
1F
100
AcDbEntity
  8
0
  6
Continuous
 62
     7
370
    25
100
AcDbSpline
210
0.0
220
0.0
230
1.0
 70
     8
 71
     3
 72
    11
 73
     7
 74
     0
 42
0.00000001
 43
0.00000001
 40
0.0
 40
0.0
 40
0.0
 40
0.0
 40
0.2768564673858609
 40
0.5554463643757621
 40
0.794470881457573
 40
1.0
 40
1.0
 40
1.0
 40
1.0
 10
4.288479613640805
 20
6.205157321511322
 30
0.0
 10
4.288466553145072
 20
6.203188934980158
 30
0.0
 10
4.288440350380366
 20
6.199239837627493
 30
0.0
 10
4.288349837761904
 20
6.194678998936785
 30
0.0
 10
4.288253121025476
 20
6.192010967796381
 30
0.0
 10
4.28819997570281
 20
6.191717219541891
 30
0.0
 10
4.288175405188823
 20
6.191581411812562
 30
0.0
  0
ELLIPSE
  5
124
330
1F
100
AcDbEntity
  8
0
  6
Continuous
 62
     7
370
    25
100
AcDbEllipse
 10
5.7407582927
 20
6.2051519668
 30
0.0
 11
1.452755905511811
 21
0.0
 31
0.0
210
0.0
220
0.0
230
1.0
 40
0.0001438125
 41
3.115960043476757
 42
3.125696284361061
  0
LINE
  5
125
330
1F
100
AcDbEntity
  8
0
  6
Continuous
 62
     7
370
    25
100
AcDbLine
 10
4.2881859351
 20
6.2051552878
 30
0.0
 11
4.288185927
 21
6.2147085551
 31
0.0
  0
LINE
  5
126
330
1F
100
AcDbEntity
  8
0
  6
Continuous
 62
     7
370
    25
100
AcDbLine
 10
4.2888001984
 20
6.2147085551
 30
0.0
 11
4.288185927
 21
6.2147085551
 31
0.0
  0
LINE
  5
127
330
1F
100
AcDbEntity
  8
0
  6
Continuous
 62
     7
370
    25
100
AcDbLine
 10
4.2888001984
 20
6.2147085551
 30
0.0
 11
4.2888001984
 21
6.1828294191
 31
0.0
  0
LINE
  5
128
330
1F
100
AcDbEntity
  8
0
  6
Continuous
 62
     7
370
    25
100
AcDbLine
 10
4.2888001984
 20
6.1828294191
 30
0.0
 11
4.2885130545
 21
6.1828294191
 31
0.0
  0
LINE
  5
129
330
1F
100
AcDbEntity
  8
0
  6
Continuous
 62
     7
370
    25
100
AcDbLine
 10
4.2885130545
 20
6.1828294191
 30
0.0
 11
4.288499819
 21
6.1906591326
 31
0.0
  0
SPLINE
  5
12A
330
1F
100
AcDbEntity
  8
0
  6
Continuous
 62
     7
370
    25
100
AcDbSpline
210
0.0
220
0.0
230
1.0
 70
     8
 71
     3
 72
    10
 73
     6
 74
     0
 42
0.00000001
 43
0.00000001
 40
0.0
 40
0.0
 40
0.0
 40
0.0
 40
0.3211424501690244
 40
0.6423031599228871
 40
1.0
 40
1.0
 40
1.0
 40
1.0
 10
4.288163910079584
 20
6.181391598982838
 30
0.0
 10
4.288197895609984
 20
6.181593589042931
 30
0.0
 10
4.288265868603139
 20
6.181997580647912
 30
0.0
 10
4.288393861772618
 20
6.185281121166458
 30
0.0
 10
4.288463255001296
 20
6.18880327464297
 30
0.0
 10
4.288499818988286
 20
6.190659132575357
 30
0.0
  0
SPLINE
  5
12B
330
1F
100
AcDbEntity
  8
0
  6
Continuous
 62
     7
370
    25
100
AcDbSpline
210
0.0
220
0.0
230
1.0
 70
     8
 71
     3
 72
    11
 73
     7
 74
     0
 42
0.00000001
 43
0.00000001
 40
0.0
 40
0.0
 40
0.0
 40
0.0
 40
0.0541562809750748
 40
0.4364013584766974
 40
0.7892748563793187
 40
1.0
 40
1.0
 40
1.0
 40
1.0
 10
4.288003344652325
 20
6.192241146212054
 30
0.0
 10
4.288003021762991
 20
6.191842646714193
 30
0.0
 10
4.288000419860843
 20
6.18863146383591
 30
0.0
 10
4.288015667355968
 20
6.184648893950823
 30
0.0
 10
4.288074051432653
 20
6.181731777666815
 30
0.0
 10
4.288139455869803
 20
6.181484175503685
 30
0.0
 10
4.288163910079584
 20
6.181391598982836
 30
0.0
  0
SPLINE
  5
12C
330
1F
100
AcDbEntity
  8
0
  6
Continuous
 62
     7
370
    25
100
AcDbSpline
210
0.0
220
0.0
230
1.0
 70
     8
 71
     3
 72
    10
 73
     6
 74
     0
 42
0.00000001
 43
0.00000001
 40
0.0
 40
0.0
 40
0.0
 40
0.0
 40
0.3652482592700511
 40
0.7322202570688757
 40
1.0
 40
1.0
 40
1.0
 40
1.0
 10
4.288163910079584
 20
6.244103536579098
 30
0.0
 10
4.288123826835089
 20
6.243839033473847
 30
0.0
 10
4.288043471178782
 20
6.243308778977608
 30
0.0
 10
4.288005119048967
 20
6.23914695075528
 30
0.0
 10
4.288004437823385
 20
6.234910719527848
 30
0.0
 10
4.288004150437941
 20
6.233123600507467
 30
0.0
  0
ELLIPSE
  5
12D
330
1F
100
AcDbEntity
  8
0
  6
Continuous
 62
     7
370
    25
100
AcDbEllipse
 10
5.7407582927
 20
6.2233700318
 30
0.0
 11
1.452755905511811
 21
0.0
 31
0.0
210
0.0
220
0.0
230
1.0
 40
0.0000850629
 41
3.108536737075964
 42
3.116768734940683
  0
SPLINE
  5
12E
330
1F
100
AcDbEntity
  8
0
  6
Continuous
 62
     7
370
    25
100
AcDbSpline
210
0.0
220
0.0
230
1.0
 70
     8
 71
     3
 72
    11
 73
     7
 74
     0
 42
0.00000001
 43
0.00000001
 40
0.0
 40
0.0
 40
0.0
 40
0.0
 40
0.3082189398597598
 40
0.5181066108953921
 40
0.7272613116594626
 40
0.9999999999999999
 40
0.9999999999999999
 40
0.9999999999999999
 40
0.9999999999999999
 10
4.288175405188823
 20
6.234004223035003
 30
0.0
 10
4.28820770386886
 20
6.233858341855374
 30
0.0
 10
4.288261996962134
 20
6.233613120054257
 30
0.0
 10
4.288344362867938
 20
6.231132756048525
 30
0.0
 10
4.288407301113102
 20
6.227761307491289
 30
0.0
 10
4.288434553642721
 20
6.224959082823376
 30
0.0
 10
4.288449977840998
 20
6.223373099081657
 30
0.0
  0
SPLINE
  5
12F
330
1F
100
AcDbEntity
  8
0
  6
Continuous
 62
     7
370
    25
100
AcDbSpline
210
0.0
220
0.0
230
1.0
 70
     8
 71
     3
 72
    12
 73
     8
 74
     0
 42
0.00000001
 43
0.00000001
 40
0.0
 40
0.0
 40
0.0
 40
0.0
 40
0.2994771820565348
 40
0.5157672397309906
 40
0.6904605516522553
 40
0.8660935935465439
 40
1.0
 40
1.0
 40
1.0
 40
1.0
 10
4.288015468887111
 20
6.212791800577916
 30
0.0
 10
4.288016255520065
 20
6.215780423688612
 30
0.0
 10
4.288017610279397
 20
6.220927506620989
 30
0.0
 10
4.288033376138129
 20
6.227279184398954
 30
0.0
 10
4.288063798672298
 20
6.231466646066639
 30
0.0
 10
4.288110866846301
 20
6.233696137244549
 30
0.0
 10
4.288155916682094
 20
6.233911191020763
 30
0.0
 10
4.288175405188823
 20
6.234004223035003
 30
0.0
  0
SPLINE
  5
130
330
1F
100
AcDbEntity
  8
0
  6
Continuous
 62
     7
370
    25
100
AcDbSpline
210
0.0
220
0.0
230
1.0
 70
     8
 71
     3
 72
    12
 73
     8
 74
     0
 42
0.00000001
 43
0.00000001
 40
0.0
 40
0.0
 40
0.0
 40
0.0
 40
0.1648188153105177
 40
0.3303571212818759
 40
0.4859375874146324
 40
0.7166820556312956
 40
1.0
 40
1.0
 40
1.0
 40
1.0
 10
4.288175405188823
 20
6.191581411812562
 30
0.0
 10
4.288151623044077
 20
6.191716718877667
 30
0.0
 10
4.288103954937367
 20
6.191987923669624
 30
0.0
 10
4.288060207571799
 20
6.194444509627861
 30
0.0
 10
4.288031671515994
 20
6.198582774608531
 30
0.0
 10
4.288017446863456
 20
6.204829562286219
 30
0.0
 10
4.288016171683696
 20
6.209962730403683
 30
0.0
 10
4.288015468887111
 20
6.212791800577916
 30
0.0
  0
LINE
  5
131
330
1F
100
AcDbEntity
  8
0
  6
Continuous
 62
     7
370
    25
100
AcDbLine
 10
4.2892848485
 20
6.2147085551
 30
0.0
 11
4.2888001984
 21
6.2147085551
 31
0.0
  0
LINE
  5
132
330
1F
100
AcDbEntity
  8
0
  6
Continuous
 62
     7
370
    25
100
AcDbLine
 10
4.2947089684
 20
6.1828294191
 30
0.0
 11
4.2888001984
 21
6.1828294191
 31
0.0
  0
LINE
  5
133
330
1F
100
AcDbEntity
  8
0
  6
Continuous
 62
     7
370
    25
100
AcDbLine
 10
4.2884499778
 20
6.2233730991
 30
0.0
 11
4.2894171282
 21
6.2233730991
 31
0.0
  0
LINE
  5
134
330
1F
100
AcDbEntity
  8
0
  6
Continuous
 62
     8
370
    25
100
AcDbLine
 10
4.293907899
 20
8.9516190555
 30
0.0
 11
7.1876086864
 21
8.9516190555
 31
0.0
  0
LINE
  5
135
330
1F
100
AcDbEntity
  8
0
  6
Continuous
 62
     8
370
    25
100
AcDbLine
 10
7.1876086864
 20
6.3308817775
 30
0.0
 11
4.293907899
 21
6.3308817775
 31
0.0
  0
LINE
  5
136
330
1F
100
AcDbEntity
  8
0
  6
Continuous
 62
     8
370
    25
100
AcDbLine
 10
4.2880154689
 20
6.2127918006
 30
0.0
 11
4.2881859286
 21
6.2127918006
 31
0.0
  0
DIMENSION
  5
137
330
1F
100
AcDbEntity
  8
DIMENSION
100
AcDbDimension
  2
_D_1
 10
8.1802194986
 20
9.0014866369
 30
0.0
 11
8.1802194986
 21
7.3929890305
 31
0.0
 70
   160
  1
<>
 71
     2
 42
-1.0
  3
SLDDIMSTYLE0
100
AcDbAlignedDimension
 13
7.1876086864
 23
6.0841638023
 33
0.0
 14
7.1876086864
 24
9.0014866369
 34
0.0
 50
90.0
100
AcDbRotatedDimension
  0
LINE
  5
146
330
1F
100
AcDbEntity
  8
0
  6
Continuous
 62
     7
370
    25
100
AcDbLine
 10
14.6803640327
 20
5.8177955685
 30
0.0
 11
14.6803640327
 21
7.9105832399
 31
0.0
  0
LINE
  5
147
330
1F
100
AcDbEntity
  8
0
  6
Continuous
 62
     7
370
    25
100
AcDbLine
 10
11.7866632453
 20
7.9105832399
 30
0.0
 11
11.7866632453
 21
5.8177955685
 31
0.0
  0
LINE
  5
148
330
1F
100
AcDbEntity
  8
0
  6
Continuous
 62
     7
370
    25
100
AcDbLine
 10
11.7866632453
 20
7.974877792
 30
0.0
 11
11.7866632453
 21
7.9341588765
 31
0.0
  0
LINE
  5
149
330
1F
100
AcDbEntity
  8
0
  6
Continuous
 62
     7
370
    25
100
AcDbLine
 10
14.6803640327
 20
7.9341588765
 30
0.0
 11
14.6803640327
 21
7.974877792
 31
0.0
  0
LINE
  5
14A
330
1F
100
AcDbEntity
  8
0
  6
Continuous
 62
     7
370
    25
100
AcDbLine
 10
14.6803640327
 20
5.5927646361
 30
0.0
 11
14.6803640327
 21
5.7942199318
 31
0.0
  0
LINE
  5
14B
330
1F
100
AcDbEntity
  8
0
  6
Continuous
 62
     7
370
    25
100
AcDbLine
 10
11.7866632453
 20
5.7942199318
 30
0.0
 11
11.7866632453
 21
5.5927646361
 31
0.0
  0
SPLINE
  5
14C
330
1F
100
AcDbEntity
  8
0
  6
Continuous
 62
     7
370
    25
100
AcDbSpline
210
0.0
220
0.0
230
1.0
 70
     8
 71
     3
 72
     9
 73
     5
 74
     0
 42
0.00000001
 43
0.00000001
 40
0.0
 40
0.0
 40
0.0
 40
0.0
 40
0.5573507743287143
 40
1.0
 40
1.0
 40
1.0
 40
1.0
 10
14.49511697581846
 20
6.205047117097167
 30
0.0
 10
14.48645581251575
 20
6.214141897363761
 30
0.0
 10
14.4709159340377
 20
6.230459772363658
 30
0.0
 10
14.45310132851012
 20
6.245952304986639
 30
0.0
 10
14.44521570716769
 20
6.252810062555889
 30
0.0
  0
SPLINE
  5
14D
330
1F
100
AcDbEntity
  8
0
  6
Continuous
 62
     7
370
    25
100
AcDbSpline
210
0.0
220
0.0
230
1.0
 70
     8
 71
     3
 72
     9
 73
     5
 74
     0
 42
0.00000001
 43
0.00000001
 40
0.0
 40
0.0
 40
0.0
 40
0.0
 40
0.6150418094141172
 40
1.0
 40
1.0
 40
1.0
 40
1.0
 10
12.00395198625341
 20
6.236544146279163
 30
0.0
 10
11.99663028586536
 20
6.229916788319821
 30
0.0
 10
11.98472589127629
 20
6.219141329061768
 30
0.0
 10
11.97435544158202
 20
6.207834924502447
 30
0.0
 10
11.97036325203216
 20
6.20348243146126
 30
0.0
  0
LINE
  5
14E
330
1F
100
AcDbEntity
  8
0
  6
Continuous
 62
     7
370
    25
100
AcDbLine
 10
12.2072548957
 20
6.2729148474
 30
0.0
 11
12.2121184599
 21
6.2701071715
 31
0.0
  0
LINE
  5
14F
330
1F
100
AcDbEntity
  8
0
  6
Continuous
 62
     7
370
    25
100
AcDbLine
 10
12.2397244726
 20
6.324518279
 30
0.0
 11
12.2343377122
 21
6.3276279896
 31
0.0
  0
LINE
  5
150
330
1F
100
AcDbEntity
  8
0
  6
Continuous
 62
     7
370
    25
100
AcDbLine
 10
12.1669866298
 20
6.2610878964
 30
0.0
 11
12.1628068587
 21
6.2635008269
 31
0.0
  0
LINE
  5
151
330
1F
100
AcDbEntity
  8
0
  6
Continuous
 62
     7
370
    25
100
AcDbLine
 10
12.1658413088
 20
6.2819370288
 30
0.0
 11
12.1616588696
 21
6.2843514996
 31
0.0
  0
LINE
  5
152
330
1F
100
AcDbEntity
  8
0
  6
Continuous
 62
     7
370
    25
100
AcDbLine
 10
11.9638285996
 20
5.8820901206
 30
0.0
 11
11.9638285996
 21
5.8322618427
 31
0.0
  0
LINE
  5
153
330
1F
100
AcDbEntity
  8
0
  6
Continuous
 62
     7
370
    25
100
AcDbLine
 10
14.5031986784
 20
5.8322618427
 30
0.0
 11
14.5031986784
 21
5.8820901206
 31
0.0
  0
LINE
  5
154
330
1F
100
AcDbEntity
  8
0
  6
Continuous
 62
     7
370
    25
100
AcDbLine
 10
12.335564855
 20
5.3140554899
 30
0.0
 11
12.3425256983
 21
5.3100357744
 31
0.0
  0
LWPOLYLINE
  5
155
330
1F
100
AcDbEntity
  8
0
  6
Continuous
 62
     7
370
    25
100
AcDbPolyline
 90
       52
 70
   128
 43
0.0
 10
11.7866632453
 20
5.8177955685
 10
11.7873771786
 20
5.8440313721
 10
11.7930844186
 20
5.8963994387
 10
11.8044763746
 20
5.9484572917
 10
11.8215080878
 20
5.9999994826
 10
11.8441123418
 20
6.0508225978
 10
11.872199928
 20
6.1007260619
 10
11.9056599975
 20
6.1495129285
 10
11.9443604987
 20
6.1969906583
 10
11.9881486984
 20
6.2429718783
 10
12.0368517845
 20
6.2872751216
 10
12.0902775483
 20
6.3297255437
 10
12.1482151426
 20
6.3701556119
 10
12.2104359142
 20
6.4084057675
 10
12.2766943063
 20
6.4443250544
 10
12.3467288271
 20
6.4777717157
 10
12.4202630825
 20
6.5086137526
 10
12.4970068662
 20
6.5367294458
 10
12.5766573057
 20
6.5620078354
 10
12.6589000571
 20
6.5843491592
 10
12.7434105457
 20
6.6036652461
 10
12.8298552474
 20
6.6198798645
 10
12.9178930043
 20
6.6329290226
 10
13.0071763717
 20
6.6427612214
 10
13.0973529888
 20
6.6493376576
 10
13.1880669699
 20
6.6526323771
 10
13.2789603081
 20
6.6526323771
 10
13.3696742892
 20
6.6493376576
 10
13.4598509063
 20
6.6427612214
 10
13.5491342737
 20
6.6329290226
 10
13.6371720306
 20
6.6198798645
 10
13.7236167323
 20
6.6036652461
 10
13.8081272209
 20
6.5843491592
 10
13.8903699723
 20
6.5620078354
 10
13.9700204118
 20
6.5367294458
 10
14.0467641955
 20
6.5086137526
 10
14.1202984509
 20
6.4777717157
 10
14.1903329717
 20
6.4443250544
 10
14.2565913637
 20
6.4084057675
 10
14.3188121354
 20
6.3701556119
 10
14.3767497297
 20
6.3297255437
 10
14.4301754935
 20
6.2872751216
 10
14.4788785796
 20
6.2429718783
 10
14.5226667793
 20
6.1969906583
 10
14.5613672805
 20
6.1495129285
 10
14.59482735
 20
6.1007260619
 10
14.6229149362
 20
6.0508225978
 10
14.6455191902
 20
5.9999994826
 10
14.6625509034
 20
5.9484572917
 10
14.6739428594
 20
5.8963994387
 10
14.6796500994
 20
5.8440313721
 10
14.6802199373
 20
5.8060077502
  0
ARC
  5
156
330
1F
100
AcDbEntity
  8
0
  6
Continuous
 62
     7
370
    25
100
AcDbCircle
 10
12.6621824409
 20
5.5799396431
 30
0.0
 40
0.9333587442525635
100
AcDbArc
 50
118.2172456967
 51
145.5586747211
  0
LWPOLYLINE
  5
157
330
1F
100
AcDbEntity
  8
0
  6
Continuous
 62
     7
370
    25
100
AcDbPolyline
 90
       33
 70
   128
 43
0.0
 10
14.5745912017
 20
6.1078118621
 10
14.5478177535
 20
6.1461280575
 10
14.5095121554
 20
6.1931213206
 10
14.4661707741
 20
6.2386333445
 10
14.4179646583
 20
6.2824845139
 10
14.3650840553
 20
6.3245017684
 10
14.307737661
 20
6.364519285
 10
14.2461517951
 20
6.4023791328
 10
14.1805695091
 20
6.4379318964
 10
14.1112496263
 20
6.4710372652
 10
14.0384657205
 20
6.5015645875
 10
13.9625050366
 20
6.5293933858
 10
13.8836673566
 20
6.5544138327
 10
13.802263817
 20
6.5765271838
 10
13.7186156803
 20
6.5956461678
 10
13.6330530674
 20
6.6116953309
 10
13.545913655
 20
6.6246113343
 10
13.4575413424
 20
6.6343432045
 10
13.3682848948
 20
6.6408525342
 10
13.2784965666
 20
6.6441136341
 10
13.1885307114
 20
6.6441136341
 10
13.0987423832
 20
6.6408525342
 10
13.0094859356
 20
6.6343432045
 10
12.921113623
 20
6.6246113343
 10
12.8339742106
 20
6.6116953309
 10
12.7484115977
 20
6.5956461678
 10
12.664763461
 20
6.5765271838
 10
12.5833599214
 20
6.5544138327
 10
12.5045222414
 20
6.5293933858
 10
12.4285615575
 20
6.5015645875
 10
12.3557776517
 20
6.4710372652
 10
12.2864577689
 20
6.4379318964
 10
12.2208754829
 20
6.4023791328
  0
LWPOLYLINE
  5
158
330
1F
100
AcDbEntity
  8
0
  6
Continuous
 62
     7
370
    25
100
AcDbPolyline
 90
       52
 70
   128
 43
0.0
 10
14.6803640327
 20
7.9105832399
 10
14.6796500994
 20
7.9368190435
 10
14.6739428594
 20
7.9891871101
 10
14.6625509034
 20
8.0412449631
 10
14.6455191902
 20
8.092787154
 10
14.6229149362
 20
8.1436102693
 10
14.59482735
 20
8.1935137333
 10
14.5613672805
 20
8.2423005999
 10
14.5226667793
 20
8.2897783297
 10
14.4788785796
 20
8.3357595497
 10
14.4301754935
 20
8.380062793
 10
14.3767497297
 20
8.4225132151
 10
14.3188121354
 20
8.4629432834
 10
14.2565913637
 20
8.5011934389
 10
14.1903329717
 20
8.5371127258
 10
14.1202984509
 20
8.5705593871
 10
14.0467641955
 20
8.601401424
 10
13.9700204118
 20
8.6295171172
 10
13.8903699723
 20
8.6547955068
 10
13.8081272209
 20
8.6771368306
 10
13.7236167323
 20
8.6964529175
 10
13.6371720306
 20
8.7126675359
 10
13.5491342737
 20
8.725716694
 10
13.4598509063
 20
8.7355488928
 10
13.3696742892
 20
8.742125329
 10
13.2789603081
 20
8.7454200485
 10
13.1880669699
 20
8.7454200485
 10
13.0973529888
 20
8.742125329
 10
13.0071763717
 20
8.7355488928
 10
12.9178930043
 20
8.725716694
 10
12.8298552474
 20
8.7126675359
 10
12.7434105457
 20
8.6964529175
 10
12.6589000571
 20
8.6771368306
 10
12.5766573057
 20
8.6547955068
 10
12.4970068662
 20
8.6295171172
 10
12.4202630825
 20
8.601401424
 10
12.3467288271
 20
8.5705593871
 10
12.2766943063
 20
8.5371127258
 10
12.2104359142
 20
8.5011934389
 10
12.1482151426
 20
8.4629432834
 10
12.0902775483
 20
8.4225132151
 10
12.0368517845
 20
8.380062793
 10
11.9881486984
 20
8.3357595497
 10
11.9443604987
 20
8.2897783297
 10
11.9056599975
 20
8.2423005999
 10
11.872199928
 20
8.1935137333
 10
11.8441123418
 20
8.1436102693
 10
11.8215080878
 20
8.092787154
 10
11.8044763746
 20
8.0412449631
 10
11.7930844186
 20
7.9891871101
 10
11.7873771786
 20
7.9368190435
 10
11.7866632453
 20
7.9105832399
  0
LWPOLYLINE
  5
159
330
1F
100
AcDbEntity
  8
0
  6
Continuous
 62
     7
370
    25
100
AcDbPolyline
 90
       38
 70
   128
 43
0.0
 10
12.212664836
 20
8.5175877116
 10
12.2787788746
 20
8.5534287432
 10
12.3486608152
 20
8.5868025361
 10
12.4220348656
 20
8.6175773792
 10
12.498611452
 20
8.6456318183
 10
12.5780883616
 20
8.6708551353
 10
12.6601519353
 20
8.6931477853
 10
12.7444783057
 20
8.7124217894
 10
12.8307346752
 20
8.7286010819
 10
12.9185806292
 20
8.7416218106
 10
13.0076694799
 20
8.7514325885
 10
13.0976496344
 20
8.757994697
 10
13.188165982
 20
8.7612822384
 10
13.278861296
 20
8.7612822384
 10
13.3693776436
 20
8.757994697
 10
13.4593577981
 20
8.7514325885
 10
13.5484466488
 20
8.7416218106
 10
13.6362926028
 20
8.7286010819
 10
13.7225489723
 20
8.7124217894
 10
13.8068753427
 20
8.6931477853
 10
13.8889389164
 20
8.6708551353
 10
13.968415826
 20
8.6456318183
 10
14.0449924124
 20
8.6175773792
 10
14.1183664628
 20
8.5868025361
 10
14.1882484034
 20
8.5534287432
 10
14.254362442
 20
8.5175877116
 10
14.3164476568
 20
8.4794208895
 10
14.3742590257
 20
8.4390789039
 10
14.4275683938
 20
8.3967209662
 10
14.4761653733
 20
8.3525142439
 10
14.5198581741
 20
8.3066332006
 10
14.5584743606
 20
8.2592589079
 10
14.5918615326
 20
8.2105783304
 10
14.6198879259
 20
8.1607835882
 10
14.6424429334
 20
8.1100711984
 10
14.6594375405
 20
8.0586412996
 10
14.6708046775
 20
8.0066968621
 10
14.6710324727
 20
8.0052930282
  0
LWPOLYLINE
  5
15A
330
1F
100
AcDbEntity
  8
0
  6
Continuous
 62
     7
370
    25
100
AcDbPolyline
 90
       13
 70
   128
 43
0.0
 10
11.7959948053
 20
8.0052930282
 10
11.7962226005
 20
8.0066968621
 10
11.8075897375
 20
8.0586412996
 10
11.8245843446
 20
8.1100711984
 10
11.8471393521
 20
8.1607835882
 10
11.8751657454
 20
8.2105783304
 10
11.9085529174
 20
8.2592589079
 10
11.9471691039
 20
8.3066332006
 10
11.9908619047
 20
8.3525142439
 10
12.0394588842
 20
8.3967209662
 10
12.0927682523
 20
8.4390789039
 10
12.1505796212
 20
8.4794208895
 10
12.212664836
 20
8.5175877116
  0
ARC
  5
15B
330
1F
100
AcDbEntity
  8
0
  6
Continuous
 62
     7
370
    25
100
AcDbCircle
 10
14.1013502249
 20
7.9170622758
 30
0.0
 40
0.5788940550954731
100
AcDbArc
 50
0.5254417216
 51
44.6182509209
  0
LWPOLYLINE
  5
15C
330
1F
100
AcDbEntity
  8
0
  6
Continuous
 62
     7
370
    25
100
AcDbPolyline
 90
       10
 70
   128
 43
0.0
 10
11.7868073407
 20
7.9223710582
 10
11.7873771786
 20
7.9603946802
 10
11.7930844186
 20
8.0127627468
 10
11.8044763746
 20
8.0648205998
 10
11.8215080878
 20
8.1163627906
 10
11.8441123418
 20
8.1671859059
 10
11.872199928
 20
8.2170893699
 10
11.9056599975
 20
8.2658762366
 10
11.9443604987
 20
8.3133539664
 10
11.9715208201
 20
8.342669047
  0
LWPOLYLINE
  5
15D
330
1F
100
AcDbEntity
  8
0
  6
Continuous
 62
     7
370
    25
100
AcDbPolyline
 90
       39
 70
   128
 43
0.0
 10
12.2104359142
 20
8.565487991
 10
12.2766943063
 20
8.6014072779
 10
12.3467288271
 20
8.6348539392
 10
12.4202630825
 20
8.6656959761
 10
12.4970068662
 20
8.6938116693
 10
12.5766573057
 20
8.7190900589
 10
12.6589000571
 20
8.7414313827
 10
12.7434105457
 20
8.7607474697
 10
12.8298552474
 20
8.776962088
 10
12.9178930043
 20
8.7900112461
 10
13.0071763717
 20
8.7998434449
 10
13.0973529888
 20
8.8064198811
 10
13.1880669699
 20
8.8097146006
 10
13.2789603081
 20
8.8097146006
 10
13.3696742892
 20
8.8064198811
 10
13.4598509063
 20
8.7998434449
 10
13.5491342737
 20
8.7900112461
 10
13.6371720306
 20
8.776962088
 10
13.7236167323
 20
8.7607474697
 10
13.8081272209
 20
8.7414313827
 10
13.8903699723
 20
8.7190900589
 10
13.9700204118
 20
8.6938116693
 10
14.0467641955
 20
8.6656959761
 10
14.1202984509
 20
8.6348539392
 10
14.1903329717
 20
8.6014072779
 10
14.2565913637
 20
8.565487991
 10
14.3188121354
 20
8.5272378355
 10
14.3767497297
 20
8.4868077672
 10
14.4301754935
 20
8.4443573452
 10
14.4788785796
 20
8.4000541018
 10
14.5226667793
 20
8.3540728818
 10
14.5613672805
 20
8.3065951521
 10
14.59482735
 20
8.2578082854
 10
14.6229149362
 20
8.2079048214
 10
14.6455191902
 20
8.1570817061
 10
14.6625509034
 20
8.1055395152
 10
14.6739428594
 20
8.0534816622
 10
14.6796500994
 20
8.0011135957
 10
14.6803640327
 20
7.974877792
  0
LWPOLYLINE
  5
15E
330
1F
100
AcDbEntity
  8
0
  6
Continuous
 62
     7
370
    25
100
AcDbPolyline
 90
       14
 70
   128
 43
0.0
 10
11.7866632453
 20
7.974877792
 10
11.7873771786
 20
8.0011135957
 10
11.7930844186
 20
8.0534816622
 10
11.8044763746
 20
8.1055395152
 10
11.8215080878
 20
8.1570817061
 10
11.8441123418
 20
8.2079048214
 10
11.872199928
 20
8.2578082854
 10
11.9056599975
 20
8.3065951521
 10
11.9443604987
 20
8.3540728818
 10
11.9881486984
 20
8.4000541018
 10
12.0368517845
 20
8.4443573452
 10
12.0902775483
 20
8.4868077672
 10
12.1482151426
 20
8.5272378355
 10
12.2104359142
 20
8.565487991
  0
LWPOLYLINE
  5
15F
330
1F
100
AcDbEntity
  8
0
  6
Continuous
 62
     7
370
    25
100
AcDbPolyline
 90
      101
 70
   128
 43
0.0
 10
14.2565913637
 20
5.0021544371
 10
14.3188121354
 20
5.0404045926
 10
14.3767497297
 20
5.0808346609
 10
14.4301754935
 20
5.1232850829
 10
14.4788785796
 20
5.1675883263
 10
14.5226667793
 20
5.2135695463
 10
14.5613672805
 20
5.261047276
 10
14.59482735
 20
5.3098341427
 10
14.6229149362
 20
5.3597376067
 10
14.6455191902
 20
5.410560722
 10
14.6625509034
 20
5.4621029129
 10
14.6739428594
 20
5.5141607659
 10
14.6796500994
 20
5.5665288324
 10
14.6796500994
 20
5.6190004397
 10
14.6739428594
 20
5.6713685063
 10
14.6625509034
 20
5.7234263593
 10
14.6455191902
 20
5.7749685502
 10
14.6229149362
 20
5.8257916654
 10
14.59482735
 20
5.8756951295
 10
14.5613672805
 20
5.9244819961
 10
14.5226667793
 20
5.9719597259
 10
14.4788785796
 20
6.0179409459
 10
14.4301754935
 20
6.0622441892
 10
14.3767497297
 20
6.1046946112
 10
14.3188121354
 20
6.1451246795
 10
14.2565913637
 20
6.1833748351
 10
14.1903329717
 20
6.219294122
 10
14.1202984509
 20
6.2527407833
 10
14.0467641955
 20
6.2835828202
 10
13.9700204118
 20
6.3116985134
 10
13.8903699723
 20
6.336976903
 10
13.8081272209
 20
6.3593182268
 10
13.7236167323
 20
6.3786343137
 10
13.6371720306
 20
6.3948489321
 10
13.5491342737
 20
6.4078980902
 10
13.4598509063
 20
6.417730289
 10
13.3696742892
 20
6.4243067252
 10
13.2789603081
 20
6.4276014447
 10
13.1880669699
 20
6.4276014447
 10
13.0973529888
 20
6.4243067252
 10
13.0071763717
 20
6.417730289
 10
12.9178930043
 20
6.4078980902
 10
12.8298552474
 20
6.3948489321
 10
12.7434105457
 20
6.3786343137
 10
12.6589000571
 20
6.3593182268
 10
12.5766573057
 20
6.336976903
 10
12.4970068662
 20
6.3116985134
 10
12.4202630825
 20
6.2835828202
 10
12.3467288271
 20
6.2527407833
 10
12.2766943063
 20
6.219294122
 10
12.2104359142
 20
6.1833748351
 10
12.1482151426
 20
6.1451246795
 10
12.0902775483
 20
6.1046946112
 10
12.0368517845
 20
6.0622441892
 10
11.9881486984
 20
6.0179409459
 10
11.9443604987
 20
5.9719597259
 10
11.9056599975
 20
5.9244819961
 10
11.872199928
 20
5.8756951295
 10
11.8441123418
 20
5.8257916654
 10
11.8215080878
 20
5.7749685502
 10
11.8044763746
 20
5.7234263593
 10
11.7930844186
 20
5.6713685063
 10
11.7873771786
 20
5.6190004397
 10
11.7873771786
 20
5.5665288324
 10
11.7930844186
 20
5.5141607659
 10
11.8044763746
 20
5.4621029129
 10
11.8215080878
 20
5.410560722
 10
11.8441123418
 20
5.3597376067
 10
11.872199928
 20
5.3098341427
 10
11.9056599975
 20
5.261047276
 10
11.9443604987
 20
5.2135695463
 10
11.9881486984
 20
5.1675883263
 10
12.0368517845
 20
5.1232850829
 10
12.0902775483
 20
5.0808346609
 10
12.1482151426
 20
5.0404045926
 10
12.2104359142
 20
5.0021544371
 10
12.2766943063
 20
4.9662351502
 10
12.3467288271
 20
4.9327884889
 10
12.4202630825
 20
4.9019464519
 10
12.4970068662
 20
4.8738307588
 10
12.5766573057
 20
4.8485523692
 10
12.6589000571
 20
4.8262110454
 10
12.7434105457
 20
4.8068949584
 10
12.8298552474
 20
4.7906803401
 10
12.9178930043
 20
4.777631182
 10
13.0071763717
 20
4.7677989832
 10
13.0973529888
 20
4.761222547
 10
13.1880669699
 20
4.7579278275
 10
13.2789603081
 20
4.7579278275
 10
13.3696742892
 20
4.761222547
 10
13.4598509063
 20
4.7677989832
 10
13.5491342737
 20
4.777631182
 10
13.6371720306
 20
4.7906803401
 10
13.7236167323
 20
4.8068949584
 10
13.8081272209
 20
4.8262110454
 10
13.8903699723
 20
4.8485523692
 10
13.9700204118
 20
4.8738307588
 10
14.0467641955
 20
4.9019464519
 10
14.1202984509
 20
4.9327884889
 10
14.1903329717
 20
4.9662351502
 10
14.2565913637
 20
5.0021544371
  0
LWPOLYLINE
  5
160
330
1F
100
AcDbEntity
  8
0
  6
Continuous
 62
     7
370
    25
100
AcDbPolyline
 90
      100
 70
   128
 43
0.0
 10
14.2357122265
 20
5.0142077064
 10
14.1701311138
 20
4.9786781805
 10
14.1007785731
 20
4.945621364
 10
14.0279338626
 20
4.915170365
 10
13.9518903023
 20
4.887447799
 10
13.8729540927
 20
4.862565295
 10
13.7914430821
 20
4.840623046
 10
13.7076854865
 20
4.8217094057
 10
13.6220185682
 20
4.8059005327
 10
13.5347872777
 20
4.7932600837
 10
13.4463428646
 20
4.7838389574
 10
13.3570414634
 20
4.7776750892
 10
13.2672426591
 20
4.774793299
 10
13.1773080401
 20
4.7752051907
 10
13.0875997411
 20
4.7789091057
 10
12.9984789859
 20
4.7858901297
 10
12.9103046323
 20
4.7961201525
 10
12.8234317273
 20
4.8095579815
 10
12.7382100774
 20
4.8261495073
 10
12.6549828401
 20
4.8458279216
 10
12.5740851422
 20
4.8685139865
 10
12.4958427301
 20
4.8941163531
 10
12.4205706583
 20
4.9225319297
 10
12.3485720211
 20
4.9536462969
 10
12.2801367314
 20
4.9873341681
 10
12.215540354
 20
5.0234598941
 10
12.1550429958
 20
5.0618780093
 10
12.0988882582
 20
5.1024338176
 10
12.0473022565
 20
5.1449640151
 10
12.0004927094
 20
5.1892973476
 10
11.9586481024
 20
5.2352553005
 10
11.921936929
 20
5.2826528173
 10
11.8905070121
 20
5.331299045
 10
11.8644849088
 20
5.3809981023
 10
11.8439754011
 20
5.4315498687
 10
11.8290610734
 20
5.48275079
 10
11.8198019805
 20
5.5343946983
 10
11.8162354055
 20
5.5862736418
 10
11.8183757097
 20
5.6381787221
 10
11.8262142749
 20
5.689900936
 10
11.8397195379
 20
5.7412320163
 10
11.8588371179
 20
5.7919652708
 10
11.883490035
 20
5.8418964147
 10
11.9135790207
 20
5.8908243929
 10
11.9489829172
 20
5.9385521896
 10
11.9895591656
 20
5.9848876218
 10
12.0351443796
 20
6.0296441132
 10
12.0855550036
 20
6.0726414452
 10
12.140588052
 20
6.1137064826
 10
12.2000219259
 20
6.152673871
 10
12.2636173061
 20
6.1893867026
 10
12.3311181166
 20
6.2236971477
 10
12.4022525554
 20
6.2554670503
 10
12.4767341891
 20
6.2845684841
 10
12.5542631066
 20
6.310884268
 10
12.6345271263
 20
6.3343084376
 10
12.7172030532
 20
6.354746672
 10
12.8019579807
 20
6.3721166737
 10
12.8884506304
 20
6.3863484998
 10
12.9763327271
 20
6.3973848438
 10
13.0652504006
 20
6.4051812662
 10
13.1548456107
 20
6.4097063736
 10
13.2447575892
 20
6.4109419449
 10
13.3346242924
 20
6.408883005
 10
13.4240838585
 20
6.4035378444
 10
13.5127760657
 20
6.3949279863
 10
13.6003437817
 20
6.3830880995
 10
13.6864344021
 20
6.3680658591
 10
13.7707012705
 20
6.3499217542
 10
13.8528050739
 20
6.3287288449
 10
13.9324152092
 20
6.3045724675
 10
14.0092111146
 20
6.2775498911
 10
14.08288356
 20
6.2477699263
 10
14.1531358926
 20
6.2153524863
 10
14.2196852309
 20
6.1804281047
 10
14.2822636043
 20
6.1431374098
 10
14.3406190317
 20
6.103630558
 10
14.3945165364
 20
6.0620666294
 10
14.4437390923
 20
6.0186129874
 10
14.4880884973
 20
5.9734446043
 10
14.5273861723
 20
5.9267433573
 10
14.5614738792
 20
5.878697296
 10
14.5902143589
 20
5.8294998847
 10
14.6134918836
 20
5.7793492241
 10
14.631212723
 20
5.7284472532
 10
14.6433055215
 20
5.6769989364
 10
14.6497215857
 20
5.6252114377
 10
14.6504350803
 20
5.5732932872
 10
14.6454431324
 20
5.521453541
 10
14.6347658427
 20
5.4699009393
 10
14.6184462049
 20
5.4188430665
 10
14.5965499326
 20
5.3684855144
 10
14.5691651941
 20
5.3190310551
 10
14.5364022582
 20
5.2706788244
 10
14.4983930498
 20
5.2236235195
 10
14.4552906183
 20
5.1780546157
 10
14.4072685222
 20
5.1341556027
 10
14.3545201295
 20
5.0921032465
 10
14.2972578392
 20
5.0520668769
 10
14.2357122265
 20
5.0142077064
  0
ARC
  5
161
330
1F
100
AcDbEntity
  8
0
  6
Continuous
 62
     7
370
    25
100
AcDbCircle
 10
14.0878779463
 20
5.7720566825
 30
0.0
 40
0.5929004740915238
100
AcDbArc
 50
2.1422762008
 51
46.3592362571
  0
LWPOLYLINE
  5
162
330
1F
100
AcDbEntity
  8
0
  6
Continuous
 62
     7
370
    25
100
AcDbPolyline
 90
       10
 70
   128
 43
0.0
 10
11.968448437
 20
6.199550772
 10
11.9443604987
 20
6.1734150217
 10
11.9056599975
 20
6.1259372919
 10
11.872199928
 20
6.0771504252
 10
11.8441123418
 20
6.0272469612
 10
11.8215080878
 20
5.9764238459
 10
11.8044763746
 20
5.9248816551
 10
11.7930844186
 20
5.8728238021
 10
11.7873771786
 20
5.8204557355
 10
11.7866632453
 20
5.7942199318
  0
ARC
  5
163
330
1F
100
AcDbEntity
  8
0
  6
Continuous
 62
     7
370
    25
100
AcDbCircle
 10
12.8262756235
 20
5.1902743371
 30
0.0
 40
1.237719535889241
100
AcDbArc
 50
122.7030323238
 51
123.7405266761
  0
LINE
  5
164
330
1F
100
AcDbEntity
  8
0
  6
Continuous
 62
     7
370
    25
100
AcDbLine
 10
12.1631095112
 20
6.2365228795
 30
0.0
 11
12.1575545025
 21
6.2317932817
 31
0.0
  0
SPLINE
  5
165
330
1F
100
AcDbEntity
  8
0
  6
Continuous
 62
     7
370
    25
100
AcDbSpline
210
0.0
220
0.0
230
1.0
 70
     8
 71
     3
 72
    11
 73
     7
 74
     0
 42
0.00000001
 43
0.00000001
 40
0.0
 40
0.0
 40
0.0
 40
0.0
 40
0.266676364705822
 40
0.5333503996252207
 40
0.8000957266629558
 40
1.0
 40
1.0
 40
1.0
 40
1.0
 10
12.17012392790007
 20
6.253518406743032
 30
0.0
 10
12.17005293975272
 20
6.252025650234604
 30
0.0
 10
12.1699109640782
 20
6.249040150259036
 30
0.0
 10
12.16819597784797
 20
6.244059752737325
 30
0.0
 10
12.16582829009621
 20
6.239717484259556
 30
0.0
 10
12.16392489246498
 20
6.237480964338882
 30
0.0
 10
12.16310951124524
 20
6.23652287953781
 30
0.0
  0
SPLINE
  5
166
330
1F
100
AcDbEntity
  8
0
  6
Continuous
 62
     7
370
    25
100
AcDbSpline
210
0.0
220
0.0
230
1.0
 70
     8
 71
     3
 72
    10
 73
     6
 74
     0
 42
0.00000001
 43
0.00000001
 40
0.0
 40
0.0
 40
0.0
 40
0.0
 40
0.3101137727575926
 40
0.7232891341825294
 40
0.9999999999999999
 40
0.9999999999999999
 40
0.9999999999999999
 40
0.9999999999999999
 10
12.16689522691663
 20
6.26094597680346
 30
0.0
 10
12.16752027017168
 20
6.260547635478923
 30
0.0
 10
12.16897808028683
 20
6.259618570158243
 30
0.0
 10
12.17000956190125
 20
6.256835122012109
 30
0.0
 10
12.17009118797691
 20
6.254467893515097
 30
0.0
 10
12.17012392790007
 20
6.253518406743032
 30
0.0
  0
SPLINE
  5
167
330
1F
100
AcDbEntity
  8
0
  6
Continuous
 62
     7
370
    25
100
AcDbSpline
210
0.0
220
0.0
230
1.0
 70
     8
 71
     3
 72
    10
 73
     6
 74
     0
 42
0.00000001
 43
0.00000001
 40
0.0
 40
0.0
 40
0.0
 40
0.0
 40
0.3332984925371664
 40
0.6665931954793731
 40
1.0
 40
1.0
 40
1.0
 40
1.0
 10
12.16866786737263
 20
6.275500827864918
 30
0.0
 10
12.16855725629823
 20
6.274137531605179
 30
0.0
 10
12.16833603540708
 20
6.271410954586342
 30
0.0
 10
12.16671308948625
 20
6.266877533401265
 30
0.0
 10
12.16501191054371
 20
6.264212853217789
 30
0.0
 10
12.16416117805129
 20
6.262880289101618
 30
0.0
  0
SPLINE
  5
168
330
1F
100
AcDbEntity
  8
0
  6
Continuous
 62
     7
370
    25
100
AcDbSpline
210
0.0
220
0.0
230
1.0
 70
     8
 71
     3
 72
    10
 73
     6
 74
     0
 42
0.00000001
 43
0.00000001
 40
0.0
 40
0.0
 40
0.0
 40
0.0
 40
0.2622005401137242
 40
0.6925725995097869
 40
1.0
 40
1.0
 40
1.0
 40
1.0
 10
12.1657413466041
 20
6.281772043240705
 30
0.0
 10
12.16621647047296
 20
6.281516392179175
 30
0.0
 10
12.16747145558016
 20
6.280841119274799
 30
0.0
 10
12.16846088887614
 20
6.278531823567721
 30
0.0
 10
12.16860698981241
 20
6.276392319621525
 30
0.0
 10
12.16866786737263
 20
6.275500827864918
 30
0.0
  0
ARC
  5
169
330
1F
100
AcDbEntity
  8
0
  6
Continuous
 62
     7
370
    25
100
AcDbCircle
 10
12.8760788905
 20
5.1507414015
 30
0.0
 40
1.331721296123592
100
AcDbArc
 50
120.2457443837
 51
121.3391619709
  0
LINE
  5
16A
330
1F
100
AcDbEntity
  8
0
  6
Continuous
 62
     7
370
    25
100
AcDbLine
 10
12.2052778032
 20
6.3092174618
 30
0.0
 11
12.2052778032
 21
6.3053411331
 31
0.0
  0
ARC
  5
16B
330
1F
100
AcDbEntity
  8
0
  6
Continuous
 62
     7
370
    25
100
AcDbCircle
 10
12.8716708387
 20
5.1179860954
 30
0.0
 40
1.3230828866925
100
AcDbArc
 50
120.242897109
 51
121.7718982747
  0
LINE
  5
16C
330
1F
100
AcDbEntity
  8
0
  6
Continuous
 62
     7
370
    25
100
AcDbLine
 10
12.2052778032
 20
6.269031127
 30
0.0
 11
12.2052778032
 21
6.26099469
 31
0.0
  0
LINE
  5
16D
330
1F
100
AcDbEntity
  8
0
  6
Continuous
 62
     7
370
    25
100
AcDbLine
 10
12.1834466257
 20
6.2700862483
 30
0.0
 11
12.1834466257
 21
6.2609654526
 31
0.0
  0
ARC
  5
16E
330
1F
100
AcDbEntity
  8
0
  6
Continuous
 62
     7
370
    25
100
AcDbCircle
 10
12.8747492513
 20
5.1348715742
 30
0.0
 40
1.329139449551053
100
AcDbArc
 50
120.3737196937
 51
121.3398275309
  0
LINE
  5
16F
330
1F
100
AcDbEntity
  8
0
  6
Continuous
 62
     7
370
    25
100
AcDbLine
 10
12.1834466257
 20
6.2881692701
 30
0.0
 11
12.1834466257
 21
6.2830679366
 31
0.0
  0
SPLINE
  5
170
330
1F
100
AcDbEntity
  8
0
  6
Continuous
 62
     7
370
    25
100
AcDbSpline
210
0.0
220
0.0
230
1.0
 70
     8
 71
     3
 72
    10
 73
     6
 74
     0
 42
0.00000001
 43
0.00000001
 40
0.0
 40
0.0
 40
0.0
 40
0.0
 40
0.4402532515870594
 40
0.8817397424442371
 40
1.0
 40
1.0
 40
1.0
 40
1.0
 10
12.22586856825857
 20
6.271541973735937
 30
0.0
 10
12.22364768661261
 20
6.270553520729981
 30
0.0
 10
12.21919970217763
 20
6.268573845859326
 30
0.0
 10
12.21443008720552
 20
6.268554548368988
 30
0.0
 10
12.2126531750175
 20
6.270044167368185
 30
0.0
 10
12.21227775864643
 20
6.270358885992286
 30
0.0
  0
SPLINE
  5
171
330
1F
100
AcDbEntity
  8
0
  6
Continuous
 62
     7
370
    25
100
AcDbSpline
210
0.0
220
0.0
230
1.0
 70
     8
 71
     3
 72
    10
 73
     6
 74
     0
 42
0.00000001
 43
0.00000001
 40
0.0
 40
0.0
 40
0.0
 40
0.0
 40
0.4311059169438428
 40
0.8871428965243702
 40
0.9999999999999999
 40
0.9999999999999999
 40
0.9999999999999999
 40
0.9999999999999999
 10
12.23524451293348
 20
6.281062487388741
 30
0.0
 10
12.23407629623091
 20
6.279350290980914
 30
0.0
 10
12.23167230429169
 20
6.27582688102304
 30
0.0
 10
12.22820527146101
 20
6.272916501188108
 30
0.0
 10
12.22625538614803
 20
6.27176951303468
 30
0.0
 10
12.22586856825857
 20
6.271541973735938
 30
0.0
  0
ARC
  5
172
330
1F
100
AcDbEntity
  8
0
  6
Continuous
 62
     7
370
    25
100
AcDbCircle
 10
12.9226166646
 20
5.028690555
 30
0.0
 40
1.425853945808084
100
AcDbArc
 50
118.3727716213
 51
118.6933402217
  0
LINE
  5
173
330
1F
100
AcDbEntity
  8
0
  6
Continuous
 62
     7
370
    25
100
AcDbLine
 10
12.2450421369
 20
6.3092937011
 30
0.0
 11
12.2450421369
 21
6.2973973824
 31
0.0
  0
LINE
  5
174
330
1F
100
AcDbEntity
  8
0
  6
Continuous
 62
     7
370
    25
100
AcDbLine
 10
12.2450421369
 20
6.2846336856
 30
0.0
 11
12.2450421369
 21
6.2832630855
 31
0.0
  0
LINE
  5
175
330
1F
100
AcDbEntity
  8
0
  6
Continuous
 62
     7
370
    25
100
AcDbLine
 10
12.2314742088
 20
6.2940567615
 30
0.0
 11
12.2268951463
 21
6.2915205716
 31
0.0
  0
SPLINE
  5
176
330
1F
100
AcDbEntity
  8
0
  6
Continuous
 62
     7
370
    25
100
AcDbSpline
210
0.0
220
0.0
230
1.0
 70
     8
 71
     3
 72
     9
 73
     5
 74
     0
 42
0.00000001
 43
0.00000001
 40
0.0
 40
0.0
 40
0.0
 40
0.0
 40
0.7589725694229579
 40
1.0
 40
1.0
 40
1.0
 40
1.0
 10
12.21480461297875
 20
6.290916117710462
 30
0.0
 10
12.21486258653627
 20
6.288516940946039
 30
0.0
 10
12.21493897079555
 20
6.285355855998997
 30
0.0
 10
12.21616017534701
 20
6.283224839859347
 30
0.0
 10
12.21645451914226
 20
6.28271120651469
 30
0.0
  0
SPLINE
  5
177
330
1F
100
AcDbEntity
  8
0
  6
Continuous
 62
     7
370
    25
100
AcDbSpline
210
0.0
220
0.0
230
1.0
 70
     8
 71
     3
 72
    12
 73
     8
 74
     0
 42
0.00000001
 43
0.00000001
 40
0.0
 40
0.0
 40
0.0
 40
0.0
 40
0.1631644137059055
 40
0.3268802667177741
 40
0.4836251736251203
 40
0.717454815241478
 40
1.0
 40
1.0
 40
1.0
 40
1.0
 10
12.22641239859635
 20
6.314806852052187
 30
0.0
 10
12.22524347378426
 20
6.314038074606116
 30
0.0
 10
12.22290167359835
 20
6.312497921512001
 30
0.0
 10
12.21982877700403
 20
6.308754475440598
 30
0.0
 10
12.21718171100645
 20
6.303878567512373
 30
0.0
 10
12.21518624523525
 20
6.297636057888419
 30
0.0
 10
12.21493958062873
 20
6.293292684466442
 30
0.0
 10
12.21480461297875
 20
6.290916117710462
 30
0.0
  0
SPLINE
  5
178
330
1F
100
AcDbEntity
  8
0
  6
Continuous
 62
     7
370
    25
100
AcDbSpline
210
0.0
220
0.0
230
1.0
 70
     8
 71
     3
 72
     9
 73
     5
 74
     0
 42
0.00000001
 43
0.00000001
 40
0.0
 40
0.0
 40
0.0
 40
0.0
 40
0.4389929486257566
 40
1.0
 40
1.0
 40
1.0
 40
1.0
 10
12.23090811022505
 20
6.316183777804889
 30
0.0
 10
12.23028246518709
 20
6.316160777736284
 30
0.0
 10
12.22885728275554
 20
6.316108384938914
 30
0.0
 10
12.22729106038836
 20
6.315274607227544
 30
0.0
 10
12.22641239859635
 20
6.314806852052187
 30
0.0
  0
LINE
  5
179
330
1F
100
AcDbEntity
  8
0
  6
Continuous
 62
     7
370
    25
100
AcDbLine
 10
12.2449500144
 20
6.3163197264
 30
0.0
 11
12.2362515405
 21
6.3115810425
 31
0.0
  0
SPLINE
  5
17A
330
1F
100
AcDbEntity
  8
0
  6
Continuous
 62
     7
370
    25
100
AcDbSpline
210
0.0
220
0.0
230
1.0
 70
     8
 71
     3
 72
     9
 73
     5
 74
     0
 42
0.00000001
 43
0.00000001
 40
0.0
 40
0.0
 40
0.0
 40
0.0
 40
0.4236146797468503
 40
1.0
 40
1.0
 40
1.0
 40
1.0
 10
12.23962153320112
 20
6.324363265184288
 30
0.0
 10
12.24070463207742
 20
6.323623983887044
 30
0.0
 10
12.24326143411495
 20
6.321878809952834
 30
0.0
 10
12.24433260640109
 20
6.318352334854478
 30
0.0
 10
12.24495001438228
 20
6.316319726375548
 30
0.0
  0
ELLIPSE
  5
17B
330
1F
100
AcDbEntity
  8
0
  6
Continuous
 62
     7
370
    25
100
AcDbEllipse
 10
13.233513639
 20
5.5198776056
 30
0.0
 11
0.9352206869528779
 21
4.168636955681287
 31
0.0
210
0.0
220
0.0
230
1.0
 40
0.264826329
 41
1.441920206589304
 42
1.444900259139644
  0
ARC
  5
17C
330
1F
100
AcDbEntity
  8
0
  6
Continuous
 62
     7
370
    25
100
AcDbCircle
 10
12.9441722207
 20
4.9987702772
 30
0.0
 40
1.471748887361112
100
AcDbArc
 50
117.1957635598
 51
117.7502762047
  0
ARC
  5
17D
330
1F
100
AcDbEntity
  8
0
  6
Continuous
 62
     7
370
    25
100
AcDbCircle
 10
12.9596417601
 20
4.9579825289
 30
0.0
 40
1.505715097829027
100
AcDbArc
 50
116.5136373492
 51
116.92941426
  0
ELLIPSE
  5
17E
330
1F
100
AcDbEntity
  8
0
  6
Continuous
 62
     7
370
    25
100
AcDbEllipse
 10
13.233513639
 20
5.9157524899
 30
0.0
 11
-1.292521173770821
 21
2.791879970851512
 31
0.0
210
0.0
220
0.0
230
1.0
 40
0.2328910556
 41
1.309718029722686
 42
1.324205084326817
  0
ARC
  5
17F
330
1F
100
AcDbEntity
  8
0
  6
Continuous
 62
     7
370
    25
100
AcDbCircle
 10
12.9313995515
 20
5.0124453754
 30
0.0
 40
1.444363732681379
100
AcDbArc
 50
117.8920458021
 51
118.3188083883
  0
ARC
  5
180
330
1F
100
AcDbEntity
  8
0
  6
Continuous
 62
     7
370
    25
100
AcDbCircle
 10
14.0821358581
 20
5.8819945178
 30
0.0
 40
0.4308865758389577
100
AcDbArc
 50
345.3847658708
 51
9.2760558602
  0
ARC
  5
181
330
1F
100
AcDbEntity
  8
0
  6
Continuous
 62
     7
370
    25
100
AcDbCircle
 10
12.3859147659
 20
5.8820422332
 30
0.0
 40
0.431888900527767
100
AcDbArc
 50
170.7520748545
 51
194.5871034144
  0
LWPOLYLINE
  5
182
330
1F
100
AcDbEntity
  8
0
  6
Continuous
 62
     7
370
    25
100
AcDbPolyline
 90
       34
 70
   128
 43
0.0
 10
14.4419868761
 20
6.2543476055
 10
14.4249549369
 20
6.2691533323
 10
14.3717622484
 20
6.3114185601
 10
14.3140774126
 20
6.3516722482
 10
14.2521280852
 20
6.3897555336
 10
14.186158752
 20
6.4255181191
 10
14.1164297638
 20
6.458818866
 10
14.043216309
 20
6.4895263514
 10
13.9668073276
 20
6.5175193871
 10
13.8875043711
 20
6.5426874972
 10
13.8056204119
 20
6.5649313547
 10
13.7214786087
 20
6.5841631733
 10
13.6354110307
 20
6.6003070538
 10
13.5477573472
 20
6.6132992837
 10
13.4588634874
 20
6.6230885885
 10
13.3690802748
 20
6.6296363343
 10
13.2787620425
 20
6.6329166803
 10
13.1882652355
 20
6.6329166803
 10
13.0979470032
 20
6.6296363343
 10
13.0081637905
 20
6.6230885885
 10
12.9192699308
 20
6.6132992837
 10
12.8316162473
 20
6.6003070538
 10
12.7455486693
 20
6.5841631733
 10
12.6614068661
 20
6.5649313547
 10
12.5795229069
 20
6.5426874972
 10
12.5002199504
 20
6.5175193871
 10
12.423810969
 20
6.4895263514
 10
12.3505975142
 20
6.458818866
 10
12.280868526
 20
6.4255181191
 10
12.2148991928
 20
6.3897555336
 10
12.1529498654
 20
6.3516722482
 10
12.0952650296
 20
6.3114185601
 10
12.0420723411
 20
6.2691533323
 10
12.0073485255
 20
6.2382025593
  0
ARC
  5
183
330
1F
100
AcDbEntity
  8
0
  6
Continuous
 62
     7
370
    25
100
AcDbCircle
 10
14.0794832162
 20
5.8984837192
 30
0.0
 40
0.4328612766506562
100
AcDbArc
 50
347.6928960024
 51
1.3071890906
  0
ARC
  5
184
330
1F
100
AcDbEntity
  8
0
  6
Continuous
 62
     7
370
    25
100
AcDbCircle
 10
12.3858085543
 20
5.8983166101
 30
0.0
 40
0.4311300825334362
100
AcDbArc
 50
178.6653468257
 51
192.3345680814
  0
ELLIPSE
  5
185
330
1F
100
AcDbEntity
  8
0
  6
Continuous
 62
     7
370
    25
100
AcDbEllipse
 10
13.233513639
 20
5.5198776056
 30
0.0
 11
0.9390379142465619
 21
4.185651800398355
 31
0.0
210
0.0
220
0.0
230
1.0
 40
0.264826329
 41
1.442108606665883
 42
1.445076520949732
  0
ARC
  5
186
330
1F
100
AcDbEntity
  8
0
  6
Continuous
 62
     7
370
    25
100
AcDbCircle
 10
12.9300108966
 20
5.0100387752
 30
0.0
 40
1.44992906579851
100
AcDbArc
 50
117.9004327748
 51
118.3255224286
  0
ELLIPSE
  5
187
330
1F
100
AcDbEntity
  8
0
  6
Continuous
 62
     7
370
    25
100
AcDbEllipse
 10
13.233513639
 20
5.5586577477
 30
0.0
 11
0.9378337036045536
 21
3.978093992392799
 31
0.0
210
0.0
220
0.0
230
1.0
 40
0.2788998511
 41
1.438479084806517
 42
1.452889417674365
  0
ARC
  5
188
330
1F
100
AcDbEntity
  8
0
  6
Continuous
 62
     7
370
    25
100
AcDbCircle
 10
12.9442683902
 20
5.0311809535
 30
0.0
 40
1.480533667772877
100
AcDbArc
 50
117.1994522531
 51
117.6389234314
  0
ELLIPSE
  5
189
330
1F
100
AcDbEntity
  8
0
  6
Continuous
 62
     7
370
    25
100
AcDbEllipse
 10
13.233513639
 20
5.9157524899
 30
0.0
 11
-1.297796770398456
 21
2.803275399303967
 31
0.0
210
0.0
220
0.0
230
1.0
 40
0.2328910556
 41
1.30948103754883
 42
1.323908948985111
  0
ARC
  5
18A
330
1F
100
AcDbEntity
  8
0
  6
Continuous
 62
     7
370
    25
100
AcDbCircle
 10
12.9582609754
 20
4.9555846107
 30
0.0
 40
1.51127633694813
100
AcDbArc
 50
116.5273428304
 51
116.9415284981
  0
ELLIPSE
  5
18B
330
1F
100
AcDbEntity
  8
0
  6
Continuous
 62
     7
370
    25
100
AcDbEllipse
 10
13.233513639
 20
5.8815051216
 30
0.0
 11
-1.303806903417662
 21
2.733817016841459
 31
0.0
210
0.0
220
0.0
230
1.0
 40
0.2343868825
 41
1.302480627046398
 42
1.305703734288292
  0
ARC
  5
18C
330
1F
100
AcDbEntity
  8
0
  6
Continuous
 62
     7
370
    25
100
AcDbCircle
 10
12.9441511174
 20
4.9937508421
 30
0.0
 40
1.480263300880734
100
AcDbArc
 50
117.0914657136
 51
117.7587928689
  0
ELLIPSE
  5
18D
330
1F
100
AcDbEntity
  8
0
  6
Continuous
 62
     7
370
    25
100
AcDbEllipse
 10
13.233513639
 20
5.5007339762
 30
0.0
 11
0.9418119992205991
 21
4.580702733713575
 31
0.0
210
0.0
220
0.0
230
1.0
 40
0.2414727241
 41
1.437406753977315
 42
1.442494203647897
  0
ARC
  5
18E
330
1F
100
AcDbEntity
  8
0
  6
Continuous
 62
     7
370
    25
100
AcDbCircle
 10
12.9442694931
 20
5.0010408307
 30
0.0
 40
1.480533770106185
100
AcDbArc
 50
117.1794364246
 51
117.6588958137
  0
ELLIPSE
  5
18F
330
1F
100
AcDbEntity
  8
0
  6
Continuous
 62
     7
370
    25
100
AcDbEllipse
 10
13.233513639
 20
5.9223149233
 30
0.0
 11
-1.252528901128846
 21
3.401857439896872
 31
0.0
210
0.0
220
0.0
230
1.0
 40
0.2163474157
 41
1.369980605651268
 42
1.375070839652289
  0
LINE
  5
190
330
1F
100
AcDbEntity
  8
0
  6
Continuous
 62
     7
370
    25
100
AcDbLine
 10
12.2874742641
 20
6.3053387598
 30
0.0
 11
12.2832874156
 21
6.307755776
 31
0.0
  0
LINE
  5
191
330
1F
100
AcDbEntity
  8
0
  6
Continuous
 62
     7
370
    25
100
AcDbLine
 10
12.2675321084
 20
6.3479983085
 30
0.0
 11
12.2717149976
 21
6.345583578
 31
0.0
  0
LINE
  5
192
330
1F
100
AcDbEntity
  8
0
  6
Continuous
 62
     7
370
    25
100
AcDbLine
 10
12.27771472
 20
6.3004256256
 30
0.0
 11
12.2735304217
 21
6.3028411696
 31
0.0
  0
LINE
  5
193
330
1F
100
AcDbEntity
  8
0
  6
Continuous
 62
     7
370
    25
100
AcDbLine
 10
12.2588982896
 20
6.3012465445
 30
0.0
 11
12.254717998
 21
6.3036597755
 31
0.0
  0
LINE
  5
194
330
1F
100
AcDbEntity
  8
0
  6
Continuous
 62
     7
370
    25
100
AcDbLine
 10
12.2557159145
 20
6.2890182151
 30
0.0
 11
12.2515361793
 21
6.2914311249
 31
0.0
  0
LINE
  5
195
330
1F
100
AcDbEntity
  8
0
  6
Continuous
 62
     7
370
    25
100
AcDbLine
 10
12.2420480155
 20
6.2863621551
 30
0.0
 11
12.2462263047
 21
6.2839500802
 31
0.0
  0
ELLIPSE
  5
196
330
1F
100
AcDbEntity
  8
0
  6
Continuous
 62
     7
370
    25
100
AcDbEllipse
 10
13.233513639
 20
5.5007339762
 30
0.0
 11
0.9379834951587274
 21
4.562081990893604
 31
0.0
210
0.0
220
0.0
230
1.0
 40
0.2414727241
 41
1.438547880744469
 42
1.441130060977181
  0
SPLINE
  5
197
330
1F
100
AcDbEntity
  8
0
  6
Continuous
 62
     7
370
    25
100
AcDbSpline
210
0.0
220
0.0
230
1.0
 70
     8
 71
     3
 72
    11
 73
     7
 74
     0
 42
0.00000001
 43
0.00000001
 40
0.0
 40
0.0
 40
0.0
 40
0.0
 40
0.2768564673858609
 40
0.5554463643757621
 40
0.794470881457573
 40
1.0
 40
1.0
 40
1.0
 40
1.0
 10
12.23292584308063
 20
6.299585837238131
 30
0.0
 10
12.23255714763996
 20
6.297776388649124
 30
0.0
 10
12.23181744831481
 20
6.294146162309177
 30
0.0
 10
12.22904083093958
 20
6.288893039525832
 30
0.0
 10
12.22564730214585
 20
6.284834401067251
 30
0.0
 10
12.22331456085644
 20
6.28329126901972
 30
0.0
 10
12.22223607173257
 20
6.282577837514255
 30
0.0
  0
ELLIPSE
  5
198
330
1F
100
AcDbEntity
  8
0
  6
Continuous
 62
     7
370
    25
100
AcDbEllipse
 10
13.233513639
 20
5.6915564102
 30
0.0
 11
1.452755901755129
 21
0.0001809500672376174
 31
0.0
210
0.0
220
0.0
230
1.0
 40
0.5773707408
 41
2.330489965125699
 42
2.340226205734746
  0
LINE
  5
199
330
1F
100
AcDbEntity
  8
0
  6
Continuous
 62
     7
370
    25
100
AcDbLine
 10
12.2227187888
 20
6.2939315312
 30
0.0
 11
12.2227180641
 21
6.3017317521
 31
0.0
  0
ARC
  5
19A
330
1F
100
AcDbEntity
  8
0
  6
Continuous
 62
     7
370
    25
100
AcDbCircle
 10
12.9158774187
 20
5.0621352997
 30
0.0
 40
1.420235633861107
100
AcDbArc
 50
118.3777575665
 51
119.2131113344
  0
LINE
  5
19B
330
1F
100
AcDbEntity
  8
0
  6
Continuous
 62
     7
370
    25
100
AcDbLine
 10
12.2408640056
 20
6.311705685
 30
0.0
 11
12.2408640056
 21
6.2856750694
 31
0.0
  0
ARC
  5
19C
330
1F
100
AcDbEntity
  8
0
  6
Continuous
 62
     7
370
    25
100
AcDbCircle
 10
12.9212265835
 20
5.0262820526
 30
0.0
 40
1.431420276542556
100
AcDbArc
 50
118.3792724274
 51
118.6985744246
  0
LINE
  5
19D
330
1F
100
AcDbEntity
  8
0
  6
Continuous
 62
     7
370
    25
100
AcDbLine
 10
12.2338561718
 20
6.2818639596
 30
0.0
 11
12.2334916177
 21
6.2880575932
 31
0.0
  0
SPLINE
  5
19E
330
1F
100
AcDbEntity
  8
0
  6
Continuous
 62
     7
370
    25
100
AcDbSpline
210
0.0
220
0.0
230
1.0
 70
     8
 71
     3
 72
    10
 73
     6
 74
     0
 42
0.00000001
 43
0.00000001
 40
0.0
 40
0.0
 40
0.0
 40
0.0
 40
0.3211424501690244
 40
0.6423031599228871
 40
1.0
 40
1.0
 40
1.0
 40
1.0
 10
12.22169227457908
 20
6.273952896759165
 30
0.0
 10
12.22319937688133
 20
6.27496011546407
 30
0.0
 10
12.22621366717697
 20
6.276974610142529
 30
0.0
 10
12.23047481178097
 20
6.282011166740888
 30
0.0
 10
12.23245057060557
 20
6.285971076896872
 30
0.0
 10
12.23349161771256
 20
6.28805759320672
 30
0.0
  0
SPLINE
  5
19F
330
1F
100
AcDbEntity
  8
0
  6
Continuous
 62
     7
370
    25
100
AcDbSpline
210
0.0
220
0.0
230
1.0
 70
     8
 71
     3
 72
    12
 73
     8
 74
     0
 42
0.00000001
 43
0.00000001
 40
0.0
 40
0.0
 40
0.0
 40
0.0
 40
0.2893679421779997
 40
0.4933694727724831
 40
0.6981147401454187
 40
0.8871274519614095
 40
1.0
 40
1.0
 40
1.0
 40
1.0
 10
12.20176459680189
 20
6.288173198069549
 30
0.0
 10
12.20202974028163
 20
6.28459675226695
 30
0.0
 10
12.2024818072861
 20
6.278498947628513
 30
0.0
 10
12.20644255071433
 20
6.272868526405358
 30
0.0
 10
12.2116073173309
 20
6.27083144559654
 30
0.0
 10
12.21703820225366
 20
6.271627879498215
 30
0.0
 10
12.22042571131703
 20
6.273320164553809
 30
0.0
 10
12.22169227457908
 20
6.273952896759165
 30
0.0
  0
SPLINE
  5
1A0
330
1F
100
AcDbEntity
  8
0
  6
Continuous
 62
     7
370
    25
100
AcDbSpline
210
0.0
220
0.0
230
1.0
 70
     8
 71
     3
 72
    12
 73
     8
 74
     0
 42
0.00000001
 43
0.00000001
 40
0.0
 40
0.0
 40
0.0
 40
0.0
 40
0.1963360218390121
 40
0.3935986243169199
 40
0.5746658481678577
 40
0.7680508097859677
 40
1.0
 40
1.0
 40
1.0
 40
1.0
 10
12.22169227457909
 20
6.325159753198943
 30
0.0
 10
12.21947897875168
 20
6.323707293045774
 30
0.0
 10
12.21504194175402
 20
6.320795518055083
 30
0.0
 10
12.20930349247567
 20
6.313758482023536
 30
0.0
 10
12.20512126016517
 20
6.305755242142134
 30
0.0
 10
12.20232136047125
 20
6.296925944823229
 30
0.0
 10
12.20196107353268
 20
6.291261961152064
 30
0.0
 10
12.20176459680189
 20
6.288173198069549
 30
0.0
  0
SPLINE
  5
1A1
330
1F
100
AcDbEntity
  8
0
  6
Continuous
 62
     7
370
    25
100
AcDbSpline
210
0.0
220
0.0
230
1.0
 70
     8
 71
     3
 72
    11
 73
     7
 74
     0
 42
0.00000001
 43
0.00000001
 40
0.0
 40
0.0
 40
0.0
 40
0.0
 40
0.3214330871865768
 40
0.5371901904106423
 40
0.7528418101721637
 40
1.0
 40
1.0
 40
1.0
 40
1.0
 10
12.24077189512128
 20
6.318731703284539
 30
0.0
 10
12.23985146897092
 20
6.321301373964843
 30
0.0
 10
12.23831322067389
 20
6.325595897264008
 30
0.0
 10
12.23340448280156
 20
6.328220840284125
 30
0.0
 10
12.2279141075715
 20
6.328141264981397
 30
0.0
 10
12.22385825527269
 20
6.326197694424051
 30
0.0
 10
12.22169227457909
 20
6.325159753198943
 30
0.0
  0
ELLIPSE
  5
1A2
330
1F
100
AcDbEntity
  8
0
  6
Continuous
 62
     7
370
    25
100
AcDbEllipse
 10
13.233513639
 20
5.7064322037
 30
0.0
 11
1.452755904197826
 21
0.0001070229989332816
 31
0.0
210
0.0
220
0.0
230
1.0
 40
0.5773368238
 41
2.323096043023212
 42
2.331328039750334
  0
SPLINE
  5
1A3
330
1F
100
AcDbEntity
  8
0
  6
Continuous
 62
     7
370
    25
100
AcDbSpline
210
0.0
220
0.0
230
1.0
 70
     8
 71
     3
 72
    11
 73
     7
 74
     0
 42
0.00000001
 43
0.00000001
 40
0.0
 40
0.0
 40
0.0
 40
0.0
 40
0.3082189398597598
 40
0.5181066108953921
 40
0.7272613116594626
 40
0.9999999999999999
 40
0.9999999999999999
 40
0.9999999999999999
 40
0.9999999999999999
 10
12.22223607173257
 20
6.317217794232302
 30
0.0
 10
12.22363243178993
 20
6.317878408893828
 30
0.0
 10
12.22597967033808
 20
6.318988881934672
 30
0.0
 10
12.22881757265249
 20
6.318534605436227
 30
0.0
 10
12.23081959485241
 20
6.31688603961551
 30
0.0
 10
12.23162090238454
 20
6.315038244615741
 30
0.0
 10
12.23207442088098
 20
6.313992442378249
 30
0.0
  0
SPLINE
  5
1A4
330
1F
100
AcDbEntity
  8
0
  6
Continuous
 62
     7
370
    25
100
AcDbSpline
210
0.0
220
0.0
230
1.0
 70
     8
 71
     3
 72
    12
 73
     8
 74
     0
 42
0.00000001
 43
0.00000001
 40
0.0
 40
0.0
 40
0.0
 40
0.0
 40
0.2994771820565348
 40
0.5157672397309906
 40
0.6904605516522553
 40
0.8660935935465439
 40
1.0
 40
1.0
 40
1.0
 40
1.0
 10
12.21062874777464
 20
6.293326793380117
 30
0.0
 10
12.21077946133705
 20
6.295853488995443
 30
0.0
 10
12.21103902407748
 20
6.30020502861595
 30
0.0
 10
12.21313445389322
 20
6.306588227254808
 30
0.0
 10
12.21589207464367
 20
6.311574563974832
 30
0.0
 10
12.21906762788622
 20
6.315189815538264
 30
0.0
 10
12.22127930344864
 20
6.316605409797218
 30
0.0
 10
12.22223607173257
 20
6.317217794232302
 30
0.0
  0
SPLINE
  5
1A5
330
1F
100
AcDbEntity
  8
0
  6
Continuous
 62
     7
370
    25
100
AcDbSpline
210
0.0
220
0.0
230
1.0
 70
     8
 71
     3
 72
    12
 73
     8
 74
     0
 42
0.00000001
 43
0.00000001
 40
0.0
 40
0.0
 40
0.0
 40
0.0
 40
0.1648188153105177
 40
0.3303571212818759
 40
0.4859375874146324
 40
0.7166820556312956
 40
1.0
 40
1.0
 40
1.0
 40
1.0
 10
12.22223607173257
 20
6.282577837514255
 30
0.0
 10
12.22105299980709
 20
6.282024764305847
 30
0.0
 10
12.2186816914414
 20
6.280916203534776
 30
0.0
 10
12.21557917267628
 20
6.281166775972082
 30
0.0
 10
12.21294990368814
 20
6.283051290608013
 30
0.0
 10
12.21099539627882
 20
6.287035347701168
 30
0.0
 10
12.21075902199021
 20
6.291091374058182
 30
0.0
 10
12.21062874777464
 20
6.293326793380117
 30
0.0
  0
LINE
  5
1A6
330
1F
100
AcDbEntity
  8
0
  6
Continuous
 62
     7
370
    25
100
AcDbLine
 10
12.2450421369
 20
6.2832630855
 30
0.0
 11
12.2408640056
 21
6.2856750694
 31
0.0
  0
LINE
  5
1A7
330
1F
100
AcDbEntity
  8
0
  6
Continuous
 62
     7
370
    25
100
AcDbLine
 10
12.2380334737
 20
6.2794524546
 30
0.0
 11
12.2338561718
 21
6.2818639596
 31
0.0
  0
LINE
  5
1A8
330
1F
100
AcDbEntity
  8
0
  6
Continuous
 62
     7
370
    25
100
AcDbLine
 10
12.2450421369
 20
6.3092937011
 30
0.0
 11
12.2408640056
 21
6.311705685
 31
0.0
  0
LINE
  5
1A9
330
1F
100
AcDbEntity
  8
0
  6
Continuous
 62
     7
370
    25
100
AcDbLine
 10
12.2216922746
 20
6.2739528968
 30
0.0
 11
12.2258685683
 21
6.2715419737
 31
0.0
  0
LINE
  5
1AA
330
1F
100
AcDbEntity
  8
0
  6
Continuous
 62
     7
370
    25
100
AcDbLine
 10
12.2106287478
 20
6.2933267934
 30
0.0
 11
12.214804613
 21
6.2909161177
 31
0.0
  0
LINE
  5
1AB
330
1F
100
AcDbEntity
  8
0
  6
Continuous
 62
     7
370
    25
100
AcDbLine
 10
12.2268951463
 20
6.2915205716
 30
0.0
 11
12.2227187888
 21
6.2939315312
 31
0.0
  0
LINE
  5
1AC
330
1F
100
AcDbEntity
  8
0
  6
Continuous
 62
     7
370
    25
100
AcDbLine
 10
12.2449500144
 20
6.3163197264
 30
0.0
 11
12.2407718951
 21
6.3187317033
 31
0.0
  0
LINE
  5
1AD
330
1F
100
AcDbEntity
  8
0
  6
Continuous
 62
     7
370
    25
100
AcDbLine
 10
12.2320744209
 20
6.3139924424
 30
0.0
 11
12.2362515405
 21
6.3115810425
 31
0.0
  0
LINE
  5
1AE
330
1F
100
AcDbEntity
  8
0
  6
Continuous
 62
     7
370
    25
100
AcDbLine
 10
12.2222360717
 20
6.3172177942
 30
0.0
 11
12.2264123986
 21
6.3148068521
 31
0.0
  0
ARC
  5
1AF
330
1F
100
AcDbEntity
  8
0
  6
Continuous
 62
     7
370
    25
100
AcDbCircle
 10
12.8702793971
 20
5.163798677
 30
0.0
 40
1.328650060391406
100
AcDbArc
 50
120.2419206344
 51
121.7645758787
  0
LINE
  5
1B0
330
1F
100
AcDbEntity
  8
0
  6
Continuous
 62
     7
370
    25
100
AcDbLine
 10
12.2011019227
 20
6.3035900513
 30
0.0
 11
12.2011019227
 21
6.3116281463
 31
0.0
  0
ARC
  5
1B1
330
1F
100
AcDbEntity
  8
0
  6
Continuous
 62
     7
370
    25
100
AcDbCircle
 10
12.8746872231
 20
5.1483307639
 30
0.0
 40
1.337288741519241
100
AcDbArc
 50
120.2447443478
 51
121.3336442762
  0
LINE
  5
1B2
330
1F
100
AcDbEntity
  8
0
  6
Continuous
 62
     7
370
    25
100
AcDbLine
 10
12.1792693109
 20
6.2805350268
 30
0.0
 11
12.1792693109
 21
6.2905807827
 31
0.0
  0
ARC
  5
1B3
330
1F
100
AcDbEntity
  8
0
  6
Continuous
 62
     7
370
    25
100
AcDbCircle
 10
12.8733576826
 20
5.1404983973
 30
0.0
 40
1.334706778406793
100
AcDbArc
 50
120.3721934337
 51
121.3343043548
  0
LINE
  5
1B4
330
1F
100
AcDbEntity
  8
0
  6
Continuous
 62
     7
370
    25
100
AcDbLine
 10
12.1985097644
 20
6.2920288883
 30
0.0
 11
12.1985097644
 21
6.2839916223
 31
0.0
  0
ARC
  5
1B5
330
1F
100
AcDbEntity
  8
0
  6
Continuous
 62
     7
370
    25
100
AcDbCircle
 10
12.8733576837
 20
5.1324611295
 30
0.0
 40
1.334706780509603
100
AcDbArc
 50
120.3721934341
 51
121.3343043537
  0
LINE
  5
1B6
330
1F
100
AcDbEntity
  8
0
  6
Continuous
 62
     7
370
    25
100
AcDbLine
 10
12.1792693109
 20
6.2724977608
 30
0.0
 11
12.1792693109
 21
6.2584325429
 31
0.0
  0
ARC
  5
1B7
330
1F
100
AcDbEntity
  8
0
  6
Continuous
 62
     7
370
    25
100
AcDbCircle
 10
12.8746872242
 20
5.1161825223
 30
0.0
 40
1.337288743547444
100
AcDbArc
 50
120.2447443483
 51
121.333644275
  0
LINE
  5
1B8
330
1F
100
AcDbEntity
  8
0
  6
Continuous
 62
     7
370
    25
100
AcDbLine
 10
12.2011019227
 20
6.2714418115
 30
0.0
 11
12.2011019227
 21
6.2634053746
 31
0.0
  0
ARC
  5
1B9
330
1F
100
AcDbEntity
  8
0
  6
Continuous
 62
     7
370
    25
100
AcDbCircle
 10
12.8702793972
 20
5.1155759051
 30
0.0
 40
1.328650060572179
100
AcDbArc
 50
120.2419206345
 51
121.7645758785
  0
LINE
  5
1BA
330
1F
100
AcDbEntity
  8
0
  6
Continuous
 62
     7
370
    25
100
AcDbLine
 10
12.1708378353
 20
6.2934413128
 30
0.0
 11
12.1708378353
 21
6.245218541
 31
0.0
  0
LINE
  5
1BB
330
1F
100
AcDbEntity
  8
0
  6
Continuous
 62
     7
370
    25
100
AcDbLine
 10
12.2052778032
 20
6.269031127
 30
0.0
 11
12.2011019227
 21
6.2714418115
 31
0.0
  0
LINE
  5
1BC
330
1F
100
AcDbEntity
  8
0
  6
Continuous
 62
     7
370
    25
100
AcDbLine
 10
12.2052778032
 20
6.26099469
 30
0.0
 11
12.2011019227
 21
6.2634053746
 31
0.0
  0
LINE
  5
1BD
330
1F
100
AcDbEntity
  8
0
  6
Continuous
 62
     7
370
    25
100
AcDbLine
 10
12.1708378353
 20
6.245218541
 30
0.0
 11
12.1750162478
 21
6.2428063948
 31
0.0
  0
LINE
  5
1BE
330
1F
100
AcDbEntity
  8
0
  6
Continuous
 62
     7
370
    25
100
AcDbLine
 10
12.2026857121
 20
6.289618165
 30
0.0
 11
12.1985097644
 21
6.2920288883
 31
0.0
  0
LINE
  5
1BF
330
1F
100
AcDbEntity
  8
0
  6
Continuous
 62
     7
370
    25
100
AcDbLine
 10
12.2026857121
 20
6.281580899
 30
0.0
 11
12.1985097644
 21
6.2839916223
 31
0.0
  0
LINE
  5
1C0
330
1F
100
AcDbEntity
  8
0
  6
Continuous
 62
     7
370
    25
100
AcDbLine
 10
12.1834466257
 20
6.2700862483
 30
0.0
 11
12.1792693109
 21
6.2724977608
 31
0.0
  0
LINE
  5
1C1
330
1F
100
AcDbEntity
  8
0
  6
Continuous
 62
     7
370
    25
100
AcDbLine
 10
12.2052778032
 20
6.3092174618
 30
0.0
 11
12.2011019227
 21
6.3116281463
 31
0.0
  0
LINE
  5
1C2
330
1F
100
AcDbEntity
  8
0
  6
Continuous
 62
     7
370
    25
100
AcDbLine
 10
12.2052778032
 20
6.3011793667
 30
0.0
 11
12.2011019227
 21
6.3035900513
 31
0.0
  0
LINE
  5
1C3
330
1F
100
AcDbEntity
  8
0
  6
Continuous
 62
     7
370
    25
100
AcDbLine
 10
12.1834466257
 20
6.2881692701
 30
0.0
 11
12.1792693109
 21
6.2905807827
 31
0.0
  0
ARC
  5
1C4
330
1F
100
AcDbEntity
  8
0
  6
Continuous
 62
     7
370
    25
100
AcDbCircle
 10
12.8247508434
 20
5.2363132464
 30
0.0
 40
1.243023914430838
100
AcDbArc
 50
122.7058550726
 51
123.7247771455
  0
SPLINE
  5
1C5
330
1F
100
AcDbEntity
  8
0
  6
Continuous
 62
     7
370
    25
100
AcDbSpline
210
0.0
220
0.0
230
1.0
 70
     8
 71
     3
 72
     9
 73
     5
 74
     0
 42
0.00000001
 43
0.00000001
 40
0.0
 40
0.0
 40
0.0
 40
0.0
 40
0.5581803961845414
 40
1.0
 40
1.0
 40
1.0
 40
1.0
 10
12.16069941170768
 20
6.284762020277816
 30
0.0
 10
12.15935619787301
 20
6.284723766753888
 30
0.0
 10
12.15694978259248
 20
6.284655234207438
 30
0.0
 10
12.15428823849231
 20
6.282995809496937
 30
0.0
 10
12.15311231613243
 20
6.282262643128782
 30
0.0
  0
SPLINE
  5
1C6
330
1F
100
AcDbEntity
  8
0
  6
Continuous
 62
     7
370
    25
100
AcDbSpline
210
0.0
220
0.0
230
1.0
 70
     8
 71
     3
 72
    10
 73
     6
 74
     0
 42
0.00000001
 43
0.00000001
 40
0.0
 40
0.0
 40
0.0
 40
0.0
 40
0.3681507711434111
 40
0.7362973978400029
 40
1.0
 40
1.0
 40
1.0
 40
1.0
 10
12.16448842010762
 20
6.277913571414324
 30
0.0
 10
12.16437706234503
 20
6.279150870020905
 30
0.0
 10
12.16415434807346
 20
6.281625453305214
 30
0.0
 10
12.16266457917952
 20
6.283891047752238
 30
0.0
 10
12.16127807143239
 20
6.284505555254296
 30
0.0
 10
12.16069941170768
 20
6.284762020277816
 30
0.0
  0
SPLINE
  5
1C7
330
1F
100
AcDbEntity
  8
0
  6
Continuous
 62
     7
370
    25
100
AcDbSpline
210
0.0
220
0.0
230
1.0
 70
     8
 71
     3
 72
    11
 73
     7
 74
     0
 42
0.00000001
 43
0.00000001
 40
0.0
 40
0.0
 40
0.0
 40
0.0
 40
0.3001000691565725
 40
0.6002091243452093
 40
0.9001092429809016
 40
1.0
 40
1.0
 40
1.0
 40
1.0
 10
12.15903770832491
 20
6.264070410112853
 30
0.0
 10
12.15996162648054
 20
6.265329322866602
 30
0.0
 10
12.1618094904571
 20
6.267847186070295
 30
0.0
 10
12.16367986132863
 20
6.272306894793505
 30
0.0
 10
12.16442298809659
 20
6.275717268514694
 30
0.0
 10
12.16447533967262
 20
6.277474511130852
 30
0.0
 10
12.16448842010762
 20
6.277913571414324
 30
0.0
  0
SPLINE
  5
1C8
330
1F
100
AcDbEntity
  8
0
  6
Continuous
 62
     7
370
    25
100
AcDbSpline
210
0.0
220
0.0
230
1.0
 70
     8
 71
     3
 72
    11
 73
     7
 74
     0
 42
0.00000001
 43
0.00000001
 40
0.0
 40
0.0
 40
0.0
 40
0.0
 40
0.2725817866515143
 40
0.545171793722604
 40
0.8175693686318752
 40
1.0
 40
1.0
 40
1.0
 40
1.0
 10
12.15903770832491
 20
6.264070410112853
 30
0.0
 10
12.16012067182403
 20
6.264104894343514
 30
0.0
 10
12.16228663148189
 20
6.264173863844795
 30
0.0
 10
12.16461945210438
 20
6.262176591664823
 30
0.0
 10
12.16584169873181
 20
6.259270000243863
 30
0.0
 10
12.16591523770498
 20
6.256886871790849
 30
0.0
 10
12.16594473403155
 20
6.255931004009753
 30
0.0
  0
SPLINE
  5
1C9
330
1F
100
AcDbEntity
  8
0
  6
Continuous
 62
     7
370
    25
100
AcDbSpline
210
0.0
220
0.0
230
1.0
 70
     8
 71
     3
 72
    11
 73
     7
 74
     0
 42
0.00000001
 43
0.00000001
 40
0.0
 40
0.0
 40
0.0
 40
0.0
 40
0.2666786099121751
 40
0.5333549089169478
 40
0.8001019226657611
 40
1.0
 40
1.0
 40
1.0
 40
1.0
 10
12.16594473403155
 20
6.255931004009753
 30
0.0
 10
12.16587373298307
 20
6.25443824578514
 30
0.0
 10
12.16573173150137
 20
6.251452742271434
 30
0.0
 10
12.16401642625263
 20
6.246472485463292
 30
0.0
 10
12.16164829782303
 20
6.242130482669862
 30
0.0
 10
12.15974452995351
 20
6.239894196986714
 30
0.0
 10
12.15892900752742
 20
6.238936232964432
 30
0.0
  0
LINE
  5
1CA
330
1F
100
AcDbEntity
  8
0
  6
Continuous
 62
     7
370
    25
100
AcDbLine
 10
12.1589290075
 20
6.238936233
 30
0.0
 11
12.1533727996
 21
6.2342073273
 31
0.0
  0
ARC
  5
1CB
330
1F
100
AcDbEntity
  8
0
  6
Continuous
 62
     7
370
    25
100
AcDbCircle
 10
12.8248901988
 20
5.1878793514
 30
0.0
 40
1.243277061083192
100
AcDbArc
 50
122.6917310916
 51
123.7247110615
  0
LINE
  5
1CC
330
1F
100
AcDbEntity
  8
0
  6
Continuous
 62
     7
370
    25
100
AcDbLine
 10
12.1346188099
 20
6.27015377
 30
0.0
 11
12.1346188099
 21
6.2219312168
 31
0.0
  0
SPLINE
  5
1CD
330
1F
100
AcDbEntity
  8
0
  6
Continuous
 62
     7
370
    25
100
AcDbSpline
210
0.0
220
0.0
230
1.0
 70
     8
 71
     3
 72
    10
 73
     6
 74
     0
 42
0.00000001
 43
0.00000001
 40
0.0
 40
0.0
 40
0.0
 40
0.0
 40
0.2651291045079783
 40
0.6185166078205578
 40
1.0
 40
1.0
 40
1.0
 40
1.0
 10
12.15510174141343
 20
6.255765661361707
 30
0.0
 10
12.15546262362534
 20
6.255700553596277
 30
0.0
 10
12.15630452154501
 20
6.255548664446681
 30
0.0
 10
12.15731632475099
 20
6.254532479184878
 30
0.0
 10
12.15756772417494
 20
6.253246623025073
 30
0.0
 10
12.15769822969044
 20
6.252579114252163
 30
0.0
  0
SPLINE
  5
1CE
330
1F
100
AcDbEntity
  8
0
  6
Continuous
 62
     7
370
    25
100
AcDbSpline
210
0.0
220
0.0
230
1.0
 70
     8
 71
     3
 72
     9
 73
     5
 74
     0
 42
0.00000001
 43
0.00000001
 40
0.0
 40
0.0
 40
0.0
 40
0.0
 40
0.7181535970301991
 40
1.0
 40
1.0
 40
1.0
 40
1.0
 10
12.15115115977391
 20
6.254381683436482
 30
0.0
 10
12.1521369171012
 20
6.254912154386068
 30
0.0
 10
12.15350954453267
 20
6.255650813848026
 30
0.0
 10
12.15475165659623
 20
6.255740409226549
 30
0.0
 10
12.15510174141343
 20
6.255765661361707
 30
0.0
  0
ARC
  5
1CF
330
1F
100
AcDbEntity
  8
0
  6
Continuous
 62
     7
370
    25
100
AcDbCircle
 10
12.8280006723
 20
5.2046759976
 30
0.0
 40
1.249002517748799
100
AcDbArc
 50
122.8138953419
 51
123.2974405824
  0
LINE
  5
1D0
330
1F
100
AcDbEntity
  8
0
  6
Continuous
 62
     7
370
    25
100
AcDbLine
 10
12.1423164234
 20
6.2350589225
 30
0.0
 11
12.1423164234
 21
6.2486321271
 31
0.0
  0
ARC
  5
1D1
330
1F
100
AcDbEntity
  8
0
  6
Continuous
 62
     7
370
    25
100
AcDbCircle
 10
12.828026194
 20
5.1910636965
 30
0.0
 40
1.249049206993769
100
AcDbArc
 50
122.8114096763
 51
123.2974345439
  0
SPLINE
  5
1D2
330
1F
100
AcDbEntity
  8
0
  6
Continuous
 62
     7
370
    25
100
AcDbSpline
210
0.0
220
0.0
230
1.0
 70
     8
 71
     3
 72
     9
 73
     5
 74
     0
 42
0.00000001
 43
0.00000001
 40
0.0
 40
0.0
 40
0.0
 40
0.0
 40
0.651331386016811
 40
1.0
 40
1.0
 40
1.0
 40
1.0
 10
12.15549948360075
 20
6.244989479454295
 30
0.0
 10
12.15460060720967
 20
6.243910779383541
 30
0.0
 10
12.15322054721199
 20
6.242254633074746
 30
0.0
 10
12.15172008563177
 20
6.241204228536813
 30
0.0
 10
12.15119692177226
 20
6.240837985442451
 30
0.0
  0
SPLINE
  5
1D3
330
1F
100
AcDbEntity
  8
0
  6
Continuous
 62
     7
370
    25
100
AcDbSpline
210
0.0
220
0.0
230
1.0
 70
     8
 71
     3
 72
    10
 73
     6
 74
     0
 42
0.00000001
 43
0.00000001
 40
0.0
 40
0.0
 40
0.0
 40
0.0
 40
0.3484435707986848
 40
0.6968803769531874
 40
1.0
 40
1.0
 40
1.0
 40
1.0
 10
12.15773376264675
 20
6.251080020970428
 30
0.0
 10
12.15765660424639
 20
6.25038380459396
 30
0.0
 10
12.1575022889436
 20
6.248991385357288
 30
0.0
 10
12.15666987536027
 20
6.246815110594712
 30
0.0
 10
12.15587109521511
 20
6.245569136419401
 30
0.0
 10
12.15549948360075
 20
6.244989479454295
 30
0.0
  0
SPLINE
  5
1D4
330
1F
100
AcDbEntity
  8
0
  6
Continuous
 62
     7
370
    25
100
AcDbSpline
210
0.0
220
0.0
230
1.0
 70
     8
 71
     3
 72
    10
 73
     6
 74
     0
 42
0.00000001
 43
0.00000001
 40
0.0
 40
0.0
 40
0.0
 40
0.0
 40
0.2505062776362822
 40
0.5010132827252309
 40
1.0
 40
1.0
 40
1.0
 40
1.0
 10
12.15769822969044
 20
6.252579114252163
 30
0.0
 10
12.15770757876602
 20
6.252458354897879
 30
0.0
 10
12.15772627694433
 20
6.252216835838637
 30
0.0
 10
12.15774598714578
 20
6.251721867819978
 30
0.0
 10
12.15773864847632
 20
6.251336551263
 30
0.0
 10
12.15773376264675
 20
6.251080020970428
 30
0.0
  0
ARC
  5
1D5
330
1F
100
AcDbEntity
  8
0
  6
Continuous
 62
     7
370
    25
100
AcDbCircle
 10
12.8282500197
 20
5.2228803992
 30
0.0
 40
1.249458716859224
100
AcDbArc
 50
122.789612558
 51
123.2973802723
  0
LINE
  5
1D6
330
1F
100
AcDbEntity
  8
0
  6
Continuous
 62
     7
370
    25
100
AcDbLine
 10
12.1423164234
 20
6.2561599881
 30
0.0
 11
12.1423164234
 21
6.2672185564
 31
0.0
  0
ARC
  5
1D7
330
1F
100
AcDbEntity
  8
0
  6
Continuous
 62
     7
370
    25
100
AcDbCircle
 10
12.8277560167
 20
5.2125785829
 30
0.0
 40
1.248554998965014
100
AcDbArc
 50
122.8377281995
 51
123.2974969015
  0
SPLINE
  5
1D8
330
1F
100
AcDbEntity
  8
0
  6
Continuous
 62
     7
370
    25
100
AcDbSpline
210
0.0
220
0.0
230
1.0
 70
     8
 71
     3
 72
     9
 73
     5
 74
     0
 42
0.00000001
 43
0.00000001
 40
0.0
 40
0.0
 40
0.0
 40
0.0
 40
0.5901520352141945
 40
1.0
 40
1.0
 40
1.0
 40
1.0
 10
12.15506716260714
 20
6.265985641820943
 30
0.0
 10
12.15425542860086
 20
6.264945214467937
 30
0.0
 10
12.15287996269063
 20
6.26318223257357
 30
0.0
 10
12.15134265854154
 20
6.262078845562303
 30
0.0
 10
12.15071259756477
 20
6.261626624641362
 30
0.0
  0
SPLINE
  5
1D9
330
1F
100
AcDbEntity
  8
0
  6
Continuous
 62
     7
370
    25
100
AcDbSpline
210
0.0
220
0.0
230
1.0
 70
     8
 71
     3
 72
    10
 73
     6
 74
     0
 42
0.00000001
 43
0.00000001
 40
0.0
 40
0.0
 40
0.0
 40
0.0
 40
0.3250849377089295
 40
0.650163871126411
 40
1.0
 40
1.0
 40
1.0
 40
1.0
 10
12.156850373423
 20
6.270857160107167
 30
0.0
 10
12.15680678104484
 20
6.270341968055826
 30
0.0
 10
12.15671959709367
 20
6.269311593468699
 30
0.0
 10
12.15609162342282
 20
6.267556202706998
 30
0.0
 10
12.15541689960577
 20
6.266521809961341
 30
0.0
 10
12.15506716260714
 20
6.265985641820943
 30
0.0
  0
LINE
  5
1DA
330
1F
100
AcDbEntity
  8
0
  6
Continuous
 62
     7
370
    25
100
AcDbLine
 10
12.1568513178
 20
6.2710041645
 30
0.0
 11
12.1568503734
 21
6.2708571601
 31
0.0
  0
SPLINE
  5
1DB
330
1F
100
AcDbEntity
  8
0
  6
Continuous
 62
     7
370
    25
100
AcDbSpline
210
0.0
220
0.0
230
1.0
 70
     8
 71
     3
 72
    10
 73
     6
 74
     0
 42
0.00000001
 43
0.00000001
 40
0.0
 40
0.0
 40
0.0
 40
0.0
 40
0.2500407287068626
 40
0.5000814594583111
 40
1.0
 40
1.0
 40
1.0
 40
1.0
 10
12.15684461339432
 20
6.271414831902771
 30
0.0
 10
12.15684564579895
 20
6.271380919982422
 30
0.0
 10
12.15684771060821
 20
6.271313096141442
 30
0.0
 10
12.15685052834179
 20
6.271176581406444
 30
0.0
 10
12.1568510020327
 20
6.271073126750382
 30
0.0
 10
12.15685131779234
 20
6.271004164471162
 30
0.0
  0
SPLINE
  5
1DC
330
1F
100
AcDbEntity
  8
0
  6
Continuous
 62
     7
370
    25
100
AcDbSpline
210
0.0
220
0.0
230
1.0
 70
     8
 71
     3
 72
    10
 73
     6
 74
     0
 42
0.00000001
 43
0.00000001
 40
0.0
 40
0.0
 40
0.0
 40
0.0
 40
0.2626904665813341
 40
0.6671461508530456
 40
1.0
 40
1.0
 40
1.0
 40
1.0
 10
12.15531939169957
 20
6.27422224806756
 30
0.0
 10
12.15554404277784
 20
6.274103536900456
 30
0.0
 10
12.15611458157245
 20
6.273802050138385
 30
0.0
 10
12.15668896578776
 20
6.272852017859598
 30
0.0
 10
12.15679620218366
 20
6.27186184110292
 30
0.0
 10
12.15684461339432
 20
6.271414831902771
 30
0.0
  0
SPLINE
  5
1DD
330
1F
100
AcDbEntity
  8
0
  6
Continuous
 62
     7
370
    25
100
AcDbSpline
210
0.0
220
0.0
230
1.0
 70
     8
 71
     3
 72
     9
 73
     5
 74
     0
 42
0.00000001
 43
0.00000001
 40
0.0
 40
0.0
 40
0.0
 40
0.0
 40
0.5555500201066209
 40
1.0
 40
1.0
 40
1.0
 40
1.0
 10
12.15159839119909
 20
6.273256359917511
 30
0.0
 10
12.15233661845758
 20
6.273652748405783
 30
0.0
 10
12.15366544076299
 20
6.274366254793913
 30
0.0
 10
12.15481047933103
 20
6.274266558211576
 30
0.0
 10
12.15531939169957
 20
6.27422224806756
 30
0.0
  0
LINE
  5
1DE
330
1F
100
AcDbEntity
  8
0
  6
Continuous
 62
     7
370
    25
100
AcDbLine
 10
12.1701239279
 20
6.2535184067
 30
0.0
 11
12.165944734
 21
6.255931004
 31
0.0
  0
LINE
  5
1DF
330
1F
100
AcDbEntity
  8
0
  6
Continuous
 62
     7
370
    25
100
AcDbLine
 10
12.1631095112
 20
6.2365228795
 30
0.0
 11
12.1589290075
 21
6.238936233
 31
0.0
  0
LINE
  5
1E0
330
1F
100
AcDbEntity
  8
0
  6
Continuous
 62
     7
370
    25
100
AcDbLine
 10
12.1575545025
 20
6.2317932817
 30
0.0
 11
12.1533727996
 21
6.2342073273
 31
0.0
  0
LINE
  5
1E1
330
1F
100
AcDbEntity
  8
0
  6
Continuous
 62
     7
370
    25
100
AcDbLine
 10
12.1346188099
 20
6.2219312168
 30
0.0
 11
12.1388056584
 21
6.2195142006
 31
0.0
  0
SPLINE
  5
1E2
330
1F
100
AcDbEntity
  8
0
  6
Continuous
 62
     7
370
    25
100
AcDbSpline
210
0.0
220
0.0
230
1.0
 70
     8
 71
     3
 72
     9
 73
     5
 74
     0
 42
0.00000001
 43
0.00000001
 40
0.0
 40
0.0
 40
0.0
 40
0.0
 40
0.5055868816551714
 40
1.0
 40
1.0
 40
1.0
 40
1.0
 10
12.1576048981354
 20
6.252909827260553
 30
0.0
 10
12.15723392304141
 20
6.252841774073143
 30
0.0
 10
12.15650017161816
 20
6.252707171713232
 30
0.0
 10
12.15571940439598
 20
6.252212104952707
 30
0.0
 10
12.15533338283895
 20
6.251967337451846
 30
0.0
  0
LINE
  5
1E3
330
1F
100
AcDbEntity
  8
0
  6
Continuous
 62
     7
370
    25
100
AcDbLine
 10
12.1465009504
 20
6.2377954041
 30
0.0
 11
12.1465009504
 21
6.246216451
 31
0.0
  0
ARC
  5
1E4
330
1F
100
AcDbEntity
  8
0
  6
Continuous
 62
     7
370
    25
100
AcDbCircle
 10
12.8293865542
 20
5.2070725279
 30
0.0
 40
1.243443943564674
100
AcDbArc
 50
122.8257341584
 51
123.3113854679
  0
LINE
  5
1E5
330
1F
100
AcDbEntity
  8
0
  6
Continuous
 62
     7
370
    25
100
AcDbLine
 10
12.1568713789
 20
6.2547440714
 30
0.0
 11
12.1551017414
 21
6.2557656614
 31
0.0
  0
LINE
  5
1E6
330
1F
100
AcDbEntity
  8
0
  6
Continuous
 62
     7
370
    25
100
AcDbLine
 10
12.1686678674
 20
6.2755008279
 30
0.0
 11
12.1644884201
 21
6.2779135714
 31
0.0
  0
LINE
  5
1E7
330
1F
100
AcDbEntity
  8
0
  6
Continuous
 62
     7
370
    25
100
AcDbLine
 10
12.1553333828
 20
6.2519673375
 30
0.0
 11
12.1511511598
 21
6.2543816834
 31
0.0
  0
LINE
  5
1E8
330
1F
100
AcDbEntity
  8
0
  6
Continuous
 62
     7
370
    25
100
AcDbLine
 10
12.1423164234
 20
6.2486321271
 30
0.0
 11
12.1465009504
 21
6.246216451
 31
0.0
  0
LINE
  5
1E9
330
1F
100
AcDbEntity
  8
0
  6
Continuous
 62
     7
370
    25
100
AcDbLine
 10
12.1566013923
 20
6.2712341777
 30
0.0
 11
12.1557805077
 21
6.2708420755
 31
0.0
  0
LINE
  5
1EA
330
1F
100
AcDbEntity
  8
0
  6
Continuous
 62
     7
370
    25
100
AcDbLine
 10
12.1465009504
 20
6.2588964696
 30
0.0
 11
12.1465009504
 21
6.2648028804
 31
0.0
  0
ARC
  5
1EB
330
1F
100
AcDbEntity
  8
0
  6
Continuous
 62
     7
370
    25
100
AcDbCircle
 10
12.8296359452
 20
5.2252770553
 30
0.0
 40
1.243900061137762
100
AcDbArc
 50
122.8013459402
 51
123.3113246353
  0
LINE
  5
1EC
330
1F
100
AcDbEntity
  8
0
  6
Continuous
 62
     7
370
    25
100
AcDbLine
 10
12.1557805077
 20
6.2708420755
 30
0.0
 11
12.1515983912
 21
6.2732563599
 31
0.0
  0
LINE
  5
1ED
330
1F
100
AcDbEntity
  8
0
  6
Continuous
 62
     7
370
    25
100
AcDbLine
 10
12.1423164234
 20
6.2672185564
 30
0.0
 11
12.1465009504
 21
6.2648028804
 31
0.0
  0
LWPOLYLINE
  5
1EE
330
1F
100
AcDbEntity
  8
0
  6
Continuous
 62
     7
370
    25
100
AcDbPolyline
 90
       16
 70
   128
 43
0.0
 10
14.1313165403
 20
5.3139712599
 10
14.1892782578
 20
5.3497466588
 10
14.2429712985
 20
5.3876770876
 10
14.2921558563
 20
5.4275931398
 10
14.3366122609
 20
5.4693165407
 10
14.3761419593
 20
5.5126609434
 10
14.4105684022
 20
5.5574327613
 10
14.4397378329
 20
5.6034320327
 10
14.4635199734
 20
5.6504533135
 10
14.4818086071
 20
5.6982865953
 10
14.4945220524
 20
5.7467182431
 10
14.5016035281
 20
5.7955319494
 10
14.5030214064
 20
5.8445097003
 10
14.4987693549
 20
5.8934327493
 10
14.4888663643
 20
5.9420825941
 10
14.4740110483
 20
5.9885206031
  0
LINE
  5
1EF
330
1F
100
AcDbEntity
  8
0
  6
Continuous
 62
     7
370
    25
100
AcDbLine
 10
14.1243568279
 20
5.3099521974
 30
0.0
 11
14.1313165403
 21
5.3139712599
 31
0.0
  0
LWPOLYLINE
  5
1F0
330
1F
100
AcDbEntity
  8
0
  6
Continuous
 62
     7
370
    25
100
AcDbPolyline
 90
       17
 70
   128
 43
0.0
 10
14.1243568279
 20
5.3099521974
 10
14.1818692298
 20
5.3454502675
 10
14.2351460454
 20
5.383086662
 10
14.2839493275
 20
5.4226932875
 10
14.3280611088
 20
5.4640932512
 10
14.3672843754
 20
5.5071016508
 10
14.4014439467
 20
5.5515264003
 10
14.4303872577
 20
5.5971690881
 10
14.4539850406
 20
5.6438258629
 10
14.4721319019
 20
5.6912883441
 10
14.4847467934
 20
5.7393445527
 10
14.4917733739
 20
5.7877798582
 10
14.493180261
 20
5.8363779366
 10
14.4889611711
 20
5.8849217372
 10
14.4791349478
 20
5.9331944515
 10
14.4637454773
 20
5.9809804819
 10
14.450637882
 20
6.0120093174
  0
LWPOLYLINE
  5
1F1
330
1F
100
AcDbEntity
  8
0
  6
Continuous
 62
     7
370
    25
100
AcDbPolyline
 90
       17
 70
   128
 43
0.0
 10
11.9930162297
 20
5.9885206031
 10
11.9852186709
 20
5.9662370902
 10
11.9725052256
 20
5.9178054424
 10
11.9654237499
 20
5.8689917361
 10
11.9640058715
 20
5.8200139852
 10
11.9682579231
 20
5.7710909362
 10
11.9781609137
 20
5.7224410913
 10
11.9936706144
 20
5.6742817325
 10
12.014717755
 20
5.6268279513
 10
12.0412083339
 20
5.5802916877
 10
12.0730240378
 20
5.534880784
 10
12.1100227699
 20
5.4907980563
 10
12.1520392849
 20
5.4482403887
 10
12.198885927
 20
5.4073978542
 10
12.2503534675
 20
5.3684528654
 10
12.3062120401
 20
5.3315793601
 10
12.335564855
 20
5.3140554899
  0
LWPOLYLINE
  5
1F2
330
1F
100
AcDbEntity
  8
0
  6
Continuous
 62
     7
370
    25
100
AcDbPolyline
 90
        3
 70
   128
 43
0.0
 10
11.9721559682
 20
5.9659001405
 10
11.9654237499
 20
5.918820014
 10
11.9638285996
 20
5.8820901206
  0
ARC
  5
1F3
330
1F
100
AcDbEntity
  8
0
  6
Continuous
 62
     7
370
    25
100
AcDbCircle
 10
14.0753086612
 20
5.8818936569
 30
0.0
 40
0.4278900622453649
100
AcDbArc
 50
0.0263070915
 51
11.3222688793
  0
LWPOLYLINE
  5
1F4
330
1F
100
AcDbEntity
  8
0
  6
Continuous
 62
     7
370
    25
100
AcDbPolyline
 90
       41
 70
   128
 43
0.0
 10
12.016389396
 20
6.0120093173
 10
12.0130422374
 20
6.0046241845
 10
11.9948953761
 20
5.9571617033
 10
11.9822804846
 20
5.9091054947
 10
11.9752539041
 20
5.8606701892
 10
11.973847017
 20
5.8120721108
 10
11.9780661069
 20
5.7635283102
 10
11.9878923302
 20
5.7152555959
 10
12.0032818007
 20
5.6674695655
 10
12.0241657851
 20
5.6203836431
 10
12.0504510107
 20
5.5742081257
 10
12.0820200812
 20
5.5291492445
 10
12.1187320014
 20
5.4854082434
 10
12.160422807
 20
5.4431804802
 10
12.2069062968
 20
5.4026545545
 10
12.2579748642
 20
5.3640114648
 10
12.3134004246
 20
5.3274238006
 10
12.3729354339
 20
5.2930549713
 10
12.4363139944
 20
5.2610584763
 10
12.5032530421
 20
5.2315772199
 10
12.5734536109
 20
5.2047428725
 10
12.6466021679
 20
5.1806752827
 10
12.7223720141
 20
5.1594819422
 10
12.8004247429
 20
5.1412575058
 10
12.8804117518
 20
5.126083368
 10
12.9619757994
 20
5.1140273004
 10
13.044752601
 20
5.1051431482
 10
13.1283724551
 20
5.0994705903
 10
13.2124618954
 20
5.0970349615
 10
13.2966453578
 20
5.0978471401
 10
13.3805468586
 20
5.1019034987
 10
13.4637916734
 20
5.1091859205
 10
13.5460080106
 20
5.1196618806
 10
13.6268286721
 20
5.1332845907
 10
13.7058926931
 20
5.1499932085
 10
13.7828469546
 20
5.1697131092
 10
13.8573477602
 20
5.1923562191
 10
13.9290623712
 20
5.2178214084
 10
13.9976704926
 20
5.2459949435
 10
14.0628657041
 20
5.2767509945
 10
14.1243568279
 20
5.3099521974
  0
LWPOLYLINE
  5
1F5
330
1F
100
AcDbEntity
  8
0
  6
Continuous
 62
     8
370
    25
100
AcDbPolyline
 90
       31
 70
   128
 43
0.0
 10
12.2104359142
 20
8.5247690756
 10
12.2766943063
 20
8.5606883625
 10
12.3467288271
 20
8.5941350237
 10
12.4202630825
 20
8.6249770607
 10
12.4970068662
 20
8.6530927538
 10
12.5766573057
 20
8.6783711434
 10
12.6589000571
 20
8.7007124672
 10
12.7434105457
 20
8.7200285542
 10
12.8298552474
 20
8.7362431726
 10
12.9178930043
 20
8.7492923307
 10
13.0071763717
 20
8.7591245294
 10
13.0973529888
 20
8.7657009656
 10
13.1880669699
 20
8.7689956851
 10
13.2789603081
 20
8.7689956851
 10
13.3696742892
 20
8.7657009656
 10
13.4598509063
 20
8.7591245294
 10
13.5491342737
 20
8.7492923307
 10
13.6371720306
 20
8.7362431726
 10
13.7236167323
 20
8.7200285542
 10
13.8081272209
 20
8.7007124672
 10
13.8903699723
 20
8.6783711434
 10
13.9700204118
 20
8.6530927538
 10
14.0467641955
 20
8.6249770607
 10
14.1202984509
 20
8.5941350237
 10
14.1903329717
 20
8.5606883625
 10
14.2565913637
 20
8.5247690756
 10
14.3188121354
 20
8.48651892
 10
14.3767497297
 20
8.4460888517
 10
14.4301754935
 20
8.4036384297
 10
14.4788785796
 20
8.3593351863
 10
14.513408372
 20
8.323665781
  0
ARC
  5
1F6
330
1F
100
AcDbEntity
  8
0
  6
Continuous
 62
     8
370
    25
100
AcDbCircle
 10
12.7453127661
 20
7.5752328449
 30
0.0
 40
1.089822141391929
100
AcDbArc
 50
119.3927028373
 51
135.2362760093
  0
LWPOLYLINE
  5
1F7
330
1F
100
AcDbEntity
  8
0
  6
Continuous
 62
     8
370
    25
100
AcDbPolyline
 90
       36
 70
   128
 43
0.0
 10
14.4970590717
 20
6.2011275144
 10
14.4788785796
 20
6.2193962416
 10
14.4301754935
 20
6.263699485
 10
14.3767497297
 20
6.306149907
 10
14.3188121354
 20
6.3465799753
 10
14.2565913637
 20
6.3848301308
 10
14.1903329717
 20
6.4207494178
 10
14.1202984509
 20
6.454196079
 10
14.0467641955
 20
6.485038116
 10
13.9700204118
 20
6.5131538091
 10
13.8903699723
 20
6.5384321987
 10
13.8081272209
 20
6.5607735225
 10
13.7236167323
 20
6.5800896095
 10
13.6371720306
 20
6.5963042279
 10
13.5491342737
 20
6.609353386
 10
13.4598509063
 20
6.6191855847
 10
13.3696742892
 20
6.6257620209
 10
13.2789603081
 20
6.6290567404
 10
13.1880669699
 20
6.6290567404
 10
13.0973529888
 20
6.6257620209
 10
13.0071763717
 20
6.6191855847
 10
12.9178930043
 20
6.609353386
 10
12.8298552474
 20
6.5963042279
 10
12.7434105457
 20
6.5800896095
 10
12.6589000571
 20
6.5607735225
 10
12.5766573057
 20
6.5384321987
 10
12.4970068662
 20
6.5131538091
 10
12.4202630825
 20
6.485038116
 10
12.3467288271
 20
6.454196079
 10
12.2766943063
 20
6.4207494178
 10
12.2104359142
 20
6.3848301308
 10
12.1482151426
 20
6.3465799753
 10
12.0902775483
 20
6.306149907
 10
12.0368517845
 20
6.263699485
 10
11.9881486984
 20
6.2193962416
 10
11.968448437
 20
6.199550772
  0
OLE2FRAME
  5
1F8
330
1F
100
AcDbEntity
  8
0
100
AcDbOle2Frame
 70
     2
  3
Picture (Enhanced Metafile)
 10
11.2640598822
 20
2.0925019973
 30
0.0
 11
16.3719380133
 21
1.7309273738
 31
0.0
 71
     3
 72
     0
 73
     1
 90
     4224
310
805541185CDB32872640168DE8AF71BD0040000000000000000058636354375F
310
3040168DE8AF71BD0040000000000000000058636354375F30405516E5E6E0B1
310
FB3F000000000000000041185CDB328726405516E5E6E0B1FB3F000000000000
310
0000000000000100000000010000010000000100000000000100000000100000
310
D0CF11E0A1B11AE1000000000000000000000000000000003E000300FEFF0900
310
0600000000000000000000000100000001000000000000000010000002000000
310
01000000FEFFFFFF0000000000000000FFFFFFFFFFFFFFFFFFFFFFFFFFFFFFFF
310
FFFFFFFFFFFFFFFFFFFFFFFFFFFFFFFFFFFFFFFFFFFFFFFFFFFFFFFFFFFFFFFF
310
FFFFFFFFFFFFFFFFFFFFFFFFFFFFFFFFFFFFFFFFFFFFFFFFFFFFFFFFFFFFFFFF
310
FFFFFFFFFFFFFFFFFFFFFFFFFFFFFFFFFFFFFFFFFFFFFFFFFFFFFFFFFFFFFFFF
310
FFFFFFFFFFFFFFFFFFFFFFFFFFFFFFFFFFFFFFFFFFFFFFFFFFFFFFFFFFFFFFFF
310
FFFFFFFFFFFFFFFFFFFFFFFFFFFFFFFFFFFFFFFFFFFFFFFFFFFFFFFFFFFFFFFF
310
FFFFFFFFFFFFFFFFFFFFFFFFFFFFFFFFFFFFFFFFFFFFFFFFFFFFFFFFFFFFFFFF
310
FFFFFFFFFFFFFFFFFFFFFFFFFFFFFFFFFFFFFFFFFFFFFFFFFFFFFFFFFFFFFFFF
310
FFFFFFFFFFFFFFFFFFFFFFFFFFFFFFFFFFFFFFFFFFFFFFFFFFFFFFFFFFFFFFFF
310
FFFFFFFFFFFFFFFFFFFFFFFFFFFFFFFFFFFFFFFFFFFFFFFFFFFFFFFFFFFFFFFF
310
FFFFFFFFFFFFFFFFFFFFFFFFFFFFFFFFFFFFFFFFFFFFFFFFFFFFFFFFFFFFFFFF
310
FFFFFFFFFFFFFFFFFFFFFFFFFFFFFFFFFFFFFFFFFFFFFFFFFFFFFFFFFFFFFFFF
310
FFFFFFFFFFFFFFFFFFFFFFFFFFFFFFFFFFFFFFFFFFFFFFFFFFFFFFFFFFFFFFFF
310
FFFFFFFFFFFFFFFFFFFFFFFFFFFFFFFFFFFFFFFFFFFFFFFFFFFFFFFFFFFFFFFF
310
FDFFFFFFFEFFFFFFFEFFFFFF040000000500000006000000FEFFFFFFFFFFFFFF
310
FFFFFFFFFFFFFFFFFFFFFFFFFFFFFFFFFFFFFFFFFFFFFFFFFFFFFFFFFFFFFFFF
310
FFFFFFFFFFFFFFFFFFFFFFFFFFFFFFFFFFFFFFFFFFFFFFFFFFFFFFFFFFFFFFFF
310
FFFFFFFFFFFFFFFFFFFFFFFFFFFFFFFFFFFFFFFFFFFFFFFFFFFFFFFFFFFFFFFF
310
FFFFFFFFFFFFFFFFFFFFFFFFFFFFFFFFFFFFFFFFFFFFFFFFFFFFFFFFFFFFFFFF
310
FFFFFFFFFFFFFFFFFFFFFFFFFFFFFFFFFFFFFFFFFFFFFFFFFFFFFFFFFFFFFFFF
310
FFFFFFFFFFFFFFFFFFFFFFFFFFFFFFFFFFFFFFFFFFFFFFFFFFFFFFFFFFFFFFFF
310
FFFFFFFFFFFFFFFFFFFFFFFFFFFFFFFFFFFFFFFFFFFFFFFFFFFFFFFFFFFFFFFF
310
FFFFFFFFFFFFFFFFFFFFFFFFFFFFFFFFFFFFFFFFFFFFFFFFFFFFFFFFFFFFFFFF
310
FFFFFFFFFFFFFFFFFFFFFFFFFFFFFFFFFFFFFFFFFFFFFFFFFFFFFFFFFFFFFFFF
310
FFFFFFFFFFFFFFFFFFFFFFFFFFFFFFFFFFFFFFFFFFFFFFFFFFFFFFFFFFFFFFFF
310
FFFFFFFFFFFFFFFFFFFFFFFFFFFFFFFFFFFFFFFFFFFFFFFFFFFFFFFFFFFFFFFF
310
FFFFFFFFFFFFFFFFFFFFFFFFFFFFFFFFFFFFFFFFFFFFFFFFFFFFFFFFFFFFFFFF
310
FFFFFFFFFFFFFFFFFFFFFFFFFFFFFFFFFFFFFFFFFFFFFFFFFFFFFFFFFFFFFFFF
310
FFFFFFFFFFFFFFFFFFFFFFFFFFFFFFFFFFFFFFFFFFFFFFFFFFFFFFFFFFFFFFFF
310
FFFFFFFFFFFFFFFFFFFFFFFFFFFFFFFFFFFFFFFFFFFFFFFFFFFFFFFFFFFFFFFF
310
52006F006F007400200045006E00740072007900000000000000000000000000
310
0000000000000000000000000000000000000000000000000000000000000000
310
16000500FFFFFFFFFFFFFFFF020000001903000000000000C000000000000046
310
00000000000000000000000070B786C33E3ED801030000004007000000000000
310
01004F006C006500000000000000000000000000000000000000000000000000
310
0000000000000000000000000000000000000000000000000000000000000000
310
0A000200FFFFFFFFFFFFFFFFFFFFFFFF00000000000000000000000000000000
310
0000000000000000000000000000000000000000000000001400000000000000
310
010043006F006D0070004F0062006A0000000000000000000000000000000000
310
0000000000000000000000000000000000000000000000000000000000000000
310
120002010100000003000000FFFFFFFF00000000000000000000000000000000
310
0000000000000000000000000000000000000000010000005800000000000000
310
43004F004E00540045004E005400530000000000000000000000000000000000
310
0000000000000000000000000000000000000000000000000000000000000000
310
12000200FFFFFFFFFFFFFFFFFFFFFFFF00000000000000000000000000000000
310
0000000000000000000000000000000000000000030000008006000000000000
310
FEFFFFFF02000000FEFFFFFF0400000005000000060000000700000008000000
310
090000000A0000000B0000000C0000000D0000000E0000000F00000010000000
310
1100000012000000130000001400000015000000160000001700000018000000
310
190000001A0000001B0000001C000000FEFFFFFFFFFFFFFFFFFFFFFFFFFFFFFF
310
FFFFFFFFFFFFFFFFFFFFFFFFFFFFFFFFFFFFFFFFFFFFFFFFFFFFFFFFFFFFFFFF
310
FFFFFFFFFFFFFFFFFFFFFFFFFFFFFFFFFFFFFFFFFFFFFFFFFFFFFFFFFFFFFFFF
310
FFFFFFFFFFFFFFFFFFFFFFFFFFFFFFFFFFFFFFFFFFFFFFFFFFFFFFFFFFFFFFFF
310
FFFFFFFFFFFFFFFFFFFFFFFFFFFFFFFFFFFFFFFFFFFFFFFFFFFFFFFFFFFFFFFF
310
FFFFFFFFFFFFFFFFFFFFFFFFFFFFFFFFFFFFFFFFFFFFFFFFFFFFFFFFFFFFFFFF
310
FFFFFFFFFFFFFFFFFFFFFFFFFFFFFFFFFFFFFFFFFFFFFFFFFFFFFFFFFFFFFFFF
310
FFFFFFFFFFFFFFFFFFFFFFFFFFFFFFFFFFFFFFFFFFFFFFFFFFFFFFFFFFFFFFFF
310
FFFFFFFFFFFFFFFFFFFFFFFFFFFFFFFFFFFFFFFFFFFFFFFFFFFFFFFFFFFFFFFF
310
FFFFFFFFFFFFFFFFFFFFFFFFFFFFFFFFFFFFFFFFFFFFFFFFFFFFFFFFFFFFFFFF
310
FFFFFFFFFFFFFFFFFFFFFFFFFFFFFFFFFFFFFFFFFFFFFFFFFFFFFFFFFFFFFFFF
310
FFFFFFFFFFFFFFFFFFFFFFFFFFFFFFFFFFFFFFFFFFFFFFFFFFFFFFFFFFFFFFFF
310
FFFFFFFFFFFFFFFFFFFFFFFFFFFFFFFFFFFFFFFFFFFFFFFFFFFFFFFFFFFFFFFF
310
0100000200000000000000000000000000000000000000000000000000000000
310
0000000000000000000000000000000000000000000000000000000000000000
310
0100FEFF030A0000FFFFFFFF1903000000000000C0000000000000461C000000
310
506963747572652028456E68616E636564204D65746166696C652900FFFFFFFF
310
0E00000000000000F439B2710000000000000000000000000000000000000000
310
0000000000000000000000000000000000000000000000000000000000000000
310
74000000010000006C000000F1000000330100002C030000620100006B1D0000
310
7A2500001F630000372B000020454D4600000100080600002B00000004000000
310
0D0000005800000000000000000400000003000040010000F000000041006400
310
6F006200650020005300790073007400692600005AF706480100000074000000
310
F1000000330100002C030000620100006B1D00007A2500001F630000372B0000
310
20454D4600000100080600002B000000040000000D0000005800000000000000
310
000400000003000040010000F0000000410064006F0062006500200053007900
310
7300740065006D0073000000110000000C00000008000000120000000C000000
310
010000000A0000001000000000000000000000000C0000001000000000000000
310
00000000090000001000000016140000AD0100000B00000010000000B2060000
310
8F000000130000000C0000000200000027000000180000000100000000000000
310
0000000000000000250000000C000000010000005F0000003400000002000000
310
2C000000000000002C0000000000000005000000000000000000000000000000
310
0000000000000000250000000C000000020000005B00000038000000F0000000
310
320100002D0300006301000001000000050000000500000085092704D3022704
310
D30298038509980385092704130000000C000000020000002700000018000000
310
0300000000000000FFFFFF0000000000250000000C0000000300000028000000
310
0C000000010000003B000000080000001B0000001000000020030000CC030000
310
58000000B8000000FD000000410100000D01000055010000270000002103CE03
310
2203D1032203D4032203D8032103DA032003DC031F03DD031D03DE031B03DF03
310
1E03E0032003E2032203E4032303E6032403E9032403EC032403EF032303F203
310
2103F4032003F6031F03F7031E03F8031C03FA031A03FB031803FB031503FC03
310
1303FC031003FC03F802FC03F802FC03F802FC03F802C603F802C603F802C603
310
1203C6031203C6031203C6031803C7031D03C8032003CC033D00000008000000
310
1B0000001000000003030000D003000058000000640000000001000045010000
310
080100004A010000120000000303DB030303DB030303DB031003DB031003DB03
310
1003DB031203DB031403DB031503DA031703D9031703D8031703D5031703D303
310
1603D1031403D1031303D0031103D0030E03D0033D000000080000001B000000
310
1000000003030000E40300005800000064000000000100004B01000009010000
310
52010000120000000303F3030303F3030303F3031003F3031003F3031003F303
310
1203F3031403F2031503F2031703F0031803EE031803EB031803E8031703E603
310
1503E5031403E5031203E4031003E4033D000000080000003C00000008000000
310
3E000000180000009F8601009F8601006179FEFF6179FEFF130000000C000000
310
020000005B000000580000000D010000410100001C0100005501000001000000
310
0D0000000D0000005003D0033403D0033403DB034D03DB034D03E4033403E403
310
3403F2035103F2035103FC032903FC032903C6035003C6035003D00313000000
310
0C000000020000003B000000080000001B0000001000000079030000D7030000
310
58000000240100001B010000410100002D01000055010000420000007903D303
310
7703D1037303CF037103CF036F03CE036D03CE036903CE036503D0036303D303
310
6003D6035E03DB035E03E2035E03E8036003ED036303F0036603F2036903F403
310
6D03F4037103F4037403F3037603F0037903EE037A03EC037B03E8036E03E803
310
6E03E8036E03E8036E03DF036E03DF036E03DF038503DF038503DF038503DF03
310
8503FC038503FC038503FC037D03FC037D03FC037D03FC037C03F5037C03F503
310
7C03F5037A03F8037803F9037603FA037303FC037003FD036B03FD036403FD03
310
5F03FB035A03F6035503F1035303EA035303E2035303D9035503D2035A03CD03
310
5F03C8036503C5036D03C5037403C5037903C7037D03CA038103CE038403D203
310
8403D7033D000000080000003C000000080000003E000000180000009F860100
310
9F8601006179FEFF6179FEFF130000000C000000020000005B0000005C000000
310
2C010000410100003F01000055010000020000000D0000000900000004000000
310
9A03C603A703C603BA03FC03AE03FC03AA03F1039703F1039303FC038703FC03
310
9A03C6039A03E803A703E803A103D3039A03E803280000000C00000002000000
310
280000000C000000030000000E00000014000000000000001000000014000000
310
0000000000000000000000000000000000000000000000000000000000000000
310
0000000000000000000000000000000000000000000000000000000000000000
310
0000000000000000000000000000000000000000000000000000000000000000
310
0000000000000000000000000000000000000000000000000000000000000000
310
0000000000000000000000000000000000000000000000000000000000000000
310
0000000000000000000000000000000000000000000000000000000000000000
  1
OLE
  0
ENDSEC
  0
SECTION
  2
OBJECTS
  0
DICTIONARY
  5
C
330
0
100
AcDbDictionary
281
     1
  3
ACAD_GROUP
350
D
  3
ACAD_LAYOUT
350
1A
  3
ACAD_MLINESTYLE
350
17
  3
ACAD_PLOTSETTINGS
350
19
  3
ACAD_PLOTSTYLENAME
350
E
  3
ACAD_SCALELIST
350
47
  3
DWGPROPS
350
1F9
  0
DICTIONARY
  5
D
102
{ACAD_REACTORS
330
C
102
}
330
C
100
AcDbDictionary
281
     1
  0
DICTIONARY
  5
1A
102
{ACAD_REACTORS
330
C
102
}
330
C
100
AcDbDictionary
281
     1
  3
Layout1
350
1E
  3
Layout2
350
26
  3
Model
350
22
  0
DICTIONARY
  5
17
102
{ACAD_REACTORS
330
C
102
}
330
C
100
AcDbDictionary
281
     1
  3
Standard
350
18
  0
DICTIONARY
  5
19
102
{ACAD_REACTORS
330
C
102
}
330
C
100
AcDbDictionary
281
     1
  0
ACDBDICTIONARYWDFLT
  5
E
102
{ACAD_REACTORS
330
C
102
}
330
C
100
AcDbDictionary
281
     1
  3
Normal
350
F
100
AcDbDictionaryWithDefault
340
F
  0
DICTIONARY
  5
47
102
{ACAD_REACTORS
330
C
102
}
330
C
100
AcDbDictionary
281
     1
  3
A0
350
48
  3
A1
350
49
  3
A2
350
4A
  3
A3
350
4B
  3
A4
350
4C
  3
A5
350
4D
  3
A6
350
4E
  3
A7
350
4F
  3
A8
350
50
  3
A9
350
51
  3
B0
350
52
  3
B1
350
53
  3
B2
350
54
  3
B3
350
55
  3
B4
350
56
  3
B5
350
57
  3
B6
350
58
  3
B7
350
59
  3
B8
350
5A
  3
B9
350
5B
  3
C0
350
5C
  3
C1
350
5D
  3
C2
350
5E
  3
C3
350
5F
  3
C4
350
60
  3
C5
350
61
  3
C6
350
62
  3
C7
350
63
  3
C8
350
64
  3
C9
350
65
  3
D0
350
66
  3
D1
350
67
  3
D2
350
68
  0
XRECORD
  5
1F9
102
{ACAD_REACTORS
330
C
102
}
330
C
100
AcDbXrecord
280
     1
  1
DWGPROPS COOKIE
  2

  3

  4

  6

  7

  8
rmundstock
  9

300
=
301
=
302
=
303
=
304
=
305
=
306
=
307
=
308
=
309
=
 40
0.0
 41
2459661.949416609
 42
2459661.949417523
  1

 90
        0
  0
LAYOUT
  5
1E
102
{ACAD_REACTORS
330
1A
102
}
330
1A
100
AcDbPlotSettings
  1

  2
none_device
  4

  6

 40
0.0
 41
0.0
 42
0.0
 43
0.0
 44
0.0
 45
0.0
 46
0.0
 47
0.0
 48
0.0
 49
0.0
140
0.0
141
0.0
142
1.0
143
1.0
 70
   688
 72
     0
 73
     0
 74
     5
  7

 75
    16
147
1.0
148
0.0
149
0.0
100
AcDbLayout
  1
Layout1
 70
     1
 71
     1
 10
0.0
 20
0.0
 11
12.0
 21
9.0
 12
0.0
 22
0.0
 32
0.0
 14
1.0000000000E+20
 24
1.0000000000E+20
 34
1.0000000000E+20
 15
-1.0000000000E+20
 25
-1.0000000000E+20
 35
-1.0000000000E+20
146
0.0
 13
0.0
 23
0.0
 33
0.0
 16
1.0
 26
0.0
 36
0.0
 17
0.0
 27
1.0
 37
0.0
 76
     0
330
1B
  0
LAYOUT
  5
26
102
{ACAD_REACTORS
330
1A
102
}
330
1A
100
AcDbPlotSettings
  1

  2
none_device
  4

  6

 40
0.0
 41
0.0
 42
0.0
 43
0.0
 44
0.0
 45
0.0
 46
0.0
 47
0.0
 48
0.0
 49
0.0
140
0.0
141
0.0
142
1.0
143
1.0
 70
   688
 72
     0
 73
     0
 74
     5
  7

 75
    16
147
1.0
148
0.0
149
0.0
100
AcDbLayout
  1
Layout2
 70
     1
 71
     2
 10
0.0
 20
0.0
 11
0.0
 21
0.0
 12
0.0
 22
0.0
 32
0.0
 14
0.0
 24
0.0
 34
0.0
 15
0.0
 25
0.0
 35
0.0
146
0.0
 13
0.0
 23
0.0
 33
0.0
 16
1.0
 26
0.0
 36
0.0
 17
0.0
 27
1.0
 37
0.0
 76
     0
330
23
  0
LAYOUT
  5
22
102
{ACAD_REACTORS
330
1A
102
}
330
1A
100
AcDbPlotSettings
  1

  2
none_device
  4
Letter_(8.50_x_11.00_Inches)
  6

 40
6.35
 41
6.35
 42
6.35000508
 43
6.35000508
 44
215.9
 45
279.4
 46
0.0
 47
0.0
 48
0.0
 49
0.0
140
0.0
141
0.0
142
1.0
143
1.0
 70
  1712
 72
     0
 73
     0
 74
     0
  7

 75
     0
147
1.0
148
0.0
149
0.0
100
AcDbLayout
  1
Model
 70
     1
 71
     0
 10
0.0
 20
0.0
 11
17.0
 21
11.0
 12
0.0
 22
0.0
 32
0.0
 14
0.0
 24
0.0
 34
0.0
 15
17.0
 25
11.0
 35
0.0
146
0.0
 13
0.0
 23
0.0
 33
0.0
 16
1.0
 26
0.0
 36
0.0
 17
0.0
 27
1.0
 37
0.0
 76
     0
330
1F
331
29
  0
MLINESTYLE
  5
18
102
{ACAD_REACTORS
330
17
102
}
330
17
100
AcDbMlineStyle
  2
Standard
 70
     0
  3

 62
   256
 51
90.0
 52
90.0
 71
     2
 49
0.5
 62
   256
  6
BYLAYER
 49
-0.5
 62
   256
  6
BYLAYER
  0
ACDBPLACEHOLDER
  5
F
102
{ACAD_REACTORS
330
E
102
}
330
E
  0
SCALE
  5
48
102
{ACAD_REACTORS
330
47
102
}
330
47
100
AcDbScale
 70
     0
300
1:1
140
1.0
141
1.0
290
     1
  0
SCALE
  5
49
102
{ACAD_REACTORS
330
47
102
}
330
47
100
AcDbScale
 70
     0
300
1:2
140
1.0
141
2.0
290
     0
  0
SCALE
  5
4A
102
{ACAD_REACTORS
330
47
102
}
330
47
100
AcDbScale
 70
     0
300
1:4
140
1.0
141
4.0
290
     0
  0
SCALE
  5
4B
102
{ACAD_REACTORS
330
47
102
}
330
47
100
AcDbScale
 70
     0
300
1:5
140
1.0
141
5.0
290
     0
  0
SCALE
  5
4C
102
{ACAD_REACTORS
330
47
102
}
330
47
100
AcDbScale
 70
     0
300
1:8
140
1.0
141
8.0
290
     0
  0
SCALE
  5
4D
102
{ACAD_REACTORS
330
47
102
}
330
47
100
AcDbScale
 70
     0
300
1:10
140
1.0
141
10.0
290
     0
  0
SCALE
  5
4E
102
{ACAD_REACTORS
330
47
102
}
330
47
100
AcDbScale
 70
     0
300
1:16
140
1.0
141
16.0
290
     0
  0
SCALE
  5
4F
102
{ACAD_REACTORS
330
47
102
}
330
47
100
AcDbScale
 70
     0
300
1:20
140
1.0
141
20.0
290
     0
  0
SCALE
  5
50
102
{ACAD_REACTORS
330
47
102
}
330
47
100
AcDbScale
 70
     0
300
1:30
140
1.0
141
30.0
290
     0
  0
SCALE
  5
51
102
{ACAD_REACTORS
330
47
102
}
330
47
100
AcDbScale
 70
     0
300
1:40
140
1.0
141
40.0
290
     0
  0
SCALE
  5
52
102
{ACAD_REACTORS
330
47
102
}
330
47
100
AcDbScale
 70
     0
300
1:50
140
1.0
141
50.0
290
     0
  0
SCALE
  5
53
102
{ACAD_REACTORS
330
47
102
}
330
47
100
AcDbScale
 70
     0
300
1:100
140
1.0
141
100.0
290
     0
  0
SCALE
  5
54
102
{ACAD_REACTORS
330
47
102
}
330
47
100
AcDbScale
 70
     0
300
2:1
140
2.0
141
1.0
290
     0
  0
SCALE
  5
55
102
{ACAD_REACTORS
330
47
102
}
330
47
100
AcDbScale
 70
     0
300
4:1
140
4.0
141
1.0
290
     0
  0
SCALE
  5
56
102
{ACAD_REACTORS
330
47
102
}
330
47
100
AcDbScale
 70
     0
300
8:1
140
8.0
141
1.0
290
     0
  0
SCALE
  5
57
102
{ACAD_REACTORS
330
47
102
}
330
47
100
AcDbScale
 70
     0
300
10:1
140
10.0
141
1.0
290
     0
  0
SCALE
  5
58
102
{ACAD_REACTORS
330
47
102
}
330
47
100
AcDbScale
 70
     0
300
100:1
140
100.0
141
1.0
290
     0
  0
SCALE
  5
59
102
{ACAD_REACTORS
330
47
102
}
330
47
100
AcDbScale
 70
     0
300
1/128" = 1'-0"
140
0.0078125
141
12.0
290
     0
  0
SCALE
  5
5A
102
{ACAD_REACTORS
330
47
102
}
330
47
100
AcDbScale
 70
     0
300
1/64" = 1'-0"
140
0.015625
141
12.0
290
     0
  0
SCALE
  5
5B
102
{ACAD_REACTORS
330
47
102
}
330
47
100
AcDbScale
 70
     0
300
1/32" = 1'-0"
140
0.03125
141
12.0
290
     0
  0
SCALE
  5
5C
102
{ACAD_REACTORS
330
47
102
}
330
47
100
AcDbScale
 70
     0
300
1/16" = 1'-0"
140
0.0625
141
12.0
290
     0
  0
SCALE
  5
5D
102
{ACAD_REACTORS
330
47
102
}
330
47
100
AcDbScale
 70
     0
300
3/32" = 1'-0"
140
0.09375
141
12.0
290
     0
  0
SCALE
  5
5E
102
{ACAD_REACTORS
330
47
102
}
330
47
100
AcDbScale
 70
     0
300
1/8" = 1'-0"
140
0.125
141
12.0
290
     0
  0
SCALE
  5
5F
102
{ACAD_REACTORS
330
47
102
}
330
47
100
AcDbScale
 70
     0
300
3/16" = 1'-0"
140
0.1875
141
12.0
290
     0
  0
SCALE
  5
60
102
{ACAD_REACTORS
330
47
102
}
330
47
100
AcDbScale
 70
     0
300
1/4" = 1'-0"
140
0.25
141
12.0
290
     0
  0
SCALE
  5
61
102
{ACAD_REACTORS
330
47
102
}
330
47
100
AcDbScale
 70
     0
300
3/8" = 1'-0"
140
0.375
141
12.0
290
     0
  0
SCALE
  5
62
102
{ACAD_REACTORS
330
47
102
}
330
47
100
AcDbScale
 70
     0
300
1/2" = 1'-0"
140
0.5
141
12.0
290
     0
  0
SCALE
  5
63
102
{ACAD_REACTORS
330
47
102
}
330
47
100
AcDbScale
 70
     0
300
3/4" = 1'-0"
140
0.75
141
12.0
290
     0
  0
SCALE
  5
64
102
{ACAD_REACTORS
330
47
102
}
330
47
100
AcDbScale
 70
     0
300
1" = 1'-0"
140
1.0
141
12.0
290
     0
  0
SCALE
  5
65
102
{ACAD_REACTORS
330
47
102
}
330
47
100
AcDbScale
 70
     0
300
1-1/2" = 1'-0"
140
1.5
141
12.0
290
     0
  0
SCALE
  5
66
102
{ACAD_REACTORS
330
47
102
}
330
47
100
AcDbScale
 70
     0
300
3" = 1'-0"
140
3.0
141
12.0
290
     0
  0
SCALE
  5
67
102
{ACAD_REACTORS
330
47
102
}
330
47
100
AcDbScale
 70
     0
300
6" = 1'-0"
140
6.0
141
12.0
290
     0
  0
SCALE
  5
68
102
{ACAD_REACTORS
330
47
102
}
330
47
100
AcDbScale
 70
     0
300
1'-0" = 1'-0"
140
12.0
141
12.0
290
     0
  0
ENDSEC
  0
EOF
